osu file format v14

[General]
AudioFilename: M2U - Memoirs (Shamisen Version) [Audiosurf.mp3
AudioLeadIn: 0
PreviewTime: 60560
Countdown: 0
SampleSet: Soft
StackLeniency: 0.8
Mode: 0
LetterboxInBreaks: 0
WidescreenStoryboard: 1

[Editor]
Bookmarks: 129131,142845
DistanceSpacing: 1.5
BeatDivisor: 4
GridSize: 4
TimelineZoom: 1.5

[Metadata]
Title:Memoirs (Shamisen Version)
TitleUnicode:Memoirs (Shamisen Version)
Artist:M2U
ArtistUnicode:M2U
Creator:Jycool
Version:Normal
Source:
Tags:bakahuang Ethnic Pop Axey folk instrumental
BeatmapID:816057
BeatmapSetID:329212

[Difficulty]
HPDrainRate:3.5
CircleSize:3.5
OverallDifficulty:3.5
ApproachRate:5
SliderMultiplier:1
SliderTickRate:1

[Events]
//Background and Video events
0,0,"12.jpg",0,0
//Break Periods
//Storyboard Layer 0 (Background)
//Storyboard Layer 1 (Fail)
//Storyboard Layer 2 (Pass)
//Storyboard Layer 3 (Foreground)
//Storyboard Layer 4 (Overlay)
//Storyboard Sound Samples

[TimingPoints]
540,428.571428571429,4,2,0,30,1,0
5682,-133.333333333333,4,2,0,40,0,0
11468,-133.333333333333,4,2,0,30,0,0
12540,-133.333333333333,4,1,0,30,0,0
18968,-133.333333333333,4,1,0,40,0,0
19611,-133.333333333333,4,2,0,45,0,0
20040,-133.333333333333,4,1,0,40,0,0
20254,-133.333333333333,4,2,0,50,0,0
21111,-133.333333333333,4,1,0,40,0,0
22397,-133.333333333333,4,2,0,45,0,0
22504,-133.333333333333,4,1,0,40,0,0
23468,-133.333333333333,4,1,0,40,0,0
23682,-133.333333333333,4,2,0,45,0,0
24540,-133.333333333333,4,1,0,40,0,0
25718,-133.333333333333,4,1,0,45,0,0
26254,-133.333333333333,4,1,0,40,0,0
26361,-133.333333333333,4,2,0,45,0,0
26790,-133.333333333333,4,1,0,40,0,0
27004,-133.333333333333,4,2,0,45,0,0
27861,-133.333333333333,4,1,0,40,0,0
28182,-133.333333333333,4,2,0,45,0,0
28504,-133.333333333333,4,1,0,40,0,0
28718,-133.333333333333,4,2,0,45,0,0
29040,-133.333333333333,4,1,0,40,0,0
29147,-133.333333333333,4,1,0,45,0,0
29361,-133.333333333333,4,1,0,40,0,0
29575,-133.333333333333,4,1,0,50,0,0
29897,-133.333333333333,4,1,0,60,0,0
30218,-133.333333333333,4,1,0,40,0,0
30540,-133.333333333333,4,2,0,45,0,0
31611,-133.333333333333,4,2,0,15,0,0
31718,-133.333333333333,4,2,0,55,0,0
32040,-133.333333333333,4,2,0,45,0,0
32361,-133.333333333333,4,2,0,55,0,0
32790,-133.333333333333,4,2,0,75,0,0
33111,-100,4,2,0,60,0,1
33218,-100,4,2,0,80,0,1
38468,-100,4,2,0,70,0,1
39111,-100,4,2,0,60,0,1
39540,-100,4,2,0,80,0,1
39968,-100,4,2,0,60,0,1
40075,-100,4,2,0,80,0,1
45325,-100,4,2,0,70,0,1
45968,-100,4,2,0,80,0,1
46397,-100,4,2,0,90,0,1
46825,-100,4,2,0,60,0,1
46932,-100,4,2,0,80,0,1
52397,-100,4,2,0,85,0,1
57111,-200,4,2,0,85,0,1
58825,-200,4,1,0,50,0,0
59682,-100,4,2,0,70,0,0
60540,-100,4,2,0,85,0,0
62040,-100,4,2,0,55,0,0
62468,-100,4,2,0,85,0,0
63111,-100,4,2,0,85,0,0
63218,-100,4,2,0,95,0,0
63647,-100,4,2,0,85,0,0
66540,-100,4,2,0,95,0,0
66861,-100,4,2,0,85,0,0
68897,-100,4,2,0,55,0,0
69325,-100,4,2,0,85,0,0
71468,-100,4,2,0,55,0,0
71897,-100,4,2,0,85,0,0
75753,-100,4,2,0,65,0,0
76182,-100,4,2,0,85,0,0
77361,-100,4,2,0,95,0,0
77790,-100,4,2,0,85,0,0
79182,-100,4,2,0,85,0,0
79611,-100,4,2,0,85,0,0
86361,-100,4,2,0,75,0,0
86575,-100,4,2,0,85,0,0
87218,-100,4,2,0,95,0,0
87432,-100,4,2,0,85,0,0
87754,-100,4,2,0,85,0,1
112075,-100,4,2,0,10,0,1
112182,-100,4,2,0,20,0,1
112397,-100,4,2,0,30,0,1
112611,-100,4,2,0,40,0,1
112825,-100,4,2,0,5,0,1
113040,-100,4,2,0,65,0,1
113361,-100,4,2,0,85,0,1
114540,-133.333333333333,4,2,0,55,0,1
115397,-133.333333333333,4,2,0,75,0,0
116040,-133.333333333333,4,1,0,30,0,0
116147,-133.333333333333,4,2,0,70,0,0
117004,-133.333333333333,4,1,0,40,0,0
117325,-133.333333333333,4,2,0,40,0,0
117540,-133.333333333333,4,2,0,70,0,0
118290,-133.333333333333,4,2,0,70,0,0
118718,-133.333333333333,4,2,0,80,0,0
119040,-133.333333333333,4,2,0,70,0,0
119254,-133.333333333333,4,2,0,90,0,0
119575,-133.333333333333,4,2,0,70,0,0
120004,-133.333333333333,4,2,0,70,0,0
120325,-133.333333333333,4,2,0,55,0,0
120754,-133.333333333333,4,2,0,45,0,0
121290,-133.333333333333,4,2,0,70,0,0
121718,-133.333333333333,4,2,0,70,0,0
121932,-133.333333333333,4,1,0,30,0,0
122254,-133.333333333333,4,1,0,40,0,0
122361,-133.333333333333,4,2,0,70,0,0
123861,-133.333333333333,4,1,0,40,0,0
124075,-133.333333333333,4,2,0,70,0,0
125040,-133.333333333333,4,1,0,40,0,0
125361,-133.333333333333,4,1,0,40,0,0
125575,-133.333333333333,4,2,0,40,0,0
125790,-133.333333333333,4,2,0,70,0,0
126647,-133.333333333333,4,1,0,30,0,0
126861,-133.333333333333,4,2,0,70,0,0
128147,-133.333333333333,4,2,0,70,0,0
129004,-133.333333333333,4,2,0,60,0,0
129218,-133.333333333333,4,2,0,70,0,0
130718,-133.333333333333,4,1,0,40,0,0
130932,-133.333333333333,4,2,0,70,0,0
132111,-133.333333333333,4,2,0,40,0,0
132754,-133.333333333333,4,2,0,50,0,0
132968,-133.333333333333,4,2,0,70,0,0
133718,-133.333333333333,4,2,0,50,0,0
134254,-133.333333333333,4,2,0,45,0,0
135432,-133.333333333333,4,2,0,70,0,0
135647,-133.333333333333,4,1,0,30,0,0
135968,-133.333333333333,4,1,0,40,0,0
136075,-133.333333333333,4,2,0,70,0,0
137575,-133.333333333333,4,1,0,40,0,0
137790,-133.333333333333,4,2,0,70,0,0
138218,-133.333333333333,4,2,0,40,0,0
138647,-133.333333333333,4,1,0,40,0,0
139075,-133.333333333333,4,1,0,40,0,0
139182,-133.333333333333,4,2,0,60,0,0
139611,-133.333333333333,4,2,0,30,0,0
139825,-133.333333333333,4,2,0,50,0,0
140468,-133.333333333333,4,1,0,40,0,0
140575,-133.333333333333,4,2,0,60,0,0
140897,-133.333333333333,4,2,0,50,0,0
141861,-133.333333333333,4,2,0,40,0,0
142825,-133.333333333333,4,2,0,30,0,1
143254,-133.333333333333,4,2,0,35,0,0

[Colours]
Combo1 : 245,228,194
Combo2 : 175,145,124
Combo3 : 255,182,108

[HitObjects]
60,68,5682,5,4,0:0:0:0:
60,68,5897,2,0,P|99:81|134:69,1,75.0000028610231,2|0,0:0|0:0,0:0:0:0:
172,133,6754,2,0,P|197:158|242:163,1,75.0000028610231,2|0,0:0|0:0,0:0:0:0:
142,282,8040,1,2,0:0:0:0:
203,324,8468,2,0,P|243:341|287:334,1,75.0000028610231,2|0,0:0|0:0,0:0:0:0:
299,268,9325,6,0,P|307:224|331:196,1,75.0000028610231,2|0,0:0|0:0,0:0:0:0:
395,225,10182,2,0,P|437:218|466:183,1,75.0000028610231,2|0,0:0|0:0,0:0:0:0:
383,67,11468,2,0,P|355:47|311:43,1,75.0000028610231,2|0,0:0|0:0,0:0:0:0:
297,75,12111,2,0,P|277:87|253:91,1,37.5000014305115,2|0,0:0|0:0,0:0:0:0:
225,94,12540,6,0,L|205:174,1,75.0000028610231
178,236,13397,2,0,L|94:252,1,75.0000028610231
69,183,14254,2,0,L|85:103,2,75.0000028610231,0|0|0,0:0|1:0|1:0,0:0:0:0:
91,254,15540,1,0,0:0:0:0:
164,232,15968,6,0,L|248:240,1,75.0000028610231
272,172,16825,2,0,L|252:96,2,75.0000028610231
324,324,18968,6,0,L|360:300,1,37.5000014305115
369,268,19397,2,0,L|385:192,1,75.0000028610231,0|2,0:0|2:0,0:0:0:0:
392,157,20040,1,0,0:0:0:0:
357,90,20468,2,0,L|303:100,1,37.5000014305115,2|8,0:0|1:0,0:0:0:0:
246,110,21111,1,0,0:0:0:0:
160,37,21754,1,0,0:0:0:0:
102,84,22182,2,0,L|54:68,2,37.5000014305115,0|8|0,0:0|1:0|0:0,0:0:0:0:
91,120,22825,6,0,P|92:154|99:180,1,56.2500021457673
114,229,23468,1,0,0:0:0:0:
189,227,23897,2,0,L|241:235,1,37.5000014305115,2|8,0:0|1:0,0:0:0:0:
287,276,24540,2,0,P|335:292|403:284,1,112.500004291535
388,211,25611,1,0,0:0:0:0:
388,211,25825,1,8,0:0:0:0:
324,170,26254,6,0,L|300:86,1,75.0000028610231
269,82,26897,1,0,0:0:0:0:
197,104,27325,2,0,L|145:116,1,37.5000014305115,2|8,0:0|1:0,0:0:0:0:
101,160,27968,6,0,P|109:204|125:244,1,75.0000028610231,0|2,0:0|0:0,0:0:0:0:
126,269,28611,1,0,0:0:0:0:
195,297,29040,2,0,L|187:349,2,37.5000014305115,0|8|0,0:0|0:0|0:0,0:0:0:0:
231,287,29682,6,0,P|261:287|291:299,1,56.2500021457673
333,324,30325,1,0,0:0:0:0:
355,252,30754,2,0,L|371:208,2,37.5000014305115,2|8|2,0:0|1:0|0:0,0:0:0:0:
256,196,31611,5,6,0:0:0:0:
256,196,31825,1,2,0:0:0:0:
205,95,32254,2,0,L|253:79,1,37.5000014305115,2|0,0:0|0:0,0:0:0:0:
296,84,32682,2,0,L|344:100,1,37.5000014305115,8|2,2:0|0:0,0:0:0:0:
372,56,33111,6,0,P|416:92|424:152,1,100,4|8,1:0|0:0,0:0:0:0:
412,232,33968,2,0,P|384:224|352:200,1,50,2|0,0:0|0:0,0:0:0:0:
340,172,34397,1,8,0:0:0:0:
296,264,34825,2,0,P|248:264|196:292,1,100,0|8,1:0|0:0,0:0:0:0:
180,332,35468,2,0,P|136:352|76:348,1,100,0|0,1:0|1:0,0:0:0:0:
44,324,36111,1,8,0:0:0:0:
112,248,36540,2,0,P|136:196|128:136,1,100,0|8,1:2|0:0,0:0:0:0:
116,108,37182,1,0,1:0:0:0:
188,40,37611,2,0,L|204:92,1,50,0|8,0:0|0:0,0:0:0:0:
304,96,38254,5,0,1:0:0:0:
328,140,38468,2,0,L|360:192,2,50,0|2|0,0:0|0:0|0:0,0:0:0:0:
320,188,39111,2,0,L|300:256,1,50,2|0,0:0|0:0,0:0:0:0:
268,272,39540,2,0,L|292:332,1,50,2|2,0:0|0:0,0:0:0:0:
320,352,39968,6,0,L|432:352,1,100,4|8,1:0|0:0,0:0:0:0:
436,304,40611,2,0,L|400:200,1,100,0|0,1:0|0:0,0:0:0:0:
380,164,41254,1,8,0:0:0:0:
480,148,41682,2,0,L|444:40,1,100,0|8,1:2|0:0,0:0:0:0:
400,60,42325,2,0,P|356:80|300:76,1,100,0|0,1:0|1:0,0:0:0:0:
260,56,42968,1,8,0:0:0:0:
232,152,43397,2,0,P|180:148|124:168,1,100,0|8,1:2|0:0,0:0:0:0:
92,184,44040,2,0,L|80:132,2,50,0|2|0,1:0|0:0|0:0,0:0:0:0:
104,232,44682,1,8,0:0:0:0:
132,328,45111,5,0,1:0:0:0:
172,296,45325,2,0,L|188:348,2,50,0|2|0,0:0|0:0|0:0,0:0:0:0:
200,256,45968,2,0,L|216:192,1,50,2|0,0:0|0:0,0:0:0:0:
244,168,46397,2,0,L|236:108,1,50,2|2,0:0|0:0,0:0:0:0:
268,76,46825,6,0,P|312:48|376:48,1,100,4|8,1:0|0:0,0:0:0:0:
408,46,47468,1,0,0:0:0:0:
432,89,47682,2,0,P|444:139|451:202,1,100,2|8,0:0|0:0,0:0:0:0:
416,281,48540,2,0,P|371:286|310:258,1,100,0|8,1:2|0:0,0:0:0:0:
272,264,49182,2,0,P|220:268|168:300,1,100,0|0,1:0|1:0,0:0:0:0:
128,280,49825,2,0,L|64:268,1,50,8|0,0:0|0:0,0:0:0:0:
72,220,50254,6,0,L|40:61,2,150,0|0|8,1:2|1:0|0:0,0:0:0:0:
165,164,51968,1,0,1:0:0:0:
255,226,52397,1,8,0:0:0:0:
344,162,52825,1,0,0:0:0:0:
440,223,53254,1,8,0:0:0:0:
433,113,53682,6,0,P|417:59|380:28,1,100,0|8,1:0|0:0,0:0:0:0:
349,69,54325,2,0,P|296:80|240:56,1,100,0|2,1:0|0:0,0:0:0:0:
212,36,54968,1,8,0:0:0:0:
148,112,55397,2,0,P|128:160|136:224,1,100,0|8,1:0|0:0,0:0:0:0:
180,216,56040,2,0,P|188:260|160:320,1,100,0|0,1:0|1:0,0:0:0:0:
120,324,56682,1,8,0:0:0:0:
256,192,57111,12,0,58825,1:0:0:0:
284,212,59682,5,2,0:0:0:0:
208,148,60111,1,8,0:0:0:0:
132,212,60540,6,0,L|52:228,2,75,2|2|2,0:0|0:0|0:0,0:0:0:0:
112,116,61611,1,2,0:0:0:0:
112,116,62040,1,4,0:0:0:0:
160,312,62897,1,0,0:0:0:0:
259,303,63325,2,0,L|324:329,2,50,0|2|0,0:0|0:0|0:0,0:0:0:0:
284,259,63968,6,0,L|327:193,2,75,0|0|2,0:0|0:0|0:0,0:0:0:0:
383,274,65040,1,2,0:0:0:0:
416,180,65468,1,2,0:0:0:0:
346,107,65897,2,0,L|299:59,2,50
318,149,66540,2,0,L|252:176,1,50,2|2,0:0|0:0,0:0:0:0:
223,180,66968,2,0,L|235:232,1,50,8|2,0:0|0:0,0:0:0:0:
236,272,67397,6,0,L|216:352,2,75,2|2|2,0:0|0:0|0:0,0:0:0:0:
136,284,68468,1,2,0:0:0:0:
136,284,68897,1,4,0:0:0:0:
335,260,69754,6,0,L|227:272,1,100,0|2,0:0|0:0,0:0:0:0:
252,224,70397,2,0,L|272:164,1,50,8|2,0:0|0:0,0:0:0:0:
280,128,70825,2,0,L|256:40,2,75,2|2|2,0:0|0:0|0:0,0:0:0:0:
368,80,71897,2,0,L|424:104,1,50,0|8,0:0|0:0,0:0:0:0:
448,192,72540,5,0,0:0:0:0:
353,224,72968,1,8,0:0:0:0:
257,192,73397,2,0,L|274:139,2,50,2|2|8,0:0|0:0|0:0,0:0:0:0:
164,216,74254,6,0,L|116:324,1,100,2|8,0:0|0:0,0:0:0:0:
76,328,74897,1,0,0:0:0:0:
60,228,75325,2,0,L|108:116,1,100,2|4,0:0|0:0,0:0:0:0:
76,92,75968,1,0,0:0:0:0:
176,76,76397,2,0,P|208:76|240:88,1,50,8|0,0:0|0:0,0:0:0:0:
318,117,77040,2,0,L|386:97,2,50,2|8|2,0:0|0:0|0:0,0:0:0:0:
296,162,77682,2,0,P|301:211|312:246,1,75,2|0,0:0|0:0,0:0:0:0:
332,308,78325,2,0,P|284:316|228:352,2,100,2|2|2,0:0|0:0|0:0,0:0:0:0:
429,287,79611,6,0,L|456:344,2,50,2|8|0,0:0|0:0|0:0,0:0:0:0:
408,244,80254,1,2,0:0:0:0:
332,308,80682,1,8,0:0:0:0:
284,220,81111,6,0,L|264:128,2,75,2|0|2,0:0|0:0|0:0,0:0:0:0:
223,299,82182,2,0,L|239:368,2,50,2|8|0,0:0|0:0|0:0,0:0:0:0:
172,308,82825,6,0,L|88:326,2,75,2|0|2,0:0|0:0|0:0,0:0:0:0:
148,212,83897,2,0,L|200:204,2,50,2|8|0,0:0|0:0|0:0,0:0:0:0:
100,196,84540,6,0,L|16:212,2,75,2|0|2,0:0|0:0|0:0,0:0:0:0:
46,73,85825,1,8,0:0:0:0:
145,66,86254,5,2,0:0:0:0:
116,161,86682,1,8,0:0:0:0:
83,252,87111,2,0,L|53:315,2,50,2|0|8,0:0|0:0|0:0,0:0:0:0:
148,327,87968,6,0,P|200:339|252:331,1,100,4|8,1:2|0:0,0:0:0:0:
281,297,88611,2,0,P|261:221|273:141,1,150,0|8,1:0|0:0,0:0:0:0:
323,66,89682,2,0,P|385:71|435:91,1,100,0|8,1:2|0:0,0:0:0:0:
453,120,90325,2,0,P|441:166|437:233,1,100,0|0,1:0|1:0,0:0:0:0:
446,267,90968,1,8,0:0:0:0:
366,327,91397,6,0,P|306:335|250:319,1,100,0|8,1:0|0:0,0:0:0:0:
223,303,92040,2,0,P|231:219|223:147,1,150,0|8,1:0|0:0,0:0:0:0:
137,104,93111,2,0,P|95:102|29:119,1,100,0|8,1:0|0:0,0:0:0:0:
40,164,93754,2,0,P|39:212|60:267,1,100,0|0,1:0|1:0,0:0:0:0:
97,288,94397,1,8,0:0:0:0:
194,308,94825,6,0,P|203:256|190:208,1,100,4|8,1:2|0:0,0:0:0:0:
196,161,95468,2,0,P|246:95|319:66,1,150,0|8,1:2|0:0,0:0:0:0:
369,145,96540,2,0,P|377:193|369:253,1,100,0|8,1:0|0:0,0:0:0:0:
374,293,97182,2,0,P|298:309|222:293,1,150,0|8,1:0|0:0,0:0:0:0:
180,278,98040,1,0,0:0:0:0:
131,288,98254,2,0,P|89:298|54:316,2,75,0|0|0,1:0|1:0|1:0,0:0:0:0:
171,196,99325,1,8,0:0:0:0:
171,196,99540,1,8,0:0:0:0:
137,101,99968,6,0,P|189:60|323:84,1,200,0|2,1:0|0:0,0:0:0:0:
321,176,101254,1,8,0:0:0:0:
238,232,101682,6,0,P|230:280|242:340,1,100,0|8,1:0|0:0,0:0:0:0:
285,346,102325,2,0,P|341:354|393:342,1,100,0|0,1:0|1:0,0:0:0:0:
425,318,102968,1,8,0:0:0:0:
473,230,103397,2,0,P|429:198|377:194,1,100,0|2,1:0|0:0,0:0:0:0:
334,188,104040,2,0,P|324:109|287:39,1,150,0|8,1:0|0:0,0:0:0:0:
192,42,105111,6,0,P|200:94|226:141,1,100,0|8,1:0|0:0,0:0:0:0:
229,185,105754,2,0,P|189:268|131:311,1,150,0|8,1:0|0:0,0:0:0:0:
96,313,106611,1,2,0:0:0:0:
57,281,106825,2,0,P|47:233|60:172,1,100,0|8,1:0|0:0,0:0:0:0:
79,139,107468,2,0,P|123:104|181:92,1,100,0|0,1:0|1:0,0:0:0:0:
214,87,108111,1,8,0:0:0:0:
306,126,108540,6,0,L|263:229,2,100,0|8|0,1:0|0:0|0:0,0:0:0:0:
376,54,109825,1,8,0:0:0:0:
416,145,110254,2,0,L|434:245,2,100,0|8|0,1:0|0:0|0:0,0:0:0:0:
376,54,111540,1,8,0:0:0:0:
256,192,111968,12,0,113682,1:0:0:0:
256,112,114540,5,0,1:0:0:0:
256,188,114968,2,0,B|248:220|264:240|256:264,1,75.0000028610231,8|2,0:0|0:0,0:0:0:0:
156,320,116040,6,0,L|108:332,2,37.5000014305115,4|2|0,1:0|0:0|0:0,0:0:0:0:
140,288,116682,2,0,L|116:240,1,37.5000014305115,8|2,0:0|0:0,0:0:0:0:
96,228,117111,2,0,L|112:164,1,56.2500021457673,0|4,0:0|0:0,0:0:0:0:
56,100,117754,1,2,0:0:0:0:
232,152,118397,6,0,L|284:144,1,37.5000014305115,8|0,0:0|0:0,0:0:0:0:
284,112,118825,2,0,L|300:44,2,56.2500021457673,2|0|2,0:0|0:0|0:0,0:0:0:0:
380,172,120111,1,8,0:0:0:0:
336,232,120540,2,0,L|352:292,2,56.2500021457673,2|0|2,0:0|0:0|0:0,0:0:0:0:
228,260,121825,1,8,0:0:0:0:
228,260,122254,5,4,0:0:0:0:
260,328,122682,2,0,L|308:340,1,37.5000014305115,8|2,0:0|0:0,0:0:0:0:
328,316,123111,2,0,L|360:292,1,37.5000014305115,2|0,0:0|0:0,0:0:0:0:
364,256,123540,2,0,L|368:208,1,37.5000014305115,8|2,0:0|0:0,0:0:0:0:
420,168,124182,6,0,L|408:88,1,75.0000028610231,2|2,0:0|0:0,0:0:0:0:
352,44,125040,2,0,L|292:52,1,56.2500021457673,0|0,0:0|0:0,0:0:0:0:
288,108,125682,2,0,L|224:116,2,56.2500021457673,4|0|2,0:0|0:0|0:0,0:0:0:0:
308,180,126754,2,0,L|296:232,1,37.5000014305115,0|8,0:0|0:0,0:0:0:0:
284,288,127397,5,2,0:0:0:0:
136,316,128254,1,2,0:0:0:0:
208,300,128682,1,8,0:0:0:0:
156,248,129111,5,4,0:0:0:0:
124,140,129754,2,0,L|136:88,2,37.5000014305115,2|0|2,0:0|0:0|0:0,0:0:0:0:
88,156,130396,2,0,L|40:172,1,37.5000014305115,8|2,0:0|0:0,0:0:0:0:
36,204,130825,2,0,L|64:292,1,75.0000028610231,0|8,0:0|0:0,0:0:0:0:
72,312,131468,1,2,0:0:0:0:
176,272,132111,6,0,L|228:280,1,37.5000014305115,8|2,0:0|0:0,0:0:0:0:
236,308,132539,2,0,L|300:292,2,56.2500021457673,0|4|0,0:0|0:0|0:0,0:0:0:0:
316,228,133825,1,8,0:0:0:0:
376,184,134254,6,0,L|316:172,2,56.2500021457673,0|2|0,0:0|0:0|0:0,0:0:0:0:
312,92,135539,1,8,0:0:0:0:
312,92,135968,5,4,0:0:0:0:
384,76,136396,2,0,L|432:96,1,37.5000014305115,8|0,0:0|0:0,0:0:0:0:
432,124,136825,2,0,L|448:172,1,37.5000014305115,2|0,0:0|0:0,0:0:0:0:
412,180,137254,2,0,L|396:224,1,37.5000014305115,8|2,0:0|0:0,0:0:0:0:
336,256,137896,6,0,L|360:336,1,75.0000028610231,2|4,0:0|0:0,0:0:0:0:
284,324,138754,2,0,L|220:340,1,56.2500021457673,0|0,0:0|0:0,0:0:0:0:
176,316,139397,2,0,L|112:304,2,56.2500021457673,2|2|2,0:0|0:0|0:0,0:0:0:0:
204,244,140468,2,0,L|196:196,1,37.5000014305115,0|8,0:0|0:0,0:0:0:0:
184,132,141111,5,2,0:0:0:0:
324,76,141968,1,2,0:0:0:0:
256,104,142396,1,8,0:0:0:0:
312,156,142825,5,4,1:1:0:0:
