osu file format v14

[General]
AudioFilename: audio.mp3
AudioLeadIn: 0
PreviewTime: 49787
Countdown: 0
SampleSet: Soft
StackLeniency: 0.8
Mode: 0
LetterboxInBreaks: 0
WidescreenStoryboard: 1

[Editor]
Bookmarks: 1975,20725,35725,50725,80725,95725,110725,118225,140256,142248
DistanceSpacing: 1.45
BeatDivisor: 4
GridSize: 16
TimelineZoom: 2.899999

[Metadata]
Title:Masquerade
TitleUnicode:Masquerade
Artist:M2U
ArtistUnicode:M2U
Creator:LeCandy
Version:Insane
Source:Cytus
Tags:Cocytus Lambda Chapter VIII ANOTHER ME instrumental classical deetz diodex ktgster shizuku- kazato asa shikibe mayu ayesha altugle
BeatmapID:3954132
BeatmapSetID:1756875

[Difficulty]
HPDrainRate:5
CircleSize:4.4
OverallDifficulty:8
ApproachRate:9
SliderMultiplier:1.68
SliderTickRate:1

[Events]
//Background and Video events
0,0,"lecan.jpg",0,0
//Break Periods
2,110456,117156
//Storyboard Layer 0 (Background)
//Storyboard Layer 1 (Fail)
//Storyboard Layer 2 (Pass)
//Storyboard Layer 3 (Foreground)
//Storyboard Layer 4 (Overlay)
//Storyboard Sound Samples

[TimingPoints]
100,468.75,4,2,1,60,1,0
15451,-100,4,2,1,5,0,0
15568,-100,4,2,1,60,0,0
20607,-100,4,2,1,5,0,0
20725,-100,4,2,1,55,0,0
35725,-100,4,2,1,70,0,0
50256,-125,4,2,1,70,0,0
50607,-125,4,2,1,5,0,0
50725,-83.3333333333333,4,2,1,90,0,0
80725,-250,4,2,1,45,0,0
86350,-200,4,2,1,45,0,0
88225,-166.666666666667,4,2,1,45,0,0
95256,-125,4,2,1,55,0,0
95725,-100,4,2,1,70,0,0
117756,-83.3333333333333,4,2,1,60,0,0
118225,-83.3333333333333,4,2,1,90,0,0

[Colours]
Combo1 : 255,94,55
Combo2 : 173,255,95
Combo3 : 17,254,176
Combo4 : 255,88,100

[HitObjects]
454,121,1330,6,0,P|455:108|458:94,3,21,0|0|0|0,2:0|2:0|2:0|2:3,2:0:0:0:
84,239,1975,6,0,B|139:220|160:261|160:264|156:266|180:309|230:290,1,168,6|8,3:2|2:0,2:0:0:0:
302,329,2678,2,0,P|304:308|311:281,1,42,0|0,2:0|2:0,2:0:0:0:
450,129,2912,6,0,B|395:110|374:151|374:154|378:156|354:199|304:180,1,168,2|8,3:2|2:0,2:0:0:0:
229,211,3615,2,0,P|228:188|220:163,1,42,0|0,2:0|2:0,2:0:0:0:
63,6,3850,6,0,P|157:46|154:130,1,168,2|8,3:2|2:0,2:0:0:0:
67,165,4553,2,0,P|95:160|117:148,1,42,0|0,2:0|2:0,2:0:0:0:
411,236,4787,6,0,P|316:276|319:360,1,168,2|8,3:2|2:0,2:0:0:0:
422,378,5490,2,0,P|394:373|372:361,1,42,0|0,2:0|2:0,2:0:0:0:
123,384,5725,6,0,P|117:299|101:217,1,168,2|8,3:2|2:0,2:0:0:0:
156,300,6428,2,0,P|157:280|161:259,1,42,0|0,2:0|2:0,2:0:0:0:
400,175,6662,6,0,P|406:90|422:8,1,168,2|8,3:2|2:0,2:0:0:0:
367,91,7365,2,0,P|366:71|362:50,1,42,0|0,2:0|2:0,2:0:0:0:
503,241,7600,6,0,B|448:222|427:263|427:266|431:268|407:311|357:292,1,168,2|8,3:2|2:0,2:0:0:0:
278,355,8303,1,2,2:0:0:0:
237,325,8420,1,2,2:0:0:0:
189,308,8537,1,2,3:2:0:0:
138,306,8654,1,0,2:0:0:0:
88,314,8771,2,0,P|80:333|77:354,1,42,2|2,2:0|2:0,2:0:0:0:
45,166,9006,2,0,P|52:146|55:125,1,42,10|0,2:0|2:0,2:0:0:0:
0,257,9240,1,2,2:3:0:0:
0,257,9318,1,2,2:3:0:0:
0,257,9396,1,2,2:3:0:0:
0,257,9475,6,0,P|92:236|197:218,1,168,2|8,3:2|2:0,2:0:0:0:
235,109,10178,1,0,2:0:0:0:
235,109,10295,1,2,2:0:0:0:
235,109,10412,2,0,P|195:93|153:83,1,84,2|0,3:2|2:0,2:0:0:0:
356,36,10881,2,0,P|396:26|435:10,1,84,8|0,2:0|2:0,2:0:0:0:
512,206,11350,6,0,P|467:148|363:141,1,168,2|8,3:2|2:0,2:0:0:0:
301,257,12053,1,0,2:0:0:0:
301,257,12170,1,2,2:0:0:0:
301,257,12287,2,0,P|298:218|287:165,1,84,2|0,3:2|2:0,2:0:0:0:
470,339,12756,2,0,P|461:297|458:255,1,84,8|0,2:0|2:0,2:0:0:0:
193,189,13225,6,0,P|115:159|35:134,1,168,2|8,3:2|2:0,2:0:0:0:
149,83,13928,1,0,2:0:0:0:
149,83,14045,1,2,2:0:0:0:
149,83,14162,2,0,B|182:56|182:56|165:17,1,84,2|0,3:2|2:0,2:0:0:0:
111,156,14631,2,0,B|77:182|77:182|94:221,1,84,8|0,2:0|2:0,2:0:0:0:
0,384,15100,6,0,P|56:362|121:350,1,126,2|0,3:2|2:0,2:0:0:0:
180,285,15568,2,0,P|238:307|300:318,1,126,10|0,2:0|2:0,2:0:0:0:
369,370,16037,1,2,3:2:0:0:
418,361,16154,1,2,2:0:0:0:
449,321,16271,1,2,2:0:0:0:
440,271,16389,1,2,2:0:0:0:
407,231,16506,2,0,P|388:242|369:249,1,42,10|0,2:0|2:0,2:0:0:0:
189,175,16740,2,0,P|208:181|226:192,1,42,2|0,2:0|2:0,2:0:0:0:
291,238,16975,5,6,2:0:0:0:
291,238,17209,1,0,2:0:0:0:
347,118,17443,2,0,P|337:76|335:30,1,84,10|0,2:0|2:0,2:0:0:0:
334,35,17795,1,0,2:0:0:0:
334,35,17912,1,0,2:0:0:0:
427,76,18146,1,2,2:0:0:0:
259,8,18381,5,10,2:0:0:0:
169,71,18615,1,0,2:0:0:0:
78,40,18850,1,0,2:0:0:0:
7,88,19084,6,0,P|5:67|0:46,1,42,2|0,2:0|2:0,2:0:0:0:
85,141,19318,2,0,P|90:161|92:182,1,42,10|0,2:0|2:0,2:0:0:0:
7,277,19553,2,0,P|5:256|0:235,1,42,2|0,2:0|2:0,2:0:0:0:
91,349,19787,1,2,2:0:0:0:
180,309,20021,1,2,2:0:0:0:
180,309,20139,1,2,2:0:0:0:
180,309,20256,2,0,P|230:318|309:338,1,126,10|0,2:0|2:0,2:0:0:0:
411,384,20725,6,0,B|430:329|389:308|386:308|384:312|341:288|360:238,1,168,6|8,2:0|2:0,2:0:0:0:
460,167,21428,1,0,2:0:0:0:
460,167,21545,1,0,2:0:0:0:
460,167,21662,2,0,P|449:208|444:261,1,84,2|0,2:0|2:0,2:0:0:0:
319,143,22131,1,8,2:0:0:0:
251,171,22365,1,0,2:0:0:0:
94,45,22600,6,0,P|74:116|66:208,1,168,2|8,2:0|2:0,2:0:0:0:
25,281,23303,1,2,2:0:0:0:
15,294,23420,1,0,2:0:0:0:
1,290,23537,1,2,2:0:0:0:
130,258,23771,2,0,P|148:267|168:274,1,42,2|0,2:0|2:0,2:0:0:0:
34,379,24006,2,0,P|73:358|115:343,1,84,10|0,2:0|2:0,2:0:0:0:
298,300,24475,6,0,P|335:246|450:264,1,168,2|8,2:0|2:0,2:0:0:0:
512,147,25178,1,2,2:0:0:0:
512,147,25295,1,2,2:0:0:0:
512,147,25412,2,0,P|469:139|419:120,1,84,2|2,2:0|2:0,2:0:0:0:
367,75,25764,1,0,2:0:0:0:
367,75,25881,2,0,P|365:54|361:33,1,42,10|2,2:0|2:0,2:0:0:0:
254,139,26115,2,0,P|249:159|248:180,1,42,2|2,2:0|2:0,2:0:0:0:
67,57,26350,6,0,P|129:67|192:86,1,126,2|0,2:0|2:0,2:0:0:0:
254,139,26818,2,0,B|284:110|284:110|267:70,1,84,10|0,2:0|2:0,2:0:0:0:
189,85,27170,1,0,2:0:0:0:
189,85,27287,1,2,2:0:0:0:
40,174,27521,1,0,2:0:0:0:
28,155,27639,1,0,2:0:0:0:
34,134,27756,1,10,2:0:0:0:
120,141,27990,1,2,2:0:0:0:
0,342,28225,6,0,P|54:352|142:381,1,126,2|0,2:0|2:0,2:0:0:0:
192,337,28693,2,0,P|203:298|178:266,1,84,8|0,2:0|2:0,2:0:0:0:
329,40,29162,2,0,P|311:98|349:145,1,126,2|0,2:0|2:0,2:0:0:0:
429,139,29631,2,0,P|470:146|510:159,1,84,10|2,2:0|2:0,2:0:0:0:
349,278,30100,5,2,2:0:0:0:
227,309,30334,1,2,2:0:0:0:
171,261,30568,1,10,2:0:0:0:
98,272,30803,1,2,2:0:0:0:
10,176,31037,6,0,P|10:92|0:8,1,168,2|8,2:0|2:0,2:0:0:0:
86,125,31740,1,2,2:0:0:0:
160,0,31975,2,0,P|159:83|170:167,1,168,2|8,2:0|2:0,2:0:0:0:
213,259,32678,5,2,2:0:0:0:
248,252,32795,1,2,2:0:0:0:
263,220,32912,1,2,2:0:0:0:
470,384,33146,5,2,2:0:0:0:
452,345,33264,1,0,2:0:0:0:
410,336,33381,1,10,2:0:0:0:
336,169,33615,1,2,2:0:0:0:
260,384,33850,5,2,2:0:0:0:
260,384,34084,2,0,P|264:363|269:343,1,42,2|0,2:0|2:0,2:0:0:0:
158,283,34318,2,0,P|154:262|149:242,1,42,10|0,2:0|2:0,2:0:0:0:
336,169,34553,2,0,P|340:148|345:128,1,42,2|0,2:0|2:0,2:0:0:0:
303,60,34787,1,2,2:0:0:0:
444,17,35021,5,2,2:0:0:0:
423,59,35139,1,2,2:0:0:0:
420,106,35256,1,10,2:0:0:0:
220,37,35490,1,2,2:0:0:0:
220,37,35607,1,2,2:0:0:0:
160,89,35725,6,0,P|119:100|78:111,1,84,6|2,3:2|2:3,2:0:0:0:
222,235,36193,2,0,P|262:245|303:257,1,84,10|2,2:0|2:0,2:0:0:0:
303,257,36545,1,2,2:0:0:0:
303,257,36662,1,2,3:2:0:0:
179,165,36896,1,2,2:3:0:0:
53,324,37131,2,0,P|50:282|43:240,1,84,10|2,2:0|2:0,2:0:0:0:
133,295,37482,1,2,2:0:0:0:
133,295,37600,6,0,P|126:253|124:185,1,84,2|2,3:2|2:3,2:0:0:0:
337,60,38068,2,0,P|344:102|346:170,1,84,10|2,2:0|2:0,2:0:0:0:
277,181,38420,1,2,2:0:0:0:
277,181,38537,2,0,P|273:160|272:139,1,42,2|0,3:2|2:0,2:0:0:0:
212,88,38771,1,2,2:3:0:0:
186,102,38889,1,2,2:0:0:0:
193,130,39006,1,10,2:0:0:0:
385,323,39240,1,0,2:0:0:0:
427,300,39357,1,2,2:0:0:0:
415,254,39475,6,0,P|373:245|314:222,1,84,2|2,3:2|2:3,2:0:0:0:
107,359,39943,2,0,P|146:345|187:336,1,84,10|2,2:0|2:0,2:0:0:0:
274,384,40295,1,2,2:0:0:0:
274,384,40412,2,0,P|266:317|256:250,1,126,2|0,3:2|2:0,2:0:0:0:
183,229,40881,2,0,P|186:208|190:187,1,42,10|2,2:0|2:0,2:0:0:0:
332,144,41115,2,0,P|335:123|338:102,1,42,2|2,2:0|2:0,2:0:0:0:
489,70,41350,5,2,3:2:0:0:
257,146,41584,1,2,2:3:0:0:
489,70,41818,2,0,P|447:84|387:104,1,84,10|0,2:0|2:0,2:0:0:0:
257,146,42170,1,2,2:0:0:0:
257,146,42287,1,2,3:2:0:0:
113,51,42521,2,0,P|125:68|135:86,1,42,2|0,2:0|2:0,2:0:0:0:
71,190,42756,1,10,2:0:0:0:
114,206,42873,1,2,2:0:0:0:
141,242,42990,1,2,2:0:0:0:
146,287,43107,1,2,2:0:0:0:
127,330,43225,6,0,P|189:337|248:357,1,126,2|0,3:2|2:0,2:0:0:0:
321,378,43693,2,0,B|340:341|340:341|308:312,1,84,10|0,2:0|2:0,2:0:0:0:
14,231,44162,2,0,B|-17:202|-17:202|1:165,1,84,2|2,3:2|2:3,2:0:0:0:
1,165,44514,1,0,2:0:0:0:
1,165,44631,1,8,2:0:0:0:
191,209,44865,1,2,2:0:0:0:
246,160,45100,6,0,P|252:97|260:34,1,126,2|0,3:2|2:0,2:0:0:0:
196,0,45568,1,10,2:0:0:0:
154,6,45685,1,2,2:0:0:0:
125,36,45803,1,2,2:0:0:0:
118,77,45920,1,2,2:0:0:0:
136,114,46037,1,2,3:2:0:0:
315,199,46271,5,2,2:3:0:0:
345,176,46389,1,0,2:0:0:0:
381,183,46506,1,10,2:0:0:0:
187,365,46740,5,2,2:0:0:0:
162,383,46857,1,2,2:0:0:0:
133,378,46975,2,0,P|90:334|99:274,1,126,2|2,3:2|2:0,2:0:0:0:
67,207,47443,2,0,P|65:186|60:165,1,42,10|2,2:0|2:0,2:0:0:0:
135,149,47678,2,0,P|140:169|141:190,1,42,2|2,2:0|2:0,2:0:0:0:
365,288,47912,2,0,P|394:257|388:216,1,84,2|2,3:2|2:0,2:0:0:0:
445,167,48264,5,0,2:0:0:0:
445,167,48381,2,0,P|447:146|452:126,1,42,10|2,2:0|2:0,2:0:0:0:
378,109,48615,2,0,P|371:130|371:151,1,42,2|2,2:0|2:0,2:0:0:0:
265,250,48850,5,2,3:2:0:0:
256,177,49084,1,2,2:0:0:0:
265,250,49318,1,10,2:0:0:0:
256,177,49553,1,2,2:0:0:0:
371,327,49787,6,0,P|391:333|411:338,1,42,2|2,3:2|2:0,2:0:0:0:
163,290,50021,1,2,2:0:0:0:
163,290,50139,1,2,2:0:0:0:
163,290,50256,2,0,P|103:311|48:328,1,100.8,10|0,2:0|2:0,2:0:0:0:
287,376,50725,6,0,P|290:351|301:328,1,50.4,6|0,3:2|2:0,2:0:0:0:
222,245,50959,2,0,P|232:267|236:292,1,50.4,2|0,2:3|2:0,2:0:0:0:
467,180,51193,2,0,P|447:236|445:286,1,100.8,10|2,2:0|2:3,2:0:0:0:
408,312,51545,1,2,2:0:0:0:
358,303,51662,1,2,3:2:0:0:
431,85,51896,5,2,2:3:0:0:
395,121,52014,1,2,2:0:0:0:
345,112,52131,1,10,2:0:0:0:
366,40,52365,1,2,2:3:0:0:
86,193,52600,5,2,3:2:0:0:
270,124,52834,1,2,2:3:0:0:
78,196,53068,2,0,P|62:238|56:302,1,100.8,10|2,2:0|2:3,2:0:0:0:
90,331,53420,1,2,2:0:0:0:
138,319,53537,1,2,3:2:0:0:
82,107,53771,5,2,2:3:0:0:
34,119,53889,1,2,2:0:0:0:
0,81,54006,1,10,2:0:0:0:
60,29,54240,1,2,2:3:0:0:
196,257,54475,6,0,P|245:245|295:240,1,100.8,2|2,3:2|2:3,2:0:0:0:
372,162,54826,1,2,2:0:0:0:
372,162,54943,2,0,P|348:168|323:171,1,50.4,10|2,2:0|2:0,2:0:0:0:
236,94,55178,1,2,2:3:0:0:
236,94,55295,1,2,2:0:0:0:
236,94,55412,6,0,B|194:122|194:122|222:164,1,100.8,2|2,3:2|2:3,2:0:0:0:
380,261,55764,1,2,2:0:0:0:
380,261,55881,2,0,B|408:303|408:303|366:331,1,100.8,10|2,2:0|2:3,2:0:0:0:
309,384,56232,1,2,2:0:0:0:
309,384,56350,5,2,3:2:0:0:
250,337,56584,1,2,2:3:0:0:
179,361,56818,2,0,P|128:372|81:384,1,100.8,8|2,2:0|2:3,2:0:0:0:
81,384,57170,1,0,2:0:0:0:
81,384,57287,1,0,3:2:0:0:
201,281,57521,1,2,2:3:0:0:
26,172,57756,6,0,P|38:193|45:217,1,50.4,10|0,2:0|2:0,2:0:0:0:
95,290,57990,2,0,P|102:265|114:243,1,50.4,2|0,2:0|2:0,2:0:0:0:
176,198,58225,5,2,3:2:0:0:
1,276,58459,1,2,2:3:0:0:
181,193,58693,6,0,P|231:199|282:204,1,100.8,10|2,2:0|2:3,2:0:0:0:
328,225,59045,1,2,2:0:0:0:
316,273,59162,1,2,3:2:0:0:
466,75,59396,1,2,2:3:0:0:
420,54,59514,1,2,2:0:0:0:
432,6,59631,1,10,2:0:0:0:
510,10,59865,1,2,2:3:0:0:
341,112,60100,6,0,P|319:99|299:83,1,50.4,2|0,3:2|2:0,2:0:0:0:
152,73,60334,2,0,P|176:65|198:54,1,50.4,2|0,2:3|2:0,2:0:0:0:
266,8,60568,1,10,2:0:0:0:
98,124,60803,5,2,2:3:0:0:
115,181,60920,1,2,2:0:0:0:
123,240,61037,1,2,3:2:0:0:
398,264,61271,5,2,0:3:0:0:
381,321,61388,1,2,2:0:0:0:
373,380,61506,1,10,3:2:0:0:
220,343,61740,5,2,2:3:0:0:
287,318,61857,1,2,2:0:0:0:
215,347,61975,2,0,P|208:296|199:245,1,100.8,2|2,3:2|2:3,2:0:0:0:
260,188,62326,1,2,2:0:0:0:
260,188,62443,2,0,P|283:196|307:203,1,50.4,10|2,2:0|2:0,2:0:0:0:
112,116,62678,2,0,P|88:124|64:131,1,50.4,2|2,2:3|2:0,2:0:0:0:
174,170,62912,5,2,3:2:0:0:
60,53,63146,1,2,2:3:0:0:
178,174,63381,2,0,P|189:125|197:76,1,100.8,10|2,2:0|2:3,2:0:0:0:
297,59,63732,1,2,2:0:0:0:
378,3,63850,6,0,P|459:13|476:97,1,151.2,2|2,3:2|2:0,2:0:0:0:
512,134,64318,2,0,P|506:158|502:183,1,50.4,10|0,2:0|2:0,2:0:0:0:
439,235,64553,1,2,2:0:0:0:
401,203,64670,1,2,2:0:0:0:
424,160,64787,1,2,3:2:0:0:
364,382,65021,6,0,P|341:370|317:363,1,50.4,2|0,3:2|2:0,2:0:0:0:
133,337,65256,2,0,P|157:329|179:318,1,50.4,10|0,2:0|2:0,2:0:0:0:
226,260,65490,1,2,3:2:0:0:
277,300,65607,1,2,3:2:0:0:
245,358,65725,5,6,3:2:0:0:
290,167,65959,1,2,2:3:0:0:
238,360,66193,2,0,P|230:310|220:260,1,100.8,10|2,2:0|2:3,2:0:0:0:
182,227,66545,1,2,2:0:0:0:
134,242,66662,1,2,3:2:0:0:
0,64,66896,5,2,2:3:0:0:
38,97,67014,1,2,2:0:0:0:
86,82,67131,1,10,2:0:0:0:
56,13,67365,1,2,2:3:0:0:
370,28,67600,5,2,3:2:0:0:
163,110,67834,1,2,2:3:0:0:
375,26,68068,2,0,P|365:75|357:125,1,100.8,10|2,2:0|2:3,2:0:0:0:
396,156,68420,1,2,2:0:0:0:
444,141,68537,1,2,3:2:0:0:
263,335,68771,5,2,2:3:0:0:
303,304,68889,1,2,2:0:0:0:
351,319,69006,1,10,3:2:0:0:
316,384,69240,1,2,2:3:0:0:
512,219,69475,6,0,P|464:231|396:247,1,100.8,2|2,3:2|2:3,2:0:0:0:
335,240,69826,1,2,2:0:0:0:
335,240,69943,2,0,P|312:229|282:217,1,50.4,10|2,2:0|2:0,2:0:0:0:
404,108,70178,1,2,2:3:0:0:
404,108,70295,1,2,2:0:0:0:
404,108,70412,6,0,B|435:70|435:70|388:33,1,100.8,2|2,3:2|2:3,2:0:0:0:
153,106,70764,1,2,2:0:0:0:
153,106,70881,2,0,B|122:144|122:144|169:181,1,100.8,10|2,2:0|2:3,2:0:0:0:
232,143,71232,1,2,2:0:0:0:
232,143,71350,5,2,3:2:0:0:
296,170,71584,1,2,2:3:0:0:
335,112,71818,2,0,P|325:59|320:12,1,100.8,8|2,2:0|2:3,2:0:0:0:
320,12,72170,1,0,2:0:0:0:
320,12,72287,1,0,3:2:0:0:
253,64,72521,1,2,2:3:0:0:
349,245,72756,6,0,P|378:233|398:224,1,50.4,10|0,2:0|2:0,2:0:0:0:
180,310,72990,2,0,P|156:299|133:290,1,50.4,2|0,2:0|2:0,2:0:0:0:
290,373,73225,5,2,3:2:0:0:
228,217,73459,1,2,2:3:0:0:
286,377,73693,2,0,P|281:326|275:276,1,100.8,10|2,2:0|2:3,2:0:0:0:
303,234,74045,1,2,2:0:0:0:
352,239,74162,1,2,3:2:0:0:
140,85,74396,5,2,2:3:0:0:
109,125,74514,1,2,2:0:0:0:
61,114,74631,1,10,2:0:0:0:
76,39,74865,1,2,2:3:0:0:
331,162,75100,6,0,P|333:136|337:112,1,50.4,2|0,3:2|2:0,2:0:0:0:
217,1,75334,2,0,P|214:26|210:50,1,50.4,2|0,2:3|2:0,2:0:0:0:
271,87,75568,1,10,2:0:0:0:
173,313,75803,5,2,2:3:0:0:
117,292,75920,1,2,2:0:0:0:
58,283,76037,1,2,3:2:0:0:
347,376,76271,5,2,2:3:0:0:
403,355,76389,1,2,2:0:0:0:
462,346,76506,1,10,3:2:0:0:
230,361,76740,5,2,2:3:0:0:
292,327,76857,1,2,2:0:0:0:
226,365,76975,2,0,B|189:333|189:333|208:284,1,100.8,2|2,3:2|2:3,2:0:0:0:
285,253,77326,1,2,2:0:0:0:
285,253,77443,2,0,P|287:227|292:203,1,50.4,10|2,2:0|2:0,2:0:0:0:
220,156,77678,2,0,P|218:181|212:205,1,50.4,2|2,2:3|2:0,2:0:0:0:
367,212,77912,6,0,B|386:163|386:163|349:131,1,100.8,2|2,3:2|2:3,2:0:0:0:
349,131,78264,1,0,2:0:0:0:
349,131,78381,1,10,2:0:0:0:
171,23,78615,5,2,2:3:0:0:
171,23,78732,1,2,2:0:0:0:
171,23,78850,2,0,P|186:44|197:73,1,50.4,2|0,3:2|2:0,2:0:0:0:
340,0,79084,2,0,P|329:23|325:54,1,50.4,2|0,2:0|2:0,2:0:0:0:
265,93,79318,5,10,2:0:0:0:
255,24,79553,1,2,2:0:0:0:
293,244,79787,6,0,P|298:289|300:344,1,100.8,2|0,3:2|2:0,2:0:0:0:
300,344,80139,1,0,2:0:0:0:
278,169,80256,1,10,3:2:0:0:
278,169,80725,6,0,P|308:166|346:158,1,67.2,2|8,2:3|2:3,2:0:0:0:
344,158,81428,1,0,2:0:0:0:
230,223,81662,6,0,P|200:226|162:234,1,67.2,2|8,2:3|2:3,2:0:0:0:
164,234,82365,1,0,2:0:0:0:
311,262,82600,6,0,P|344:266|377:273,1,67.2,2|8,2:3|2:3,2:0:0:0:
378,274,83303,1,0,2:0:0:0:
203,122,83537,6,0,P|169:117|136:110,1,67.2,2|8,2:3|2:3,2:0:0:0:
137,111,84240,1,0,2:0:0:0:
331,106,84475,6,0,B|356:124|356:124|342:158,1,67.2,2|8,2:3|2:3,2:0:0:0:
343,157,85178,1,0,2:0:0:0:
175,284,85412,6,0,B|149:265|149:265|163:231,1,67.2,2|8,2:3|2:3,2:0:0:0:
163,233,86115,1,0,2:0:0:0:
282,303,86350,6,0,P|292:334|299:364,1,63,2|0,2:3|2:0,2:0:0:0:
369,384,86818,2,0,P|371:373|374:363,1,21,2|0,2:3|2:0,2:0:0:0:
449,329,87053,1,2,2:3:0:0:
449,329,87170,1,2,2:3:0:0:
449,329,87287,2,0,P|442:298|432:268,1,63,2|0,2:3|2:0,2:0:0:0:
497,229,87756,2,0,P|503:248|507:269,1,42,8|2,2:3|2:3,2:0:0:0:
429,180,88107,5,0,2:0:0:0:
429,180,88225,2,0,P|421:138|455:103,1,75.5999999999999,2|0,2:3|2:0,2:0:0:0:
437,112,88693,1,8,2:3:0:0:
512,81,88928,1,2,2:3:0:0:
371,11,89162,6,0,P|336:7|281:-4,1,75.5999999999999,2|0,2:3|2:0,2:0:0:0:
296,0,89631,1,8,2:3:0:0:
240,57,89865,1,2,2:3:0:0:
124,18,90100,6,0,P|145:32|171:44,1,50.3999999999999,2|0,2:3|2:0,2:0:0:0:
0,189,90451,2,0,P|30:167|65:152,1,75.5999999999999,2|2,2:3|2:3,2:0:0:0:
133,126,90881,2,0,P|135:117|136:109,2,16.8,2|2|2,2:3|2:3|2:3,2:0:0:0:
189,178,91154,1,2,2:3:0:0:
227,149,91271,1,10,2:3:0:0:
274,141,91389,1,2,2:3:0:0:
320,153,91506,2,0,P|327:186|326:246,1,75.5999999999999,10|2,2:3|2:3,2:0:0:0:
396,273,91975,6,0,B|432:309|432:309|409:353,1,100.8,2|8,2:3|2:3,2:0:0:0:
339,322,92678,1,2,2:3:0:0:
137,384,92912,6,0,B|101:348|101:348|123:303,1,100.8,2|8,2:3|2:3,2:0:0:0:
192,333,93615,1,2,2:3:0:0:
272,384,93850,6,0,P|267:346|261:309,1,75.5999999999999,2|0,2:3|2:0,2:0:0:0:
395,209,94318,2,0,P|399:246|405:283,1,75.5999999999999,10|2,2:3|2:3,2:0:0:0:
315,255,94787,5,2,2:3:0:0:
293,249,94865,1,2,2:3:0:0:
272,243,94943,1,2,2:3:0:0:
250,238,95021,1,2,2:3:0:0:
228,234,95100,1,2,2:3:0:0:
206,231,95178,1,2,2:3:0:0:
184,227,95256,2,0,P|183:211|181:194,1,33.6,10|2,2:0|2:0,2:0:0:0:
322,123,95490,2,0,P|320:106|319:89,1,33.6,2|2,2:0|2:0,2:0:0:0:
160,13,95725,6,0,P|225:44|228:131,1,168,6|10,3:2|2:0,2:0:0:0:
111,179,96428,1,2,2:0:0:0:
111,179,96545,1,2,2:0:0:0:
111,179,96662,2,0,P|69:170|29:158,1,84,2|2,3:2|2:3,2:0:0:0:
85,316,97131,2,0,P|105:320|125:326,1,42,10|2,2:0|2:0,2:0:0:0:
190,384,97365,1,2,2:0:0:0:
190,384,97482,1,2,2:0:0:0:
190,384,97600,6,0,B|218:353|218:353|202:314,1,84,2|2,3:2|2:3,2:0:0:0:
280,298,97951,1,2,2:0:0:0:
280,298,98068,2,0,P|318:284|372:266,1,84,10|0,2:0|2:0,2:0:0:0:
359,270,98420,1,2,2:0:0:0:
359,270,98537,1,2,3:2:0:0:
478,153,98771,1,2,2:0:0:0:
393,111,99006,2,0,B|364:80|364:80|380:41,1,84,10|2,2:0|2:0,2:0:0:0:
192,0,99475,6,0,P|199:42|204:84,1,84,2|2,3:2|2:3,2:0:0:0:
277,124,99826,1,2,2:0:0:0:
277,124,99943,2,0,P|284:165|289:207,1,84,10|2,2:0|2:0,2:0:0:0:
269,239,100295,1,2,2:0:0:0:
231,237,100412,1,2,3:2:0:0:
143,356,100646,1,2,2:3:0:0:
110,375,100764,1,2,2:0:0:0:
73,367,100881,2,0,P|68:325|60:283,1,84,10|2,2:0|2:0,2:0:0:0:
0,175,101350,5,2,3:2:0:0:
39,160,101467,1,2,2:0:0:0:
80,163,101584,1,2,2:3:0:0:
118,182,101701,1,2,2:0:0:0:
144,214,101818,1,10,2:0:0:0:
170,245,101935,1,2,2:0:0:0:
208,264,102053,1,2,2:3:0:0:
249,267,102170,1,2,2:0:0:0:
287,253,102287,6,0,P|290:239|292:225,3,28,2|2|2|2,3:2|2:0|2:0|2:3,2:0:0:0:
354,317,102639,1,2,2:0:0:0:
354,317,102756,2,0,P|360:275|369:234,1,84,10|2,2:0|2:3,2:0:0:0:
512,56,103225,6,0,P|479:73|427:99,1,84,2|2,3:2|2:3,2:0:0:0:
377,128,103576,1,2,2:0:0:0:
377,128,103693,1,10,2:0:0:0:
264,39,103928,1,2,2:0:0:0:
10,0,104162,6,0,P|38:23|84:59,1,84,2|2,3:2|2:3,2:0:0:0:
127,98,104514,1,2,2:0:0:0:
127,98,104631,1,10,2:0:0:0:
39,152,104865,1,2,2:3:0:0:
176,291,105100,6,0,P|180:311|183:332,1,42,2|0,3:2|2:0,2:0:0:0:
240,223,105334,2,0,P|244:243|247:264,1,42,2|0,2:0|2:0,2:0:0:0:
320,284,105568,2,0,P|324:304|327:325,1,42,10|0,2:0|2:0,2:0:0:0:
261,384,105803,1,2,2:0:0:0:
261,384,105920,1,2,2:0:0:0:
261,384,106037,5,2,3:2:0:0:
296,134,106271,1,2,2:0:0:0:
239,86,106506,2,0,P|236:48|228:1,1,84,10|2,2:0|2:0,2:0:0:0:
310,66,106857,1,2,2:0:0:0:
310,66,106975,2,0,B|351:51|367:82|367:84|364:86|382:118|419:104,1,126,2|2,3:2|2:0,2:0:0:0:
494,92,107443,5,10,2:0:0:0:
494,138,107560,1,2,2:0:0:0:
463,172,107678,1,2,2:0:0:0:
417,178,107795,1,2,2:0:0:0:
372,164,107912,6,0,P|364:184|360:205,1,42,2|2,3:2|2:0,2:0:0:0:
302,284,108146,2,0,P|297:263|290:243,1,42,2|2,2:3|2:0,2:0:0:0:
219,193,108381,5,10,2:0:0:0:
177,196,108498,1,2,2:0:0:0:
135,204,108615,1,2,2:0:0:0:
95,216,108732,1,2,2:0:0:0:
57,233,108850,5,2,3:2:0:0:
0,187,109084,1,2,2:0:0:0:
130,67,109318,1,10,2:0:0:0:
290,176,109553,1,2,2:0:0:0:
326,112,109787,6,0,P|365:120|412:131,1,84,2|0,3:2|2:0,2:0:0:0:
408,130,110139,1,0,2:0:0:0:
261,73,110256,1,10,3:2:0:0:
318,32,117756,6,0,P|306:53|299:77,1,50.4,2|0,2:0|2:0,2:0:0:0:
245,140,117990,2,0,P|238:115|226:93,1,50.4,2|0,2:0|2:0,2:0:0:0:
162,53,118225,5,6,3:2:0:0:
362,117,118459,1,2,2:3:0:0:
157,47,118693,6,0,P|103:35|56:18,1,100.8,10|2,2:0|2:3,2:0:0:0:
14,41,119045,1,2,2:0:0:0:
24,90,119162,1,2,3:2:0:0:
189,250,119396,1,2,2:3:0:0:
235,228,119514,1,2,2:0:0:0:
225,179,119631,1,10,2:0:0:0:
148,181,119865,1,2,2:3:0:0:
330,270,120100,6,0,P|307:280|283:287,1,50.4,2|0,3:2|2:0,2:0:0:0:
189,365,120334,2,0,P|211:354|235:347,1,50.4,2|0,2:3|2:0,2:0:0:0:
298,384,120568,1,10,2:0:0:0:
379,198,120803,5,2,2:3:0:0:
387,139,120920,1,2,2:0:0:0:
404,82,121037,1,2,3:2:0:0:
110,130,121271,5,2,2:3:0:0:
102,71,121389,1,2,2:0:0:0:
85,14,121506,1,10,3:2:0:0:
277,32,121740,5,2,2:3:0:0:
210,57,121857,1,2,2:0:0:0:
282,28,121975,2,0,B|320:57|320:57|298:105,1,100.8,2|2,3:2|2:3,2:0:0:0:
235,143,122326,1,2,2:0:0:0:
235,143,122443,2,0,P|212:135|188:128,1,50.4,10|2,2:0|2:0,2:0:0:0:
342,253,122678,2,0,P|366:245|390:238,1,50.4,2|2,2:3|2:0,2:0:0:0:
279,207,122912,5,2,3:2:0:0:
138,324,123146,1,2,2:3:0:0:
274,211,123381,2,0,P|266:260|263:318,1,100.8,10|2,2:0|2:3,2:0:0:0:
224,373,123732,1,2,2:0:0:0:
330,339,123850,6,0,B|379:321|398:358|398:360|394:362|416:401|460:384,1,151.2,2|2,3:2|2:0,2:0:0:0:
497,320,124318,2,0,P|493:295|486:270,1,50.4,10|0,2:0|2:0,2:0:0:0:
433,221,124553,1,2,2:0:0:0:
466,185,124670,1,2,2:0:0:0:
512,201,124787,1,2,3:2:0:0:
225,22,125021,6,0,P|233:45|239:70,1,50.4,2|0,3:2|2:0,2:0:0:0:
363,182,125256,2,0,P|368:157|377:133,1,50.4,10|0,3:2|2:0,2:0:0:0:
307,103,125490,1,2,3:2:0:0:
262,150,125607,1,2,3:2:0:0:
199,128,125725,5,6,3:2:0:0:
369,189,125959,1,2,2:3:0:0:
193,125,126193,2,0,P|144:140|96:154,1,100.8,10|2,2:0|2:3,2:0:0:0:
46,161,126545,1,2,2:0:0:0:
19,118,126662,1,2,3:2:0:0:
116,288,126896,5,2,2:3:0:0:
166,280,127014,1,2,2:0:0:0:
193,323,127131,1,10,2:0:0:0:
128,364,127365,1,2,2:3:0:0:
364,264,127600,5,2,3:2:0:0:
247,379,127834,1,2,2:3:0:0:
369,272,128068,2,0,P|417:286|465:301,1,100.8,10|2,2:0|2:3,2:0:0:0:
511,280,128420,1,2,2:0:0:0:
503,229,128537,1,2,3:2:0:0:
392,96,128771,5,2,2:3:0:0:
346,75,128889,1,2,2:0:0:0:
354,24,129006,1,10,3:2:0:0:
430,29,129240,1,2,2:3:0:0:
229,114,129475,6,0,P|237:158|248:223,1,100.8,2|2,3:2|2:3,2:0:0:0:
328,192,129826,1,2,2:0:0:0:
328,192,129943,2,0,P|323:221|318:248,1,50.4,10|2,2:0|2:0,2:0:0:0:
139,292,130178,1,2,2:3:0:0:
139,292,130295,1,2,2:0:0:0:
139,292,130412,6,0,B|108:330|108:330|155:367,1,100.8,2|2,3:2|2:3,2:0:0:0:
381,384,130764,1,2,2:0:0:0:
381,384,130881,2,0,B|412:346|412:346|365:309,1,100.8,10|2,2:0|2:3,2:0:0:0:
310,283,131232,1,2,2:0:0:0:
310,283,131350,5,2,3:2:0:0:
256,324,131584,1,2,2:3:0:0:
195,291,131818,2,0,P|153:277|92:258,1,100.8,8|2,2:0|2:3,2:0:0:0:
99,260,132170,1,0,2:0:0:0:
99,260,132287,1,0,3:2:0:0:
195,177,132521,1,2,2:3:0:0:
156,15,132756,6,0,P|162:39|168:63,1,50.4,10|0,2:0|2:0,2:0:0:0:
319,121,132990,2,0,P|324:96|331:72,1,50.4,2|0,2:0|2:0,2:0:0:0:
249,21,133225,5,2,3:2:0:0:
302,192,133459,1,2,2:3:0:0:
254,25,133693,2,0,P|247:77|243:126,1,100.8,10|2,2:0|2:3,2:0:0:0:
206,160,134045,1,2,2:0:0:0:
157,146,134162,1,2,3:2:0:0:
398,307,134396,5,2,2:3:0:0:
435,342,134514,1,2,2:0:0:0:
484,328,134631,1,10,2:0:0:0:
455,259,134865,1,2,2:3:0:0:
172,346,135100,6,0,P|166:321|159:298,1,50.4,2|0,3:2|2:0,2:0:0:0:
305,354,135334,2,0,P|314:329|326:308,1,50.4,2|0,2:3|2:0,2:0:0:0:
236,384,135568,1,10,2:0:0:0:
85,264,135803,5,2,2:3:0:0:
57,209,135920,1,2,2:0:0:0:
101,167,136037,1,2,3:2:0:0:
384,109,136271,5,2,2:3:0:0:
428,67,136389,1,2,2:0:0:0:
400,12,136506,1,10,3:2:0:0:
250,83,136740,5,2,2:3:0:0:
319,54,136857,1,2,2:0:0:0:
254,79,136975,2,0,P|246:128|239:178,1,100.8,2|2,3:2|2:3,2:0:0:0:
168,220,137326,1,2,2:0:0:0:
168,220,137443,2,0,P|166:194|161:170,1,50.4,10|2,2:0|2:0,2:0:0:0:
294,240,137678,2,0,P|301:215|312:193,1,50.4,2|2,2:3|2:0,2:0:0:0:
178,303,137912,6,0,B|225:285|225:285|264:318,1,100.8,2|2,3:2|2:3,2:0:0:0:
263,317,138264,1,0,2:0:0:0:
263,317,138381,1,10,2:0:0:0:
477,243,138615,5,2,2:3:0:0:
477,243,138732,1,2,2:0:0:0:
477,243,138850,2,0,P|452:256|416:271,1,50.4,2|0,3:2|2:0,2:0:0:0:
460,333,139084,2,0,P|483:343|505:354,1,50.4,2|0,2:0|2:0,2:0:0:0:
384,207,139318,2,0,P|391:183|400:159,1,50.4,10|0,2:0|2:0,2:0:0:0:
226,103,139553,1,2,2:0:0:0:
226,103,139670,1,0,2:0:0:0:
226,103,139787,6,0,P|211:53|191:5,1,100.8,2|0,3:2|2:0,2:0:0:0:
192,8,140139,1,0,2:0:0:0:
255,177,140256,1,2,3:2:0:0:
