osu file format v14

[General]
AudioFilename: audio.mp3
AudioLeadIn: 0
PreviewTime: -1
Countdown: 0
SampleSet: None
StackLeniency: 0.7
Mode: 1
LetterboxInBreaks: 0
WidescreenStoryboard: 0

[Editor]
DistanceSpacing: 1
BeatDivisor: 4
GridSize: 32
TimelineZoom: 2.7

[Metadata]
Title:Marionette
TitleUnicode:Marionette
Artist:M2U
ArtistUnicode:M2U
Creator:[_Chichinya_]
Version:Scenario
Source:
Tags:
BeatmapID:1826182
BeatmapSetID:873692

[Difficulty]
HPDrainRate:5
CircleSize:5
OverallDifficulty:5
ApproachRate:5
SliderMultiplier:1.4
SliderTickRate:1

[Events]
//Background and Video events
0,0,"Marisa-Kirisame-Nitori-Kawashiro-anime-girls.jpg",0,70
//Break Periods
//Storyboard Layer 0 (Background)
//Storyboard Layer 1 (Fail)
//Storyboard Layer 2 (Pass)
//Storyboard Layer 3 (Foreground)
//Storyboard Sound Samples

[TimingPoints]
333,333.333333333333,4,1,0,30,1,0
5666,-25,4,1,0,50,0,0
5832,-100,4,1,0,50,0,0
6166,-25,4,1,0,50,0,0
6499,-100,4,1,0,50,0,0
6832,-25,4,1,0,50,0,0
6999,-25,4,1,0,50,0,0
7166,-100,4,1,0,50,0,0
7499,-25,4,1,0,50,0,0
7832,-100,4,1,0,50,0,0
8332,-25,4,1,0,50,0,0
8499,-100,4,1,0,50,0,0
8832,-25,4,1,0,50,0,0
9166,-100,4,1,0,50,0,0
9666,-25,4,1,0,50,0,0
9832,-25,4,1,0,50,0,0
9999,-100,4,1,0,50,0,0
10166,-25,4,1,0,50,0,0
10499,-100,4,1,0,50,0,0
10999,-25,4,1,0,50,0,0
11166,-100,4,1,0,50,0,0
11499,-25,4,1,0,50,0,0
11832,-100,4,1,0,50,0,0
12166,-25,4,1,0,50,0,0
12332,-25,4,1,0,50,0,0
12499,-100,4,1,0,50,0,0
12832,-25,4,1,0,50,0,0
13166,-100,4,1,0,50,0,0
13666,-25,4,1,0,50,0,0
13832,-100,4,1,0,50,0,0
14166,-25,4,1,0,50,0,0
14499,-100,4,1,0,50,0,0
14999,-25,4,1,0,50,0,0
15166,-25,4,1,0,50,0,0
15332,-100,4,1,0,50,0,0
15499,-25,4,1,0,50,0,0
15832,-100,4,1,0,50,0,0
16332,-25,4,1,0,50,0,0
16499,-100,4,1,0,50,0,0
17666,-40,4,1,0,50,0,0
17832,-33.3333333333333,4,1,0,50,0,0
17999,-28.5714285714286,4,1,0,50,0,0
18166,-25,4,1,0,50,0,0
18499,-100,4,1,0,50,0,0
18999,-25,4,1,0,50,0,0
19166,-100,4,1,0,50,0,0
20332,-40,4,1,0,50,0,0
20498,-33.3333333333333,4,1,0,50,0,0
20665,-28.5714285714286,4,1,0,50,0,0
20832,-25,4,1,0,50,0,0
21165,-100,4,1,0,50,0,0
21665,-25,4,1,0,50,0,0
21832,-100,4,1,0,50,0,0
22999,-40,4,1,0,50,0,0
23166,-33.3333333333333,4,1,0,50,0,0
23249,-30.7692307692308,4,1,0,50,0,0
23332,-28.5714285714286,4,1,0,50,0,0
23499,-25,4,1,0,50,0,0
23832,-100,4,1,0,50,0,0
24332,-25,4,1,0,50,0,0
24499,-100,4,1,0,50,0,0
25666,-40,4,1,0,50,0,0
25832,-33.3333333333333,4,1,0,50,0,0
25999,-28.5714285714286,4,1,0,50,0,0
26166,-25,4,1,0,50,0,0
26499,-100,4,1,0,50,0,0
26999,-40,4,1,0,50,0,0
27165,-33.3333333333333,4,1,0,50,0,0
27332,-28.5714285714286,4,1,0,50,0,0
27499,-25,4,1,0,50,0,0
27832,-100,4,1,0,50,0,0
28332,-105.263157894737,4,1,0,45,0,0
28499,-111.111111111111,4,1,0,40,0,0
28666,-117.647058823529,4,1,0,35,0,0
28832,-125,4,1,0,30,0,0
29166,-133.333333333333,4,1,0,25,0,0
29249,-142.857142857143,4,1,0,20,0,0
29332,-153.846153846154,4,1,0,15,0,0
29499,-166.666666666667,4,1,0,10,0,0
29832,-181.818181818182,4,1,0,10,0,0
29916,-200,4,1,0,10,0,0
29999,-222.222222222222,4,1,0,10,0,0
30166,-250,4,1,0,10,0,0
30499,-285.714285714286,4,1,0,10,0,0
30666,-25,4,1,0,100,0,0
30999,-100,4,1,0,50,0,1
40332,-100,4,1,0,50,0,0
41665,-100,4,1,0,50,0,1
50998,-100,4,1,0,50,0,0
66997,-100,4,1,0,50,0,1
76330,-100,4,1,0,50,0,0
77663,-100,4,1,0,50,0,1
86996,-100,4,1,0,50,0,0
88332,-100,4,1,0,30,0,0

[Colours]
Combo1 : 255,0,255
Combo2 : 255,0,0
Combo3 : 253,114,11
Combo4 : 255,255,0
Combo5 : 0,255,64
Combo6 : 0,0,255

[HitObjects]
256,192,333,5,0,0:0:0:0:
256,192,499,1,8,0:0:0:0:
256,192,666,1,0,0:0:0:0:
256,192,832,1,8,0:0:0:0:
256,192,999,1,8,0:0:0:0:
256,192,1166,1,0,0:0:0:0:
256,192,1332,1,8,0:0:0:0:
256,192,1499,1,0,0:0:0:0:
256,192,1666,1,8,0:0:0:0:
256,192,1832,1,0,0:0:0:0:
256,192,1916,1,8,0:0:0:0:
256,192,1999,1,0,0:0:0:0:
256,192,2166,1,8,0:0:0:0:
256,192,2332,1,8,0:0:0:0:
256,192,2499,1,0,0:0:0:0:
256,192,2666,1,8,0:0:0:0:
256,192,2832,1,0,0:0:0:0:
256,192,2999,1,8,0:0:0:0:
256,192,3166,1,8,0:0:0:0:
256,192,3332,1,0,0:0:0:0:
256,192,3499,1,0,0:0:0:0:
256,192,3666,1,8,0:0:0:0:
256,192,3832,1,0,0:0:0:0:
256,192,3999,1,8,0:0:0:0:
256,192,4166,1,0,0:0:0:0:
256,192,4332,1,0,0:0:0:0:
256,192,4499,1,8,0:0:0:0:
256,192,4582,1,0,0:0:0:0:
256,192,4666,1,8,0:0:0:0:
256,192,4832,1,0,0:0:0:0:
256,192,4999,1,8,0:0:0:0:
256,192,5332,1,8,0:0:0:0:
256,192,5360,1,8,0:0:0:0:
256,192,5666,1,4,0:0:0:0:
256,192,5832,1,8,0:0:0:0:
256,192,5916,1,8,0:0:0:0:
256,192,5999,1,0,0:0:0:0:
256,192,6166,1,4,0:0:0:0:
256,192,6499,1,8,0:0:0:0:
256,192,6666,1,8,0:0:0:0:
256,192,6832,1,4,0:0:0:0:
256,192,6999,1,4,0:0:0:0:
256,192,7166,1,8,0:0:0:0:
256,192,7249,1,8,0:0:0:0:
256,192,7332,1,0,0:0:0:0:
256,192,7499,1,4,0:0:0:0:
256,192,7832,1,8,0:0:0:0:
256,192,7916,1,0,0:0:0:0:
256,192,7999,1,8,0:0:0:0:
256,192,8166,1,8,0:0:0:0:
256,192,8332,1,4,0:0:0:0:
256,192,8499,1,8,0:0:0:0:
256,192,8582,1,8,0:0:0:0:
256,192,8666,1,0,0:0:0:0:
256,192,8832,1,4,0:0:0:0:
256,192,9166,1,8,0:0:0:0:
256,192,9332,1,8,0:0:0:0:
256,192,9499,1,8,0:0:0:0:
256,192,9582,1,8,0:0:0:0:
256,192,9666,1,4,0:0:0:0:
256,192,9832,1,4,0:0:0:0:
256,192,9999,1,8,0:0:0:0:
256,192,10166,1,4,0:0:0:0:
256,192,10499,1,8,0:0:0:0:
256,192,10666,1,0,0:0:0:0:
256,192,10832,1,8,0:0:0:0:
256,192,10999,1,4,0:0:0:0:
256,192,11166,1,8,0:0:0:0:
256,192,11249,1,0,0:0:0:0:
256,192,11332,1,8,0:0:0:0:
256,192,11499,1,4,0:0:0:0:
256,192,11832,1,0,0:0:0:0:
256,192,11999,1,8,0:0:0:0:
256,192,12166,1,4,0:0:0:0:
256,192,12332,1,4,0:0:0:0:
256,192,12499,1,8,0:0:0:0:
256,192,12582,1,0,0:0:0:0:
256,192,12666,1,8,0:0:0:0:
256,192,12832,1,4,0:0:0:0:
256,192,13166,1,8,0:0:0:0:
256,192,13332,1,8,0:0:0:0:
256,192,13499,1,0,0:0:0:0:
256,192,13666,1,4,0:0:0:0:
256,192,13832,1,8,0:0:0:0:
256,192,13916,1,0,0:0:0:0:
256,192,13999,1,8,0:0:0:0:
256,192,14166,1,4,0:0:0:0:
256,192,14499,1,8,0:0:0:0:
256,192,14666,1,8,0:0:0:0:
256,192,14832,1,8,0:0:0:0:
256,192,14916,1,8,0:0:0:0:
256,192,14999,1,4,0:0:0:0:
256,192,15166,1,4,0:0:0:0:
256,192,15332,1,8,0:0:0:0:
256,192,15499,1,4,0:0:0:0:
256,192,15832,1,8,0:0:0:0:
256,192,15999,1,8,0:0:0:0:
256,192,16166,1,0,0:0:0:0:
256,192,16332,1,4,0:0:0:0:
256,192,16499,1,8,0:0:0:0:
256,192,16582,1,8,0:0:0:0:
256,192,16666,1,0,0:0:0:0:
256,192,16832,1,8,0:0:0:0:
256,192,16999,1,0,0:0:0:0:
256,192,17166,1,8,0:0:0:0:
256,192,17249,1,0,0:0:0:0:
256,192,17332,1,8,0:0:0:0:
256,192,17499,1,0,0:0:0:0:
256,192,17666,1,4,0:0:0:0:
256,192,17832,1,4,0:0:0:0:
256,192,17999,1,12,0:0:0:0:
256,192,18166,1,4,0:0:0:0:
256,192,18499,1,8,0:0:0:0:
256,192,18582,1,8,0:0:0:0:
256,192,18666,1,0,0:0:0:0:
256,192,18749,1,8,0:0:0:0:
256,192,18832,1,0,0:0:0:0:
256,192,18916,1,8,0:0:0:0:
256,192,18999,1,4,0:0:0:0:
256,192,19166,1,8,0:0:0:0:
256,192,19332,1,8,0:0:0:0:
256,192,19499,1,0,0:0:0:0:
256,192,19666,1,8,0:0:0:0:
256,192,19832,1,0,0:0:0:0:
256,192,19999,1,8,0:0:0:0:
256,192,20082,1,8,0:0:0:0:
256,192,20166,1,0,0:0:0:0:
256,192,20249,1,8,0:0:0:0:
256,192,20332,1,4,0:0:0:0:
256,192,20499,1,4,0:0:0:0:
256,192,20666,1,12,0:0:0:0:
256,192,20832,1,4,0:0:0:0:
256,192,21166,1,8,0:0:0:0:
256,192,21249,1,8,0:0:0:0:
256,192,21332,1,0,0:0:0:0:
256,192,21499,1,8,0:0:0:0:
256,192,21666,1,4,0:0:0:0:
256,192,21832,1,8,0:0:0:0:
256,192,21916,1,8,0:0:0:0:
256,192,21999,1,0,0:0:0:0:
256,192,22166,1,8,0:0:0:0:
256,192,22332,1,0,0:0:0:0:
256,192,22416,1,8,0:0:0:0:
256,192,22499,1,8,0:0:0:0:
256,192,22666,1,8,0:0:0:0:
256,192,22832,1,0,0:0:0:0:
256,192,22999,1,12,0:0:0:0:
256,192,23166,1,12,0:0:0:0:
256,192,23249,1,4,0:0:0:0:
256,192,23332,1,12,0:0:0:0:
256,192,23499,1,4,0:0:0:0:
256,192,23832,1,0,0:0:0:0:
256,192,23916,1,8,0:0:0:0:
256,192,23999,1,8,0:0:0:0:
256,192,24082,1,0,0:0:0:0:
256,192,24166,1,8,0:0:0:0:
256,192,24249,1,0,0:0:0:0:
256,192,24332,1,12,0:0:0:0:
256,192,24499,1,8,0:0:0:0:
256,192,24582,1,0,0:0:0:0:
256,192,24666,1,8,0:0:0:0:
256,192,24832,1,8,0:0:0:0:
256,192,24999,1,0,0:0:0:0:
256,192,25082,1,8,0:0:0:0:
256,192,25166,1,0,0:0:0:0:
256,192,25332,1,8,0:0:0:0:
256,192,25499,1,8,0:0:0:0:
256,192,25582,1,8,0:0:0:0:
256,192,25666,1,4,0:0:0:0:
256,192,25832,1,4,0:0:0:0:
256,192,25999,1,12,0:0:0:0:
256,192,26166,1,4,0:0:0:0:
256,192,26499,1,0,0:0:0:0:
256,192,26582,1,8,0:0:0:0:
256,192,26666,1,0,0:0:0:0:
256,192,26832,1,8,0:0:0:0:
256,192,26999,1,12,0:0:0:0:
256,192,27166,1,12,0:0:0:0:
256,192,27332,1,4,0:0:0:0:
256,192,27499,1,12,0:0:0:0:
256,192,27832,1,8,0:0:0:0:
256,192,27916,1,8,0:0:0:0:
256,192,27999,1,0,0:0:0:0:
256,192,28166,1,0,0:0:0:0:
256,192,28332,1,8,0:0:0:0:
256,192,28499,1,8,0:0:0:0:
256,192,28666,1,0,0:0:0:0:
256,192,28832,1,8,0:0:0:0:
256,192,29166,1,0,0:0:0:0:
256,192,29249,1,8,0:0:0:0:
256,192,29332,1,0,0:0:0:0:
256,192,29499,1,0,0:0:0:0:
256,192,29832,1,0,0:0:0:0:
256,192,29916,1,8,0:0:0:0:
256,192,29999,1,0,0:0:0:0:
256,192,30166,1,0,0:0:0:0:
256,192,30499,1,0,0:0:0:0:
256,192,30582,1,0,0:0:0:0:
256,192,30666,1,12,0:0:0:0:
256,192,30999,1,0,0:0:0:0:
256,192,31166,1,0,0:0:0:0:
256,192,31332,1,8,0:0:0:0:
256,192,31499,1,8,0:0:0:0:
256,192,31666,1,8,0:0:0:0:
256,192,31749,1,8,0:0:0:0:
256,192,31832,1,0,0:0:0:0:
256,192,31999,1,8,0:0:0:0:
256,192,32082,1,0,0:0:0:0:
256,192,32166,1,8,0:0:0:0:
256,192,32249,1,8,0:0:0:0:
256,192,32332,1,0,0:0:0:0:
256,192,32499,1,0,0:0:0:0:
256,192,32666,1,8,0:0:0:0:
256,192,32832,1,0,0:0:0:0:
256,192,32916,1,8,0:0:0:0:
256,192,32999,1,0,0:0:0:0:
256,192,33082,1,8,0:0:0:0:
256,192,33166,1,0,0:0:0:0:
256,192,33332,1,8,0:0:0:0:
256,192,33499,1,8,0:0:0:0:
256,192,33582,1,8,0:0:0:0:
256,192,33666,1,0,0:0:0:0:
256,192,33832,1,0,0:0:0:0:
256,192,33999,1,8,0:0:0:0:
256,192,34027,1,8,0:0:0:0:
256,192,34166,1,8,0:0:0:0:
256,192,34194,1,8,0:0:0:0:
256,192,34333,1,0,0:0:0:0:
256,192,34416,1,0,0:0:0:0:
256,192,34499,1,8,0:0:0:0:
256,192,34666,1,8,0:0:0:0:
256,192,34749,1,8,0:0:0:0:
256,192,34832,1,0,0:0:0:0:
256,192,34916,1,0,0:0:0:0:
256,192,34999,1,8,0:0:0:0:
256,192,35166,1,8,0:0:0:0:
256,192,35221,1,8,0:0:0:0:
256,192,35277,1,8,0:0:0:0:
256,192,35332,1,8,0:0:0:0:
256,192,35388,1,0,0:0:0:0:
256,192,35444,1,0,0:0:0:0:
256,192,35499,1,0,0:0:0:0:
256,192,35666,1,8,0:0:0:0:
256,192,35832,1,0,0:0:0:0:
256,192,35916,1,0,0:0:0:0:
256,192,35999,1,8,0:0:0:0:
256,192,36082,1,8,0:0:0:0:
256,192,36166,1,0,0:0:0:0:
256,192,36249,1,8,0:0:0:0:
256,192,36332,1,0,0:0:0:0:
256,192,36499,1,0,0:0:0:0:
256,192,36666,1,8,0:0:0:0:
256,192,36832,1,8,0:0:0:0:
256,192,36916,1,0,0:0:0:0:
256,192,36999,1,8,0:0:0:0:
256,192,37166,1,0,0:0:0:0:
256,192,37249,1,0,0:0:0:0:
256,192,37332,1,8,0:0:0:0:
256,192,37416,1,0,0:0:0:0:
256,192,37499,1,8,0:0:0:0:
256,192,37666,1,0,0:0:0:0:
256,192,37749,1,8,0:0:0:0:
256,192,37832,1,0,0:0:0:0:
256,192,37916,1,0,0:0:0:0:
256,192,37999,1,8,0:0:0:0:
256,192,38166,1,8,0:0:0:0:
256,192,38249,1,8,0:0:0:0:
256,192,38332,1,8,0:0:0:0:
256,192,38499,1,0,0:0:0:0:
256,192,38666,1,8,0:0:0:0:
256,192,38832,1,8,0:0:0:0:
256,192,38916,1,8,0:0:0:0:
256,192,38999,1,0,0:0:0:0:
256,192,39166,1,0,0:0:0:0:
256,192,39332,1,8,0:0:0:0:
256,192,39499,1,8,0:0:0:0:
256,192,39582,1,8,0:0:0:0:
256,192,39666,1,0,0:0:0:0:
256,192,39832,1,0,0:0:0:0:
256,192,39916,1,8,0:0:0:0:
256,192,39999,1,0,0:0:0:0:
256,192,40166,1,0,0:0:0:0:
256,192,40332,1,8,0:0:0:0:
256,192,40360,1,8,0:0:0:0:
256,192,40499,1,8,0:0:0:0:
256,192,40527,1,8,0:0:0:0:
256,192,40666,1,0,0:0:0:0:
256,192,40694,1,0,0:0:0:0:
256,192,40832,1,8,0:0:0:0:
256,192,40860,1,8,0:0:0:0:
256,192,41166,1,8,0:0:0:0:
256,192,41194,1,8,0:0:0:0:
256,192,41332,1,8,0:0:0:0:
256,192,41360,1,8,0:0:0:0:
256,192,41499,1,8,0:0:0:0:
256,192,41527,1,8,0:0:0:0:
256,192,41666,1,4,0:0:0:0:
256,192,41833,1,0,0:0:0:0:
256,192,41916,1,0,0:0:0:0:
256,192,41999,1,8,0:0:0:0:
256,192,42027,1,8,0:0:0:0:
256,192,42166,1,8,0:0:0:0:
256,192,42194,1,8,0:0:0:0:
256,192,42333,1,0,0:0:0:0:
256,192,42416,1,8,0:0:0:0:
256,192,42499,1,0,0:0:0:0:
256,192,42582,1,0,0:0:0:0:
256,192,42666,1,8,0:0:0:0:
256,192,42749,1,0,0:0:0:0:
256,192,42833,1,8,0:0:0:0:
256,192,42916,1,8,0:0:0:0:
256,192,42999,1,0,0:0:0:0:
256,192,43166,1,0,0:0:0:0:
256,192,43333,1,8,0:0:0:0:
256,192,43499,1,0,0:0:0:0:
256,192,43583,1,8,0:0:0:0:
256,192,43666,1,0,0:0:0:0:
256,192,43749,1,8,0:0:0:0:
256,192,43833,1,0,0:0:0:0:
256,192,43888,1,0,0:0:0:0:
256,192,43944,1,0,0:0:0:0:
256,192,43999,1,8,0:0:0:0:
256,192,44082,1,0,0:0:0:0:
256,192,44166,1,8,0:0:0:0:
256,192,44221,1,8,0:0:0:0:
256,192,44277,1,8,0:0:0:0:
256,192,44333,1,0,0:0:0:0:
256,192,44499,1,0,0:0:0:0:
256,192,44666,1,8,0:0:0:0:
256,192,44694,1,8,0:0:0:0:
256,192,44833,1,8,0:0:0:0:
256,192,44861,1,8,0:0:0:0:
256,192,45000,1,0,0:0:0:0:
256,192,45083,1,0,0:0:0:0:
256,192,45166,1,8,0:0:0:0:
256,192,45249,1,0,0:0:0:0:
256,192,45333,1,8,0:0:0:0:
256,192,45416,1,8,0:0:0:0:
256,192,45499,1,0,0:0:0:0:
256,192,45583,1,0,0:0:0:0:
256,192,45666,1,8,0:0:0:0:
256,192,45749,1,0,0:0:0:0:
256,192,45833,1,8,0:0:0:0:
256,192,45888,1,8,0:0:0:0:
256,192,45944,1,8,0:0:0:0:
256,192,45999,1,8,0:0:0:0:
256,192,46055,1,0,0:0:0:0:
256,192,46111,1,0,0:0:0:0:
256,192,46166,1,0,0:0:0:0:
256,192,46333,1,8,0:0:0:0:
256,192,46499,1,0,0:0:0:0:
256,192,46583,1,0,0:0:0:0:
256,192,46666,1,8,0:0:0:0:
256,192,46721,1,8,0:0:0:0:
256,192,46777,1,8,0:0:0:0:
256,192,46833,1,0,0:0:0:0:
256,192,46916,1,8,0:0:0:0:
256,192,46999,1,0,0:0:0:0:
256,192,47166,1,0,0:0:0:0:
256,192,47333,1,8,0:0:0:0:
256,192,47360,1,8,0:0:0:0:
256,192,47499,1,8,0:0:0:0:
256,192,47527,1,8,0:0:0:0:
256,192,47666,1,0,0:0:0:0:
256,192,47749,1,8,0:0:0:0:
256,192,47833,1,0,0:0:0:0:
256,192,47916,1,0,0:0:0:0:
256,192,47999,1,8,0:0:0:0:
256,192,48083,1,0,0:0:0:0:
256,192,48166,1,8,0:0:0:0:
256,192,48249,1,8,0:0:0:0:
256,192,48333,1,0,0:0:0:0:
256,192,48416,1,8,0:0:0:0:
256,192,48499,1,0,0:0:0:0:
256,192,48583,1,0,0:0:0:0:
256,192,48666,1,8,0:0:0:0:
256,192,48749,1,0,0:0:0:0:
256,192,48833,1,8,0:0:0:0:
256,192,48916,1,8,0:0:0:0:
256,192,48999,1,8,0:0:0:0:
256,192,49166,1,0,0:0:0:0:
256,192,49221,1,0,0:0:0:0:
256,192,49277,1,0,0:0:0:0:
256,192,49333,1,8,0:0:0:0:
256,192,49388,1,8,0:0:0:0:
256,192,49444,1,8,0:0:0:0:
256,192,49499,1,8,0:0:0:0:
256,192,49583,1,8,0:0:0:0:
256,192,49666,1,0,0:0:0:0:
256,192,49833,1,0,0:0:0:0:
256,192,49999,1,8,0:0:0:0:
256,192,50166,1,0,0:0:0:0:
256,192,50249,1,8,0:0:0:0:
256,192,50333,1,0,0:0:0:0:
256,192,50416,1,8,0:0:0:0:
256,192,50499,1,8,0:0:0:0:
256,192,50583,1,8,0:0:0:0:
256,192,50666,1,0,0:0:0:0:
256,192,50833,1,0,0:0:0:0:
256,192,50999,1,8,0:0:0:0:
256,192,51027,1,8,0:0:0:0:
256,192,51166,1,8,0:0:0:0:
256,192,51194,1,8,0:0:0:0:
256,192,51333,1,0,0:0:0:0:
256,192,51361,1,0,0:0:0:0:
256,192,51499,1,8,0:0:0:0:
256,192,51527,1,8,0:0:0:0:
256,192,51833,1,8,0:0:0:0:
256,192,51861,1,8,0:0:0:0:
256,192,51999,1,8,0:0:0:0:
256,192,52027,1,8,0:0:0:0:
256,192,52166,1,8,0:0:0:0:
256,192,52194,1,8,0:0:0:0:
256,192,52332,1,0,0:0:0:0:
256,192,52360,1,0,0:0:0:0:
256,192,52499,1,8,0:0:0:0:
256,192,52555,1,8,0:0:0:0:
256,192,52610,1,8,0:0:0:0:
256,192,52666,1,0,0:0:0:0:
256,192,52694,1,0,0:0:0:0:
256,192,52832,1,8,0:0:0:0:
256,192,52860,1,8,0:0:0:0:
256,192,52999,1,0,0:0:0:0:
256,192,53027,1,0,0:0:0:0:
256,192,53166,1,8,0:0:0:0:
256,192,53221,1,8,0:0:0:0:
256,192,53277,1,0,0:0:0:0:
256,192,53332,1,8,0:0:0:0:
256,192,53360,1,8,0:0:0:0:
256,192,53499,1,0,0:0:0:0:
256,192,53527,1,0,0:0:0:0:
256,192,53666,1,0,0:0:0:0:
256,192,53694,1,0,0:0:0:0:
256,192,53832,1,0,0:0:0:0:
256,192,53860,1,0,0:0:0:0:
256,192,53999,1,8,0:0:0:0:
256,192,54027,1,8,0:0:0:0:
256,192,54166,1,0,0:0:0:0:
256,192,54194,1,0,0:0:0:0:
256,192,54499,1,8,0:0:0:0:
256,192,54555,1,8,0:0:0:0:
256,192,54610,1,8,0:0:0:0:
256,192,54666,1,0,0:0:0:0:
256,192,54721,1,0,0:0:0:0:
256,192,54777,1,8,0:0:0:0:
256,192,54832,1,0,0:0:0:0:
256,192,54888,1,8,0:0:0:0:
256,192,54944,1,8,0:0:0:0:
256,192,54999,1,0,0:0:0:0:
256,192,55027,1,0,0:0:0:0:
256,192,55166,1,8,0:0:0:0:
256,192,55194,1,8,0:0:0:0:
256,192,55332,1,8,0:0:0:0:
256,192,55360,1,8,0:0:0:0:
256,192,55499,1,0,0:0:0:0:
256,192,55527,1,0,0:0:0:0:
256,192,55666,1,8,0:0:0:0:
256,192,55694,1,8,0:0:0:0:
256,192,55832,1,0,0:0:0:0:
256,192,55860,1,0,0:0:0:0:
256,192,55999,1,8,0:0:0:0:
256,192,56055,1,8,0:0:0:0:
256,192,56110,1,8,0:0:0:0:
256,192,56166,1,0,0:0:0:0:
256,192,56221,1,0,0:0:0:0:
256,192,56277,1,8,0:0:0:0:
256,192,56332,1,0,0:0:0:0:
256,192,56360,1,0,0:0:0:0:
256,192,56499,1,0,0:0:0:0:
256,192,56527,1,0,0:0:0:0:
256,192,56666,1,8,0:0:0:0:
256,192,56694,1,8,0:0:0:0:
256,192,56832,1,0,0:0:0:0:
256,192,56860,1,0,0:0:0:0:
256,192,57166,1,8,0:0:0:0:
256,192,57221,1,8,0:0:0:0:
256,192,57277,1,8,0:0:0:0:
256,192,57332,1,0,0:0:0:0:
256,192,57360,1,0,0:0:0:0:
256,192,57499,1,8,0:0:0:0:
256,192,57527,1,8,0:0:0:0:
256,192,57666,1,0,0:0:0:0:
256,192,57694,1,0,0:0:0:0:
256,192,57832,1,8,0:0:0:0:
256,192,57888,1,8,0:0:0:0:
256,192,57944,1,8,0:0:0:0:
256,192,57999,1,0,0:0:0:0:
256,192,58027,1,0,0:0:0:0:
256,192,58166,1,8,0:0:0:0:
256,192,58194,1,8,0:0:0:0:
256,192,58332,1,0,0:0:0:0:
256,192,58388,1,0,0:0:0:0:
256,192,58444,1,0,0:0:0:0:
256,192,58499,1,8,0:0:0:0:
256,192,58527,1,8,0:0:0:0:
256,192,58666,1,8,0:0:0:0:
256,192,58694,1,8,0:0:0:0:
256,192,58832,1,0,0:0:0:0:
256,192,58860,1,0,0:0:0:0:
256,192,58999,1,8,0:0:0:0:
256,192,59027,1,8,0:0:0:0:
256,192,59166,1,8,0:0:0:0:
256,192,59221,1,0,0:0:0:0:
256,192,59277,1,0,0:0:0:0:
256,192,59332,1,8,0:0:0:0:
256,192,59360,1,8,0:0:0:0:
256,192,59499,1,0,0:0:0:0:
256,192,59527,1,0,0:0:0:0:
256,192,59832,1,0,0:0:0:0:
256,192,59888,1,0,0:0:0:0:
256,192,59944,1,8,0:0:0:0:
256,192,59999,1,8,0:0:0:0:
256,192,60055,1,0,0:0:0:0:
256,192,60110,1,0,0:0:0:0:
256,192,60166,1,8,0:0:0:0:
256,192,60221,1,0,0:0:0:0:
256,192,60277,1,0,0:0:0:0:
256,192,60332,1,8,0:0:0:0:
256,192,60360,1,8,0:0:0:0:
256,192,60499,1,8,0:0:0:0:
256,192,60555,1,0,0:0:0:0:
256,192,60610,1,0,0:0:0:0:
256,192,60666,1,8,0:0:0:0:
256,192,60694,1,8,0:0:0:0:
256,192,60832,1,8,0:0:0:0:
256,192,60860,1,8,0:0:0:0:
256,192,60999,1,0,0:0:0:0:
256,192,61055,1,8,0:0:0:0:
256,192,61110,1,8,0:0:0:0:
256,192,61166,1,0,0:0:0:0:
256,192,61194,1,0,0:0:0:0:
256,192,61332,1,8,0:0:0:0:
256,192,61360,1,8,0:0:0:0:
256,192,61499,1,8,0:0:0:0:
256,192,61555,1,8,0:0:0:0:
256,192,61610,1,8,0:0:0:0:
256,192,61666,1,0,0:0:0:0:
256,192,61694,1,0,0:0:0:0:
256,192,61832,1,0,0:0:0:0:
256,192,61860,1,0,0:0:0:0:
256,192,61999,1,8,0:0:0:0:
256,192,62027,1,8,0:0:0:0:
256,192,62166,1,0,0:0:0:0:
256,192,62194,1,0,0:0:0:0:
256,192,62499,1,0,0:0:0:0:
256,192,62555,1,8,0:0:0:0:
256,192,62610,1,8,0:0:0:0:
256,192,62666,1,0,0:0:0:0:
256,192,62694,1,0,0:0:0:0:
256,192,62832,1,8,0:0:0:0:
256,192,62860,1,8,0:0:0:0:
256,192,62999,1,8,0:0:0:0:
256,192,63027,1,8,0:0:0:0:
256,192,63166,1,8,0:0:0:0:
256,192,63194,1,8,0:0:0:0:
256,192,63332,1,0,0:0:0:0:
256,192,63360,1,0,0:0:0:0:
256,192,63499,1,8,0:0:0:0:
256,192,63527,1,8,0:0:0:0:
256,192,63832,1,8,0:0:0:0:
256,192,63888,1,8,0:0:0:0:
256,192,63944,1,8,0:0:0:0:
256,192,63999,1,0,0:0:0:0:
256,192,64027,1,0,0:0:0:0:
256,192,64166,1,0,0:0:0:0:
256,192,64194,1,0,0:0:0:0:
256,192,64332,1,8,0:0:0:0:
256,192,64360,1,8,0:0:0:0:
256,192,64499,1,8,0:0:0:0:
256,192,64527,1,8,0:0:0:0:
256,192,64666,1,0,0:0:0:0:
256,192,64694,1,0,0:0:0:0:
256,192,64832,1,8,0:0:0:0:
256,192,64860,1,8,0:0:0:0:
256,192,65166,1,0,0:0:0:0:
256,192,65221,1,8,0:0:0:0:
256,192,65277,1,8,0:0:0:0:
256,192,65332,1,0,0:0:0:0:
256,192,65499,1,0,0:0:0:0:
256,192,65527,1,0,0:0:0:0:
256,192,65832,1,0,0:0:0:0:
256,192,65888,1,8,0:0:0:0:
256,192,65944,1,8,0:0:0:0:
256,192,65999,1,0,0:0:0:0:
256,192,66166,1,0,0:0:0:0:
256,192,66194,1,0,0:0:0:0:
256,192,66499,1,0,0:0:0:0:
256,192,66555,1,0,0:0:0:0:
256,192,66610,1,0,0:0:0:0:
256,192,66666,1,12,0:0:0:0:
256,192,66999,1,0,0:0:0:0:
256,192,67166,1,0,0:0:0:0:
256,192,67333,1,0,0:0:0:0:
256,192,67499,1,8,0:0:0:0:
256,192,67666,1,8,0:0:0:0:
256,192,67833,1,8,0:0:0:0:
256,192,67916,1,8,0:0:0:0:
256,192,67999,1,0,0:0:0:0:
256,192,68166,1,8,0:0:0:0:
256,192,68249,1,0,0:0:0:0:
256,192,68333,1,8,0:0:0:0:
256,192,68416,1,8,0:0:0:0:
256,192,68499,1,0,0:0:0:0:
256,192,68666,1,0,0:0:0:0:
256,192,68833,1,8,0:0:0:0:
256,192,68999,1,0,0:0:0:0:
256,192,69083,1,8,0:0:0:0:
256,192,69166,1,0,0:0:0:0:
256,192,69249,1,8,0:0:0:0:
256,192,69333,1,0,0:0:0:0:
256,192,69499,1,8,0:0:0:0:
256,192,69666,1,8,0:0:0:0:
256,192,69749,1,8,0:0:0:0:
256,192,69833,1,0,0:0:0:0:
256,192,69999,1,0,0:0:0:0:
256,192,70166,1,8,0:0:0:0:
256,192,70194,1,8,0:0:0:0:
256,192,70333,1,8,0:0:0:0:
256,192,70361,1,8,0:0:0:0:
256,192,70500,1,0,0:0:0:0:
256,192,70583,1,0,0:0:0:0:
256,192,70666,1,8,0:0:0:0:
256,192,70833,1,8,0:0:0:0:
256,192,70916,1,8,0:0:0:0:
256,192,70999,1,0,0:0:0:0:
256,192,71083,1,0,0:0:0:0:
256,192,71166,1,8,0:0:0:0:
256,192,71333,1,8,0:0:0:0:
256,192,71388,1,8,0:0:0:0:
256,192,71444,1,8,0:0:0:0:
256,192,71499,1,8,0:0:0:0:
256,192,71555,1,0,0:0:0:0:
256,192,71611,1,0,0:0:0:0:
256,192,71666,1,0,0:0:0:0:
256,192,71833,1,8,0:0:0:0:
256,192,71999,1,0,0:0:0:0:
256,192,72083,1,0,0:0:0:0:
256,192,72166,1,8,0:0:0:0:
256,192,72249,1,8,0:0:0:0:
256,192,72333,1,0,0:0:0:0:
256,192,72416,1,8,0:0:0:0:
256,192,72499,1,0,0:0:0:0:
256,192,72666,1,0,0:0:0:0:
256,192,72833,1,8,0:0:0:0:
256,192,72999,1,8,0:0:0:0:
256,192,73083,1,0,0:0:0:0:
256,192,73166,1,8,0:0:0:0:
256,192,73333,1,0,0:0:0:0:
256,192,73416,1,0,0:0:0:0:
256,192,73499,1,8,0:0:0:0:
256,192,73583,1,0,0:0:0:0:
256,192,73666,1,8,0:0:0:0:
256,192,73833,1,0,0:0:0:0:
256,192,73916,1,8,0:0:0:0:
256,192,73999,1,0,0:0:0:0:
256,192,74083,1,0,0:0:0:0:
256,192,74166,1,8,0:0:0:0:
256,192,74333,1,8,0:0:0:0:
256,192,74416,1,8,0:0:0:0:
256,192,74499,1,8,0:0:0:0:
256,192,74666,1,0,0:0:0:0:
256,192,74833,1,8,0:0:0:0:
256,192,74999,1,8,0:0:0:0:
256,192,75083,1,8,0:0:0:0:
256,192,75166,1,0,0:0:0:0:
256,192,75333,1,0,0:0:0:0:
256,192,75499,1,8,0:0:0:0:
256,192,75666,1,8,0:0:0:0:
256,192,75749,1,8,0:0:0:0:
256,192,75833,1,0,0:0:0:0:
256,192,75999,1,0,0:0:0:0:
256,192,76083,1,8,0:0:0:0:
256,192,76166,1,0,0:0:0:0:
256,192,76333,1,0,0:0:0:0:
256,192,76499,1,8,0:0:0:0:
256,192,76527,1,8,0:0:0:0:
256,192,76666,1,8,0:0:0:0:
256,192,76694,1,8,0:0:0:0:
256,192,76833,1,0,0:0:0:0:
256,192,76861,1,0,0:0:0:0:
256,192,77166,1,8,0:0:0:0:
256,192,77194,1,8,0:0:0:0:
256,192,77333,1,0,0:0:0:0:
256,192,77361,1,0,0:0:0:0:
256,192,77499,1,8,0:0:0:0:
256,192,77527,1,8,0:0:0:0:
256,192,77666,1,8,0:0:0:0:
256,192,77694,1,8,0:0:0:0:
256,192,77833,1,4,0:0:0:0:
256,192,78000,1,0,0:0:0:0:
256,192,78083,1,0,0:0:0:0:
256,192,78166,1,8,0:0:0:0:
256,192,78194,1,8,0:0:0:0:
256,192,78333,1,8,0:0:0:0:
256,192,78361,1,8,0:0:0:0:
256,192,78500,1,0,0:0:0:0:
256,192,78583,1,8,0:0:0:0:
256,192,78666,1,0,0:0:0:0:
256,192,78749,1,0,0:0:0:0:
256,192,78833,1,8,0:0:0:0:
256,192,78916,1,0,0:0:0:0:
256,192,79000,1,8,0:0:0:0:
256,192,79083,1,8,0:0:0:0:
256,192,79166,1,0,0:0:0:0:
256,192,79333,1,0,0:0:0:0:
256,192,79500,1,8,0:0:0:0:
256,192,79666,1,0,0:0:0:0:
256,192,79750,1,8,0:0:0:0:
256,192,79833,1,0,0:0:0:0:
256,192,79916,1,8,0:0:0:0:
256,192,80000,1,0,0:0:0:0:
256,192,80055,1,0,0:0:0:0:
256,192,80111,1,0,0:0:0:0:
256,192,80166,1,8,0:0:0:0:
256,192,80249,1,0,0:0:0:0:
256,192,80333,1,8,0:0:0:0:
256,192,80388,1,8,0:0:0:0:
256,192,80444,1,8,0:0:0:0:
256,192,80500,1,0,0:0:0:0:
256,192,80666,1,0,0:0:0:0:
256,192,80833,1,8,0:0:0:0:
256,192,80861,1,8,0:0:0:0:
256,192,81000,1,8,0:0:0:0:
256,192,81028,1,8,0:0:0:0:
256,192,81167,1,0,0:0:0:0:
256,192,81250,1,0,0:0:0:0:
256,192,81333,1,8,0:0:0:0:
256,192,81416,1,0,0:0:0:0:
256,192,81500,1,8,0:0:0:0:
256,192,81583,1,8,0:0:0:0:
256,192,81666,1,0,0:0:0:0:
256,192,81750,1,0,0:0:0:0:
256,192,81833,1,8,0:0:0:0:
256,192,81916,1,0,0:0:0:0:
256,192,82000,1,8,0:0:0:0:
256,192,82055,1,8,0:0:0:0:
256,192,82111,1,8,0:0:0:0:
256,192,82166,1,8,0:0:0:0:
256,192,82222,1,0,0:0:0:0:
256,192,82278,1,0,0:0:0:0:
256,192,82333,1,0,0:0:0:0:
256,192,82500,1,8,0:0:0:0:
256,192,82666,1,0,0:0:0:0:
256,192,82750,1,0,0:0:0:0:
256,192,82833,1,8,0:0:0:0:
256,192,82888,1,8,0:0:0:0:
256,192,82944,1,8,0:0:0:0:
256,192,83000,1,0,0:0:0:0:
256,192,83083,1,8,0:0:0:0:
256,192,83166,1,0,0:0:0:0:
256,192,83333,1,0,0:0:0:0:
256,192,83500,1,8,0:0:0:0:
256,192,83527,1,8,0:0:0:0:
256,192,83666,1,8,0:0:0:0:
256,192,83694,1,8,0:0:0:0:
256,192,83833,1,0,0:0:0:0:
256,192,83916,1,8,0:0:0:0:
256,192,84000,1,0,0:0:0:0:
256,192,84083,1,0,0:0:0:0:
256,192,84166,1,8,0:0:0:0:
256,192,84250,1,0,0:0:0:0:
256,192,84333,1,8,0:0:0:0:
256,192,84416,1,8,0:0:0:0:
256,192,84500,1,0,0:0:0:0:
256,192,84583,1,8,0:0:0:0:
256,192,84666,1,0,0:0:0:0:
256,192,84750,1,0,0:0:0:0:
256,192,84833,1,8,0:0:0:0:
256,192,84916,1,0,0:0:0:0:
256,192,85000,1,8,0:0:0:0:
256,192,85083,1,8,0:0:0:0:
256,192,85166,1,8,0:0:0:0:
256,192,85333,1,0,0:0:0:0:
256,192,85388,1,0,0:0:0:0:
256,192,85444,1,0,0:0:0:0:
256,192,85500,1,8,0:0:0:0:
256,192,85555,1,8,0:0:0:0:
256,192,85611,1,8,0:0:0:0:
256,192,85666,1,8,0:0:0:0:
256,192,85750,1,8,0:0:0:0:
256,192,85833,1,0,0:0:0:0:
256,192,86000,1,0,0:0:0:0:
256,192,86166,1,8,0:0:0:0:
256,192,86333,1,0,0:0:0:0:
256,192,86416,1,8,0:0:0:0:
256,192,86500,1,0,0:0:0:0:
256,192,86583,1,8,0:0:0:0:
256,192,86666,1,8,0:0:0:0:
256,192,86750,1,8,0:0:0:0:
256,192,86833,1,0,0:0:0:0:
256,192,87000,1,0,0:0:0:0:
256,192,87166,1,8,0:0:0:0:
256,192,87194,1,8,0:0:0:0:
256,192,87333,1,8,0:0:0:0:
256,192,87361,1,8,0:0:0:0:
256,192,87500,1,0,0:0:0:0:
256,192,87528,1,0,0:0:0:0:
256,192,87832,1,8,0:0:0:0:
256,192,87860,1,8,0:0:0:0:
256,192,88000,1,8,0:0:0:0:
256,192,88028,1,8,0:0:0:0:
256,192,88166,1,8,0:0:0:0:
256,192,88194,1,8,0:0:0:0:
256,192,88332,5,0,0:0:0:0:
256,192,88498,1,8,0:0:0:0:
256,192,88665,1,0,0:0:0:0:
256,192,88831,1,8,0:0:0:0:
256,192,88998,1,8,0:0:0:0:
256,192,89165,1,0,0:0:0:0:
256,192,89331,1,8,0:0:0:0:
256,192,89498,1,0,0:0:0:0:
256,192,89665,1,8,0:0:0:0:
256,192,89831,1,0,0:0:0:0:
256,192,89915,1,8,0:0:0:0:
256,192,89998,1,0,0:0:0:0:
256,192,90165,1,8,0:0:0:0:
256,192,90331,1,8,0:0:0:0:
256,192,90498,1,0,0:0:0:0:
256,192,90665,1,8,0:0:0:0:
256,192,90831,1,0,0:0:0:0:
256,192,90998,1,8,0:0:0:0:
256,192,91165,1,8,0:0:0:0:
256,192,91331,1,0,0:0:0:0:
256,192,91498,1,0,0:0:0:0:
256,192,91665,1,8,0:0:0:0:
256,192,91831,1,0,0:0:0:0:
256,192,91998,1,8,0:0:0:0:
256,192,92165,1,0,0:0:0:0:
256,192,92331,1,0,0:0:0:0:
256,192,92498,1,8,0:0:0:0:
256,192,92581,1,0,0:0:0:0:
256,192,92665,1,8,0:0:0:0:
256,192,92831,1,0,0:0:0:0:
256,192,92998,1,8,0:0:0:0:
256,192,93166,1,8,0:0:0:0:
256,192,93332,1,0,0:0:0:0:
256,192,93499,1,8,0:0:0:0:
256,192,93666,5,0,0:0:0:0:
256,192,93832,1,8,0:0:0:0:
256,192,93999,1,0,0:0:0:0:
256,192,94165,1,8,0:0:0:0:
256,192,94332,1,8,0:0:0:0:
256,192,94499,1,0,0:0:0:0:
256,192,94665,1,8,0:0:0:0:
256,192,94832,1,0,0:0:0:0:
256,192,94999,1,8,0:0:0:0:
256,192,95165,1,0,0:0:0:0:
256,192,95249,1,8,0:0:0:0:
256,192,95332,1,0,0:0:0:0:
256,192,95499,1,8,0:0:0:0:
256,192,95665,1,8,0:0:0:0:
256,192,95832,1,0,0:0:0:0:
256,192,95999,1,8,0:0:0:0:
256,192,96165,1,0,0:0:0:0:
256,192,96332,1,8,0:0:0:0:
256,192,96499,1,8,0:0:0:0:
256,192,96665,1,0,0:0:0:0:
256,192,96832,1,0,0:0:0:0:
256,192,96999,1,8,0:0:0:0:
256,192,97165,1,0,0:0:0:0:
256,192,97332,1,8,0:0:0:0:
256,192,97499,1,0,0:0:0:0:
256,192,97665,1,0,0:0:0:0:
256,192,97832,1,8,0:0:0:0:
256,192,97915,1,0,0:0:0:0:
256,192,97999,1,8,0:0:0:0:
256,192,98165,1,0,0:0:0:0:
256,192,98332,1,8,0:0:0:0:
256,192,98665,1,8,0:0:0:0:
256,192,98693,1,8,0:0:0:0:
