osu file format v14

[General]
AudioFilename: audio.mp3
AudioLeadIn: 0
PreviewTime: -1
Countdown: 1
SampleSet: Soft
StackLeniency: 0.7
Mode: 0
LetterboxInBreaks: 0
WidescreenStoryboard: 0

[Editor]
Bookmarks: 9012,14543,15949,34137,46793,110543
DistanceSpacing: 0.7
BeatDivisor: 12
GridSize: 8
TimelineZoom: 3.099999

[Metadata]
Title:Marigold (ft. Guriri) (VIP Remix)
TitleUnicode:Marigold (ft. Guriri) (VIP Remix)
Artist:M2U
ArtistUnicode:M2U
Creator:TheBlank
Version:Distortion.
Source:
Tags:
BeatmapID:2047378
BeatmapSetID:978315

[Difficulty]
HPDrainRate:5
CircleSize:4
OverallDifficulty:9
ApproachRate:9.4
SliderMultiplier:2.1
SliderTickRate:1

[Events]
//Background and Video events
0,0,"69432820_p0.jpg",0,0
//Break Periods
//Storyboard Layer 0 (Background)
//Storyboard Layer 1 (Fail)
//Storyboard Layer 2 (Pass)
//Storyboard Layer 3 (Foreground)
//Storyboard Sound Samples

[TimingPoints]
760,375,4,2,0,40,1,0
760,-200,4,2,0,40,0,0
1041,-200,4,2,0,5,0,0
1135,-200,4,2,0,40,0,0
1416,-200,4,2,0,5,0,0
1510,-200,4,2,0,40,0,0
1791,-200,4,2,0,5,0,0
1885,-200,4,2,0,40,0,0
2166,-200,4,2,0,5,0,0
2260,-200,4,2,0,40,0,0
2541,-200,4,2,0,5,0,0
2635,-200,4,2,0,40,0,0
2916,-200,4,2,0,5,0,0
3010,-200,4,2,0,40,0,0
3291,-200,4,2,0,5,0,0
3385,-200,4,2,0,40,0,0
3666,-200,4,2,0,5,0,0
3760,-200,4,2,0,40,0,0
4041,-200,4,2,0,5,0,0
4135,-200,4,2,0,40,0,0
4416,-200,4,2,0,5,0,0
4510,-200,4,2,0,40,0,0
4791,-200,4,2,0,5,0,0
4885,-200,4,2,0,40,0,0
5166,-200,4,2,0,5,0,0
5260,-200,4,2,0,40,0,0
5541,-200,4,2,0,5,0,0
5635,-200,4,2,0,40,0,0
5916,-200,4,2,0,5,0,0
6010,-200,4,2,0,40,0,0
6291,-200,4,2,0,5,0,0
6385,-200,4,2,0,40,0,0
6666,-200,4,2,0,5,0,0
6760,-200,4,2,0,40,0,0
7041,-200,4,2,0,5,0,0
7135,-200,4,2,0,40,0,0
7416,-200,4,2,0,5,0,0
7510,-200,4,2,0,40,0,0
7697,-200,4,2,0,5,0,0
7791,-200,4,2,0,40,0,0
8260,-166.666666666667,4,2,0,40,0,0
8541,-166.666666666667,4,2,0,5,0,0
8635,-166.666666666667,4,2,0,40,0,0
8822,-166.666666666667,4,2,0,5,0,0
8916,-166.666666666667,4,2,0,40,0,0
10041,-166.666666666667,4,2,0,5,0,0
10135,-166.666666666667,4,2,0,40,0,0
10791,-166.666666666667,4,2,0,5,0,0
10885,-166.666666666667,4,2,0,40,0,0
11541,-166.666666666667,4,2,0,5,0,0
11635,-166.666666666667,4,2,0,40,0,0
12291,-166.666666666667,4,2,0,5,0,0
12385,-166.666666666667,4,2,0,40,0,0
13885,-227.272727272727,4,2,0,40,0,0
14270,375,4,2,0,40,1,0
15572,375,4,2,0,40,1,0
15760,375,4,2,0,40,1,0
15760,-66.6666666666667,4,2,0,40,0,0
16041,-66.6666666666667,4,2,0,5,0,0
16135,-66.6666666666667,4,2,0,40,0,0
16791,-66.6666666666667,4,2,0,5,0,0
16885,-66.6666666666667,4,2,0,40,0,0
17166,-66.6666666666667,4,2,0,5,0,0
17260,-83.3333333333333,4,2,0,40,0,0
17541,-83.3333333333333,4,2,0,5,0,0
17635,-83.3333333333333,4,2,0,40,0,0
17916,-83.3333333333333,4,2,0,5,0,0
18010,-83.3333333333333,4,2,0,40,0,0
18197,-83.3333333333333,4,2,0,5,0,0
18291,-83.3333333333333,4,2,0,40,0,0
18666,-83.3333333333333,4,2,0,5,0,0
18760,-83.3333333333333,4,2,0,40,0,0
20166,-83.3333333333333,4,2,0,5,0,0
20260,-83.3333333333333,4,2,0,40,0,0
20447,-83.3333333333333,4,2,0,5,0,0
20541,-83.3333333333333,4,2,0,40,0,0
20916,-83.3333333333333,4,2,0,5,0,0
21010,-83.3333333333333,4,2,0,40,0,0
21291,-83.3333333333333,4,2,0,5,0,0
21385,-83.3333333333333,4,2,0,40,0,0
21666,-83.3333333333333,4,2,0,5,0,0
21760,-142.857142857143,4,2,0,40,0,0
22510,-58.8235294117647,4,2,0,40,0,0
22791,-58.8235294117647,4,2,0,5,0,0
22885,-58.8235294117647,4,2,0,40,0,0
23166,-58.8235294117647,4,2,0,5,0,0
23260,-71.4285714285714,4,2,0,40,0,0
23541,-71.4285714285714,4,2,0,5,0,0
23635,-71.4285714285714,4,2,0,40,0,0
23916,-71.4285714285714,4,2,0,5,0,0
24010,-142.857142857143,4,2,0,40,0,0
24385,-71.4285714285714,4,2,0,40,0,0
24666,-71.4285714285714,4,2,0,5,0,0
24760,-71.4285714285714,4,2,0,40,0,0
24947,-71.4285714285714,4,2,0,5,0,0
25041,-71.4285714285714,4,2,0,40,0,0
27010,-142.857142857143,4,2,0,40,0,0
28041,-142.857142857143,4,2,0,5,0,0
28135,-142.857142857143,4,2,0,40,0,0
29260,-100,4,2,0,40,0,0
29541,-100,4,2,0,5,0,0
29635,-100,4,2,0,40,0,0
30197,-200,4,2,0,40,0,0
30760,-125,4,2,0,40,0,0
31228,-125,4,2,0,5,0,0
31322,-125,4,2,0,40,0,0
33760,-200,4,2,0,40,0,0
36197,-200,4,2,0,5,0,0
36385,-149.253731343284,4,2,0,40,0,0
36666,-200,4,2,0,5,0,0
36760,-149.253731343284,4,2,0,40,0,0
40041,-149.253731343284,4,2,0,5,0,0
40135,-149.253731343284,4,2,0,40,0,0
40510,-100,4,2,0,40,0,0
40885,-294.117647058824,4,2,0,40,0,0
41260,-166.666666666667,4,2,0,40,0,0
41541,-166.666666666667,4,2,0,5,0,0
41635,-166.666666666667,4,2,0,40,0,0
41916,-166.666666666667,4,2,0,5,0,0
42010,-166.666666666667,4,2,0,40,0,0
42760,-83.3333333333333,4,2,0,40,0,0
43041,-83.3333333333333,4,2,0,5,0,0
43135,-83.3333333333333,4,2,0,40,0,0
43791,-83.3333333333333,4,2,0,5,0,0
43885,-83.3333333333333,4,2,0,40,0,0
45760,-111.111111111111,4,2,0,40,0,0
46041,-111.111111111111,4,2,0,5,0,0
46135,-111.111111111111,4,2,0,40,0,0
47260,-83.3333333333333,4,2,0,40,0,0
47728,-83.3333333333333,4,2,0,5,0,0
47822,-83.3333333333333,4,2,0,40,0,0
47916,-83.3333333333333,4,2,0,5,0,0
48010,-83.3333333333333,4,2,0,40,0,0
48666,-83.3333333333333,4,2,0,5,0,0
48760,-83.3333333333333,4,2,0,40,0,0
49416,-83.3333333333333,4,2,0,5,0,0
49510,-62.5,4,2,0,40,0,0
49885,-142.857142857143,4,2,0,40,0,0
50260,-125,4,2,0,40,0,0
51760,-83.3333333333333,4,2,0,40,0,0
53260,-200,4,2,0,40,0,0
53541,-200,4,2,0,5,0,0
53635,-200,4,2,0,40,0,0
54010,-95.2380952380952,4,2,0,40,0,0
54197,-95.2380952380952,4,2,0,5,0,0
54385,-95.2380952380952,4,2,0,40,0,0
54572,-95.2380952380952,4,2,0,5,0,0
54666,-133.333333333333,4,2,0,40,0,0
56166,-133.333333333333,4,2,0,5,0,0
56260,-86.9565217391306,4,2,0,40,0,0
56728,-86.9565217391306,4,2,0,5,0,0
56822,-133.333333333333,4,2,0,40,0,0
57010,-74.0740740740741,4,2,0,40,0,0
57478,-74.0740740740741,4,2,0,5,0,0
57572,-74.0740740740741,4,2,0,40,0,0
58228,-74.0740740740741,4,2,0,5,0,0
58322,-74.0740740740741,4,2,0,40,0,0
58510,-74.0740740740741,4,2,0,40,0,0
58978,-74.0740740740741,4,2,0,5,0,0
59072,-74.0740740740741,4,2,0,40,0,0
59916,-74.0740740740741,4,2,0,5,0,0
60010,-74.0740740740741,4,2,0,40,0,0
60478,-74.0740740740741,4,2,0,5,0,0
60572,-74.0740740740741,4,2,0,40,0,0
61416,-74.0740740740741,4,2,0,5,0,0
61510,-74.0740740740741,4,2,0,40,0,0
61791,-74.0740740740741,4,2,0,5,0,0
61885,-74.0740740740741,4,2,0,40,0,0
62166,-74.0740740740741,4,2,0,5,0,0
62260,-74.0740740740741,4,2,0,40,0,0
62728,-74.0740740740741,4,2,0,5,0,0
62822,-74.0740740740741,4,2,0,40,0,0
63478,-74.0740740740741,4,2,0,5,0,0
63572,-74.0740740740741,4,2,0,40,0,0
64228,-74.0740740740741,4,2,0,5,0,0
64322,-74.0740740740741,4,2,0,40,0,0
64791,-74.0740740740741,4,2,0,5,0,0
64885,-74.0740740740741,4,2,0,40,0,0
65728,-74.0740740740741,4,2,0,5,0,0
65822,-95.2380952380952,4,2,0,40,0,0
67041,-95.2380952380952,4,2,0,5,0,0
67135,-95.2380952380952,4,2,0,40,0,0
68260,-133.333333333333,4,2,0,40,0,0
68728,-133.333333333333,4,2,0,5,0,0
68822,-111.111111111111,4,2,0,40,0,0
69760,-133.333333333333,4,2,0,40,0,0
70228,-133.333333333333,4,2,0,5,0,0
70322,-111.111111111111,4,2,0,40,0,0
71260,-71.4285714285714,4,2,0,40,0,0
71728,-71.4285714285714,4,2,0,5,0,0
71822,-71.4285714285714,4,2,0,40,0,0
72291,-71.4285714285714,4,2,0,5,0,0
72385,-166.666666666667,4,2,0,40,0,0
72572,-100,4,2,0,40,0,0
72760,-66.6666666666667,4,2,0,40,0,0
73510,-142.857142857143,4,2,0,40,0,0
73885,-62.5,4,2,0,40,0,0
74260,-500,4,2,0,40,0,0
77822,-125,4,2,0,40,0,0
85510,-71.4285714285714,4,2,0,40,0,0
85885,-83.3333333333333,4,2,0,40,0,0
86166,-83.3333333333333,4,2,0,5,0,0
86260,-38.4615384615385,4,2,0,40,0,0
86541,-38.4615384615385,4,2,0,5,0,0
86635,-43.4782608695652,4,2,0,40,0,0
87010,-38.4615384615385,4,2,0,40,0,0
87291,-38.4615384615385,4,2,0,5,0,0
87385,-35.7142857142857,4,2,0,40,0,0
87947,-45.4545454545455,4,2,0,40,0,0
88885,-55.5555555555556,4,2,0,40,0,0
89260,-25,4,2,0,40,0,0
89353,-25,4,2,0,5,0,0
89447,-62.5,4,2,0,40,0,0
89635,-125,4,2,0,40,0,0
90010,-37.037037037037,4,2,0,40,0,0
91135,-29.4117647058824,4,2,0,40,0,0
91322,-71.4285714285714,4,2,0,40,0,0
91510,-35.7142857142857,4,2,0,40,0,0
91791,-35.7142857142857,4,2,0,5,0,0
91885,-35.7142857142857,4,2,0,40,0,0
92166,-35.7142857142857,4,2,0,5,0,0
92260,-35.7142857142857,4,2,0,40,0,0
92541,-35.7142857142857,4,2,0,5,0,0
92635,-35.7142857142857,4,2,0,40,0,0
95260,-111.111111111111,4,2,0,40,0,0
96572,-333.333333333333,4,2,0,40,0,0
96760,-333.333333333333,4,2,0,5,0,0
96947,-38.4615384615385,4,2,0,40,0,0
97791,-38.4615384615385,4,2,0,5,0,0
97885,-38.4615384615385,4,2,0,40,0,0
98166,-38.4615384615385,4,2,0,5,0,0
98260,-38.4615384615385,4,2,0,40,0,0
98541,-38.4615384615385,4,2,0,5,0,0
98635,-38.4615384615385,4,2,0,40,0,0
100135,-25,4,2,0,40,0,0
100322,-55.5555555555556,4,2,0,40,0,0
100885,-25,4,2,0,40,0,0
101072,-200,4,2,0,40,0,0
101260,-38.4615384615385,4,2,0,40,0,0
101541,-38.4615384615385,4,2,0,5,0,0
101635,-38.4615384615385,4,2,0,40,0,0
102010,-52.6315789473684,4,2,0,40,0,0
103510,-40,4,2,0,40,0,0
103791,-40,4,2,0,5,0,0
103885,-40,4,2,0,40,0,0
104166,-40,4,2,0,5,0,0
104260,-35.7142857142857,4,2,0,40,0,0
104541,-35.7142857142857,4,2,0,5,0,0
104635,-50,4,2,0,40,0,0
105572,-37.037037037037,4,2,0,40,0,0
105947,-62.5,4,2,0,40,0,0
106135,-37.037037037037,4,2,0,40,0,0
106322,-100,4,2,0,40,0,0
106510,-35.7142857142857,4,2,0,40,0,0
106791,-35.7142857142857,4,2,0,5,0,0
106885,-35.7142857142857,4,2,0,40,0,0
107166,-35.7142857142857,4,2,0,5,0,0
107260,-35.7142857142857,4,2,0,40,0,0
107541,-35.7142857142857,4,2,0,5,0,0
107635,-50,4,2,0,40,0,0
108572,-285.714285714286,4,2,0,40,0,0
110260,-133.333333333333,4,2,0,40,0,0
110541,-133.333333333333,4,2,0,5,0,0
110635,-133.333333333333,4,2,0,40,0,0
119166,-133.333333333333,4,2,0,5,0,0
119260,-200,4,2,0,40,0,0
120010,-76.9230769230769,4,2,0,40,0,0
120291,-76.9230769230769,4,2,0,5,0,0
120385,-76.9230769230769,4,2,0,40,0,0
120666,-76.9230769230769,4,2,0,5,0,0
120760,-500,4,2,0,40,0,0
121041,-500,4,2,0,5,0,0
121135,-90.9090909090909,4,2,0,40,0,0
122166,-90.9090909090909,4,2,0,5,0,0
122260,-125,4,2,0,40,0,0
122728,-125,4,2,0,5,0,0
122822,-125,4,2,0,40,0,0
123478,-125,4,2,0,5,0,0
123572,-90.9090909090909,4,2,0,40,0,0
124228,-90.9090909090909,4,2,0,5,0,0
124322,-111.111111111111,4,2,0,40,0,0
124978,-111.111111111111,4,2,0,5,0,0
125072,-111.111111111111,4,2,0,40,0,0
125916,-111.111111111111,4,2,0,5,0,0
126010,-90.9090909090908,4,2,0,40,0,0
126478,-90.9090909090908,4,2,0,5,0,0
126572,-111.111111111111,4,2,0,40,0,0
127228,-111.111111111111,4,2,0,5,0,0
127322,-111.111111111111,4,2,0,40,0,0
128728,-111.111111111111,4,2,0,5,0,0
128822,-111.111111111111,4,2,0,40,0,0
129478,-111.111111111111,4,2,0,5,0,0
129572,-111.111111111111,4,2,0,40,0,0
130228,-111.111111111111,4,2,0,5,0,0
130322,-111.111111111111,4,2,0,40,0,0
131728,-111.111111111111,4,2,0,5,0,0
131822,-111.111111111111,4,2,0,40,0,0
132478,-111.111111111111,4,2,0,5,0,0
132572,-111.111111111111,4,2,0,40,0,0
133041,-111.111111111111,4,2,0,5,0,0
133135,-111.111111111111,4,2,0,40,0,0
134260,-142.857142857143,4,2,0,40,0,0
135010,-200,4,2,0,40,0,0
136978,-200,4,2,0,5,0,0
137072,-200,4,2,0,40,0,0
137728,-200,4,2,0,5,0,0
137822,-200,4,2,0,40,0,0
138010,-142.857142857143,4,2,0,40,0,0
139510,-909.090909090909,4,2,0,40,0,0
143260,-909.090909090909,4,2,0,15,0,0

[Colours]
Combo1 : 64,0,128
Combo2 : 243,197,109
Combo3 : 252,244,112

[HitObjects]
36,37,760,6,0,P|77:28|126:48,1,78.75
197,96,1135,2,0,P|234:105|272:96,1,78.75
373,11,1510,2,0,L|373:99,1,78.75
457,138,1885,2,0,L|457:226,1,78.75
343,279,2260,6,0,P|395:270|436:289,1,78.75
462,353,2635,2,0,P|424:363|386:355,1,78.75
265,307,3010,2,0,L|251:393,1,78.75
168,307,3385,2,0,L|155:384,1,78.75
34,362,3760,6,0,P|26:315|41:278,1,78.75
102,209,4135,2,0,P|112:171|103:133,1,78.75
0,59,4510,2,0,P|37:69|75:60,1,78.75
166,8,4885,2,0,P|203:-1|241:8,1,78.75
336,67,5260,6,0,L|336:145,1,78.75
431,62,5635,2,0,L|431:140,1,78.75
499,237,6010,2,0,P|458:226|422:240,1,78.75
426,326,6385,2,0,P|467:337|503:323,1,78.75
351,283,6760,6,0,L|264:268,1,78.75
194,341,7135,2,0,L|116:354,1,78.75
0,281,7510,2,0,P|21:268|47:263,1,52.5
75,268,7791,2,0,L|82:290,2,13.125
256,192,8260,6,0,L|256:84,1,94.499997116089
346,52,8635,2,0,L|346:139,1,62.9999980773926
346,138,8916,2,0,L|374:139,2,15.7499995193482
497,17,9385,1,0,0:0:0:0:
361,239,9760,6,0,P|415:229|456:243,1,94.499997116089
408,314,10135,1,0,0:0:0:0:
349,384,10322,1,0,0:0:0:0:
256,226,10510,2,0,L|256:131,1,94.499997116089
254,41,10885,1,0,0:0:0:0:
169,84,11072,1,0,0:0:0:0:
151,239,11260,6,0,P|97:229|56:243,1,94.499997116089
0,324,11635,1,0,0:0:0:0:
107,315,11822,1,0,0:0:0:0:
0,168,12010,2,0,L|0:73,1,94.499997116089
0,51,12385,6,0,L|71:32,2,62.9999980773926
194,141,13135,2,0,L|254:157,2,62.9999980773926
358,48,13885,2,0,L|418:31,1,61.6000018798829
463,20,14228,1,0,0:0:0:0:
463,20,14270,5,0,0:0:0:0:
416,192,14645,1,0,0:0:0:0:
512,192,14832,1,0,0:0:0:0:
465,109,15020,1,0,0:0:0:0:
465,106,15395,1,0,0:0:0:0:
465,281,15572,5,0,0:0:0:0:
400,327,15666,1,0,0:0:0:0:
326,313,15760,2,0,B|289:283|308:231|308:231|322:192|302:155|302:155|292:214|232:228,1,236.250009012223
9,189,16135,5,0,0:0:0:0:
28,114,16228,1,0,0:0:0:0:
93,72,16322,1,0,0:0:0:0:
169,84,16416,1,0,0:0:0:0:
217,143,16510,2,0,B|226:193|269:211|269:211|345:143|279:71|233:50,1,236.250009012223
114,167,16885,2,0,B|122:255|122:255|79:296|79:296|88:398,1,236.250009012223
334,356,17260,6,0,B|281:312|281:312|161:327,1,188.999994232178
340,259,17635,2,0,B|393:303|393:303|512:287,1,188.999994232178
486,73,18010,2,0,L|329:94,1,125.999996154785
198,106,18291,1,0,0:0:0:0:
194,194,18385,2,0,P|247:176|246:35,1,188.999994232178
67,46,18760,6,0,B|31:59|31:59|139:91,1,125.999996154785
198,106,19041,1,0,0:0:0:0:
109,172,19135,2,0,P|108:207|154:268,1,62.9999980773926
259,234,19322,1,0,0:0:0:0:
268,309,19416,1,0,0:0:0:0:
277,384,19510,1,0,0:0:0:0:
277,384,19885,2,0,B|359:345|359:415|431:378|431:378|438:304,1,188.999994232178
438,195,20260,6,0,P|382:168|320:181,1,125.999996154785
373,274,20541,1,0,0:0:0:0:
482,267,20635,2,0,P|521:207|453:113,1,188.999994232178
336,7,21010,2,0,B|350:72|350:72|471:118,1,188.999994232178
269,108,21385,2,0,B|255:43|255:43|134:-3,1,188.999994232178
0,23,21760,6,0,L|103:60,1,110.249996635437
251,213,22135,1,0,0:0:0:0:
197,158,22228,1,0,0:0:0:0:
123,140,22322,1,0,0:0:0:0:
50,163,22416,1,0,0:0:0:0:
0,220,22510,2,0,B|55:254|101:215|101:215|114:207|140:210|140:210|157:229|183:235|183:235|200:281|251:285,1,267.750005106926
259,74,22885,2,0,B|353:31|208:-79|156:92|213:209,1,267.750005106926
445,282,23260,6,0,P|475:159|352:99,1,220.499993270874
343,295,23635,2,0,P|280:210|323:114,1,220.499993270874
400,348,24010,2,0,L|406:402,2,36.749998878479
99,363,24385,2,0,B|49:306|49:306|48:137,1,220.499993270874
179,158,24760,6,0,P|108:189|35:141,1,146.999995513916
114,81,25041,1,0,0:0:0:0:
114,103,25135,1,0,0:0:0:0:
338,25,25322,5,0,0:0:0:0:
408,2,25416,1,0,0:0:0:0:
475,32,25510,2,0,B|452:86|452:86|480:219,1,146.999995513916
487,327,25885,2,0,B|502:291|502:291|494:257,1,73.4999977569581
272,295,26072,5,0,0:0:0:0:
263,338,26166,1,0,0:0:0:0:
256,384,26260,1,0,0:0:0:0:
27,367,26635,5,0,0:0:0:0:
28,274,26822,1,0,0:0:0:0:
165,384,27010,2,0,L|166:311,1,73.4999977569581
107,193,27385,1,0,0:0:0:0:
0,163,27572,1,0,0:0:0:0:
155,61,27760,6,0,L|274:61,1,110.249996635437
363,60,28135,1,0,0:0:0:0:
314,141,28322,1,0,0:0:0:0:
479,102,28510,2,0,L|479:24,1,73.4999977569581
400,193,28885,1,0,0:0:0:0:
512,323,29072,1,0,0:0:0:0:
512,326,29166,1,0,0:0:0:0:
512,329,29260,6,0,B|422:343|453:269|347:294,1,157.5
384,375,29635,1,0,0:0:0:0:
272,310,29822,1,0,0:0:0:0:
114,384,30010,1,0,0:0:0:0:
112,275,30197,2,0,L|112:225,2,26.25
112,144,30572,1,0,0:0:0:0:
9,20,30760,6,0,B|122:-16|101:97|228:51,1,210
285,13,31322,1,0,0:0:0:0:
277,125,31510,1,0,0:0:0:0:
443,44,31697,1,0,0:0:0:0:
342,73,31885,1,0,0:0:0:0:
481,148,32072,2,0,L|480:207,10,42
485,349,33760,6,0,P|436:363|386:349,2,105
438,261,34697,1,0,0:0:0:0:
348,261,34885,1,0,0:0:0:0:
393,183,35072,1,0,0:0:0:0:
256,183,35260,2,0,L|256:288,1,105
164,261,35822,1,0,0:0:0:0:
230,371,36010,2,0,P|256:375|282:371,1,52.5
125,349,36385,6,0,P|75:363|26:349,1,105.524995008431
74,261,36760,2,0,L|74:172,2,70.3499966722871
74,117,37322,1,0,0:0:0:0:
256,42,37510,2,0,L|256:182,1,140.699993344574
472,348,38260,5,0,0:0:0:0:
467,271,38447,1,0,0:0:0:0:
428,195,38635,1,0,0:0:0:0:
351,132,38822,1,0,0:0:0:0:
52,348,39010,5,0,0:0:0:0:
57,263,39197,1,0,0:0:0:0:
100,179,39385,1,0,0:0:0:0:
185,110,39572,1,0,0:0:0:0:
256,384,39760,6,0,L|256:269,1,105.524995008431
256,204,40135,1,0,0:0:0:0:
256,108,40322,2,0,L|256:72,1,35.1749983361436
204,20,40510,2,0,B|204:-4|204:-4|312:-4|312:-4|312:20,1,157.5
256,108,40885,2,0,L|256:72,1,35.7000002178955
464,191,41260,6,0,P|480:148|464:104,1,94.499997116089
352,104,41635,2,0,P|336:147|352:191,1,94.499997116089
408,288,42010,1,0,0:0:0:0:
408,384,42197,1,0,0:0:0:0:
256,192,42385,1,0,0:0:0:0:
256,384,42572,1,0,0:0:0:0:
104,96,42760,6,0,B|68:61|68:61|68:228,1,188.999994232178
197,240,43135,2,0,P|166:232|136:239,1,62.9999980773926
256,384,43322,2,0,P|286:391|316:384,1,62.9999980773926
444,199,43510,2,0,B|489:131|445:73|445:73|436:111|453:150,1,188.999994232178
417,280,43885,2,0,P|447:286|477:277,3,62.9999980773926
256,162,44260,6,0,P|197:142|138:161,1,125.999996154785
138,321,44635,2,0,P|196:340|255:320,1,125.999996154785
70,236,45010,1,0,0:0:0:0:
138,161,45197,1,0,0:0:0:0:
138,321,45385,1,0,0:0:0:0:
256,162,45572,1,0,0:0:0:0:
321,382,45760,6,0,P|345:318|316:256,1,141.749995674133
381,318,46135,2,0,L|489:318,1,94.499997116089
512,176,46510,2,0,P|521:130|510:84,1,94.499997116089
347,1,46885,2,0,P|392:10|438:0,1,94.499997116089
255,278,47260,6,0,B|199:169|317:162|255:72|255:72|222:116|253:162,1,314.999990386963
173,169,47822,2,0,P|162:139|163:108,1,62.9999980773926
120,238,48010,2,0,L|58:94,2,125.999996154785
37,235,48572,2,0,P|22:207|0:186,1,62.9999980773926
24,361,48760,6,0,B|80:400|141:350|141:350|211:295|285:352,1,251.999992309571
385,384,49322,2,0,L|386:296,1,62.9999980773926
461,126,49510,2,0,B|487:62|588:124|464:261|317:149,1,252
256,85,49885,2,0,L|256:-3,1,73.4999977569581
51,126,50260,6,0,B|25:62|-76:124|48:261|195:149,1,252
256,84,51010,1,0,0:0:0:0:
256,353,51197,2,0,L|256:269,2,84
96,336,51760,6,0,P|32:312|0:240,1,126
256,269,52135,2,0,L|256:143,1,125.999996154785
415,336,52510,2,0,P|474:316|508:264,1,126
256,143,52885,2,0,L|256:17,1,125.999996154785
256,347,53260,6,0,L|256:259,1,78.75
142,105,53635,1,0,0:0:0:0:
185,41,53728,1,0,0:0:0:0:
256,17,53822,1,0,0:0:0:0:
330,38,53916,1,0,0:0:0:0:
377,98,54010,2,0,P|402:56|387:-11,1,110.249996635437
142,105,54385,2,0,P|112:61|126:-7,1,110.249996635437
256,143,54666,1,0,0:0:0:0:
256,143,54760,6,0,L|256:62,1,78.7500030040742
512,100,55135,5,0,0:0:0:0:
510,156,55228,1,0,0:0:0:0:
510,213,55322,1,0,0:0:0:0:
508,270,55416,1,0,0:0:0:0:
510,326,55510,2,0,B|449:368|384:312|384:312|318:257|249:317,1,275.62501051426
187,376,56260,6,0,P|262:261|154:176,1,301.875005757809
163,278,56822,1,0,0:0:0:0:
0,126,57010,2,0,B|21:225|166:222|188:116|188:116|204:43|276:43,1,354.375001351833
273,126,57572,1,0,0:0:0:0:
464,74,57760,6,0,P|399:215|272:125,1,354.375001351833
374,116,58322,1,0,0:0:0:0:
434,327,58510,2,0,B|336:372|277:296|277:296|201:211|115:283,1,354.375001351833
195,353,59072,1,0,0:0:0:0:
31,368,59260,6,0,B|133:363|159:212|56:175|56:175|-30:144|11:37|11:37|8:87|59:130,1,496.125001892567
283,71,60010,2,0,B|254:110|192:150|113:107|95:45|95:45|112:9|169:-8|209:23,1,354.375001351833
282,65,60572,1,0,0:0:0:0:
512,211,60760,6,0,B|537:256|514:323|417:314|380:283|384:166|460:64|460:64|408:129|313:86,1,496.125001892567
383,0,61510,2,0,B|306:-10|280:64|280:64|254:131|177:110,1,212.6250008111
197,15,61885,2,0,L|234:240,1,212.6250008111
350,325,62260,6,0,P|232:223|156:358,1,354.375001351833
251,325,62822,1,0,0:0:0:0:
47,384,63010,2,0,B|26:257|109:167|109:167|51:206|-6:167,1,354.375001351833
53,83,63572,1,0,0:0:0:0:
225,78,63760,6,0,B|250:97|270:112|270:112|189:93|126:154|126:154|56:211|-3:168,1,354.375001351833
53,83,64322,1,0,0:0:0:0:
268,110,64510,2,0,B|342:132|360:209|360:209|341:258|379:306,1,212.6250008111
393,358,64885,2,0,P|442:309|440:240,1,141.750000540733
225,384,65260,6,0,B|157:368|156:301|172:267|172:267|194:219|216:167|216:167|232:128|210:88|163:81,1,354.375001351833
97,52,65822,1,0,0:0:0:0:
49,171,66010,2,0,B|42:225|42:225|76:176,2,110.249996635437
0,322,66572,1,0,0:0:0:0:
248,305,66760,6,0,L|326:131,1,165.374994953156
276,71,67135,1,0,0:0:0:0:
403,127,67322,1,0,0:0:0:0:
341,284,67510,2,0,L|295:384,1,110.249996635437
441,226,67885,2,0,L|486:326,1,110.249996635437
275,69,68260,6,0,P|192:24|108:68,1,196.875007510186
194,127,68822,1,0,0:0:0:0:
95,159,69010,2,0,P|93:108|113:60,2,94.499997116089
194,127,69572,1,0,0:0:0:0:
255,206,69760,6,0,P|162:225|95:159,1,196.875007510186
194,127,70322,1,0,0:0:0:0:
275,69,70510,2,0,P|291:113|287:160,1,94.499997116089
194,127,70885,1,0,0:0:0:0:
138,308,71072,1,0,0:0:0:0:
391,375,71260,6,0,B|426:319|385:236|385:236|344:156|401:113|401:113|423:132|452:133|452:133|428:148|422:176,1,367.49998878479
458,49,71822,1,0,0:0:0:0:
278,24,72010,2,0,B|336:18|368:79|368:79|404:132|456:134,1,220.499993270874
270,134,72385,6,0,L|283:106,1,31.4999990386963
168,120,72572,2,0,L|130:69,1,52.5
132,217,72760,6,0,L|48:226,1,78.7500030040742
54,384,72947,1,0,0:0:0:0:
54,384,73041,1,0,0:0:0:0:
54,384,73135,6,0,L|87:306,1,78.7500030040742
458,384,73322,2,0,L|424:306,1,78.7500030040742
256,72,73510,2,0,L|256:192,1,110.249996635437
256,279,73885,6,0,P|255:360|257:279,1,252,0|0,0:0|0:0,3:0:0:0:
256,182,74260,6,0,L|256:166,1,10.5
337,161,74447,2,0,L|337:145,1,10.5
415,86,74635,2,0,L|415:96,1,10.5
496,64,74822,2,0,L|496:75,1,10.5
256,72,75010,6,0,L|255:87,1,10.5
175,93,75197,2,0,L|174:108,1,10.5
0,229,75385,2,0,L|0:240,1,10.5
80,250,75572,2,0,L|81:261,1,10.5
64,38,75760,6,0,L|54:38,1,10.5
43,119,75947,2,0,L|33:119,1,10.5
191,213,76135,2,0,L|201:213,1,10.5
212,294,76322,2,0,L|222:294,1,10.5
10,379,76510,6,0,L|0:379,1,10.5
31,298,76697,2,0,L|20:298,1,10.5
256,384,76885,1,0,0:0:0:0:
372,255,77072,1,0,0:0:0:0:
377,288,77166,1,0,0:0:0:0:
382,321,77260,5,0,0:0:0:0:
512,192,77447,1,0,0:0:0:0:
257,191,77635,5,0,0:0:0:0:
349,98,77822,2,0,L|379:69,1,42
256,41,78010,2,0,L|255:0,1,42
162,98,78197,2,0,L|133:69,1,42
256,320,78385,5,0,0:0:0:0:
257,191,78572,1,0,0:0:0:0:
88,352,78760,5,0,0:0:0:0:
192,256,78947,1,0,0:0:0:0:
424,352,79135,5,0,0:0:0:0:
320,256,79322,1,0,0:0:0:0:
256,384,79510,5,0,0:0:0:0:
256,160,79697,1,0,0:0:0:0:
104,272,79885,5,0,0:0:0:0:
408,272,80072,1,0,0:0:0:0:
408,269,80166,1,0,0:0:0:0:
408,266,80260,6,0,L|408:201,1,42
104,266,80447,2,0,L|104:201,1,42
301,23,80635,6,0,L|301:65,1,42
347,168,80822,2,0,L|347:126,1,42
211,23,81010,6,0,L|211:65,1,42
165,168,81197,2,0,L|165:126,1,42
381,24,81385,6,0,L|435:13,1,42
131,24,81572,2,0,L|77:13,1,42
0,213,81760,6,0,L|0:255,1,42
0,342,81947,2,0,L|0:384,1,42
256,111,82135,6,0,L|256:153,1,42
256,240,82322,2,0,L|256:282,1,42
512,213,82510,6,0,L|512:255,1,42
512,342,82697,2,0,L|512:384,1,42
142,384,82885,6,0,L|79:346,1,42
370,384,83072,2,0,L|433:346,1,42
256,240,83260,5,0,0:0:0:0:
256,219,83353,1,0,0:0:0:0:
256,198,83447,1,0,0:0:0:0:
256,177,83541,1,0,0:0:0:0:
256,156,83635,1,0,0:0:0:0:
256,135,83728,1,0,0:0:0:0:
256,114,83822,1,0,0:0:0:0:
256,93,83916,1,0,0:0:0:0:
256,45,84010,6,0,L|256:21,1,21
222,60,84103,6,0,L|205:43,1,21
208,93,84197,6,0,L|184:93,1,21
222,127,84291,6,0,L|205:143,1,21
256,141,84385,6,0,L|256:165,1,21
289,127,84478,6,0,L|305:143,1,21
304,93,84572,6,0,L|328:93,1,21
289,60,84666,6,0,L|305:43,1,21
256,93,84760,5,0,0:0:0:0:
128,360,85322,5,0,0:0:0:0:
171,232,85510,2,0,P|202:251|225:279,1,73.4999977569581
26,271,85697,2,0,P|8:303|2:339,1,73.4999977569581
72,168,85885,2,0,B|39:127|39:127|49:82|49:82|79:116|79:116|72:161,1,188.999994232178
392,339,86260,6,0,B|415:288|393:242|393:242|358:223|359:181|359:181|318:124|361:76|361:76|408:125|359:184,1,409.499981254579
294,270,86635,2,0,B|291:297|260:315|260:315|242:290|259:254,1,120.750002303124
200,118,86822,2,0,B|197:90|166:72|166:72|148:97|165:133,1,120.750002303124
78,321,87010,2,0,B|29:334|21:387|21:387|-36:323|7:240|7:240|17:246|17:246|75:180|18:88,1,409.499981254579
0,41,87385,5,0,0:0:0:0:
75,2,87478,1,0,0:0:0:0:
125,70,87572,1,0,0:0:0:0:
228,17,87666,6,0,B|287:7|319:56|319:56|362:40|370:-4|370:-4|416:-9|424:40|424:40|402:28|385:-8,1,293.999991027832
394,182,87947,2,0,B|373:200|373:200|344:158|382:100,1,115.50000352478
226,161,88135,2,0,B|247:179|247:179|276:137|238:79,1,115.50000352478
307,275,88322,5,0,0:0:0:0:
307,295,88416,1,0,0:0:0:0:
357,362,88510,2,0,B|299:381|299:381|238:348,1,115.50000352478
32,291,88697,2,0,B|90:272|90:272|151:305,1,115.50000352478
461,147,88885,6,0,P|481:121|507:161,1,94.499997116089
477,268,89072,2,0,P|456:293|430:253,1,94.499997116089
80,128,89260,6,0,B|26:110|26:110|201:62,1,210
407,153,89447,2,0,L|367:163,1,42
391,83,89541,2,0,L|350:92,1,42
374,12,89635,2,0,L|333:21,1,42
256,176,89822,5,0,0:0:0:0:
256,192,89916,1,0,0:0:0:0:
224,264,90010,2,0,B|256:326|256:326|289:263,1,141.750000540733
116,159,90197,5,0,0:0:0:0:
109,135,90291,1,0,0:0:0:0:
10,211,90385,5,0,0:0:0:0:
33,285,90479,1,0,0:0:0:0:
59,357,90572,2,0,B|45:382|45:382|129:350|129:350|107:342,1,141.750000540733
256,176,90760,5,0,0:0:0:0:
233,102,90854,1,0,0:0:0:0:
207,30,90947,2,0,B|221:5|221:5|137:37|137:37|159:45,1,141.750000540733
446,276,91135,2,0,B|461:318|461:318|487:251|487:251|464:193,1,178.500003404617
328,88,91322,2,0,L|354:156,1,73.4999977569581
177,384,91510,2,0,B|127:344|71:379|71:379|61:334|116:308|116:308|76:305|61:265|61:265|50:202|93:176|93:176|75:202|85:243,1,440.999986541749
418,198,91885,2,0,B|357:149|291:201|291:201|286:201|286:201|288:207|288:207|283:205|283:205|225:265|161:215|161:215|189:159|157:94|99:87|46:105,1,440.999986541749
410,383,92260,6,0,B|361:343|393:275|393:275|453:278|465:216|465:216|391:203|404:144|404:144|440:136|446:98|446:98|396:108|344:73,1,440.999986541749
142,28,92635,2,0,P|63:35|31:115,1,146.999995513916
65,323,92822,2,0,P|105:381|176:383,1,146.999995513916
360,90,93010,6,0,B|365:53|405:39|405:39|418:84|390:108,1,146.999995513916
272,174,93197,2,0,B|237:188|204:159|204:159|238:126|272:138,1,146.999995513916
390,206,93385,2,0,B|419:228|411:271|411:271|365:259|358:223,1,146.999995513916
265,61,93572,6,0,B|235:38|243:-4|243:-4|289:7|296:43,1,146.999995513916
296,270,93760,2,0,B|290:306|250:320|250:320|237:275|265:251,1,146.999995513916
462,139,93947,2,0,B|496:124|529:153|529:153|495:186|461:174,1,146.999995513916
65,269,94135,6,0,B|65:206|65:206|85:184|85:184|85:93,1,146.999995513916
20,9,94322,2,0,B|20:63|20:63|0:85|0:85|0:148,1,146.999995513916
148,240,94510,5,0,0:0:0:0:
222,197,94603,1,0,0:0:0:0:
152,253,94697,1,0,0:0:0:0:
226,210,94790,1,0,0:0:0:0:
175,338,94885,6,0,B|187:373|230:377|230:377|249:335|189:304,1,146.999995513916
354,298,95072,2,0,B|381:322|421:304|421:304|416:258|349:261,1,146.999995513916
256,94,95260,6,0,L|256:0,2,94.499997116089
256,192,95822,1,0,0:0:0:0:
256,384,96010,5,0,0:0:0:0:
368,352,96197,1,0,0:0:0:0:
464,240,96385,1,0,0:0:0:0:
496,64,96572,2,0,L|496:23,1,31.4999990386963
256,192,96947,5,0,0:0:0:0:
256,0,97135,1,0,0:0:0:0:
0,192,97322,1,0,0:0:0:0:
0,264,97416,1,0,0:0:0:0:
0,336,97510,2,0,B|54:385|121:341|121:341|156:266|235:293|235:293|254:323|254:323|301:280|362:318,1,409.499981254579
496,167,97885,2,0,B|589:0|416:-108|328:52|371:153,1,409.499981254579
63,277,98260,6,0,B|43:233|66:192|66:192|109:168|109:168|96:122|43:109|43:109|12:54|56:10|56:10|102:50|43:122,1,409.499981254579
256,192,98635,2,0,B|283:165|256:108|256:108|252:141|210:161,1,136.499993751526
63,277,98822,2,0,B|36:304|63:361|63:361|67:328|109:308,1,136.499993751526
507,211,99010,6,0,P|444:206|440:143,1,136.499993751526
183,297,99197,2,0,P|234:261|206:205,1,136.499993751526
349,85,99385,2,0,P|292:57|257:108,1,136.499993751526
353,318,99572,6,0,B|409:362|367:417|303:360|381:262,1,136.499993751526
173,130,99760,2,0,B|106:156|80:92|161:65|207:182,1,136.499993751526
427,68,99947,2,0,B|437:-2|505:6|488:90|364:71,1,136.499993751526
341,228,100135,2,0,P|321:160|331:230,1,210,0|0,0:0|0:0,3:0:0:0:
17,368,100322,6,0,L|18:218,1,94.499997116089
21,79,100510,1,0,0:0:0:0:
37,111,100603,1,0,0:0:0:0:
141,33,100697,1,0,0:0:0:0:
157,1,100790,1,0,0:0:0:0:
173,130,100885,2,0,B|135:202|177:262|177:262|186:218|229:202,1,210
259,281,101072,2,0,L|299:305,1,26.25
477,37,101260,6,0,B|487:97|443:130|443:130|504:142|511:196|511:196|461:250|493:311|493:311|434:295|449:225,1,409.499981254579
396,60,101635,2,0,B|404:43|404:43|313:-3|313:-3|303:9,1,136.499993751526
177,262,101822,2,0,B|169:279|169:279|260:325|260:325|269:312,1,136.499993751526
319,88,102010,6,0,L|294:132,1,49.8749986681939
141,33,102197,6,0,L|165:76,1,49.8749986681939
2,159,102385,6,0,L|51:159,1,49.8749986681939
41,342,102572,5,0,0:0:0:0:
392,384,102760,5,0,0:0:0:0:
372,303,102853,1,0,0:0:0:0:
313,361,102947,2,0,P|289:297|316:242,1,99.7499973363877
339,98,103135,5,0,0:0:0:0:
416,17,103228,1,0,0:0:0:0:
495,98,103322,1,0,0:0:0:0:
415,174,103416,1,0,0:0:0:0:
415,95,103510,6,0,B|366:30|303:40|303:40|222:134|135:46|135:46|180:35|231:83,1,393.75
76,235,103885,2,0,B|43:267|51:311|51:311|-22:247|29:162|29:162|86:134|134:162|151:202,1,393.75
398,307,104260,6,0,B|364:342|364:342|289:343|289:343|272:351|272:351|175:349|175:349|127:294|127:294|223:294|223:294|244:332,1,440.999986541749
473,357,104635,2,0,B|488:303|488:303|472:256,1,105
273,193,104822,1,0,0:0:0:0:
322,264,104916,1,0,0:0:0:0:
359,187,105010,2,0,P|317:118|263:106,1,105
99,33,105197,5,0,0:0:0:0:
113,62,105291,1,0,0:0:0:0:
14,105,105385,1,0,0:0:0:0:
0,134,105479,1,0,0:0:0:0:
31,266,105572,2,0,P|72:312|130:267,1,141.750000540733
474,350,105760,5,0,0:0:0:0:
474,263,105853,1,0,0:0:0:0:
474,176,105947,2,0,L|474:50,1,84
256,243,106135,2,0,L|255:384,1,141.750000540733
281,164,106322,2,0,P|255:157|230:163,1,52.5
61,334,106510,6,0,B|24:263|79:201|79:201|145:112|56:41|56:41|-15:107|42:210,1,440.999986541749
406,273,106885,2,0,B|347:316|288:268|288:268|228:215|156:174|89:278|137:339|205:339|205:339|193:258,1,440.999986541749
421,92,107260,2,0,B|452:75|444:32|444:32|464:74|504:87|504:87|503:147|471:179|401:226|291:150|350:29,1,440.999986541749
289,9,107635,6,0,B|255:49|255:49|166:35,1,105
0,46,107822,2,0,B|34:6|34:6|123:20,1,105
109,199,108010,6,0,P|100:250|100:250,1,52.5
212,384,108197,6,0,L|220:332,1,52.5
350,281,108385,5,0,0:0:0:0:
472,376,108572,6,0,P|472:291|462:375,1,257.249992149353,0|0,0:0|0:0,3:0:0:0:
224,147,110260,2,0,L|191:27,1,118.125004506111
95,0,110635,2,0,L|115:76,1,78.7500030040742
58,186,111010,5,0,0:0:0:0:
38,110,111197,1,0,0:0:0:0:
129,249,111385,1,0,0:0:0:0:
149,173,111572,1,0,0:0:0:0:
158,339,111760,2,0,L|224:271,2,78.7500030040742
256,384,112322,5,0,0:0:0:0:
300,281,112510,1,0,0:0:0:0:
354,339,112697,1,0,0:0:0:0:
363,173,112885,1,0,0:0:0:0:
383,249,113072,1,0,0:0:0:0:
474,110,113260,2,0,L|449:205,2,78.7500030040742
504,0,113822,5,0,0:0:0:0:
363,173,114010,1,0,0:0:0:0:
149,173,114197,1,0,0:0:0:0:
256,0,114385,1,0,0:0:0:0:
256,104,114572,1,0,0:0:0:0:
24,104,114760,6,0,L|24:0,2,78.7500030040742
24,208,115322,1,0,0:0:0:0:
104,360,115510,5,0,0:0:0:0:
104,264,115697,1,0,0:0:0:0:
408,264,115885,5,0,0:0:0:0:
408,360,116072,1,0,0:0:0:0:
256,152,116260,6,0,B|233:100|233:100|256:64|256:64|276:100|276:100|256:152,1,196.875007510186
256,384,117010,1,0,0:0:0:0:
184,312,117197,1,0,0:0:0:0:
328,312,117385,1,0,0:0:0:0:
128,192,117572,1,0,0:0:0:0:
383,192,117760,6,0,P|392:153|382:115,1,78.7500030040742
256,272,118135,2,0,L|256:193,1,78.7500030040742
128,192,118510,2,0,P|119:153|129:115,1,78.7500030040742
255,39,118885,2,0,P|256:0|260:38,1,118.125004506111
256,139,119260,6,0,L|256:192,1,52.5
0,48,119635,1,0,0:0:0:0:
0,92,119728,1,0,0:0:0:0:
0,136,119822,1,0,0:0:0:0:
0,181,119916,1,0,0:0:0:0:
0,224,120010,2,0,B|48:264|96:224|96:224|152:184|216:224,1,204.749990627289
96,304,120385,2,0,P|128:232|208:296,1,204.749990627289
161,379,120760,6,0,L|159:348,1,31.5
350,379,121135,5,0,0:0:0:0:
354,331,121228,1,0,0:0:0:0:
358,284,121322,1,0,0:0:0:0:
362,237,121416,1,0,0:0:0:0:
366,190,121510,2,0,B|344:142|376:97|376:97|435:6|494:110|425:145|377:97|377:97|323:36|256:71,1,404.250012336731
126,147,122260,6,0,B|196:203|257:143|257:143|214:133|189:79,1,210
276,62,122822,1,0,0:0:0:0:
59,102,123010,2,0,B|46:132|46:149|46:149|-32:78|26:-17,1,210
98,26,123572,1,0,0:0:0:0:
132,147,123760,2,0,B|127:202|89:238|28:231|28:231|-26:249|-18:306|-18:306|4:262|53:261,1,288.750008811951
57,345,124322,1,0,0:0:0:0:
200,256,124510,2,0,B|248:216|304:256|304:256|365:304|424:256,1,236.249992790222
364,195,125072,1,0,0:0:0:0:
399,376,125260,6,0,B|366:318|414:265|414:265|464:218|458:153|420:102|339:110,1,330.749989906311
305,257,126010,2,0,B|258:208|277:140|312:116|365:110|365:110|428:111|454:45,1,288.750008811951
371,25,126572,1,0,0:0:0:0:
208,81,126760,6,0,B|152:112|104:60|104:60|50:-5|-21:35,1,236.249992790222
31,105,127322,1,0,0:0:0:0:
123,269,127510,2,0,P|120:212|68:156,1,94.499997116089
25,294,127885,2,0,P|0:243|15:169,1,94.499997116089
100,352,128260,2,0,B|172:364|204:299|204:299|232:235|310:239,1,236.249992790222
298,341,128822,1,0,0:0:0:0:
472,265,129010,2,0,B|400:277|368:212|368:212|340:148|262:152,1,236.249992790222
288,239,129572,1,0,0:0:0:0:
512,139,129760,6,0,B|578:60|516:12|439:11|437:113,1,236.249992790222
449,182,130322,1,0,0:0:0:0:
289,67,130510,2,0,P|233:82|205:122,1,94.499997116089
120,61,130885,2,0,P|104:116|125:161,1,94.499997116089
256,372,131260,6,0,B|189:271|110:385|38:258,1,236.249992790222
129,238,131822,1,0,0:0:0:0:
256,372,132010,2,0,B|323:271|402:385|474:258,1,236.249992790222
383,238,132572,1,0,0:0:0:0:
256,132,132760,6,0,L|256:274,1,141.749995674133
256,372,133135,1,0,0:0:0:0:
383,238,133322,1,0,0:0:0:0:
129,238,133510,2,0,P|118:192|129:146,1,94.499997116089
382,238,133885,2,0,P|393:192|382:146,1,94.499997116089
256,73,134260,6,0,L|256:0,2,73.4999977569581
256,167,134822,1,0,0:0:0:0:
156,75,135010,2,0,L|86:75,2,52.5
23,76,135572,1,0,0:0:0:0:
23,207,135760,6,0,L|23:137,2,52.5
21,307,136322,1,0,0:0:0:0:
140,282,136510,1,0,0:0:0:0:
218,372,136697,2,0,L|237:274,1,78.75
239,264,137072,1,0,0:0:0:0:
312,384,137260,6,0,L|337:254,1,131.25
343,224,137822,1,0,0:0:0:0:
420,312,138010,2,0,L|406:384,2,73.4999977569581
440,207,138572,1,0,0:0:0:0:
329,151,138760,6,0,L|342:223,2,73.4999977569581
309,46,139322,1,0,0:0:0:0:
440,207,139510,6,0,L|483:-23,1,231.000007049561
