osu file format v14

[General]
AudioFilename: audio.mp3
AudioLeadIn: 0
PreviewTime: 77262
Countdown: 0
SampleSet: Soft
StackLeniency: 0.4
Mode: 0
LetterboxInBreaks: 0
WidescreenStoryboard: 0

[Editor]
Bookmarks: 28887,72762,83918,89074
DistanceSpacing: 1.4
BeatDivisor: 8
GridSize: 32
TimelineZoom: 3.199999

[Metadata]
Title:Marigold (ft. Guriri)
TitleUnicode:Marigold (ft. グリリ)
Artist:M2U
ArtistUnicode:M2U
Creator:- Frontier -
Version:Lost's Light Insane
Source:Deemo
Tags:rayark magnolia myosotis alternate story symphonic boss song piano violin dnb drum'n'bass drum and bass Samsara Collection Diversity forgotten hourglass 3.0 SQUARE-MUSIQ TMDC @ SQ Lab nicode narae 구리리 boatkrab [_lost_] shockolatte -_frontier_- KittyAdventure gokugohan12468
BeatmapID:1260616
BeatmapSetID:594884

[Difficulty]
HPDrainRate:6
CircleSize:4
OverallDifficulty:6
ApproachRate:8.5
SliderMultiplier:1.64
SliderTickRate:1

[Events]
//Background and Video events
0,0,"bg.jpg",0,0
//Break Periods
2,103712,111837
//Storyboard Layer 0 (Background)
//Storyboard Layer 1 (Fail)
//Storyboard Layer 2 (Pass)
//Storyboard Layer 3 (Foreground)
//Storyboard Sound Samples

[TimingPoints]
1512,375,4,2,4,50,1,0
1512,-200,4,2,4,50,0,0
15762,526.315789473684,4,2,4,15,1,0
15762,-153.846153846154,4,2,4,15,0,0
16025,535.714285714286,4,2,4,15,1,0
16292,750,4,2,4,15,1,0
16667,714.285714285714,4,2,4,15,1,0
16934,-100,4,2,5,35,0,0
17024,-100,4,2,5,35,0,0
17068,-100,4,2,6,35,0,0
17113,-100,4,2,6,35,0,0
17158,-100,4,2,6,35,0,0
19512,375,4,2,1,80,1,0
33012,-133.333333333333,4,2,1,60,0,0
35824,-285.714285714286,4,2,2,60,0,0
36762,-285.714285714286,4,2,2,30,0,0
37512,-285.714285714286,4,2,4,45,0,0
46512,-125,4,2,4,45,0,0
46887,-125,4,1,1,45,0,0
48012,-166.666666666667,4,2,1,50,0,0
53637,-166.666666666667,4,2,4,50,0,0
54012,-166.666666666667,4,2,1,50,0,0
57574,-166.666666666667,4,1,0,50,0,0
59262,-500,4,2,2,50,0,0
59918,-500,4,2,2,5,0,0
60012,-117.647058823529,4,2,1,55,0,0
72012,-200,4,2,4,35,0,0
75012,-100,4,2,1,65,0,0
77262,-80,4,2,1,70,0,0
77637,-66.6666666666667,4,2,1,75,0,0
78012,-100,4,2,1,80,0,1
84012,-100,4,2,1,80,0,1
84199,-100,4,2,4,80,0,1
84762,-100,4,2,1,80,0,1
84949,-100,4,2,4,80,0,1
85512,-100,4,2,1,80,0,1
85699,-100,4,2,4,80,0,1
86262,-100,4,2,1,80,0,1
86449,-100,4,2,4,80,0,1
87012,-100,4,2,1,80,0,1
87199,-100,4,2,4,80,0,1
88512,-100,4,2,1,80,0,1
89637,-66.6666666666667,4,2,1,75,0,0
90012,-100,4,2,1,80,0,1
93387,-100,4,2,4,80,0,1
93762,-100,4,2,1,80,0,1
93855,-100,4,2,4,80,0,1
94512,-100,4,2,1,80,0,1
94887,-100,4,2,1,80,0,1
95262,-100,4,2,4,80,0,1
95449,-100,4,2,1,80,0,1
95637,-66.6666666666667,4,2,1,80,0,1
96012,-100,4,2,1,80,0,1
101449,-100,4,2,1,80,0,0
101637,-100,4,2,1,60,0,1
101730,-100,4,2,1,60,0,0
103512,-100,4,2,2,45,0,0
112512,-285.714285714286,4,2,1,45,0,0
121512,-125,4,2,1,45,0,0
122074,-125,4,1,1,45,0,0
123012,-200,4,1,1,45,0,0
123387,-200,4,1,0,45,0,0
123762,-200,4,2,2,45,0,0
124512,-133.333333333333,4,2,1,50,0,0
136512,-200,4,2,4,35,0,0
139512,-312.5,4,2,2,20,0,0
141762,-312.5,4,2,2,20,0,0
141855,-312.5,4,2,1,20,0,0
144012,-312.5,4,2,1,15,0,0
144387,-312.5,4,2,1,10,0,0
144762,-312.5,4,2,1,5,0,0
145512,-312.5,4,2,2,5,0,0

[Colours]
Combo1 : 255,246,205
Combo2 : 26,44,94
Combo3 : 130,140,165
Combo4 : 177,148,148

[HitObjects]
41,141,1512,6,0,P|144:187|248:116,1,246,2|0,0:0|0:0,0:0:0:0:
246,119,3012,2,0,B|236:198|236:198|255:280|255:280|245:373,1,246,0|0,0:0|0:0,0:0:0:0:
246,361,4512,6,0,P|276:347|372:353,1,123,2|0,0:0|0:0,0:0:0:0:
437,326,5262,2,0,L|435:267,1,41,0|0,0:0|0:0,0:0:0:0:
348,222,5637,2,0,L|350:281,1,41,0|0,0:0|0:0,0:0:0:0:
486,218,6012,6,0,L|481:127,1,82,2|0,0:0|0:0,0:0:0:0:
257,45,6762,2,0,L|262:136,1,82,2|0,0:0|0:0,0:0:0:0:
214,200,7324,1,0,0:0:0:0:
136,161,7512,2,0,L|131:113,2,41
185,317,8262,2,0,P|225:319|265:309,1,82,2|2,0:0|0:0,0:0:0:0:
418,367,9012,6,0,P|430:296|417:243,1,123,2|0,0:0|0:0,0:0:0:0:
418,143,9762,2,0,P|459:142|507:154,1,82,2|0,0:0|0:0,0:0:0:0:
327,207,10512,6,0,P|310:161|323:81,1,123,2|0,0:0|0:0,0:0:0:0:
227,215,11262,2,0,P|244:261|231:341,1,123,2|0,0:0|0:0,0:0:0:0:
46,273,12012,2,0,L|169:280,1,123,2|0,0:0|0:0,0:0:0:0:
190,133,12762,2,0,L|60:126,1,123,0|0,0:0|0:0,0:0:0:0:
9,66,13512,6,0,L|18:201,1,123,2|0,0:0|0:0,0:0:0:0:
16,276,14262,2,0,P|71:265|147:285,1,123,2|0,0:0|0:0,0:0:0:0:
177,354,15012,2,0,P|232:365|308:345,1,123,2|0,0:0|0:0,0:0:0:0:
320,273,15762,2,0,L|322:217,1,53.2999975601197
237,187,16292,2,0,L|233:273,1,82
380,338,16934,5,2,0:0:0:0:
380,338,17024,2,0,L|383:322,3,10.25,8|2|8|4,0:0|0:0|0:0|0:0,0:0:0:0:
383,271,19512,6,0,B|313:285|290:238|216:255,1,164,4|0,0:0|0:0,0:0:0:0:
138,332,20074,1,0,0:0:0:0:
42,268,20262,2,0,P|39:215|37:172,1,82,8|0,0:0|0:0,0:0:0:0:
133,66,20637,2,0,P|135:118|138:162,1,82,2|0,3:0|0:0,0:0:0:0:
131,165,20918,1,0,0:0:0:0:
124,182,21012,6,0,P|186:207|278:170,1,164,2|0,0:0|0:1,0:0:0:0:
331,76,21574,1,0,0:0:0:0:
440,111,21762,2,0,L|434:246,1,123,8|0,0:0|0:0,0:0:0:0:
419,248,22137,2,0,P|415:298|423:340,1,82,2|0,3:0|0:0,0:0:0:0:
432,345,22418,1,0,0:0:0:0:
446,359,22512,6,0,L|272:354,1,164,2|2,0:0|0:0,0:0:0:0:
167,349,23074,1,0,0:0:0:0:
167,349,23168,1,0,0:0:0:0:
167,349,23262,2,0,P|186:307|156:189,1,164,0|2,1:2|0:0,0:0:0:0:
83,112,23824,1,0,0:0:0:0:
161,195,24012,6,0,L|335:190,1,164,2|2,0:0|0:0,0:0:0:0:
409,112,24574,1,0,0:0:0:0:
318,36,24762,2,0,P|299:93|303:129,1,82,8|0,0:0|0:0,0:0:0:0:
404,273,25137,2,0,P|423:216|419:180,1,82
318,36,25512,6,0,L|194:48,1,123,2|0,0:0|0:0,0:0:0:0:
176,40,25887,1,0,0:0:0:0:
156,33,25980,1,0,0:0:0:0:
137,24,26074,1,0,0:0:0:0:
118,15,26168,1,0,0:0:0:0:
98,9,26262,2,0,L|104:141,1,123,8|0,0:0|0:0,0:0:0:0:
117,146,26637,2,0,P|72:139|21:144,1,82
130,286,27012,6,0,B|192:304|219:246|296:270,1,164,2|0,0:0|0:0,0:0:0:0:
391,320,27574,1,0,0:0:0:0:
476,243,27762,2,0,P|479:183|478:157,1,82,8|0,0:0|0:0,0:0:0:0:
470,146,28043,1,0,0:0:0:0:
460,131,28137,2,0,P|421:123|361:133,1,82,0|0,0:0|0:0,0:0:0:0:
159,156,28512,6,0,L|307:160,1,123,2|0,0:0|0:0,0:0:0:0:
297,151,28887,2,0,P|304:112|295:52,1,82,0|0,0:0|0:0,0:0:0:0:
87,190,29262,1,8,0:0:0:0:
91,206,29355,1,0,0:0:0:0:
96,221,29449,1,0,0:0:0:0:
99,236,29543,1,0,0:0:0:0:
103,251,29637,2,0,L|37:242,1,41,8|8,0:3|0:3,0:0:0:0:
21,333,29824,2,0,L|82:318,1,41,4|4,0:3|0:3,0:0:0:0:
148,350,30012,6,0,L|153:172,1,164,4|0,0:0|0:0,0:0:0:0:
74,102,30574,1,2,0:0:0:0:
152,186,30762,2,0,P|218:192|258:179,1,82,0|0,0:0|0:0,0:0:0:0:
385,85,31137,2,0,P|365:84|328:88,3,41,2|0|0|0,0:0|0:0|0:0|0:0,0:0:0:0:
325,96,31512,6,0,P|328:138|330:177,1,82,2|0,0:0|0:0,0:0:0:0:
269,333,31887,2,0,P|265:290|263:251,1,82,0|2,0:0|0:0,0:0:0:0:
399,77,32262,2,0,P|404:141|408:201,1,123,0|0,0:0|0:0,0:0:0:0:
407,225,32637,2,0,P|459:231|506:215,1,82,2|0,0:0|0:0,0:0:0:0:
498,210,32918,1,0,0:0:0:0:
505,196,33012,6,0,P|499:260|495:320,1,123,4|0,0:1|0:0,0:0:0:0:
424,366,33574,1,0,0:0:0:0:
346,327,33762,2,0,P|291:314|247:320,1,92.2500035190584
236,321,34137,1,0,0:0:0:0:
157,356,34324,1,0,0:0:0:0:
101,287,34512,6,0,P|131:229|121:102,1,184.500007038117
61,54,35262,2,0,P|22:48|-7:56,1,61.5000023460389
28,134,35637,1,0,0:0:0:0:
125,112,35824,6,0,B|197:126|197:126|267:108,1,143.499995620728,2|0,0:0|3:0,0:0:0:0:
126,112,37512,6,0,L|216:109,1,86.0999973724366,2|0,0:0|0:0,0:0:0:0:
292,103,38262,2,0,L|288:140,1,28.6999991241455,2|0,0:0|0:0,0:0:0:0:
226,209,38637,2,0,L|222:172,1,28.6999991241455
279,282,39012,2,0,P|224:282|191:292,1,86.0999973724366,2|0,0:0|0:0,0:0:0:0:
338,329,39762,2,0,P|353:300|352:268,1,57.3999982482911,2|0,0:0|0:0,0:0:0:0:
328,129,40512,6,0,P|378:132|421:128,1,86.0999973724366,2|0,0:0|0:0,0:0:0:0:
479,86,41262,2,0,P|482:36|482:23,1,57.3999982482911,2|0,0:0|0:0,0:0:0:0:
490,220,42012,2,0,P|440:217|397:221,1,86.0999973724366,2|0,0:0|0:0,0:0:0:0:
339,263,42762,2,0,P|336:313|336:326,1,57.3999982482911,2|0,0:0|0:0,0:0:0:0:
147,350,43512,6,0,L|236:344,1,86.0999973724366,2|0,0:0|0:0,0:0:0:0:
258,273,44262,2,0,L|260:232,1,28.6999991241455,2|0,0:0|0:0,0:0:0:0:
176,231,44637,2,0,L|178:272,1,28.6999991241455
215,155,45012,2,0,L|126:161,1,86.0999973724366,2|0,0:0|0:0,0:0:0:0:
55,151,45762,2,0,P|47:120|47:89,1,57.3999982482911,2|0,0:0|0:0,0:0:0:0:
175,37,46512,6,0,B|221:56|256:23|313:35,1,131.2,2|0,0:0|0:0,0:0:0:0:
400,88,47074,1,0,0:0:0:0:
508,81,47262,2,0,P|504:118|445:187,1,131.2
431,169,48012,6,0,P|382:162|283:208,1,147.599995495606,4|0,0:1|0:0,0:0:0:0:
257,287,48762,2,0,L|261:343,1,49.1999984985352,8|0,0:0|0:0,0:0:0:0:
191,235,49137,2,0,L|175:288,1,49.1999984985352,0|0,0:0|0:0,0:0:0:0:
145,162,49512,2,0,L|66:292,1,147.599995495606,2|2,0:0|0:0,0:0:0:0:
10,236,50262,2,0,P|16:201|11:135,1,98.3999969970704,8|0,0:0|0:0,0:0:0:0:
5,121,51012,6,0,L|58:113,1,49.1999984985352,2|0,0:0|0:0,0:0:0:0:
78,34,51387,2,0,L|25:42,1,49.1999984985352,0|2,0:0|0:0,0:0:0:0:
122,147,51762,2,0,L|234:132,1,98.3999969970704,8|0,0:0|0:0,0:0:0:0:
281,84,52324,1,0,0:0:0:0:
332,145,52512,2,0,B|374:151|415:136|415:136|459:137|482:153,1,147.599995495606,2|2,0:0|0:0,0:0:0:0:
429,212,53262,2,0,P|419:243|430:310,1,98.3999969970704,8|2,0:0|0:0,0:0:0:0:
448,324,54012,6,0,L|289:319,1,147.599995495606,2|0,0:0|0:0,0:0:0:0:
228,356,54762,2,0,L|220:301,1,49.1999984985352,8|0,0:0|0:0,0:0:0:0:
147,311,55137,2,0,L|158:256,1,49.1999984985352,0|0,0:0|0:0,0:0:0:0:
86,241,55512,6,0,L|141:143,1,98.3999969970704,2|0,0:0|0:0,0:0:0:0:
81,89,56074,1,2,0:0:0:0:
134,155,56262,2,0,P|181:158|242:144,1,98.3999969970704,8|0,0:0|0:0,0:0:0:0:
381,70,57012,2,0,P|334:67|273:81,1,98.3999969970704,2|0,0:0|0:0,0:0:0:0:
231,148,57574,1,0,0:0:0:0:
275,221,57762,2,0,P|322:224|383:210,1,98.3999969970704,0|2,0:0|2:0,0:0:0:0:
490,137,58512,6,0,L|484:253,1,98.3999969970704,0|4,3:0|0:3,0:0:0:0:
489,252,58980,1,4,0:3:0:0:
492,266,59074,1,8,0:3:0:0:
496,279,59168,1,8,0:3:0:0:
500,293,59262,6,0,L|441:285,1,57.4,4|0,0:0|0:0,0:0:0:0:
360,303,60012,6,0,B|268:319|268:319|196:299,1,139.400002658844,4|0,1:0|0:0,0:0:0:0:
156,202,60574,1,0,0:0:0:0:
275,120,60762,2,0,L|268:229,1,104.550001994133,8|0,0:0|0:0,0:0:0:0:
268,224,61137,2,0,P|306:208|341:202,1,69.700001329422,0|0,0:0|0:0,0:0:0:0:
194,124,61512,6,0,B|144:131|144:131|50:121,1,139.400002658844,2|0,0:0|0:0,0:0:0:0:
110,41,62074,1,2,0:0:0:0:
55,121,62262,2,0,L|63:240,1,104.550001994133,8|0,0:0|0:0,0:0:0:0:
62,225,62637,2,0,L|58:296,1,69.700001329422
193,204,63012,6,0,L|185:349,1,139.400002658844,2|0,0:0|0:0,0:0:0:0:
279,369,63574,1,0,0:0:0:0:
352,304,63762,2,0,P|397:292|463:297,1,104.550001994133,8|0,0:0|0:0,0:0:0:0:
455,294,64137,2,0,L|463:218,1,69.700001329422
330,54,64512,6,0,L|322:199,1,139.400002658844,2|0,0:0|0:0,0:0:0:0:
231,227,65074,1,2,0:0:0:0:
156,163,65262,2,0,P|87:146|33:159,1,104.550001994133,8|0,0:0|0:0,0:0:0:0:
55,151,65637,2,0,P|50:109|56:74,1,69.700001329422
237,87,66012,6,0,L|230:236,1,139.400002658844,2|0,0:0|0:0,0:0:0:0:
147,277,66574,1,0,0:0:0:0:
238,312,66762,2,0,B|280:308|280:308|305:313|305:313|348:308,1,104.550001994133,8|0,0:0|0:0,0:0:0:0:
342,309,67137,2,0,L|348:236,1,69.700001329422
421,176,67512,6,0,P|350:190|276:151,1,139.400002658844,2|0,0:0|0:0,0:0:0:0:
233,85,68074,1,2,0:0:0:0:
152,140,68262,2,0,L|48:128,1,104.550001994133,8|0,0:0|0:0,0:0:0:0:
48,128,68637,2,0,P|54:171|46:200,1,69.700001329422
16,289,69012,6,0,L|172:276,1,139.400002658844,2|0,0:0|0:0,0:0:0:0:
234,333,69574,1,0,0:0:0:0:
322,289,69762,2,0,P|334:239|320:189,1,104.550001994133,8|0,0:0|0:0,0:0:0:0:
320,190,70137,2,0,P|315:147|319:115,1,69.700001329422
470,68,70512,6,0,L|461:211,1,139.400002658844,2|0,0:0|0:0,0:0:0:0:
504,294,71074,1,2,0:0:0:0:
461,207,71262,2,0,B|427:195|427:195|358:198,1,104.550001994133,8|0,0:0|0:0,0:0:0:0:
359,198,71637,2,0,L|277:193,1,69.700001329422
203,272,72012,6,0,P|151:242|131:186,1,123,0|0,3:0|0:0,0:0:0:0:
252,86,72762,2,0,P|252:146|213:192,1,123,0|0,3:0|0:0,0:0:0:0:
65,137,73512,2,0,P|117:107|177:119,1,123,0|0,3:0|0:0,0:0:0:0:
213,192,74262,2,0,L|208:314,1,123,0|0,3:0|0:0,0:0:0:0:
312,362,75012,6,0,L|482:346,1,164,2|0,0:0|0:0,0:0:0:0:
498,234,75574,1,0,0:0:0:0:
421,147,75762,2,0,L|251:163,1,164,8|2,1:2|1:3,0:0:0:0:
151,117,76324,1,0,0:0:0:0:
53,186,76512,6,0,P|43:225|56:270,1,82,2|8,0:0|0:0,0:0:0:0:
169,100,76887,2,0,P|179:61|166:16,1,82,8|8,0:0|0:0,0:0:0:0:
25,21,77262,6,0,P|3:90|33:176,1,153.75,2|0,0:0|0:0,0:0:0:0:
28,195,77637,6,0,L|167:183,1,123.000004692078,8|0,1:0|0:0,0:0:0:0:
379,304,78012,6,0,L|204:295,1,164,4|0,1:0|0:0,0:0:0:0:
162,193,78574,1,0,0:0:0:0:
260,134,78762,2,0,L|256:218,1,82,8|0,1:2|0:0,0:0:0:0:
85,273,79137,2,0,L|80:150,1,123,0|0,0:0|0:0,0:0:0:0:
89,124,79512,6,0,P|129:104|169:98,1,82,2|2,1:2|1:2,0:0:0:0:
373,123,79887,2,0,P|333:143|293:149,1,82,0|0,0:0|0:0,0:0:0:0:
278,143,80168,1,0,0:0:0:0:
260,134,80262,1,8,1:2:0:0:
461,62,80449,2,0,L|454:231,1,164,4|2,0:0|0:0,0:0:0:0:
461,246,80918,1,0,0:0:0:0:
469,264,81012,6,0,P|401:251|371:258,1,82,6|0,0:0|0:0,0:0:0:0:
203,285,81387,2,0,P|242:298|283:297,1,82
46,259,81762,1,8,0:0:0:0:
65,255,81855,1,0,0:0:0:0:
84,248,81949,1,0,0:0:0:0:
101,236,82043,1,0,0:0:0:0:
113,220,82137,2,0,P|120:177|117:162,1,41,0|0,0:0|0:0,0:0:0:0:
39,141,82324,6,0,P|32:184|35:199,1,41,4|0,1:0|0:0,0:0:0:0:
190,132,82512,2,0,P|197:105|196:74,3,41
187,67,82887,2,0,P|164:39|152:31,3,41,4|0|0|0,1:0|0:0|0:0|0:0,0:0:0:0:
144,23,83262,6,0,L|257:18,1,82,8|4,1:2|1:0,0:0:0:0:
291,50,83543,1,0,0:0:0:0:
308,61,83637,2,0,P|374:67|393:63,1,82,8|2,1:2|1:2,0:0:0:0:
350,172,84012,6,0,P|345:224|357:267,1,82,6|2,0:0|0:0,0:0:0:0:
358,271,84293,1,0,0:0:0:0:
369,288,84387,1,0,0:0:0:0:
459,358,84574,1,2,0:0:0:0:
491,244,84762,2,0,P|496:192|484:149,1,82,8|2,0:0|0:0,0:0:0:0:
478,146,85043,1,0,0:0:0:0:
465,129,85137,2,0,P|458:82|466:43,1,82,2|2,0:0|0:0,0:0:0:0:
343,82,85512,6,0,L|241:68,1,82,2|2,0:0|0:0,0:0:0:0:
246,57,85793,1,0,0:0:0:0:
232,41,85887,2,0,L|136:53,1,82,2|2,0:0|0:0,0:0:0:0:
27,170,86262,1,8,1:2:0:0:
47,166,86355,1,0,0:0:0:0:
67,165,86449,1,2,0:0:0:0:
87,168,86543,1,0,0:0:0:0:
105,175,86637,2,0,P|133:217|130:263,1,82,2|2,0:0|0:0,0:0:0:0:
68,341,87012,5,2,0:0:0:0:
215,268,87199,1,2,0:0:0:0:
215,268,87293,1,2,0:0:0:0:
215,268,87387,2,0,L|313:270,1,82,2|2,0:0|0:0,0:0:0:0:
441,331,87762,5,2,1:2:0:0:
428,314,87856,1,2,0:0:0:0:
419,295,87949,1,2,0:0:0:0:
414,274,88043,1,2,0:0:0:0:
414,253,88137,1,2,0:0:0:0:
476,156,88324,1,0,0:0:0:0:
338,344,88512,6,0,P|307:333|299:319,1,41,2|0,0:0|0:0,0:0:0:0:
295,229,88699,2,0,P|326:240|334:254,1,41,0|0,0:0|0:0,0:0:0:0:
217,285,88887,2,0,P|186:274|178:260,1,41,2|0,0:0|0:0,0:0:0:0:
173,170,89074,2,0,P|203:181|211:195,1,41,2|0,0:0|0:0,0:0:0:0:
248,105,89262,2,0,P|240:75|246:44,3,41,8|0|2|2,0:0|0:0|0:0|0:0,0:0:0:0:
250,36,89637,6,0,P|159:45|71:21,1,184.500007038117,8|0,0:0|0:0,0:0:0:0:
71,22,90012,6,0,L|74:185,1,164,4|0,1:0|0:0,0:0:0:0:
23,288,90574,1,0,0:0:0:0:
75,186,90762,2,0,P|129:175|167:179,1,82,8|0,1:2|0:0,0:0:0:0:
265,337,91137,2,0,L|131:323,1,123,0|0,0:0|0:0,0:0:0:0:
124,333,91512,6,0,P|115:290|126:250,1,82,2|2,1:2|1:2,0:0:0:0:
256,118,91887,2,0,P|265:161|254:201,1,82,0|0,0:0|0:0,0:0:0:0:
246,213,92168,1,0,0:0:0:0:
234,225,92262,1,8,1:2:0:0:
334,78,92449,2,0,B|394:63|431:98|511:78,1,164,4|2,0:0|0:0,0:0:0:0:
504,68,92918,1,0,0:0:0:0:
512,54,93012,6,0,L|503:206,1,123,2|0,0:0|0:0,0:0:0:0:
491,192,93387,2,0,L|500:306,1,82,2|2,0:0|0:0,0:0:0:0:
386,362,93762,1,8,0:0:0:0:
366,364,93855,1,0,0:0:0:0:
346,363,93949,1,2,0:0:0:0:
326,358,94043,1,0,0:0:0:0:
309,346,94137,2,0,P|289:328|281:311,1,41,2|0,0:0|0:0,0:0:0:0:
337,248,94324,2,0,P|357:266|365:283,1,41,2|2,0:0|0:0,0:0:0:0:
148,301,94512,6,0,L|149:233,1,41,8|0,0:0|0:0,0:0:0:0:
231,209,94699,2,0,L|229:252,1,41,2|0,0:0|0:0,0:0:0:0:
79,354,94887,2,0,P|45:341|33:332,3,41,4|0|0|0,0:1|0:0|0:0|0:0,0:0:0:0:
13,336,95262,6,0,L|16:229,1,82,2|4,0:3|0:1,0:0:0:0:
58,193,95543,1,0,0:0:0:0:
75,183,95637,6,0,P|136:174|204:189,1,123.000004692078,4|4,1:0|1:0,0:0:0:0:
98,93,96012,6,0,P|149:87|190:97,1,82,4|0,0:0|0:0,0:0:0:0:
284,136,96387,1,2,0:0:0:0:
383,79,96574,2,0,L|375:250,1,164,8|0,0:0|0:0,0:0:0:0:
467,168,97137,1,8,0:0:0:0:
284,136,97324,1,2,0:0:0:0:
284,136,97418,1,0,0:0:0:0:
284,136,97512,6,0,L|280:226,1,82,2|0,0:0|0:0,0:0:0:0:
383,79,97887,1,0,0:0:0:0:
326,299,98074,2,0,P|257:308|188:227,1,164,8|2,0:0|0:0,0:0:0:0:
84,285,98637,2,0,L|93:138,1,123,8|0,0:0|0:0,0:0:0:0:
95,145,99012,6,0,P|49:129|2:137,1,82,2|0,0:0|0:0,0:0:0:0:
165,70,99387,1,0,0:0:0:0:
176,204,99574,2,0,P|229:212|332:164,1,164,8|2,0:0|0:0,0:0:0:0:
369,61,100137,1,8,0:0:0:0:
424,160,100324,1,2,0:0:0:0:
424,160,100418,1,0,0:0:0:0:
424,160,100512,6,0,L|420:251,1,82,2|0,0:0|0:0,0:0:0:0:
327,168,100887,1,2,0:0:0:0:
506,126,101074,2,0,L|498:297,1,164,8|8,0:0|0:3,0:0:0:0:
496,309,101543,1,4,0:3:0:0:
495,327,101637,6,0,P|453:320|406:318,1,82,6|0,0:0|0:0,0:0:0:0:
306,360,102012,1,4,0:0:0:0:
256,192,102105,12,4,103512,0:0:0:0:
396,288,112512,6,0,L|306:291,1,86.0999973724366,4|0,0:0|0:0,0:0:0:0:
230,301,113262,2,0,L|234:264,1,28.6999991241455,8|0,0:0|0:0,0:0:0:0:
290,186,113637,2,0,L|294:223,1,28.6999991241455
238,111,114012,2,0,P|293:111|326:101,1,86.0999973724366,0|0,0:0|0:0,0:0:0:0:
179,61,114762,2,0,P|164:90|165:122,1,57.3999982482911,8|0,0:0|0:0,0:0:0:0:
184,255,115512,6,0,P|134:252|91:256,1,86.0999973724366,0|0,0:0|0:0,0:0:0:0:
33,298,116262,2,0,P|30:348|30:361,1,57.3999982482911,8|0,0:0|0:0,0:0:0:0:
22,164,117012,2,0,P|72:167|115:163,1,86.0999973724366,0|0,0:0|0:0,0:0:0:0:
173,121,117762,2,0,P|176:71|176:58,1,57.3999982482911,8|0,0:0|0:0,0:0:0:0:
365,34,118512,6,0,L|276:40,1,86.0999973724366,0|0,0:0|0:0,0:0:0:0:
254,111,119262,2,0,L|252:152,1,28.6999991241455,8|0,0:0|0:0,0:0:0:0:
336,153,119637,2,0,L|334:112,1,28.6999991241455,0|0,0:0|0:0,0:0:0:0:
299,230,120012,2,0,L|360:223,1,57.3999982482911
459,234,120762,2,0,P|467:265|467:296,1,57.3999982482911,8|0,0:0|0:0,0:0:0:0:
306,325,121512,6,0,B|261:323|216:352|216:352|171:344,1,131.2
125,272,122074,1,0,0:0:0:0:
57,335,122262,2,0,P|39:303|58:207,1,131.2
66,214,123012,6,0,P|115:221|190:207,1,123,0|8,0:0|0:3,0:0:0:0:
239,144,123762,2,0,L|235:95,1,41,4|0,0:0|0:0,0:0:0:0:
297,209,124137,2,0,L|310:162,1,41
343,276,124512,6,0,L|411:168,1,123.000004692078,4|0,1:0|0:0,0:0:0:0:
465,107,125074,1,0,0:0:0:0:
501,187,125262,2,0,P|491:231|494:277,1,92.2500035190584,8|0,0:0|0:0,0:0:0:0:
494,278,125637,2,0,L|412:274,1,61.5000023460389
359,319,126012,6,0,P|308:322|222:311,1,123.000004692078,2|0,0:0|0:0,0:0:0:0:
150,317,126574,1,2,0:0:0:0:
67,343,126762,2,0,L|72:250,1,92.2500035190584,8|0,0:0|0:0,0:0:0:0:
73,251,127137,2,0,L|69:181,1,61.5000023460389
26,113,127512,6,0,B|116:98|116:98|151:108,1,123.000004692078,2|0,0:0|0:0,0:0:0:0:
212,162,128074,1,0,0:0:0:0:
286,118,128262,2,0,P|274:73|281:28,1,92.2500035190584,8|0,0:0|0:0,0:0:0:0:
282,28,128637,2,0,L|352:22,1,61.5000023460389
283,200,129012,6,0,L|405:188,1,123.000004692078,2|0,0:0|0:0,0:0:0:0:
473,135,129574,1,0,0:0:0:0:
405,188,129762,2,0,P|393:211|407:289,1,92.2500035190584,8|0,0:0|0:0,0:0:0:0:
399,276,130137,2,0,P|406:311|401:353,1,61.5000023460389,2|0,0:0|0:0,0:0:0:0:
321,358,130512,6,0,L|198:352,1,123.000004692078,2|0,0:0|0:0,0:0:0:0:
116,378,131074,1,0,0:0:0:0:
198,352,131262,2,0,P|207:308|202:262,1,92.2500035190584,8|0,0:0|0:0,0:0:0:0:
202,263,131637,2,0,P|197:215|201:187,1,61.5000023460389
233,121,132012,6,0,B|185:133|156:104|99:118,1,123.000004692078,2|0,0:0|0:0,0:0:0:0:
42,167,132574,1,2,0:0:0:0:
79,47,132762,2,0,P|125:41|171:44,1,92.2500035190584,8|0,0:0|0:0,0:0:0:0:
172,45,133137,2,0,P|212:48|253:43,1,61.5000023460389
365,25,133512,6,0,L|360:168,1,123.000004692078,2|0,0:0|0:0,0:0:0:0:
417,212,134074,1,2,0:0:0:0:
349,265,134262,2,0,B|319:264|319:264|289:268|289:268|257:265,1,92.2500035190584,8|0,0:0|0:0,0:0:0:0:
257,266,134637,2,0,L|263:344,1,61.5000023460389
176,340,135012,6,0,B|166:249|166:249|179:220,1,123.000004692078,2|0,0:0|0:0,0:0:0:0:
239,157,135574,1,2,0:0:0:0:
180,221,135762,2,0,L|87:217,1,92.2500035190584,8|0,0:0|0:0,0:0:0:0:
88,218,136137,2,0,P|77:176|83:155,1,61.5000023460389
132,76,136512,6,0,L|263:82,1,123,2|0,0:0|0:0,0:0:0:0:
361,150,137262,2,0,L|239:156,1,123,2|0,0:0|0:0,0:0:0:0:
121,231,138012,2,0,L|252:237,1,123,2|0,0:0|0:0,0:0:0:0:
365,312,138762,2,0,L|242:317,1,123
186,374,139512,5,4,0:0:0:0:
186,374,140074,1,2,0:0:0:0:
242,318,140262,1,0,0:0:0:0:
140,217,140824,1,2,0:0:0:0:
161,294,141012,1,0,0:0:0:0:
302,260,141574,1,2,0:0:0:0:
302,260,141762,5,0,0:0:0:0:
256,192,141855,12,4,145512,0:0:0:0:
