osu file format v14

[General]
AudioFilename: audio.mp3
AudioLeadIn: 0
PreviewTime: 77262
Countdown: 0
SampleSet: Soft
StackLeniency: 0.4
Mode: 0
LetterboxInBreaks: 0
WidescreenStoryboard: 0

[Editor]
DistanceSpacing: 1.5
BeatDivisor: 4
GridSize: 32
TimelineZoom: 3.199999

[Metadata]
Title:Marigold (ft. Guriri)
TitleUnicode:Marigold (ft. グリリ)
Artist:M2U
ArtistUnicode:M2U
Creator:- Frontier -
Version:Liberation
Source:Deemo
Tags:rayark magnolia myosotis alternate story symphonic boss song piano violin dnb drum'n'bass drum and bass Samsara Collection Diversity forgotten hourglass 3.0 SQUARE-MUSIQ TMDC @ SQ Lab nicode narae 구리리 boatkrab [_lost_] shockolatte -_frontier_- KittyAdventure gokugohan12468
BeatmapID:1258135
BeatmapSetID:594884

[Difficulty]
HPDrainRate:8
CircleSize:3.5
OverallDifficulty:8.2
ApproachRate:9
SliderMultiplier:2.4
SliderTickRate:1

[Events]
//Background and Video events
0,0,"bg.jpg",0,0
//Break Periods
2,103712,111912
//Storyboard Layer 0 (Background)
//Storyboard Layer 1 (Fail)
//Storyboard Layer 2 (Pass)
//Storyboard Layer 3 (Foreground)
//Storyboard Sound Samples

[TimingPoints]
1512,375,4,2,4,50,1,0
1512,-285.714285714286,4,2,4,50,0,0
2262,-200,4,2,4,50,0,0
3012,-285.714285714286,4,2,4,50,0,0
3762,-200,4,2,4,50,0,0
4512,-200,4,2,4,50,0,0
13512,-285.714285714286,4,2,4,50,0,0
15762,526.315789473684,4,2,4,15,1,0
15762,-285.714285714286,4,2,4,15,0,0
16025,535.714285714286,4,2,4,15,1,0
16292,750,4,2,4,15,1,0
16292,-285.714285714286,4,2,4,15,0,0
16667,714.285714285714,4,2,4,15,1,0
16934,-100,4,2,5,35,0,0
17024,-133.333333333333,4,2,5,35,0,0
17068,-133.333333333333,4,2,5,35,0,0
17113,-133.333333333333,4,2,6,35,0,0
17158,-133.333333333333,4,2,6,35,0,0
19512,375,4,2,1,80,1,0
22137,-100,4,2,4,80,0,0
22512,-100,4,2,1,80,0,0
33012,-200,4,2,1,60,0,0
35824,-200,4,2,2,60,0,0
36762,-200,4,2,1,30,0,0
37512,-285.714285714286,4,2,4,45,0,0
47074,-166.666666666667,4,1,1,45,0,0
47355,-285.714285714286,4,2,1,45,0,0
48012,-166.666666666667,4,2,1,50,0,0
53637,-166.666666666667,4,2,4,50,0,0
54012,-166.666666666667,4,2,1,50,0,0
57574,-166.666666666667,4,1,0,50,0,0
57855,-166.666666666667,4,2,1,50,0,0
58137,-200,4,2,1,50,0,0
58418,-166.666666666667,4,2,1,5,0,0
58512,-166.666666666667,4,2,1,50,0,0
59262,-500,4,2,2,50,0,0
59918,-500,4,2,1,5,0,0
60012,-117.647058823529,4,2,1,55,0,0
72012,-200,4,2,1,35,0,0
75012,-100,4,2,1,65,0,0
77262,-80,4,2,1,70,0,0
77637,-66.6666666666667,4,2,1,75,0,0
78012,-83.3333333333333,4,2,1,80,0,1
81012,-55.5555555555556,4,2,1,80,0,1
81199,-83.3333333333333,4,2,1,80,0,1
84012,-83.3333333333333,4,2,1,80,0,1
84199,-83.3333333333333,4,2,4,80,0,1
84762,-83.3333333333333,4,2,1,80,0,1
84949,-83.3333333333333,4,2,4,80,0,1
85512,-83.3333333333333,4,2,1,80,0,1
85699,-83.3333333333333,4,2,4,80,0,1
85887,-83.3333333333333,4,2,4,80,0,1
86262,-83.3333333333333,4,2,1,80,0,1
86449,-83.3333333333333,4,2,4,80,0,1
87012,-83.3333333333333,4,2,1,80,0,1
87199,-83.3333333333333,4,2,4,80,0,1
88512,-83.3333333333333,4,2,1,80,0,1
89637,-66.6666666666667,4,2,1,75,0,0
90012,-100,4,2,1,80,0,1
93387,-100,4,2,4,80,0,1
93762,-100,4,2,1,80,0,1
93855,-100,4,2,4,80,0,1
94324,-100,4,2,1,80,0,1
94699,-100,4,2,4,80,0,1
94887,-100,4,2,1,80,0,1
95262,-90.9090909090909,4,2,4,80,0,1
95449,-90.9090909090909,4,2,1,80,0,1
95637,-66.6666666666667,4,2,1,80,0,1
96012,-100,4,2,1,80,0,1
101449,-100,4,2,4,80,0,0
101637,-285.714285714286,4,2,4,60,0,1
101730,-285.714285714286,4,2,4,60,0,0
102012,-285.714285714286,4,2,1,60,0,0
103512,-285.714285714286,4,2,2,45,0,0
112512,-285.714285714286,4,2,1,45,0,0
122074,-142.857142857143,4,1,1,45,0,0
122918,-142.857142857143,4,1,1,5,0,0
123012,-142.857142857143,4,1,1,45,0,0
123762,-500,4,2,2,45,0,0
124512,-133.333333333333,4,2,1,50,0,0
136512,-200,4,2,4,35,0,0
139512,-312.5,4,2,2,20,0,0
141762,-312.5,4,2,2,20,0,0
141855,-312.5,4,2,1,20,0,0
144012,-312.5,4,2,1,15,0,0
144387,-312.5,4,2,1,10,0,0
144762,-312.5,4,2,1,5,0,0
145512,-312.5,4,2,2,5,0,0

[Colours]
Combo1 : 255,246,205
Combo2 : 26,44,94
Combo3 : 130,140,165
Combo4 : 177,148,148

[HitObjects]
225,57,1512,6,0,B|236:97|236:97|223:144,1,83.9999974365235,2|0,0:0|0:0,0:0:0:0:
120,195,2262,2,0,L|-12:180,1,120
41,46,3012,2,0,B|81:34|81:34|128:47,1,83.9999974365235
225,137,3762,2,0,L|210:269,1,120
212,257,4512,6,0,B|276:261|309:318|309:318|339:262|408:256,1,240,2|0,0:0|0:0,0:0:0:0:
512,188,5637,1,0,0:0:0:0:
405,127,6012,2,0,B|339:122|309:66|309:66|276:123|212:127,1,240,2|2,0:0|0:0,0:0:0:0:
211,127,7137,2,0,L|207:67,1,60
84,104,7512,5,0,0:0:0:0:
74,193,7699,1,0,0:0:0:0:
166,224,7887,2,0,P|218:232|283:204,2,120,2|2|2,0:0|0:0|0:0,0:0:0:0:
84,104,9012,2,0,B|204:74|191:156|316:128,1,240,2|2,0:0|0:0,0:0:0:0:
424,76,10137,1,0,0:0:0:0:
508,160,10512,6,0,L|492:344,1,180,2|0,0:0|0:0,0:0:0:0:
408,296,11262,2,0,P|352:268|240:308,1,180,2|0,0:0|0:0,0:0:0:0:
172,240,12012,2,0,P|91:275|9:245,1,180,2|0,0:0|0:0,0:0:0:0:
0,160,12762,2,0,L|4:92,1,60,0|0,0:0|0:0,0:0:0:0:
128,32,13137,2,0,L|124:91,1,60,2|0,0:0|0:0,0:0:0:0:
172,240,13512,6,0,P|232:260|296:232,1,125.999996154785,2|0,0:0|0:0,0:0:0:0:
348,180,14262,2,0,L|488:188,1,125.999996154785,2|0,0:0|0:0,0:0:0:0:
472,104,15012,2,0,L|346:96,1,125.999996154785,2|0,0:0|0:0,0:0:0:0:
284,40,15762,6,0,L|240:44,1,41.9999987182618
192,136,16292,2,0,L|150:132,1,41.9999987182618
58,76,16934,5,2,0:0:0:0:
49,73,17024,2,0,L|28:76,3,11.2500004291535,8|2|8|4,0:0|0:0|0:0|0:0,0:0:0:0:
56,80,19512,6,0,B|178:110|165:28|313:60,1,240,4|0,0:0|0:0,0:0:0:0:
390,76,19980,1,0,0:0:0:0:
401,84,20074,1,0,0:0:0:0:
413,93,20168,1,0,0:0:0:0:
424,102,20262,2,0,P|434:148|414:224,1,120,8|0,0:0|0:0,0:0:0:0:
227,271,20637,2,0,P|217:212|233:155,1,120,2|0,3:0|0:0,0:0:0:0:
300,340,21012,6,0,B|236:368|236:368|64:336,1,240,2|0,0:0|0:1,0:0:0:0:
9,233,21574,1,0,0:0:0:0:
88,44,21762,2,0,P|156:16|252:60,1,180,8|0,0:0|0:0,0:0:0:0:
292,100,22137,2,0,L|420:92,1,120,2|0,3:0|0:0,0:0:0:0:
401,252,22512,6,0,L|221:263,1,180,2|0,0:0|0:0,0:0:0:0:
168,236,22887,2,0,P|152:178|164:120,1,120,2|0,0:2|0:0,0:0:0:0:
196,68,23168,1,0,0:0:0:0:
196,68,23262,5,0,1:2:0:0:
401,252,23637,1,2,0:0:0:0:
173,286,24012,6,0,P|139:205|163:119,1,180,2|0,0:0|0:0,0:0:0:0:
196,68,24387,2,0,L|344:80,1,120,2|0,0:2|0:0,0:0:0:0:
496,100,24762,2,0,P|508:164|492:224,1,120,8|0,0:0|0:0,0:0:0:0:
352,352,25137,2,0,L|204:340,1,120
99,249,25512,6,0,P|87:185|103:125,1,120,2|0,0:0|0:0,0:0:0:0:
267,44,25887,1,0,0:0:0:0:
289,71,25980,1,0,0:0:0:0:
322,85,26074,1,0,0:0:0:0:
358,83,26168,1,0,0:0:0:0:
389,66,26262,6,0,L|384:4,1,60,8|0,0:0|0:0,0:0:0:0:
504,192,26449,2,0,L|509:130,1,60,0|0,0:0|0:0,0:0:0:0:
366,182,26637,1,0,0:0:0:0:
367,199,26730,1,0,0:0:0:0:
368,216,26824,1,0,0:0:0:0:
369,233,26918,1,0,0:0:0:0:
371,250,27012,6,0,P|304:236|248:256,1,120,2|0,0:0|0:0,0:0:0:0:
100,364,27387,2,0,P|114:297|94:241,1,120
84,59,27762,1,8,0:0:0:0:
115,98,27855,1,0,0:0:0:0:
162,116,27949,1,0,0:0:0:0:
212,108,28043,1,0,0:0:0:0:
251,76,28137,1,0,0:0:0:0:
289,44,28231,1,0,0:0:0:0:
339,36,28325,1,0,0:0:0:0:
386,54,28419,1,0,0:0:0:0:
418,93,28512,6,0,L|404:292,1,180,2|0,0:0|0:0,0:0:0:0:
404,332,28887,2,0,P|456:288|512:288,1,120,0|0,0:0|0:0,0:0:0:0:
308,152,29262,1,8,0:0:0:0:
272,199,29355,1,0,0:0:0:0:
219,227,29449,1,0,0:0:0:0:
160,230,29543,1,0,0:0:0:0:
105,207,29637,2,0,L|52:212,6,30,8|0|8|0|4|0|4,0:3|0:0|0:3|0:0|0:3|0:0|0:3,0:0:0:0:
181,72,30012,6,0,B|237:48|237:48|219:227,1,240,4|0,0:0|0:0,0:0:0:0:
156,328,30574,1,2,0:0:0:0:
309,152,30762,2,0,B|296:271,1,120
75,209,31137,2,0,B|87:89,1,120,2|0,0:0|0:0,0:0:0:0:
296,271,31512,6,0,P|195:329|86:289,1,240,2|0,0:0|0:0,0:0:0:0:
87,89,32074,1,2,0:0:0:0:
252,42,32262,6,0,B|331:16|388:40|388:40|420:67,1,180
435,94,32637,2,0,L|440:214,1,120,2|0,0:0|0:0,0:0:0:0:
441,244,32917,1,0,0:0:0:0:
443,274,33012,6,0,P|367:316|283:291,1,180.000006866455,4|0,0:1|0:0,0:0:0:0:
219,226,33762,2,0,L|223:154,1,60
204,128,34043,1,0,0:0:0:0:
204,128,34137,2,0,L|208:56,1,60,0|0,0:0|0:0,0:0:0:0:
284,16,34512,6,0,B|375:-6|366:55|477:31,1,180,0|0,0:0|0:0,0:0:0:0:
496,116,35262,2,0,L|492:176,1,60
480,264,35637,1,0,0:0:0:0:
409,209,35824,6,0,B|364:184|320:208|320:208|248:252|176:224|193:153|240:144|268:176,1,300,2|0,0:0|3:0,0:0:0:0:
232,88,37512,6,0,L|148:80,2,83.9999974365235,2|0|2,0:0|0:0|0:0,0:0:0:0:
286,152,38449,1,0,0:0:0:0:
204,168,38637,2,0,L|162:164,1,41.9999987182618
100,220,39012,6,0,P|84:256|88:312,1,83.9999974365235,2|0,0:0|0:0,0:0:0:0:
140,364,39574,1,0,0:0:0:0:
212,320,39762,2,0,P|228:281|227:240,1,83.9999974365235,2|0,0:0|0:0,0:0:0:0:
324,100,40512,6,0,L|468:88,1,125.999996154785,2|0,0:0|0:0,0:0:0:0:
440,172,41262,2,0,L|356:178,1,83.9999974365235,2|0,0:0|0:0,0:0:0:0:
188,100,42012,6,0,L|44:88,1,125.999996154785,2|0,0:0|0:0,0:0:0:0:
72,172,42762,2,0,L|155:178,1,83.9999974365235,2|0,0:0|0:0,0:0:0:0:
239,168,43324,1,0,0:0:0:0:
239,252,43512,6,0,P|235:295|207:341,1,83.9999974365235,2|0,0:0|0:0,0:0:0:0:
141,367,44074,2,0,L|120:364,2,20.9999993591309,0|0|2,0:0|0:0|0:0,0:0:0:0:
217,330,44449,1,0,0:0:0:0:
298,352,44637,2,0,L|339:346,1,41.9999987182618
299,272,45012,6,0,L|397:258,1,83.9999974365235,2|0,0:0|0:0,0:0:0:0:
444,204,45574,1,0,0:0:0:0:
376,156,45762,2,0,L|334:161,1,41.9999987182618,2|0,0:0|0:0,0:0:0:0:
260,204,46137,2,0,L|218:209,1,41.9999987182618,0|0,0:0|0:0,0:0:0:0:
148,164,46512,5,0,0:0:0:0:
253,72,46887,2,0,L|289:77,3,20.9999993591309
309,81,47262,2,0,P|326:151|308:220,1,143.999995605469
308,220,48012,6,0,L|400:216,1,71.9999978027344,4|0,0:1|0:0,0:0:0:0:
468,152,48387,1,0,0:0:0:0:
508,252,48574,1,0,0:0:0:0:
448,344,48762,2,0,P|412:356|372:344,1,71.9999978027344,8|0,0:0|0:0,0:0:0:0:
280,304,49137,2,0,P|245:296|211:308,1,71.9999978027344,0|0,0:0|0:0,0:0:0:0:
120,368,49512,6,0,P|68:368|24:292,1,143.999995605469,2|0,0:0|0:0,0:0:0:0:
20,188,50074,1,2,0:0:0:0:
68,92,50262,2,0,L|216:104,1,143.999995605469,8|0,0:0|0:0,0:0:0:0:
384,232,51012,6,0,P|448:216|480:144,1,143.999995605469,2|0,0:0|0:0,0:0:0:0:
436,52,51574,1,2,0:0:0:0:
436,52,51762,2,0,B|361:34|369:84|296:68,1,143.999995605469,8|0,0:0|0:0,0:0:0:0:
208,8,52324,1,0,0:0:0:0:
140,92,52512,6,0,L|148:164,1,71.9999978027344,2|0,0:0|0:0,0:0:0:0:
48,124,52887,2,0,L|40:52,1,71.9999978027344,0|2,0:0|0:0,0:0:0:0:
96,226,53262,2,0,P|145:244|196:228,1,107.999996704102,8|0,0:0|0:0,0:0:0:0:
236,196,53637,2,0,L|320:204,1,71.9999978027344,2|0,0:0|0:0,0:0:0:0:
356,104,54012,6,0,L|212:90,1,143.999995605469,2|0,0:0|0:0,0:0:0:0:
120,36,54574,1,0,0:0:0:0:
147,163,54762,2,0,P|155:197|149:233,1,71.9999978027344,8|0,0:0|0:0,0:0:0:0:
58,365,55137,2,0,P|50:330|55:295,1,71.9999978027344
148,233,55512,5,2,0:0:0:0:
177,213,55605,1,0,0:0:0:0:
213,207,55699,1,0,0:0:0:0:
247,215,55793,1,0,0:0:0:0:
277,236,55887,2,0,L|271:307,1,71.9999978027344
488,376,56262,2,0,L|482:305,1,71.9999978027344,8|0,0:0|0:0,0:0:0:0:
400,172,56637,2,0,L|394:243,1,71.9999978027344
460,80,57012,6,0,P|412:64|320:98,1,143.999995605469,2|0,0:0|0:0,0:0:0:0:
292,126,57480,1,0,0:0:0:0:
250,147,57574,1,0,0:0:0:0:
202,143,57668,1,0,0:0:0:0:
162,115,57762,2,0,L|172:40,1,71.9999978027344,0|0,0:0|0:0,0:0:0:0:
50,134,58137,2,0,L|61:224,1,90,2|0,3:0|0:0,0:0:0:0:
72,276,58512,6,0,P|120:304|188:280,1,107.999996704102,0|0,3:0|0:0,0:0:0:0:
212,260,58887,2,0,L|208:200,1,35.9999989013672,4|4,0:3|0:3,0:0:0:0:
162,115,59074,2,0,L|164:150,1,35.9999989013672,8|8,0:3|0:3,0:0:0:0:
292,280,59262,6,0,L|285:185,1,84,4|0,0:0|0:0,0:0:0:0:
223,134,60012,6,0,P|263:110|371:202,1,204.000003890991,4|0,1:0|0:0,0:0:0:0:
424,300,60574,1,0,0:0:0:0:
512,212,60762,2,0,L|492:4,1,204.000003890991,8|0,0:0|0:0,0:0:0:0:
396,88,61324,1,0,0:0:0:0:
288,28,61512,2,0,B|232:8|232:8|84:32,1,204.000003890991,2|0,0:0|0:0,0:0:0:0:
20,132,62074,1,2,0:0:0:0:
116,208,62262,2,0,P|135:271|56:377,1,204.000003890991,8|0,0:0|0:0,0:0:0:0:
10,263,62824,1,0,0:0:0:0:
116,208,63012,6,0,L|320:220,1,204.000003890991,2|0,0:0|0:0,0:0:0:0:
320,220,63762,2,0,P|383:181|359:46,1,204.000003890991,8|0,0:0|0:0,0:0:0:0:
264,20,64324,1,0,0:0:0:0:
160,88,64512,2,0,L|148:292,1,204.000003890991,2|0,0:0|0:0,0:0:0:0:
148,291,65262,2,0,L|250:297,1,102.000001945496,8|0,0:0|0:0,0:0:0:0:
325,140,65637,2,0,L|223:134,1,102.000001945496,2|0,0:0|0:0,0:0:0:0:
396,376,66012,6,0,P|444:307|400:192,1,204.000003890991,2|0,0:0|0:0,0:0:0:0:
305,264,66574,1,0,0:0:0:0:
208,188,66762,2,0,B|154:183|121:231|121:231|97:178|41:173,1,204.000003890991,8|0,0:0|0:0,0:0:0:0:
12,56,67324,1,0,0:0:0:0:
128,16,67512,2,0,P|188:64|312:40,1,204.000003890991,2|0,0:0|0:0,0:0:0:0:
428,16,68074,1,2,0:0:0:0:
500,112,68262,2,0,L|488:332,1,204.000003890991,8|0,0:0|0:0,0:0:0:0:
488,315,69012,6,0,P|416:348|312:288,1,204.000003890991,2|0,0:0|0:0,0:0:0:0:
256,184,69574,1,0,0:0:0:0:
198,291,69762,2,0,P|116:347|24:315,1,204.000003890991,8|0,0:0|0:0,0:0:0:0:
12,192,70324,1,0,0:0:0:0:
23,69,70512,2,0,P|116:36|198:92,1,204.000003890991,2|0,0:0|0:0,0:0:0:0:
254,177,71074,1,2,0:0:0:0:
313,92,71262,2,0,P|395:36|488:69,1,204.000003890991,8|0,0:0|0:0,0:0:0:0:
409,155,71824,1,0,0:0:0:0:
254,177,72012,6,0,P|211:112|242:17,1,180,0|0,3:0|0:0,0:0:0:0:
432,102,72762,2,0,L|313:92,1,120,0|0,3:0|0:0,0:0:0:0:
238,20,73324,1,0,0:0:0:0:
136,140,73512,2,0,L|16:129,1,120,0|0,3:0|0:0,0:0:0:0:
88,44,74074,1,0,0:0:0:0:
136,140,74262,2,0,B|156:192|156:192|136:280,1,120,0|0,3:0|0:0,0:0:0:0:
120,344,74824,1,0,0:0:0:0:
384,344,75012,6,0,P|332:256|404:124,1,240,2|0,0:0|0:0,0:0:0:0:
496,32,75574,1,0,0:0:0:0:
382,137,75762,2,0,L|126:125,1,240,8|2,1:2|1:3,0:0:0:0:
72,8,76324,1,0,0:0:0:0:
156,124,76512,6,0,P|160:152|156:184,1,60,2|0,0:0|0:0,0:0:0:0:
36,312,76699,2,0,P|32:284|36:252,1,60,8|8,0:0|0:0,0:0:0:0:
180,120,76887,2,0,P|184:148|180:180,1,60,8|8,0:0|0:0,0:0:0:0:
60,308,77074,2,0,P|56:280|60:248,1,60,8|8,0:0|0:0,0:0:0:0:
245,115,77262,6,0,P|277:195|165:271,1,225,2|0,0:0|0:0,0:0:0:0:
59,248,77637,6,0,B|168:254|168:254|200:248|200:248|228:258|228:258|360:268,1,270.000010299683,8|0,1:0|0:0,0:0:0:0:
416,316,78012,6,0,P|428:276|420:228,1,71.9999978027344,4|0,1:0|0:0,0:0:0:0:
323,36,78199,1,0,0:0:0:0:
256,10,78292,1,0,0:0:0:0:
185,16,78386,1,0,0:0:0:0:
124,54,78480,1,0,0:0:0:0:
86,114,78574,2,0,L|93:190,1,71.9999978027344
416,316,78762,5,8,1:2:0:0:
426,245,78855,1,0,0:0:0:0:
398,180,78949,1,0,0:0:0:0:
340,138,79043,1,0,0:0:0:0:
269,133,79137,2,0,P|224:144|188:168,1,71.9999978027344
121,351,79324,5,0,0:0:0:0:
192,354,79417,1,0,0:0:0:0:
256,322,79511,2,0,P|265:280|264:240,1,71.9999978027344,2|0,1:2|0:0,0:0:0:0:
24,88,79699,2,0,P|15:122|14:158,1,71.9999978027344,2|0,1:2|0:0,0:0:0:0:
190,36,79887,1,0,0:0:0:0:
190,36,79980,1,0,0:0:0:0:
190,36,80074,2,0,L|152:32,2,35.9999989013672
218,64,80262,5,0,1:0:0:0:
218,64,80449,2,0,B|328:38|317:112|428:88,1,215.999993408203,4|0,0:0|0:0,0:0:0:0:
504,184,80824,6,0,L|496:228,5,23.9999992675781,2|0|0|0|0|0,0:0|0:0|0:0|0:0|0:0|0:0,0:0:0:0:
480,156,81012,6,0,L|488:268,1,107.999996704102,6|0,0:0|0:0,0:0:0:0:
372,271,81199,6,0,P|343:290|307:293,1,71.9999978027344,0|0,0:0|0:0,0:0:0:0:
362,300,81387,2,0,P|327:302|295:287,1,71.9999978027344,0|0,0:0|0:0,0:0:0:0:
339,321,81574,2,0,P|308:305|287:276,1,71.9999978027344,0|0,0:0|0:0,0:0:0:0:
112,364,81762,5,8,0:0:0:0:
52,324,81855,1,0,0:0:0:0:
23,260,81949,1,0,0:0:0:0:
33,189,82043,1,0,0:0:0:0:
78,135,82137,2,0,L|156:144,1,71.9999978027344,0|0,0:0|0:0,0:0:0:0:
240,331,82324,6,0,L|312:339,1,71.9999978027344,4|0,1:0|0:0,0:0:0:0:
487,263,82512,1,0,0:0:0:0:
501,193,82605,1,0,0:0:0:0:
477,126,82699,1,0,0:0:0:0:
421,82,82793,1,0,0:0:0:0:
359,58,82887,6,0,L|288:56,1,71.9999978027344,4|0,1:0|0:0,0:0:0:0:
176,192,83074,1,0,0:0:0:0:
176,192,83168,1,0,0:0:0:0:
176,192,83262,6,0,L|247:194,1,71.9999978027344,8|0,1:2|0:0,0:0:0:0:
404,184,83449,1,4,1:0:0:0:
401,191,83543,1,0,0:0:0:0:
398,198,83637,1,8,1:2:0:0:
288,56,83824,1,2,1:2:0:0:
124,54,84012,5,6,0:0:0:0:
47,166,84199,1,2,0:0:0:0:
23,210,84292,1,0,0:0:0:0:
23,260,84386,1,2,0:0:0:0:
46,304,84480,1,0,0:0:0:0:
86,333,84574,1,2,0:0:0:0:
165,235,84762,5,8,0:0:0:0:
207,214,84855,1,0,0:0:0:0:
254,214,84949,1,2,0:0:0:0:
298,234,85043,1,0,0:0:0:0:
328,270,85137,2,0,L|320:352,1,71.9999978027344,2|0,0:0|0:0,0:0:0:0:
256,196,85324,2,0,L|262:124,1,71.9999978027344,2|0,0:0|0:0,0:0:0:0:
396,16,85512,5,2,0:0:0:0:
108,84,85699,1,2,0:0:0:0:
108,84,85793,1,0,0:0:0:0:
108,84,85887,6,0,P|107:48|114:12,2,71.9999978027344,2|0|2,0:0|0:0|0:0,0:0:0:0:
109,290,86262,1,8,1:2:0:0:
146,229,86355,1,0,0:0:0:0:
211,201,86449,1,2,0:0:0:0:
280,217,86543,1,0,0:0:0:0:
328,269,86637,6,0,L|320:348,1,71.9999978027344,2|0,0:0|0:0,0:0:0:0:
460,228,86824,2,0,L|467:156,1,71.9999978027344,2|0,0:0|0:0,0:0:0:0:
396,16,87012,5,2,0:0:0:0:
220,148,87199,1,2,0:0:0:0:
184,152,87293,1,2,0:0:0:0:
169,119,87387,1,2,0:0:0:0:
195,95,87480,1,2,0:0:0:0:
226,112,87574,1,2,0:0:0:0:
396,16,87762,6,0,P|444:92|368:228,1,215.999993408203,2|2,1:2|0:0,0:0:0:0:
432,292,88137,2,0,B|358:308|365:258|292:276,1,143.999995605469,2|0,0:0|0:0,0:0:0:0:
52,244,88512,6,0,L|44:315,1,71.9999978027344,2|0,0:0|0:0,0:0:0:0:
220,148,88699,2,0,L|228:228,1,71.9999978027344,0|0,0:0|0:0,0:0:0:0:
36,236,88887,2,0,L|28:316,1,71.9999978027344,2|0,0:0|0:0,0:0:0:0:
236,140,89074,2,0,L|244:220,1,71.9999978027344,2|0,0:0|0:0,0:0:0:0:
156,363,89262,6,0,L|148:291,1,71.9999978027344,8|0,0:0|0:0,0:0:0:0:
388,376,89449,1,2,0:0:0:0:
388,376,89543,1,2,0:0:0:0:
388,376,89637,6,0,B|412:188|412:188|384:220|338:215,1,270.000010299683,8|0,0:0|0:0,0:0:0:0:
200,104,90012,6,0,B|272:40|372:82|372:82|348:132,1,240,4|0,1:0|0:0,0:0:0:0:
252,288,90574,1,0,0:0:0:0:
136,203,90762,2,0,P|84:119|148:-1,1,240,8|0,1:2|0:0,0:0:0:0:
300,0,91324,1,0,0:0:0:0:
300,0,91418,1,0,0:0:0:0:
300,0,91512,6,0,L|419:14,1,120,2|2,1:2|1:2,0:0:0:0:
255,217,91887,2,0,L|136:203,1,120
504,78,92262,2,0,P|506:107|503:137,1,60,8|0,1:2|0:0,0:0:0:0:
489,221,92449,6,0,B|369:262|375:178|255:217,1,240,4|2,0:0|0:0,0:0:0:0:
61,42,93012,6,0,P|126:23|183:37,1,120,2|0,0:0|0:0,0:0:0:0:
243,73,93293,1,0,0:0:0:0:
243,73,93387,6,0,L|237:140,1,60,2|0,0:0|0:0,0:0:0:0:
115,318,93574,2,0,L|120:259,1,60,2|0,0:0|0:0,0:0:0:0:
98,164,93762,6,0,L|163:159,1,60,8|0,0:0|0:0,0:0:0:0:
216,223,93949,2,0,L|275:218,1,60,2|0,0:0|0:0,0:0:0:0:
312,140,94137,2,0,L|377:135,1,60,2|0,0:0|0:0,0:0:0:0:
434,234,94324,1,2,0:0:0:0:
434,234,94418,1,2,0:0:0:0:
434,234,94512,6,0,P|436:275|432:303,1,60,8|0,0:0|0:0,0:0:0:0:
223,98,94699,2,0,P|220:68|222:38,1,60,2|0,0:0|0:0,0:0:0:0:
322,291,94887,6,0,P|287:313|261:324,1,60,4|0,0:1|0:0,0:0:0:0:
334,40,95074,2,0,P|359:24|386:11,1,60,0|0,0:0|0:0,0:0:0:0:
216,223,95262,6,0,P|180:204|158:187,1,66.0000020141602,2|0,0:3|0:0,0:0:0:0:
440,108,95449,2,0,P|469:122|496:140,1,66.0000020141602,4|2,0:1|0:0,0:0:0:0:
408,332,95637,6,0,B|328:268|364:144|456:152|500:236|448:276|392:256,1,270.000010299683,4|0,1:0|0:0,0:0:0:0:
312,140,96012,5,4,0:0:0:0:
240,368,96199,1,0,0:0:0:0:
152,88,96387,1,2,0:0:0:0:
110,328,96574,2,0,B|86:372|86:372|34:276|88:192,1,240,8|0,0:0|0:0,0:0:0:0:
312,140,97137,2,0,P|324:204|304:264,1,120,8|2,0:0|0:0,0:0:0:0:
112,12,97512,5,2,0:0:0:0:
436,73,97699,1,0,0:0:0:0:
87,192,97887,1,0,0:0:0:0:
411,253,98074,2,0,B|288:223|301:306|178:278,1,240,8|2,0:0|0:0,0:0:0:0:
248,44,98637,2,0,L|252:108,1,60,8|0,0:0|0:0,0:0:0:0:
87,192,98824,2,0,L|83:256,1,60,2|0,0:0|0:0,0:0:0:0:
240,368,99012,5,2,0:0:0:0:
164,100,99199,1,0,0:0:0:0:
0,364,99387,1,0,0:0:0:0:
312,201,99574,2,0,B|240:181|240:181|176:213|176:213|116:217|87:192,1,240,8|2,0:0|0:0,0:0:0:0:
334,40,100137,2,0,L|338:104,3,60,8|0|2|0,0:0|0:0|0:0|0:0,0:0:0:0:
312,201,100512,5,2,0:0:0:0:
164,100,100699,1,0,0:0:0:0:
436,73,100887,1,2,0:0:0:0:
323,322,101074,5,8,0:0:0:0:
292,8,101262,2,0,L|296:75,1,60,0|8,0:0|0:3,0:0:0:0:
451,230,101449,2,0,L|394:202,1,60,8|4,0:3|0:3,0:0:0:0:
164,100,101637,5,2,0:0:0:0:
164,100,101824,1,2,0:0:0:0:
164,100,102012,6,0,B|216:88|256:124|256:124|308:176|372:172|420:124|420:124|396:128|370:115,1,335.999989746094,4|4,0:0|0:0,0:0:0:0:
310,107,112512,6,0,L|318:287,1,167.999994873047,4|8,0:0|0:0,0:0:0:0:
268,344,113449,1,0,0:0:0:0:
196,304,113637,2,0,P|168:300|136:304,1,41.9999987182618,0|0,0:0|0:0,0:0:0:0:
80,336,114012,2,0,P|100:284|80:208,1,125.999996154785,0|0,0:0|0:0,0:0:0:0:
104,136,114762,2,0,P|156:156|232:136,1,125.999996154785,8|0,0:0|0:0,0:0:0:0:
288,88,115512,6,0,L|344:92,1,41.9999987182618,0|0,0:0|0:0,0:0:0:0:
404,48,115887,2,0,L|460:52,1,41.9999987182618,0|0,0:0|0:0,0:0:0:0:
496,120,116262,2,0,B|508:156|508:156|489:242,1,125.999996154785,8|0,0:0|0:0,0:0:0:0:
509,328,117012,6,0,P|450:320|405:264,1,125.999996154785,0|0,0:0|0:0,0:0:0:0:
404,184,117762,1,8,0:0:0:0:
256,260,118137,1,0,0:0:0:0:
108,184,118512,6,0,P|100:136|108:88,2,83.9999974365235,0|0|8,0:0|0:0|0:0,0:0:0:0:
160,248,119449,1,0,0:0:0:0:
208,180,119637,2,0,L|264:184,1,41.9999987182618,0|0,0:0|0:0,0:0:0:0:
316,128,120012,6,0,L|408:134,1,83.9999974365235
392,300,120762,2,0,L|308:294,1,83.9999974365235,8|0,0:0|0:0,0:0:0:0:
203,294,121512,6,0,L|119:298,1,83.9999974365235
24,248,122074,5,0,0:0:0:0:
24,248,122168,1,0,0:0:0:0:
24,248,122262,2,0,P|12:295|24:344,1,83.9999974365235,0|0,0:0|2:0,0:0:0:0:
176,200,122637,2,0,P|186:138|170:78,1,125.999996154785,0|0,0:0|2:0,0:0:0:0:
152,50,123012,6,0,B|241:69|233:8|313:28,1,167.999994873047,0|8,0:0|0:3,0:0:0:0:
399,80,123480,1,0,0:0:0:0:
399,80,123574,1,0,0:0:0:0:
399,80,123668,1,0,0:0:0:0:
399,80,123762,6,0,L|391:164,1,84,4|0,0:0|0:0,0:0:0:0:
314,29,124512,6,0,L|295:223,1,180.000006866455,4|0,1:0|0:0,0:0:0:0:
368,292,125074,1,0,0:0:0:0:
288,364,125262,2,0,P|204:384|120:320,1,180.000006866455,8|0,0:0|0:0,0:0:0:0:
44,268,125824,1,0,0:0:0:0:
132,204,126012,2,0,B|156:160|156:160|136:20,1,180.000006866455,2|0,0:0|0:0,0:0:0:0:
232,88,126574,1,2,0:0:0:0:
316,20,126762,2,0,B|392:24|392:24|420:40|420:40|500:44,1,180.000006866455,8|0,0:0|0:0,0:0:0:0:
508,148,127324,1,0,0:0:0:0:
439,231,127512,6,0,P|350:231|276:184,1,180.000006866455,2|0,0:0|0:0,0:0:0:0:
276,184,128262,2,0,L|292:376,1,180.000006866455,8|0,0:0|0:0,0:0:0:0:
188,332,128824,1,0,0:0:0:0:
188,332,129012,2,0,L|173:152,1,180.000006866455,2|0,0:0|0:0,0:0:0:0:
173,152,129762,2,0,P|208:140|264:152,1,90.0000034332277,8|0,0:0|0:0,0:0:0:0:
184,40,130137,2,0,P|149:52|93:40,1,90.0000034332277,2|0,0:0|0:0,0:0:0:0:
316,20,130512,6,0,P|368:60|352:184,1,180.000006866455,2|0,0:0|0:0,0:0:0:0:
396,272,131074,1,0,0:0:0:0:
396,272,131262,2,0,B|303:292|311:229|221:251,1,180.000006866455,8|0,0:0|0:0,0:0:0:0:
140,320,131824,1,0,0:0:0:0:
140,320,132012,2,0,B|176:268|176:268|156:136,1,180.000006866455,2|0,0:0|0:0,0:0:0:0:
104,60,132574,1,2,0:0:0:0:
196,4,132762,2,0,L|296:12,1,90.0000034332277,8|0,0:0|0:0,0:0:0:0:
340,104,133137,2,0,L|440:112,1,90.0000034332277,0|0,0:0|0:0,0:0:0:0:
464,216,133512,6,0,L|284:201,1,180.000006866455,2|0,0:0|0:0,0:0:0:0:
204,132,134074,1,2,0:0:0:0:
100,168,134262,2,0,P|64:240|112:340,1,180.000006866455,8|0,0:0|0:0,0:0:0:0:
192,384,134824,1,0,0:0:0:0:
276,316,135012,2,0,B|365:293|357:356|450:336,1,180.000006866455,2|0,0:0|0:0,0:0:0:0:
504,244,135574,1,2,0:0:0:0:
428,168,135762,2,0,B|392:84|392:84|432:-4,1,180.000006866455,8|0,0:0|0:0,0:0:0:0:
428,3,136512,6,0,P|376:44|264:20,1,180,2|0,0:0|0:0,0:0:0:0:
196,76,137262,2,0,P|111:51|38:98,1,180,2|0,0:0|0:0,0:0:0:0:
8,184,138012,2,0,L|28:368,1,180,2|0,0:0|0:0,0:0:0:0:
116,379,138762,2,0,P|135:356|144:327,1,60
164,148,139324,1,0,0:0:0:0:
240,204,139512,6,0,P|296:220|352:200,1,115.2,4|2,0:0|0:0,0:0:0:0:
420,172,140262,2,0,P|404:228|424:284,1,115.2,0|2,0:0|0:0,0:0:0:0:
452,352,141012,2,0,P|396:336|340:356,1,115.2,0|2,0:0|0:0,0:0:0:0:
272,384,141762,5,0,0:0:0:0:
256,192,141855,12,4,145512,0:0:0:0:
