osu file format v14

[General]
AudioFilename: audio.mp3
AudioLeadIn: 0
PreviewTime: 77262
Countdown: 0
SampleSet: Soft
StackLeniency: 0.4
Mode: 0
LetterboxInBreaks: 0
WidescreenStoryboard: 0

[Editor]
Bookmarks: 81012
DistanceSpacing: 1.2
BeatDivisor: 4
GridSize: 32
TimelineZoom: 3.199999

[Metadata]
Title:Marigold (ft. Guriri)
TitleUnicode:Marigold (ft. グリリ)
Artist:M2U
ArtistUnicode:M2U
Creator:- Frontier -
Version:KittyAdventure's Advanced
Source:Deemo
Tags:rayark magnolia myosotis alternate story symphonic boss song piano violin dnb drum'n'bass drum and bass Samsara Collection Diversity forgotten hourglass 3.0 SQUARE-MUSIQ TMDC @ SQ Lab nicode narae 구리리 boatkrab [_lost_] shockolatte -_frontier_- KittyAdventure gokugohan12468
BeatmapID:1267717
BeatmapSetID:594884

[Difficulty]
HPDrainRate:4
CircleSize:3.5
OverallDifficulty:4
ApproachRate:5.5
SliderMultiplier:1.35
SliderTickRate:1

[Events]
//Background and Video events
0,0,"bg.jpg",0,0
//Break Periods
2,17358,18387
2,103712,111387
//Storyboard Layer 0 (Background)
//Storyboard Layer 1 (Fail)
//Storyboard Layer 2 (Pass)
//Storyboard Layer 3 (Foreground)
//Storyboard Sound Samples

[TimingPoints]
1512,375,4,2,4,50,1,0
1512,-133.333333333333,4,2,4,50,0,0
14262,-133.333333333333,4,2,4,40,0,0
15012,-133.333333333333,4,2,4,30,0,0
15387,-133.333333333333,4,2,4,20,0,0
15762,526.315789473684,4,2,4,10,1,0
16025,535.714285714286,4,2,4,15,1,0
16292,750,4,2,4,10,1,0
16667,714.285714285714,4,2,4,10,1,0
17158,-100,4,2,6,35,0,0
19512,375,4,2,1,80,1,0
22137,-100,4,2,4,80,0,0
22512,-100,4,2,1,80,0,0
29262,-100,4,2,1,80,0,0
29637,-100,4,2,4,80,0,0
30012,-100,4,2,1,80,0,0
33012,-100,4,2,4,60,0,0
36762,-100,4,2,1,30,0,0
37137,-100,4,2,4,30,0,0
37512,-100,4,2,4,45,0,0
43887,-100,4,2,4,30,0,0
47074,-100,4,1,1,45,0,0
48012,-100,4,2,1,45,0,0
53637,-100,4,2,4,45,0,0
54012,-100,4,2,1,45,0,0
55512,-100,4,2,1,45,0,0
57574,-100,4,1,0,50,0,0
59262,-100,4,2,2,50,0,0
60012,-100,4,2,1,55,0,0
61512,-100,4,2,1,55,0,0
65637,-100,4,2,4,55,0,0
66012,-100,4,2,1,55,0,0
72012,-133.333333333333,4,2,4,25,0,0
75012,-100,4,2,1,65,0,0
76137,-100,4,2,4,65,0,0
76512,-100,4,2,1,65,0,0
76699,-100,4,2,1,50,0,0
77074,-100,4,2,1,60,0,0
77168,-100,4,2,1,70,0,0
77262,-100,4,2,1,85,0,0
78012,-100,4,2,1,80,0,1
80449,-100,4,2,1,80,0,1
81012,-100,4,2,1,80,0,1
82324,-100,4,2,1,100,0,1
84012,-100,4,2,1,100,0,1
84199,-100,4,2,4,100,0,1
84762,-100,4,2,1,100,0,1
84949,-100,4,2,4,100,0,1
85512,-100,4,2,1,100,0,1
85699,-100,4,2,4,100,0,1
86262,-100,4,2,1,100,0,1
86637,-100,4,2,4,100,0,1
87012,-100,4,2,1,100,0,1
87199,-100,4,2,4,100,0,1
88512,-100,4,2,1,100,0,1
89637,-100,4,2,1,75,0,0
90012,-100,4,2,1,80,0,1
92449,-100,4,2,1,80,0,1
93012,-100,4,2,1,80,0,1
93387,-100,4,2,4,80,0,1
93762,-100,4,2,1,80,0,1
93855,-100,4,2,4,80,0,1
94324,-100,4,2,1,80,0,1
94887,-100,4,2,1,80,0,1
95262,-100,4,2,4,80,0,1
95449,-100,4,2,1,80,0,1
95637,-100,4,2,1,80,0,1
96012,-100,4,2,1,80,0,1
101355,-100,4,2,4,80,0,1
101449,-100,4,2,4,80,0,0
101637,-100,4,2,4,60,0,1
101730,-100,4,2,4,60,0,0
102012,-100,4,2,4,60,0,0
102199,-100,4,2,4,60,0,0
103512,-100,4,2,2,45,0,0
112512,-100,4,2,1,45,0,0
118137,-100,4,2,4,45,0,0
118512,-100,4,2,1,45,0,0
122074,-100,4,1,1,45,0,0
123387,-100,4,1,0,45,0,0
123762,-100,4,2,2,45,0,0
124512,-100,4,2,1,50,0,0
125262,-100,4,2,1,50,0,0
126012,-100,4,2,1,50,0,0
126762,-100,4,2,1,50,0,0
128262,-100,4,2,1,50,0,0
130512,-100,4,2,1,50,0,0
131262,-100,4,2,1,50,0,0
132012,-100,4,2,1,50,0,0
132762,-100,4,2,1,50,0,0
133512,-100,4,2,1,50,0,0
136512,-114.942528735632,4,2,4,35,0,0
139512,-133.333333333333,4,2,2,20,0,0
141762,-100,4,2,2,20,0,0
141808,-100,4,2,1,20,0,0
144012,-100,4,2,1,15,0,0
144387,-100,4,2,1,10,0,0
144762,-100,4,2,1,5,0,0
145137,-100,4,2,1,5,0,0
145512,-100,4,2,2,5,0,0

[Colours]
Combo1 : 255,246,205
Combo2 : 26,44,94
Combo3 : 130,140,165
Combo4 : 177,148,148

[HitObjects]
472,48,1512,6,0,L|370:53,1,101.250003862381,2|0,0:0|0:0,0:0:0:0:
285,139,2262,2,0,L|183:133,1,101.250003862381,2|2,0:0|0:0,0:0:0:0:
97,219,3012,1,2,0:0:0:0:
215,252,3387,2,0,L|316:257,1,101.250003862381,2|2,0:0|0:0,0:0:0:0:
416,325,4137,1,2,0:0:0:0:
423,203,4512,6,0,P|346:142|245:161,1,202.500007724762,2|2,0:0|0:0,0:0:0:0:
163,72,5637,1,2,0:0:0:0:
93,171,6012,2,0,L|110:372,1,202.500007724762,2|0,0:0|0:0,0:0:0:0:
216,312,7137,2,0,L|266:314,1,50.6250019311906,2|0,0:0|0:0,0:0:0:0:
319,344,7512,6,0,P|363:361|411:344,1,101.250003862381,0|2,0:0|0:0,0:0:0:0:
497,257,8262,2,0,L|490:148,1,101.250003862381,2|2,0:0|0:0,0:0:0:0:
404,69,9012,2,0,B|298:43|309:113|207:91,1,202.500007724762,2|2,0:0|0:0,0:0:0:0:
103,30,10137,1,0,0:0:0:0:
102,151,10512,6,0,L|110:304,1,151.875005793572,2|0,0:0|0:0,0:0:0:0:
152,345,11262,2,0,P|218:312|290:334,1,151.875005793572,2|0,0:0|0:0,0:0:0:0:
343,305,12012,2,0,P|414:326|481:294,1,151.875005793572,2|0,0:0|0:0,0:0:0:0:
511,241,12762,2,0,L|504:139,1,101.250003862381,2|2,0:0|0:0,0:0:0:0:
396,79,13512,6,0,L|406:231,1,151.875005793572,2|0,0:0|0:0,0:0:0:0:
368,277,14262,2,0,P|297:303|225:283,1,151.875005793572,2|0,0:0|0:0,0:0:0:0:
192,232,15012,2,0,B|173:159|173:159|207:91,1,151.875005793572,2|0,0:0|0:0,0:0:0:0:
256,192,15762,12,4,17158,0:0:0:0:
448,80,19512,6,0,P|404:44|328:56,1,135,4|0,0:0|0:0,0:0:0:0:
296,128,20074,1,0,0:0:0:0:
284,208,20262,2,0,L|288:280,1,67.5,8|0,0:0|0:0,0:0:0:0:
208,308,20637,2,0,L|204:240,1,67.5,0|0,0:1|0:0,0:0:0:0:
140,192,21012,6,0,P|96:184|20:244,2,135,2|0|8,0:0|0:1|0:0,0:0:0:0:
212,148,21949,2,0,P|216:112|212:80,1,67.5,0|2,0:0|0:2,0:0:0:0:
152,28,22324,1,0,0:0:0:0:
212,81,22512,6,0,L|352:89,1,135,2|0,0:0|0:1,0:0:0:0:
476,188,23262,1,0,1:2:0:0:
336,272,23637,1,0,0:0:0:0:
192,200,24012,6,0,P|124:168|68:188,1,135,2|0,0:0|0:0,0:0:0:0:
136,332,24762,2,0,B|156:336|180:332|180:332|212:348|212:348|240:332|272:336,1,135,8|0,0:0|0:0,0:0:0:0:
424,312,25512,5,6,0:0:0:0:
388,152,25887,2,0,L|384:84,1,67.5
312,44,26262,2,0,P|276:60|240:64,1,67.5,8|0,0:0|0:0,0:0:0:0:
168,64,26637,2,0,P|134:58|104:43,1,67.5,0|0,0:0|0:0,0:0:0:0:
28,20,27012,6,0,P|68:88|64:144,1,135,2|0,0:0|0:0,0:0:0:0:
80,304,27762,2,0,L|152:296,1,67.5,8|0,0:0|0:0,0:0:0:0:
212,348,28137,2,0,L|279:355,1,67.5,0|0,0:0|0:0,0:0:0:0:
352,316,28512,6,0,P|356:282|353:248,1,67.5,2|0,0:0|0:0,0:0:0:0:
324,172,28886,1,0,0:0:0:0:
224,44,29262,2,0,B|188:52|188:52|152:36|152:36|124:32|88:48,1,135,8|8,0:0|0:3,0:0:0:0:
60,116,29824,1,4,0:3:0:0:
96,188,30012,6,0,B|125:201|153:197|153:197|189:181|189:181|225:189,1,135,4|0,0:0|0:0,0:0:0:0:
288,240,30574,1,2,0:0:0:0:
360,204,30762,1,0,0:0:0:0:
428,248,30949,2,0,P|432:284|428:320,2,67.5,0|2|0,0:0|0:0|0:0,0:0:0:0:
360,204,31512,6,0,P|416:224|484:188,1,135,2|0,0:0|0:0,0:0:0:0:
496,112,32074,1,2,0:0:0:0:
448,48,32262,2,0,B|404:36|404:36|312:44,1,135,0|2,0:0|0:0,0:0:0:0:
236,36,32824,1,0,0:0:0:0:
204,112,33012,6,0,P|160:140|80:136,1,135,4|0,0:1|0:0,0:0:0:0:
8,176,33574,2,0,L|17:242,1,67.5,2|2,0:0|0:0,0:0:0:0:
34,322,33949,2,0,B|70:314|70:314|102:322|102:322|134:306|170:318,1,135
256,192,34512,12,0,36762,3:0:0:0:
208,128,37512,6,0,P|262:113|331:153,2,135,2|0|2,0:0|0:0|0:0,0:0:0:0:
156,188,38449,2,0,L|164:256,2,67.5,0|0|0,0:0|0:0|0:0,0:0:0:0:
88,139,39012,2,0,P|24:213|56:304,1,202.5,2|2,0:0|0:0,0:0:0:0:
116,356,39762,2,0,B|148:364|180:344|180:344|212:364|244:356,1,135,2|2,0:0|0:0,0:0:0:0:
295,204,40512,6,0,P|366:272|463:260,1,202.5,2|0,0:0|0:0,0:0:0:0:
504,188,41262,2,0,L|496:52,1,135,2|0,0:0|0:0,0:0:0:0:
336,54,42012,2,0,B|278:37|278:37|140:68,1,202.5
72,116,42762,2,0,P|48:168|68:244,1,135,0|2,0:0|0:0,0:0:0:0:
226,266,43512,6,0,B|272:289|322:256|322:256|365:224|416:239,1,202.5,2|2,0:0|0:0,0:0:0:0:
405,159,44262,2,0,L|397:91,1,67.5,2|0,0:0|0:0,0:0:0:0:
322,60,44637,2,2,P|288:55|256:64,1,67.5,0|2,0:0|0:0,0:0:0:0:
210,131,45012,2,0,L|226:266,1,135,2|2,0:0|0:0,0:0:0:0:
226,346,45574,1,2,0:0:0:0:
144,348,45762,2,0,P|63:335|38:288,1,135,2|0,0:0|0:0,0:0:0:0:
48,125,46512,6,0,B|84:109|84:109|188:113,1,135,2|0,0:0|0:0,0:0:0:0:
248,72,47074,1,0,0:0:0:0:
280,148,47262,2,0,P|256:208|276:272,1,135,4|0,0:0|0:0,0:0:0:0:
440,284,48012,6,0,P|464:224|444:160,1,135,4|0,0:1|0:0,0:0:0:0:
364,20,48762,1,8,0:0:0:0:
300,68,48949,2,0,L|228:64,1,67.5,0|0,0:0|0:0,0:0:0:0:
168,16,49324,1,0,0:0:0:0:
104,64,49512,6,0,P|76:112|100:188,1,135,2|0,0:0|0:0,0:0:0:0:
132,256,50074,1,2,0:0:0:0:
212,260,50262,2,0,B|244:244|276:260|276:260|312:276|344:252,1,135,8|0,0:0|0:0,0:0:0:0:
364,176,50824,1,0,0:0:0:0:
444,192,51012,6,0,P|458:257|445:323,1,135,2|0,0:0|0:0,0:0:0:0:
380,372,51574,1,2,0:0:0:0:
300,360,51762,2,0,B|264:340|264:340|164:348,1,135,8|0,0:0|0:0,0:0:0:0:
88,352,52324,1,0,0:0:0:0:
36,292,52512,6,0,P|16:224|40:168,1,135,2|0,0:0|0:0,0:0:0:0:
100,116,53074,1,2,0:0:0:0:
145,183,53262,2,0,L|279:193,1,135,8|2,0:0|0:0,0:0:0:0:
440,188,54012,6,0,B|452:152|452:152|440:92|440:92|448:56,1,135,2|0,0:0|0:0,0:0:0:0:
292,32,54762,1,8,0:0:0:0:
244,96,54949,2,0,P|212:116|184:124,2,67.5,0|0|0,0:0|0:0|0:0,0:0:0:0:
292,32,55512,2,0,L|300:172,1,135,2|0,0:0|0:0,0:0:0:0:
440,212,56262,2,0,L|447:77,1,135,8|0,0:0|0:0,0:0:0:0:
292,32,57012,6,0,P|224:12|160:32,1,135,2|0,0:0|0:0,0:0:0:0:
104,84,57574,1,0,0:0:0:0:
108,164,57762,1,0,0:0:0:0:
128,324,58137,1,2,3:0:0:0:
280,272,58512,5,0,3:0:0:0:
432,216,58887,2,0,L|436:148,1,67.5,4|8,0:3|0:3,0:0:0:0:
400,76,59262,2,0,P|340:96|272:72,1,135,4|0,0:0|0:0,0:0:0:0:
120,28,60012,6,0,B|128:76|128:76|116:164,1,135,4|0,1:0|0:0,0:0:0:0:
48,204,60574,1,0,0:0:0:0:
80,276,60762,2,0,B|128:268|128:268|216:280,1,135,8|0,0:0|0:0,0:0:0:0:
268,340,61324,1,0,0:0:0:0:
300,264,61512,6,0,B|292:216|292:216|304:128,1,135,2|0,0:0|0:0,0:0:0:0:
300,48,62074,1,2,0:0:0:0:
228,88,62262,2,0,B|180:96|180:96|92:84,1,135,8|0,0:0|0:0,0:0:0:0:
32,32,62824,1,0,0:0:0:0:
8,108,63012,6,0,P|20:148|4:240,1,135,2|0,0:0|0:0,0:0:0:0:
156,292,63762,2,0,B|188:289|217:313|217:313|252:299|282:312,1,135,8|0,0:0|0:0,0:0:0:0:
350,339,64324,1,0,0:0:0:0:
429,320,64512,2,0,P|453:268|429:196,1,135,2|0,0:0|0:0,0:0:0:0:
270,164,65262,2,0,L|274:234,1,67.5,8|0,0:0|0:0,0:0:0:0:
283,312,65637,2,0,P|257:332|225:342,1,67.5,2|0,0:0|0:0,0:0:0:0:
143,357,66012,6,0,P|92:316|82:250,1,135,2|0,0:0|0:0,0:0:0:0:
104,172,66574,1,0,0:0:0:0:
152,108,66762,2,0,P|207:71|272:81,1,135,8|0,0:0|0:0,0:0:0:0:
300,156,67324,1,0,0:0:0:0:
324,232,67512,6,0,P|389:242|444:205,1,135,2|0,0:0|0:0,0:0:0:0:
472,128,68074,1,2,0:0:0:0:
392,108,68262,2,0,L|388:40,1,67.5,8|0,0:0|0:0,0:0:0:0:
308,60,68637,2,0,L|304:128,1,67.5
244,184,69012,6,0,P|192:192|128:144,1,135,2|0,0:0|0:0,0:0:0:0:
64,96,69574,1,0,0:0:0:0:
24,168,69762,2,0,L|28:304,1,135,8|0,0:0|0:0,0:0:0:0:
93,350,70324,1,0,0:0:0:0:
160,304,70512,6,0,P|209:260|275:265,1,135,2|0,0:0|0:0,0:0:0:0:
332,324,71074,1,2,0:0:0:0:
364,248,71262,2,0,L|368:180,1,67.5,8|0,0:0|0:0,0:0:0:0:
288,160,71637,2,0,L|284:92,1,67.5
216,48,72012,6,0,B|172:35|172:35|69:56,1,151.875005793572,0|0,3:0|0:0,0:0:0:0:
26,100,72762,2,0,P|10:172|49:234,1,151.875005793572
108,251,73512,2,0,B|259:256,1,151.875005793572,0|0,3:0|0:0,0:0:0:0:
298,209,74262,1,0,0:0:0:0:
357,57,74824,1,0,0:0:0:0:
408,120,75012,6,0,B|416:156|416:156|408:256,1,135,2|0,0:0|0:0,0:0:0:0:
453,321,75574,1,0,0:0:0:0:
384,364,75762,2,0,P|324:332|260:352,1,135,8|2,1:2|1:3,0:0:0:0:
184,360,76324,1,0,0:0:0:0:
212,284,76512,6,0,L|216:216,1,67.5,2|8,0:0|0:0,0:0:0:0:
152,164,76887,2,0,P|120:156|84:160,1,67.5,8|8,0:0|0:0,0:0:0:0:
24,212,77262,2,0,P|8:260|28:340,1,135,2|8,0:0|1:0,0:0:0:0:
184,360,78012,5,4,1:0:0:0:
212,284,78199,2,0,P|252:264|340:280,1,135
420,264,78762,2,0,L|412:196,1,67.5,8|0,1:2|0:0,0:0:0:0:
336,172,79137,2,0,L|344:104,1,67.5
288,44,79512,6,0,B|240:52|240:52|196:44|196:44|148:52,1,135,2|0,1:2|0:0,0:0:0:0:
76,36,80074,1,0,1:2:0:0:
36,108,80262,1,8,0:0:0:0:
80,172,80449,2,0,L|216:156,1,135,4|2,0:0|0:0,0:0:0:0:
280,204,81012,6,0,P|282:269|235:315,1,135,6|0,0:0|0:0,0:0:0:0:
164,350,81574,1,0,0:0:0:0:
96,306,81762,2,0,L|80:172,1,135,8|0,0:0|0:0,0:0:0:0:
24,112,82324,6,0,P|88:68|148:76,1,135,4|0,1:0|1:2,0:0:0:0:
208,24,82887,2,0,P|272:68|332:60,1,135,4|8,1:0|1:2,0:0:0:0:
396,24,83449,1,4,1:0:0:0:
448,84,83637,2,0,L|452:152,1,67.5,8|2,1:2|1:2,0:0:0:0:
396,212,84012,5,6,0:0:0:0:
328,168,84199,2,0,P|296:152|256:148,2,67.5,2|2|2,0:0|0:0|0:0,0:0:0:0:
320,248,84762,2,0,L|312:316,1,67.5,8|2,0:0|0:0,0:0:0:0:
232,336,85137,2,0,L|224:268,1,67.5,2|2,0:0|0:0,0:0:0:0:
152,232,85512,5,2,0:0:0:0:
80,268,85699,2,0,P|56:212|84:148,1,135,2|2,0:0|0:0,0:0:0:0:
160,120,86262,2,0,L|232:124,1,67.5,8|0,1:2|0:0,0:0:0:0:
268,52,86637,2,0,L|335:48,1,67.5,2|2,0:0|0:0,0:0:0:0:
396,100,87012,5,2,0:0:0:0:
464,56,87199,2,0,B|500:44|500:44|484:140,1,135,2|2,0:0|0:0,0:0:0:0:
428,200,87762,2,0,B|392:188|392:188|408:284,1,135,2|2,1:2|0:0,0:0:0:0:
436,360,88324,1,0,0:0:0:0:
356,360,88512,6,0,L|280:356,1,67.5,2|0,0:0|0:0,0:0:0:0:
227,303,88887,2,0,L|159:306,1,67.5,2|2,0:0|0:0,0:0:0:0:
84,340,89262,2,0,P|76:308|84:272,1,67.5,8|2,0:0|0:0,0:0:0:0:
148,224,89637,2,0,P|156:191|149:158,1,67.5,8|2,0:0|0:0,0:0:0:0:
84,108,90012,6,0,L|220:116,1,135,4|0,1:0|0:0,0:0:0:0:
368,48,90762,2,0,P|416:68|456:144,1,135,8|0,1:2|0:0,0:0:0:0:
324,232,91512,2,0,P|296:276|215:303,1,135,2|0,1:2|0:0,0:0:0:0:
64,272,92262,1,8,1:2:0:0:
4,216,92449,2,0,L|12:76,1,135,4|2,0:0|0:0,0:0:0:0:
76,32,93012,6,0,P|124:40|164:112,1,135,2|2,0:0|0:0,0:0:0:0:
132,184,93574,1,2,0:0:0:0:
196,236,93762,2,0,L|264:228,1,67.5,8|2,0:0|0:0,0:0:0:0:
336,260,94137,6,0,P|344:224|336:192,1,67.5,2|2,0:0|0:0,0:0:0:0:
272,148,94512,1,8,0:0:0:0:
160,32,94887,2,0,L|92:40,2,67.5,4|0|2,0:1|0:0|0:3,0:0:0:0:
169,112,95449,2,0,L|101:120,1,67.5,4|4,0:1|0:1,0:0:0:0:
73,196,95824,1,4,1:0:0:0:
152,212,96012,6,0,B|192:196|192:196|288:208,1,135,4|2,0:0|0:0,0:0:0:0:
336,272,96574,2,0,P|364:228|344:152,1,135,8|2,0:0|0:0,0:0:0:0:
288,92,97137,1,8,0:0:0:0:
212,116,97324,1,0,0:0:0:0:
208,196,97512,6,0,L|216:268,1,67.5,2|0,0:0|0:0,0:0:0:0:
164,328,97887,1,2,0:0:0:0:
100,280,98074,2,0,P|68:228|92:160,1,135,8|2,0:0|0:0,0:0:0:0:
148,104,98637,2,0,L|216:96,1,67.5,8|0,0:0|0:0,0:0:0:0:
284,44,99012,6,0,P|324:76|408:68,1,135,2|2,0:0|0:0,0:0:0:0:
464,128,99574,2,0,L|452:268,1,135,8|2,0:0|0:0,0:0:0:0:
376,284,100137,2,0,P|348:264|312:260,1,67.5,8|0,0:0|0:0,0:0:0:0:
248,304,100512,6,0,L|248:376,1,67.5,2|0,0:0|0:0,0:0:0:0:
168,356,100887,1,2,0:0:0:0:
168,276,101074,2,0,L|168:208,1,67.5,8|0,0:0|0:0,0:0:0:0:
124,140,101449,1,8,0:3:0:0:
205,136,101637,6,0,P|231:155|247:188,2,67.5,2|2|4,0:0|0:0|0:0,0:0:0:0:
256,192,102199,12,6,103512,0:0:0:0:
256,340,112512,6,0,B|221:336|221:336|189:348|189:348|157:336|157:336|125:340,2,135,4|0|8,0:0|0:0|0:0,0:0:0:0:
316,288,113449,2,0,L|384:292,2,67.5,0|0|0,0:0|0:0|0:0,0:0:0:0:
256,236,114012,2,0,P|223:146|292:79,1,202.5
373,86,114762,2,0,L|513:94,1,135,8|0,0:0|0:0,0:0:0:0:
458,247,115512,6,0,L|256:236,1,202.5
186,278,116262,2,0,P|203:213|184:149,1,135,8|0,0:0|0:0,0:0:0:0:
127,92,116824,1,0,0:0:0:0:
206,72,117012,6,0,P|272:96|404:66,1,202.5
465,115,117762,2,0,L|450:249,1,135,8|0,0:0|0:0,0:0:0:0:
308,324,118512,6,0,B|288:304|288:304|252:320|252:320|216:304|216:304|196:328,1,135
40,368,119262,1,8,0:0:0:0:
20,292,119449,2,0,L|20:224,2,67.5
100,304,120012,5,0,0:0:0:0:
232,208,120387,1,0,0:0:0:0:
308,352,120762,1,8,0:0:0:0:
444,264,121137,1,0,0:0:0:0:
412,104,121512,6,0,P|372:64|292:68,1,135
228,112,122074,1,0,0:0:0:0:
252,192,122262,1,0,0:0:0:0:
308,344,122637,1,0,0:0:0:0:
148,348,123012,5,4,0:3:0:0:
36,232,123387,2,0,L|40:160,1,67.5,4|8,0:3|0:3,0:0:0:0:
72,92,123762,2,0,P|124:92|168:160,1,135,4|0,0:0|0:0,0:0:0:0:
260,292,124512,6,0,L|396:280,1,135,4|0,1:0|0:0,0:0:0:0:
464,320,125074,1,0,0:0:0:0:
476,240,125262,2,0,B|460:208|476:176|476:176|492:140|468:108,1,135,8|0,0:0|0:0,0:0:0:0:
404,64,125824,1,0,0:0:0:0:
328,32,126012,6,0,B|296:24|264:44|264:44|232:24|200:32,1,135,2|0,0:0|0:0,0:0:0:0:
140,84,126574,1,2,0:0:0:0:
104,156,126762,2,0,P|84:200|108:284,1,135,8|0,0:0|0:0,0:0:0:0:
164,336,127324,1,0,0:0:0:0:
216,276,127512,6,0,B|260:256|260:256|352:264,1,135,2|0,0:0|0:0,0:0:0:0:
464,152,128262,2,0,B|420:172|420:172|328:164,1,135,8|0,0:0|0:0,0:0:0:0:
260,128,128824,1,0,0:0:0:0:
196,80,129012,6,0,P|136:64|80:108,1,135,2|0,0:0|0:0,0:0:0:0:
32,168,129574,1,0,0:0:0:0:
24,248,129762,2,0,L|32:316,1,67.5,8|0,0:0|0:0,0:0:0:0:
95,365,130137,2,0,P|133:375|166:367,1,67.5,2|0,0:0|0:0,0:0:0:0:
136,292,130512,6,0,L|151:157,1,135,2|0,0:0|0:0,0:0:0:0:
212,104,131074,1,0,0:0:0:0:
268,164,131262,2,0,P|288:208|260:292,1,135,8|0,0:0|0:0,0:0:0:0:
320,348,131824,1,0,0:0:0:0:
396,320,132012,6,0,P|370:259|391:196,1,135,2|0,0:0|0:0,0:0:0:0:
412,120,132574,1,2,0:0:0:0:
436,36,132762,2,0,L|368:39,1,67.5,8|0,0:0|0:0,0:0:0:0:
291,20,133137,2,0,L|224:24,1,67.5
184,96,133512,6,0,P|140:132|64:132,1,135,2|0,0:0|0:0,0:0:0:0:
36,56,134074,1,2,0:0:0:0:
64,132,134262,2,0,L|72:268,1,135,8|0,0:0|0:0,0:0:0:0:
132,324,134824,1,0,0:0:0:0:
216,356,135012,6,0,L|223:221,1,135,2|0,0:0|0:0,0:0:0:0:
168,160,135574,1,2,0:0:0:0:
224,100,135762,2,0,L|292:104,1,67.5,8|0,0:0|0:0,0:0:0:0:
348,160,136137,2,0,L|344:228,1,67.5
364,308,136512,6,0,B|280:334|280:334|196:302,1,176.175001478519
130,265,137262,2,0,P|90:192|143:128,1,176.175001478519,2|0,0:0|0:0,0:0:0:0:
214,99,138012,2,0,L|395:116,1,176.175001478519,2|0,0:0|0:0,0:0:0:0:
455,77,138762,2,0,L|438:258,1,176.175001478519,2|0,0:0|0:0,0:0:0:0:
487,311,139512,6,0,P|437:282|350:309,1,151.875005793572,0|2,0:0|0:0,0:0:0:0:
294,357,140262,2,0,L|142:349,1,151.875005793572,0|2,0:0|0:0,0:0:0:0:
127,274,141012,2,0,L|279:282,1,151.875005793572,0|2,0:0|0:0,0:0:0:0:
336,232,141762,5,2,0:0:0:0:
256,192,141855,12,4,145512,0:0:0:0:
