osu file format v14

[General]
AudioFilename: audio.mp3
AudioLeadIn: 0
PreviewTime: 77262
Countdown: 0
SampleSet: Soft
StackLeniency: 0.4
Mode: 0
LetterboxInBreaks: 0
WidescreenStoryboard: 0

[Editor]
DistanceSpacing: 1.4
BeatDivisor: 4
GridSize: 32
TimelineZoom: 3.199999

[Metadata]
Title:Marigold (ft. Guriri)
TitleUnicode:Marigold (ft. グリリ)
Artist:M2U
ArtistUnicode:M2U
Creator:- Frontier -
Version:Hard
Source:Deemo
Tags:rayark magnolia myosotis alternate story symphonic boss song piano violin dnb drum'n'bass drum and bass Samsara Collection Diversity forgotten hourglass 3.0 SQUARE-MUSIQ TMDC @ SQ Lab nicode narae 구리리 boatkrab [_lost_] shockolatte -_frontier_- KittyAdventure gokugohan12468
BeatmapID:1258136
BeatmapSetID:594884

[Difficulty]
HPDrainRate:5
CircleSize:3.5
OverallDifficulty:5
ApproachRate:7
SliderMultiplier:1.5
SliderTickRate:1

[Events]
//Background and Video events
0,0,"bg.jpg",0,0
//Break Periods
2,17358,18612
2,103712,111612
//Storyboard Layer 0 (Background)
//Storyboard Layer 1 (Fail)
//Storyboard Layer 2 (Pass)
//Storyboard Layer 3 (Foreground)
//Storyboard Sound Samples

[TimingPoints]
1512,375,4,2,4,50,1,0
1512,-200,4,2,4,50,0,0
15762,526.315789473684,4,2,4,15,1,0
15762,-200,4,2,4,15,0,0
16025,535.714285714286,4,2,4,15,1,0
16292,750,4,2,4,15,1,0
16292,-200,4,2,4,15,0,0
16667,714.285714285714,4,2,4,15,1,0
17158,-200,4,2,6,35,0,0
19512,375,4,2,1,80,1,0
33012,-133.333333333333,4,2,1,60,0,0
35824,-200,4,2,2,60,0,0
36762,-200,4,2,2,30,0,0
37512,-200,4,2,4,45,0,0
46699,-200,4,1,1,45,0,0
48012,-166.666666666667,4,2,1,50,0,0
53637,-166.666666666667,4,2,4,50,0,0
54012,-166.666666666667,4,2,1,50,0,0
59262,-500,4,2,2,50,0,0
60012,-117.647058823529,4,2,1,55,0,0
72012,-200,4,2,1,35,0,0
75012,-100,4,2,1,65,0,0
77262,-100,4,2,1,70,0,0
77637,-100,4,2,1,75,0,0
78012,-100,4,2,1,80,0,1
84012,-100,4,2,1,80,0,1
84199,-100,4,2,4,80,0,1
84762,-100,4,2,1,80,0,1
84949,-100,4,2,4,80,0,1
85512,-100,4,2,1,80,0,1
85699,-100,4,2,4,80,0,1
86262,-100,4,2,1,80,0,1
86449,-100,4,2,4,80,0,1
87012,-100,4,2,1,80,0,1
87199,-100,4,2,4,80,0,1
88512,-100,4,2,1,80,0,1
89637,-66.6666666666667,4,2,1,75,0,0
90012,-100,4,2,1,80,0,1
93387,-100,4,2,4,80,0,1
93762,-100,4,2,1,80,0,1
93949,-100,4,2,4,80,0,1
94512,-100,4,2,1,80,0,1
94699,-100,4,2,4,80,0,1
94887,-100,4,2,1,80,0,1
95262,-100,4,2,4,80,0,1
95449,-100,4,2,1,80,0,1
95637,-66.6666666666667,4,2,1,80,0,1
96012,-100,4,2,1,80,0,1
101449,-100,4,2,4,80,0,0
101637,-100,4,2,1,60,0,1
101730,-100,4,2,1,60,0,1
102012,-100,4,2,2,60,0,0
103512,-285.714285714286,4,2,2,45,0,0
112512,-200,4,2,1,45,0,0
121699,-200,4,1,1,45,0,0
123762,-500,4,2,2,50,0,0
124512,-117.647058823529,4,2,1,50,0,0
136512,-200,4,2,4,35,0,0
139512,-312.5,4,2,2,20,0,0
141762,-100,4,2,2,20,0,0
141855,-100,4,2,1,20,0,0
144012,-100,4,2,1,15,0,0
144387,-100,4,2,1,10,0,0
144762,-100,4,2,1,5,0,0
145512,-100,4,2,2,5,0,0

[Colours]
Combo1 : 255,246,205
Combo2 : 26,44,94
Combo3 : 130,140,165
Combo4 : 177,148,148

[HitObjects]
104,52,1512,6,0,L|192:56,2,75,2|0|0,0:0|0:0|0:0,0:0:0:0:
158,150,2637,1,0,0:0:0:0:
268,128,3012,2,0,L|342:124,2,75
310,23,4137,1,0,0:0:0:0:
421,47,4512,6,0,P|454:109|429:195,1,150,2|0,0:0|0:0,0:0:0:0:
360,268,5637,1,0,0:0:0:0:
260,216,6012,2,0,B|184:197|192:248|100:228,1,150,2|2,0:0|0:0,0:0:0:0:
28,156,7137,2,0,L|32:112,1,37.5,0|0,0:0|0:0,0:0:0:0:
72,80,7512,6,0,P|112:72|160:88,1,75,0|2,3:0|0:0,0:0:0:0:
252,44,8262,2,0,P|288:51|324:43,1,75,2|2,0:0|0:0,0:0:0:0:
416,108,9012,2,0,L|404:264,1,150,2|2,0:0|0:0,0:0:0:0:
320,332,10137,1,0,0:0:0:0:
216,292,10512,6,0,P|160:276|104:292,1,112.5,2|0,0:0|0:0,0:0:0:0:
60,320,11262,2,0,L|68:204,1,112.5,2|0,0:0|0:0,0:0:0:0:
52,152,12012,2,0,B|88:176|88:176|172:172,1,112.5,2|0,0:0|0:0,0:0:0:0:
200,136,12762,1,0,0:0:0:0:
300,84,13137,1,2,0:0:0:0:
388,156,13512,6,0,B|400:184|400:184|388:272,1,112.5,2|0,0:0|0:0,0:0:0:0:
376,320,14262,2,0,P|328:340|268:320,1,112.5,2|0,0:0|0:0,0:0:0:0:
228,288,15012,2,0,P|175:271|124:291,1,112.5,2|0,0:0|0:0,0:0:0:0:
84,332,15762,6,0,L|87:384,1,37.5
21,243,16292,2,0,L|23:200,1,37.5
112,88,17158,5,4,0:0:0:0:
112,88,19512,6,0,B|188:69|180:120|272:100,1,150,4|0,0:0|0:0,0:0:0:0:
356,44,20074,1,0,0:0:0:0:
460,85,20262,2,0,L|453:243,1,150,8|2,0:0|3:0,0:0:0:0:
479,343,20824,1,0,0:0:0:0:
374,301,21012,6,0,L|282:297,1,75,2|0,0:0|0:0,0:0:0:0:
214,372,21387,2,0,L|140:369,1,75,0|0,0:1|0:0,0:0:0:0:
62,285,21762,2,0,B|46:240|46:240|66:124,1,150,8|2,0:0|3:0,0:0:0:0:
81,28,22324,1,0,0:0:0:0:
156,112,22512,6,0,L|244:120,1,75,2|0,0:0|0:0,0:0:0:0:
303,32,22887,2,0,L|391:40,1,75,2|0,0:0|0:0,0:0:0:0:
434,35,23168,1,0,0:0:0:0:
434,35,23262,5,0,1:2:0:0:
230,118,23637,1,2,0:0:0:0:
317,308,24012,6,0,P|376:320|448:288,1,112.5,2|0,0:0|0:0,0:0:0:0:
468,272,24387,2,0,L|460:192,1,75,2|0,0:0|0:0,0:0:0:0:
390,109,24762,2,0,P|345:97|306:104,1,75,8|0,0:0|0:0,0:0:0:0:
213,143,25137,2,0,P|175:145|140:134,1,75,2|0,0:0|0:0,0:0:0:0:
54,58,25512,6,0,P|30:102|50:206,1,150,2|0,0:0|0:0,0:0:0:0:
54,309,26074,1,0,0:0:0:0:
54,309,26168,1,0,0:0:0:0:
54,309,26262,2,0,L|65:344,3,37.5,8|0|0|0,0:0|0:0|0:0|0:0,0:0:0:0:
108,360,26637,2,0,L|195:354,1,75
296,344,27012,6,0,B|352:340|352:340|384:356|384:356|460:352,1,150,2|0,0:0|0:0,0:0:0:0:
508,260,27574,1,0,0:0:0:0:
436,172,27762,2,0,B|428:136|428:136|436:92,1,75,8|0,0:0|0:0,0:0:0:0:
348,24,28137,2,0,B|312:32|312:32|268:24,1,75,0|0,0:0|0:0,0:0:0:0:
164,16,28512,6,0,P|204:60|208:128,1,112.5,2|0,0:0|0:0,0:0:0:0:
196,164,28887,2,0,L|112:156,1,75,0|0,0:0|0:0,0:0:0:0:
36,232,29262,2,0,P|32:252|36:280,3,37.5,8|0|0|0,0:0|0:0|0:0|0:0,0:0:0:0:
59,319,29637,2,0,P|74:332|100:343,3,37.5,8|8|4|4,0:3|0:3|0:3|0:3,0:0:0:0:
145,330,30012,6,0,B|258:301|246:377|383:347,1,225,4|2,0:0|0:0,0:0:0:0:
420,252,30762,2,0,L|416:168,1,75,0|0,0:0|0:0,0:0:0:0:
380,136,31043,1,0,0:0:0:0:
380,136,31137,2,0,L|384:52,1,75,2|0,0:0|0:0,0:0:0:0:
276,24,31512,6,0,P|224:72|120:60,1,150,2|0,0:0|0:0,0:0:0:0:
69,147,32074,1,2,0:0:0:0:
4,230,32262,1,0,0:0:0:0:
78,304,32449,1,0,0:0:0:0:
78,304,32543,1,0,0:0:0:0:
78,304,32637,2,0,L|152:299,1,75
228,364,33012,6,0,P|276:320|392:332,1,168.750006437302,4|0,0:1|0:0,0:0:0:0:
445,368,33762,2,0,L|509:364,2,56.2500021457673
375,321,34324,1,0,0:0:0:0:
432,258,34512,2,0,B|452:218|452:218|436:78,1,168.750006437302
368,48,35262,2,0,L|311:44,1,56.2500021457673
239,88,35637,1,0,0:0:0:0:
165,173,35824,6,0,B|186:170|205:176|205:176|229:165|229:165|252:180|264:194|264:194|294:184|294:184|321:193|341:188,1,187.5,2|0,0:0|3:0,0:0:0:0:
184,40,37512,6,0,L|260:44,2,75,2|0|2,0:0|0:0|0:0,0:0:0:0:
144,80,38449,2,0,P|140:100|144:132,1,37.5
172,164,38824,1,0,0:0:0:0:
136,208,39012,2,0,P|80:228|24:200,1,112.5,2|0,0:0|0:0,0:0:0:0:
12,164,39762,2,0,L|20:76,1,75,2|0,0:0|0:0,0:0:0:0:
120,36,40512,6,0,L|232:46,1,112.5,2|0,0:0|0:0,0:0:0:0:
276,84,41262,2,0,P|316:88|352:76,1,75,2|0,0:0|0:0,0:0:0:0:
448,28,42012,2,0,P|464:84|448:136,1,112.5,2|0,0:0|0:0,0:0:0:0:
420,184,42762,2,0,P|412:224|420:264,1,75,2|0,0:0|0:0,0:0:0:0:
332,332,43512,6,0,B|271:325|271:325|240:341|240:341|182:335,1,150,2|2,0:0|0:0,0:0:0:0:
132,351,44449,1,0,0:0:0:0:
108,300,44637,2,0,P|104:272|112:248,1,37.5
132,212,45012,2,0,P|148:164|120:104,1,112.5,2|0,0:0|0:0,0:0:0:0:
160,64,45762,2,0,L|240:64,1,75,2|0,0:0|0:0,0:0:0:0:
324,136,46512,6,0,P|360:128|404:140,1,75,2|0,0:0|0:0,0:0:0:0:
460,228,47262,1,0,0:0:0:0:
471,339,47637,1,0,0:0:0:0:
336,351,48012,6,0,L|192:351,1,134.999995880127,4|0,0:1|0:0,0:0:0:0:
167,308,48762,2,0,P|163:280|167:260,1,44.999998626709,8|0,0:0|0:0,0:0:0:0:
191,216,49137,2,0,P|193:193|189:171,1,44.999998626709
168,121,49512,2,0,P|204:101|300:129,1,134.999995880127,2|2,0:0|0:0,0:0:0:0:
325,162,50262,2,0,L|429:162,1,89.9999972534181,8|0,0:0|0:0,0:0:0:0:
423,54,51012,6,0,L|319:54,1,89.9999972534181,2|0,0:0|0:0,0:0:0:0:
284,78,51574,1,2,0:0:0:0:
239,47,51762,2,0,P|179:31|99:63,1,134.999995880127,8|0,0:0|0:0,0:0:0:0:
79,96,52512,2,0,L|79:244,1,134.999995880127,2|2,0:0|0:0,0:0:0:0:
102,279,53262,2,0,P|146:271|206:287,1,89.9999972534181,8|2,0:0|0:0,0:0:0:0:
276,343,54012,6,0,P|364:351|420:287,1,179.999994506836,2|8,0:0|0:0,0:0:0:0:
439,236,54949,2,0,L|443:184,2,44.999998626709
420,286,55512,2,0,P|374:292|333:276,1,89.9999972534181,2|0,0:0|0:0,0:0:0:0:
241,333,56262,2,0,P|204:305|186:265,1,89.9999972534181,8|0,0:0|0:0,0:0:0:0:
184,157,57012,6,0,L|192:57,1,89.9999972534181,2|0,0:0|0:0,0:0:0:0:
295,39,57762,1,0,0:0:0:0:
401,106,58137,1,2,3:0:0:0:
511,44,58512,2,0,L|500:224,1,179.999994506836,0|4,3:0|0:0,0:0:0:0:
500,224,60012,6,0,P|444:252|372:228,1,127.50000243187,4|0,1:0|0:0,0:0:0:0:
300,192,60574,1,0,0:0:0:0:
228,256,60762,2,0,L|88:256,1,127.50000243187,8|0,0:0|0:0,0:0:0:0:
40,184,61324,1,0,0:0:0:0:
116,128,61512,2,0,B|140:68|140:68|116:0,1,127.50000243187,2|0,0:0|0:0,0:0:0:0:
216,4,62074,1,2,0:0:0:0:
300,52,62262,2,0,P|352:72|432:44,1,127.50000243187,8|0,0:0|0:0,0:0:0:0:
499,1,62824,1,0,0:0:0:0:
511,96,63012,6,0,L|500:224,1,127.50000243187,2|0,0:0|0:0,0:0:0:0:
500,223,63762,2,0,P|444:251|372:227,1,127.50000243187,8|0,0:0|0:0,0:0:0:0:
312,176,64324,1,0,0:0:0:0:
236,116,64512,2,0,P|175:101|119:129,1,127.50000243187,2|0,0:0|0:0,0:0:0:0:
119,129,65262,2,0,L|124:192,1,63.7500012159348,8|0,0:0|0:0,0:0:0:0:
48,251,65637,2,0,L|43:188,1,63.7500012159348,2|0,0:0|0:0,0:0:0:0:
132,304,66012,6,0,B|199:286|192:332|275:314,1,127.50000243187,2|0,0:0|0:0,0:0:0:0:
344,360,66574,1,0,0:0:0:0:
424,308,66762,2,0,B|440:268|440:268|428:168,1,127.50000243187,8|0,0:0|0:0,0:0:0:0:
384,100,67324,1,0,0:0:0:0:
312,160,67512,2,0,P|250:182|176:148,1,127.50000243187,2|0,0:0|0:0,0:0:0:0:
124,100,68074,1,2,0:0:0:0:
64,176,68262,2,0,L|72:312,1,127.50000243187,8|0,0:0|0:0,0:0:0:0:
71,303,69012,6,0,P|120:280|200:312,1,127.50000243187,2|0,0:0|0:0,0:0:0:0:
256,368,69574,1,0,0:0:0:0:
324,299,69762,2,0,P|383:279|441:303,1,127.50000243187,8|0,0:0|0:0,0:0:0:0:
500,228,70324,1,0,0:0:0:0:
428,164,70512,2,0,L|300:164,1,127.50000243187,2|0,0:0|0:0,0:0:0:0:
256,80,71074,1,2,0:0:0:0:
212,164,71262,2,0,L|84:164,1,127.50000243187,8|0,0:0|0:0,0:0:0:0:
84,304,72012,6,0,P|152:320|200:296,1,112.5,0|0,3:0|0:0,0:0:0:0:
236,273,72762,2,0,P|288:256|341:273,1,112.5,0|0,3:0|0:0,0:0:0:0:
378,230,73512,2,0,L|386:102,1,112.5,0|0,3:0|0:0,0:0:0:0:
353,70,74262,2,0,P|316:77|273:69,1,75,0|0,3:0|0:0,0:0:0:0:
201,43,74824,1,0,0:0:0:0:
96,64,75012,6,0,P|68:128|100:228,1,150,2|0,0:0|0:0,0:0:0:0:
160,288,75574,1,0,0:0:0:0:
252,224,75762,2,0,L|420:236,1,150,8|2,1:2|1:3,0:0:0:0:
500,284,76324,1,0,0:0:0:0:
412,356,76512,6,0,L|337:350,1,75,2|8,0:0|0:0,0:0:0:0:
235,294,76887,2,0,L|160:288,1,75,8|8,0:0|0:0,0:0:0:0:
76,364,77262,2,0,P|44:300|68:220,1,150
168,60,78012,6,0,L|252:64,1,75,4|0,1:0|0:0,0:0:0:0:
340,8,78387,2,0,L|424:12,1,75,0|0,0:0|0:0,0:0:0:0:
492,92,78762,2,0,B|516:160|516:160|488:252,1,150,8|0,1:2|0:0,0:0:0:0:
416,316,79324,1,0,0:0:0:0:
316,264,79512,2,0,P|276:256|236:264,1,75,2|2,1:2|1:2,0:0:0:0:
144,320,79887,2,0,P|107:325|70:317,1,75,0|0,0:0|0:0,0:0:0:0:
115,213,80262,1,8,1:2:0:0:
4,224,80449,2,0,L|4:60,1,150,4|2,0:0|0:0,0:0:0:0:
44,36,80918,1,0,0:0:0:0:
44,36,81012,6,0,P|88:48|136:36,1,75,6|0,0:0|0:0,0:0:0:0:
224,8,81387,2,0,P|261:4|296:16,1,75,0|0,0:0|0:0,0:0:0:0:
404,46,81762,2,0,L|456:42,5,37.5,8|0|0|0|0|0,0:0|0:0|0:0|0:0|0:0|0:0,0:0:0:0:
396,68,82324,6,0,B|368:124|368:124|384:224,1,150,4|0,1:0|0:0,0:0:0:0:
460,292,82887,2,0,P|408:324|312:296,1,150,4|8,1:0|1:2,0:0:0:0:
256,220,83449,1,4,1:0:0:0:
168,292,83637,2,0,L|88:288,1,75,8|2,1:2|1:2,0:0:0:0:
24,200,84012,5,6,0:0:0:0:
124,148,84199,1,0,0:0:0:0:
124,148,84293,1,0,0:0:0:0:
124,148,84387,1,0,0:0:0:0:
64,60,84574,1,2,0:0:0:0:
64,60,84762,6,0,L|101:61,3,37.5,8|0|2|0,0:0|0:0|0:0|0:0,0:0:0:0:
152,36,85137,2,0,L|189:37,3,37.5,2|0|2|0,0:0|0:0|0:0|0:0,0:0:0:0:
232,76,85512,5,2,0:0:0:0:
340,104,85699,1,2,0:0:0:0:
340,104,85793,1,0,0:0:0:0:
340,104,85887,1,2,0:0:0:0:
436,44,86074,1,2,0:0:0:0:
508,132,86262,2,0,L|501:232,1,75,8|2,1:2|0:0,0:0:0:0:
497,263,86543,1,0,0:0:0:0:
497,263,86637,2,0,L|493:321,2,37.5,2|0|0,0:0|0:0|0:0,0:0:0:0:
400,244,87012,5,2,0:0:0:0:
242,342,87199,1,2,0:0:0:0:
242,342,87293,1,2,0:0:0:0:
242,342,87387,2,0,L|195:340,2,37.5,2|2|2,0:0|0:0|0:0,0:0:0:0:
100,244,87762,2,0,B|84:200|84:200|92:104,1,112.5,2|2,1:2|0:0,0:0:0:0:
128,92,88137,2,0,P|168:104|200:100,1,75,2|0,0:0|0:0,0:0:0:0:
300,44,88512,6,0,L|388:44,1,75,2|0,0:0|0:0,0:0:0:0:
472,104,88887,2,0,L|428:180,1,75,2|2,0:0|0:0,0:0:0:0:
334,222,89262,2,0,L|289:145,1,75,8|2,0:0|0:0,0:0:0:0:
300,44,89637,6,0,P|208:24|132:80,1,168.750006437302,8|0,0:0|0:0,0:0:0:0:
116,106,90012,6,0,P|107:144|111:184,1,75,4|0,1:0|0:0,0:0:0:0:
132,290,90387,2,0,P|170:299|210:295,1,75
300,236,90762,2,0,P|376:220|456:268,1,150,8|0,1:2|0:0,0:0:0:0:
492,152,91324,1,0,0:0:0:0:
436,52,91512,2,0,P|368:81|296:65,1,150,2|0,1:2|0:0,0:0:0:0:
200,12,92074,1,0,0:0:0:0:
112,80,92262,1,8,1:2:0:0:
192,160,92449,2,0,L|180:316,1,150,4|2,0:0|0:0,0:0:0:0:
272,376,93012,5,2,0:0:0:0:
372,328,93199,1,0,0:0:0:0:
372,328,93387,2,0,P|380:288|372:236,1,75,2|2,0:0|0:0,0:0:0:0:
283,192,93762,2,0,P|276:228|278:265,1,75,8|2,0:0|0:0,0:0:0:0:
379,131,94137,1,0,0:0:0:0:
310,43,94324,1,2,0:0:0:0:
310,43,94418,1,2,0:0:0:0:
310,43,94512,6,0,P|252:32|216:44,1,75,8|2,0:0|0:0,0:0:0:0:
141,95,94887,2,0,P|102:139|94:176,1,75,4|0,0:1|0:0,0:0:0:0:
100,268,95262,1,2,0:3:0:0:
194,328,95449,1,4,0:1:0:0:
253,232,95637,6,0,B|300:232|300:232|336:244|336:244|372:232|372:232|440:232,1,168.750006437302,4|0,1:0|0:0,0:0:0:0:
468,248,96012,5,4,0:0:0:0:
448,136,96199,1,0,0:0:0:0:
333,153,96387,1,2,0:0:0:0:
313,41,96574,2,0,B|256:40|256:40|228:56|228:56|136:56,1,150,8|0,0:0|0:0,0:0:0:0:
64,12,97137,2,0,P|52:49|60:92,1,75,8|2,0:0|0:0,0:0:0:0:
116,180,97512,6,0,P|120:216|108:252,1,75,2|0,0:0|0:0,0:0:0:0:
40,340,97887,1,0,0:0:0:0:
148,372,98074,2,0,L|316:372,1,150,8|2,0:0|0:0,0:0:0:0:
404,332,98637,2,0,L|448:332,3,37.5,8|0|2|0,0:0|0:0|0:0|0:0,0:0:0:0:
472,284,99012,6,0,B|480:248|480:248|472:204,1,75,2|0,0:0|0:0,0:0:0:0:
512,104,99387,1,0,0:0:0:0:
428,28,99574,2,0,B|356:52|356:52|264:32,1,150,8|2,0:0|0:0,0:0:0:0:
176,4,100137,2,0,L|172:80,1,75,8|2,0:0|0:0,0:0:0:0:
80,144,100512,6,0,L|84:220,2,75,2|0|2,0:0|0:0|0:0,0:0:0:0:
188,176,101074,2,0,L|184:252,2,75,8|0|8,0:0|0:0|0:3,0:0:0:0:
172,78,101637,5,2,0:0:0:0:
280,44,101824,1,2,0:0:0:0:
380,96,102012,1,4,0:0:0:0:
256,192,102105,12,4,103512,0:0:0:0:
328,344,112512,6,0,L|252:340,2,75,4|0|8,0:0|0:0|0:0,0:0:0:0:
363,300,113449,1,0,0:0:0:0:
333,251,113637,2,0,P|329:231|333:199,1,37.5
368,172,114012,2,0,P|424:152|480:180,1,112.5,0|0,0:0|0:0,0:0:0:0:
500,220,114762,2,0,L|492:308,1,75,8|0,0:0|0:0,0:0:0:0:
392,348,115512,6,0,L|280:338,1,112.5
236,300,116262,2,0,P|196:296|160:308,1,75,8|0,0:0|0:0,0:0:0:0:
120,344,116824,1,0,0:0:0:0:
64,356,117012,2,0,P|48:300|64:248,1,112.5,0|0,0:0|0:0,0:0:0:0:
92,200,117762,2,0,P|100:160|92:120,1,75,8|0,0:0|0:0,0:0:0:0:
167,40,118512,6,0,L|323:50,1,150,0|8,0:0|0:0,0:0:0:0:
372,38,119449,1,0,0:0:0:0:
404,84,119637,2,0,P|408:112|400:136,1,37.5,0|0,0:0|0:0,0:0:0:0:
380,172,120012,2,0,P|368:216|376:252,1,75,0|0,0:0|0:0,0:0:0:0:
320,344,120762,2,0,L|232:344,1,75,8|0,0:0|0:0,0:0:0:0:
172,292,121512,6,0,P|164:256|176:212,1,75
213,114,122262,1,0,0:0:0:0:
120,49,122637,1,0,0:0:0:0:
226,12,123012,2,0,L|376:24,1,150,0|4,0:0|0:0,0:0:0:0:
376,24,124512,6,0,B|400:84|400:84|368:156,1,127.50000243187,4|0,1:0|0:0,0:0:0:0:
292,192,125074,1,0,0:0:0:0:
374,242,125262,2,0,B|400:300|400:300|376:360,1,127.50000243187,8|0,0:0|0:0,0:0:0:0:
284,336,125824,1,0,0:0:0:0:
196,376,126012,2,0,L|60:376,1,127.50000243187,2|0,0:0|0:0,0:0:0:0:
20,292,126574,1,2,0:0:0:0:
56,204,126762,2,0,L|183:204,1,127.50000243187,8|0,0:0|0:0,0:0:0:0:
256,144,127324,1,0,0:0:0:0:
336,196,127512,6,0,P|400:216|472:180,1,127.50000243187,2|0,0:0|0:0,0:0:0:0:
454,196,128262,2,0,L|440:68,1,127.50000243187,8|0,0:0|0:0,0:0:0:0:
356,20,128824,1,0,0:0:0:0:
268,60,129012,2,0,B|228:72|228:72|120:64,1,127.50000243187,2|0,0:0|0:0,0:0:0:0:
142,65,129762,6,0,B|78:60,1,63.7500012159348,8|0,0:0|0:0,0:0:0:0:
68,156,130137,2,0,B|131:160,1,63.7500012159348,2|0,0:0|0:0,0:0:0:0:
228,272,130512,6,0,P|276:244|356:260,1,127.50000243187,2|0,0:0|0:0,0:0:0:0:
420,192,131074,1,0,0:0:0:0:
344,130,131262,2,0,P|283:141|228:112,1,127.50000243187,8|0,0:0|0:0,0:0:0:0:
160,44,131824,1,0,0:0:0:0:
96,112,132012,2,0,L|104:244,1,127.50000243187,2|0,0:0|0:0,0:0:0:0:
170,308,132574,1,2,0:0:0:0:
234,238,132762,2,0,L|227:111,1,127.50000243187,8|0,0:0|0:0,0:0:0:0:
227,111,133512,6,0,P|283:141|344:130,1,127.50000243187,2|0,0:0|0:0,0:0:0:0:
418,69,134074,1,2,0:0:0:0:
484,137,134262,2,0,B|467:200|510:193|493:270,1,127.50000243187,8|0,0:0|0:0,0:0:0:0:
437,337,134824,1,0,0:0:0:0:
360,280,135012,2,0,P|298:269|242:298,1,127.50000243187,2|0,0:0|0:0,0:0:0:0:
168,360,135574,1,2,0:0:0:0:
108,288,135762,2,0,L|118:160,1,127.50000243187,8|0,0:0|0:0,0:0:0:0:
65,61,136512,6,0,P|133:45|181:69,1,112.5,2|0,0:0|0:0,0:0:0:0:
218,89,137262,2,0,P|270:106|323:89,1,112.5,2|0,0:0|0:0,0:0:0:0:
365,51,138012,2,0,L|373:179,1,112.5,2|0,0:0|0:0,0:0:0:0:
351,215,138762,2,0,L|356:305,1,75
288,332,139324,1,0,0:0:0:0:
288,332,139512,6,0,P|252:324|212:336,1,72,4|2,0:0|0:0,0:0:0:0:
196,304,140262,2,0,P|204:268|192:228,1,72,0|2,0:0|0:0,0:0:0:0:
224,212,141012,2,0,P|260:220|300:208,1,72,0|2,0:0|0:0,0:0:0:0:
316,240,141762,5,0,0:0:0:0:
256,192,141855,12,4,145512,0:0:0:0:
