osu file format v14

[General]
AudioFilename: audio.mp3
AudioLeadIn: 0
PreviewTime: 77262
Countdown: 0
SampleSet: Soft
StackLeniency: 0.6
Mode: 0
LetterboxInBreaks: 0
WidescreenStoryboard: 0

[Editor]
DistanceSpacing: 1.2
BeatDivisor: 4
GridSize: 32
TimelineZoom: 3.199999

[Metadata]
Title:Marigold (ft. Guriri)
TitleUnicode:Marigold (ft. グリリ)
Artist:M2U
ArtistUnicode:M2U
Creator:- Frontier -
Version:Normal
Source:Deemo
Tags:rayark magnolia myosotis alternate story symphonic boss song piano violin dnb drum'n'bass drum and bass Samsara Collection Diversity forgotten hourglass 3.0 SQUARE-MUSIQ TMDC @ SQ Lab nicode narae 구리리 boatkrab [_lost_] shockolatte -_frontier_- KittyAdventure gokugohan12468
BeatmapID:1258240
BeatmapSetID:594884

[Difficulty]
HPDrainRate:3
CircleSize:3
OverallDifficulty:3
ApproachRate:4
SliderMultiplier:1.2
SliderTickRate:1

[Events]
//Background and Video events
0,0,"bg.jpg",0,0
//Break Periods
2,17358,18192
2,103712,111192
//Storyboard Layer 0 (Background)
//Storyboard Layer 1 (Fail)
//Storyboard Layer 2 (Pass)
//Storyboard Layer 3 (Foreground)
//Storyboard Sound Samples

[TimingPoints]
1512,375,4,2,4,50,1,0
1512,-133.333333333333,4,2,4,50,0,0
15762,526.315789473684,4,2,4,15,1,0
15762,-133.333333333333,4,2,4,15,0,0
16025,535.714285714286,4,2,4,15,1,0
16292,750,4,2,4,15,1,0
16667,714.285714285714,4,2,4,15,1,0
17158,-100,4,2,6,35,0,0
19512,375,4,2,1,80,1,0
33012,-133.333333333333,4,2,1,60,0,0
35824,-133.333333333333,4,2,2,30,0,0
37512,-111.111111111111,4,2,4,45,0,0
46699,-100,4,1,1,45,0,0
48012,-100,4,2,1,50,0,0
53637,-100,4,2,4,50,0,0
54012,-100,4,2,1,50,0,0
59262,-166.666666666667,4,2,2,50,0,0
60012,-117.647058823529,4,2,1,55,0,0
72012,-117.647058823529,4,2,4,55,0,0
75012,-100,4,2,1,65,0,0
77262,-100,4,2,1,70,0,0
77637,-100,4,2,1,75,0,0
78012,-100,4,2,1,80,0,1
86637,-100,4,2,4,80,0,1
87012,-100,4,2,1,80,0,1
87199,-100,4,2,4,80,0,1
88512,-100,4,2,1,80,0,1
89637,-100,4,2,1,75,0,0
90012,-100,4,2,1,80,0,1
101449,-100,4,2,4,80,0,0
101637,-100,4,2,4,60,0,1
101730,-100,4,2,4,60,0,0
102012,-100,4,2,1,60,0,0
103512,-100,4,2,2,45,0,0
112512,-100,4,2,1,45,0,0
121887,-100,4,1,1,45,0,0
123762,-100,4,2,2,50,0,0
124512,-100,4,2,1,50,0,0
136512,-100,4,2,4,35,0,0
139512,-133.333333333333,4,2,2,20,0,0
141762,-100,4,2,2,20,0,0
141855,-100,4,2,1,20,0,0
144012,-100,4,2,1,15,0,0
144387,-100,4,2,1,10,0,0
144762,-100,4,2,1,5,0,0
145512,-100,4,2,2,5,0,0

[Colours]
Combo1 : 255,246,205
Combo2 : 26,44,94
Combo3 : 130,140,165
Combo4 : 177,148,148

[HitObjects]
0,72,1512,6,0,P|44:64|96:76,1,90.0000034332276,2|0,0:0|0:0,0:0:0:0:
172,140,2262,2,0,P|215:148|259:140,1,90.0000034332276,0|0,0:0|0:0,0:0:0:0:
352,84,3012,2,0,P|396:76|439:84,1,90.0000034332276,0|0,0:0|0:0,0:0:0:0:
512,164,3762,2,0,L|504:260,1,90.0000034332276,0|0,0:0|0:0,0:0:0:0:
440,340,4512,6,0,B|400:368|400:368|264:356,1,180.000006866455,2|0,0:0|0:0,0:0:0:0:
186,287,5637,1,0,0:0:0:0:
80,308,6012,2,0,P|48:248|76:132,1,180.000006866455,2|2,0:0|0:0,0:0:0:0:
156,80,7137,2,0,L|208:84,1,45.0000017166138,0|0,0:0|0:0,0:0:0:0:
248,60,7512,6,0,P|284:52|340:64,1,90.0000034332276,0|2,3:0|0:0,0:0:0:0:
424,128,8262,2,0,P|432:164|420:220,1,90.0000034332276,2|2,0:0|0:0,0:0:0:0:
348,296,9012,2,0,B|255:318|265:256|153:280,1,180.000006866455,2|2,0:0|0:0,0:0:0:0:
72,316,10137,1,0,0:0:0:0:
44,212,10512,6,0,L|56:56,1,135.000005149841,2|0,0:0|0:0,0:0:0:0:
96,44,11262,2,0,P|144:24|228:40,1,135.000005149841,2|0,0:0|0:0,0:0:0:0:
272,64,12012,2,0,P|336:79|399:57,1,135.000005149841,2|0,0:0|0:0,0:0:0:0:
444,28,12762,2,0,L|436:128,1,90.0000034332277,0|2,0:0|0:0,0:0:0:0:
496,208,13512,6,0,L|484:348,1,135.000005149841,2|0,0:0|0:0,0:0:0:0:
440,372,14262,2,0,P|380:348|296:360,1,135.000005149841,2|0,0:0|0:0,0:0:0:0:
260,372,15012,2,0,P|193:378|131:353,1,135.000005149841,2|0,0:0|0:0,0:0:0:0:
96,312,15762,5,2,0:0:0:0:
256,192,15827,12,4,17158,0:0:0:0:
32,92,19512,6,0,B|155:62|142:145|290:113,1,240,4|8,0:0|0:0,0:0:0:0:
392,44,20637,1,2,3:0:0:0:
504,136,21012,2,0,P|512:196|500:256,1,120,2|0,0:0|0:1,0:0:0:0:
396,352,21762,2,0,L|268:360,1,120,8|2,0:0|3:0,0:0:0:0:
156,280,22512,6,0,L|28:288,2,120,2|2|0,0:0|0:0|1:2,0:0:0:0:
276,359,23637,1,2,0:0:0:0:
405,296,24012,2,0,P|417:228|401:172,1,120,2|2,0:0|0:0,0:0:0:0:
339,50,24762,2,0,P|271:38|215:54,1,120,8|2,0:0|0:0,0:0:0:0:
80,72,25512,6,0,B|44:136|44:136|60:316,1,240,2|8,0:0|0:0,0:0:0:0:
191,356,26637,1,2,0:3:0:0:
329,316,27012,2,0,P|385:300|449:316,1,120,2|0,0:0|0:0,0:0:0:0:
381,184,27762,2,0,P|365:128|381:64,1,120,8|2,0:0|0:3,0:0:0:0:
249,132,28512,2,0,P|193:148|129:132,1,120,2|2,0:0|0:3,0:0:0:0:
197,264,29262,2,0,P|213:320|197:384,1,120,8|8,0:0|0:3,0:0:0:0:
68,320,30012,6,0,L|328:336,2,240,4|0|2,0:0|0:0|0:0,0:0:0:0:
70,164,31887,1,0,0:0:0:0:
220,122,32262,2,0,P|276:111|340:131,1,120,0|2,0:0|0:0,0:0:0:0:
447,186,33012,6,0,B|467:274|467:274|429:355,1,180.000006866455,4|0,0:1|0:0,0:0:0:0:
307,334,34137,1,0,0:0:0:0:
256,192,34512,12,0,36012,0:0:0:0:
488,115,37512,6,0,L|272:108,1,215.999993408203,2|2,0:0|0:0,0:0:0:0:
163,37,38637,1,0,0:0:0:0:
52,104,39012,2,0,B|41:170|10:203|10:203|51:242|58:296,1,215.999993408203,2|2,0:0|0:0,0:0:0:0:
307,368,40512,6,0,P|405:339|425:239,1,215.999993408203,2|2,0:0|0:0,0:0:0:0:
507,138,41637,1,0,0:0:0:0:
396,71,42012,2,0,B|286:44|298:119|186:94,1,215.999993408203,2|2,0:0|0:0,0:0:0:0:
13,287,43512,6,0,P|93:352|192:320,1,215.999993408203,2|2,0:0|0:0,0:0:0:0:
288,233,44637,1,0,0:0:0:0:
379,324,45012,2,0,B|399:267|434:231|434:231|394:186|383:137,1,215.999993408203,2|2,0:0|0:0,0:0:0:0:
153,16,46512,6,0,P|103:24|48:71,1,107.999996704102,2|0,0:0|0:0,0:0:0:0:
20,198,47262,1,0,0:0:0:0:
27,341,47637,1,0,0:0:0:0:
168,376,48012,6,0,B|259:376|259:376|307:343|307:343|407:343,1,240,4|8,0:1|0:0,0:0:0:0:
470,218,49137,1,0,0:0:0:0:
407,88,49512,2,0,P|314:21|190:65,1,240,2|8,0:0|0:0,0:0:0:0:
16,274,51012,6,0,P|108:344|220:315,1,240,2|8,0:0|0:0,0:0:0:0:
348,248,52137,1,0,0:0:0:0:
480,304,52512,2,0,P|490:238|468:172,1,120,2|0,0:0|0:0,0:0:0:0:
407,60,53262,2,0,L|275:68,1,120,8|2,0:0|0:0,0:0:0:0:
237,202,54012,6,0,L|476:187,1,240,2|8,0:0|0:0,0:0:0:0:
407,60,55137,1,0,0:0:0:0:
263,44,55512,2,0,P|212:35|143:51,1,120,2|0,0:0|0:0,0:0:0:0:
60,164,56262,2,0,P|51:215|67:284,1,120,8|0,0:0|0:0,0:0:0:0:
188,356,57012,6,0,L|308:356,1,120,2|0,0:0|0:0,0:0:0:0:
432,283,57762,1,0,0:0:0:0:
512,162,58137,1,2,3:0:0:0:
463,29,58512,2,0,L|224:35,1,240,0|4,3:0|0:0,0:0:0:0:
223,35,60012,6,0,P|250:130|200:216,1,204.000003890991,4|8,1:0|0:0,0:0:0:0:
113,302,61137,1,0,0:0:0:0:
216,368,61512,2,0,B|319:393|308:323|434:350,1,204.000003890991,2|8,0:0|0:0,0:0:0:0:
492,252,62637,1,0,0:0:0:0:
372,223,63012,6,0,B|371:143|371:143|384:98|384:98|382:16,1,204.000003890991,2|8,0:0|0:0,0:0:0:0:
261,1,64137,1,0,0:0:0:0:
283,121,64512,2,0,P|196:165|95:121,1,204.000003890991,2|8,0:0|0:0,0:0:0:0:
16,44,65637,1,2,0:0:0:0:
16,44,66012,6,0,L|28:256,1,204.000003890991,2|8,0:0|0:0,0:0:0:0:
98,347,67137,1,0,0:0:0:0:
202,282,67512,2,0,P|297:252|393:288,1,204.000003890991,0|8,0:0|0:0,0:0:0:0:
510,318,68637,1,0,0:0:0:0:
496,196,69012,6,0,B|456:152|456:152|304:164,1,204.000003890991,2|8,0:0|0:0,0:0:0:0:
208,100,70137,1,0,0:0:0:0:
208,100,70512,2,0,P|168:88|104:100,1,102.000001945496,2|0,0:0|0:0,0:0:0:0:
54,207,71262,2,0,P|42:247|54:311,1,102.000001945496,8|0,0:0|0:0,0:0:0:0:
167,345,72012,6,0,L|384:345,2,204.000003890991,0|0|0,3:0|3:0|3:0,0:0:0:0:
0,166,74262,1,0,3:0:0:0:
276,138,75012,6,0,P|375:75|477:127,1,240,2|8,0:0|1:2,0:0:0:0:
220,260,76512,2,0,P|121:323|19:271,1,240,2|2,0:0|0:0,0:0:0:0:
0,130,77637,1,8,1:0:0:0:
119,50,78012,6,0,L|367:50,1,240,4|8,1:0|1:2,0:0:0:0:
485,118,79137,1,0,0:0:0:0:
472,260,79512,2,0,P|408:312|256:276,1,240,2|8,1:2|1:2,0:0:0:0:
231,218,80449,2,0,P|175:210|111:238,1,120,4|2,0:0|0:0,0:0:0:0:
96,301,81012,6,0,L|108:53,1,240,6|8,0:0|0:0,0:0:0:0:
250,40,82137,1,0,0:0:0:0:
250,40,82324,2,0,P|307:33|360:61,1,120,4|0,1:0|0:0,0:0:0:0:
404,120,82887,2,0,L|396:256,2,120,4|8|8,1:0|1:2|1:2,0:0:0:0:
260,140,84012,6,0,P|168:112|48:184,1,240,6|8,0:0|0:0,0:0:0:0:
288,344,85512,2,0,P|380:372|500:300,1,240,2|8,0:0|1:2,0:0:0:0:
400,196,86637,1,2,0:0:0:0:
444,60,87012,6,0,P|372:52|312:84,1,120,2|2,0:0|0:0,0:0:0:0:
296,208,87762,2,0,P|239:227|181:217,1,120,2|2,1:2|0:0,0:0:0:0:
56,148,88512,2,0,L|72:8,1,120,2|2,0:0|0:0,0:0:0:0:
209,62,89262,2,0,L|329:69,1,120,8|8,0:0|0:0,0:0:0:0:
396,196,90012,6,0,L|156:182,1,240,4|8,1:0|1:2,0:0:0:0:
47,276,91137,1,0,0:0:0:0:
188,304,91512,2,0,P|264:244|240:92,1,240,2|8,1:2|1:2,0:0:0:0:
213,53,92449,2,0,P|270:65|326:45,1,120,4|2,0:0|0:0,0:0:0:0:
393,15,93012,6,0,L|381:267,1,240,2|8,0:0|0:0,0:0:0:0:
312,380,94137,1,2,0:0:0:0:
170,351,94512,2,0,P|128:327|108:256,1,120,8|4,0:0|0:1,0:0:0:0:
109,117,95262,2,0,P|132:75|203:55,1,120,2|4,0:3|1:0,0:0:0:0:
290,167,96012,6,0,B|334:199|334:199|478:187,2,180,4|8|8,0:0|0:0|0:0,0:0:0:0:
198,279,97512,2,0,B|154:311|154:311|10:299,2,180,2|8|8,0:0|0:0|0:0,0:0:0:0:
290,167,99012,6,0,P|318:79|274:-21,2,180,2|8|8,0:0|0:0|0:0,0:0:0:0:
174,251,100512,2,0,P|114:243|70:191,1,120,2|2,0:0|0:0,0:0:0:0:
50,133,101074,1,0,0:0:0:0:
68,63,101262,2,0,P|88:39|138:17,1,60,0|8,0:0|0:3,0:0:0:0:
183,39,101637,6,0,L|242:42,2,60,2|2|4,0:0|0:0|0:0,0:0:0:0:
256,192,102105,12,4,103512,0:0:0:0:
0,96,112512,6,0,P|64:48|232:92,1,240,4|8,0:0|0:0,0:0:0:0:
342,137,113637,1,0,0:0:0:0:
456,52,114012,2,0,B|480:108|480:108|456:228,1,180,0|0,0:0|0:0,0:0:0:0:
480,292,114762,1,8,0:0:0:0:
204,372,115512,6,0,P|132:332|124:228,1,180
47,223,116262,2,0,P|122:178|133:92,1,180,8|0,0:0|0:0,0:0:0:0:
184,40,117012,2,0,L|376:52,1,180
428,16,117762,1,8,0:0:0:0:
496,144,118137,1,0,0:0:0:0:
460,284,118512,6,0,B|338:313|351:230|203:262,1,240,0|8,0:0|0:0,0:0:0:0:
112,348,119637,1,0,0:0:0:0:
20,236,120012,2,0,P|12:176|32:116,1,120,0|0,0:0|0:0,0:0:0:0:
148,40,120762,2,0,P|208:48|268:28,1,120,8|0,0:0|0:0,0:0:0:0:
404,12,121512,6,0,L|408:136,1,120,0|0,0:0|0:0,0:0:0:0:
510,232,122262,1,2,0:0:0:0:
489,374,122637,1,2,0:0:0:0:
362,311,123012,2,0,B|304:288|304:288|127:307,1,240,0|4,0:0|0:0,0:0:0:0:
127,307,124512,6,0,P|32:237|25:112,1,240,4|8,1:0|0:0,0:0:0:0:
122,19,125637,1,0,0:0:0:0:
122,19,126012,2,0,L|377:12,1,240,2|8,0:0|0:0,0:0:0:0:
476,99,127137,1,0,0:0:0:0:
476,99,127512,5,2,0:0:0:0:
328,348,128262,2,0,P|240:356|164:284,1,180,8|0,0:0|0:0,0:0:0:0:
132,240,129012,2,0,B|104:175|104:175|140:4,1,240,2|8,0:0|0:0,0:0:0:0:
256,96,130137,1,2,0:0:0:0:
373,9,130512,6,0,B|407:175|407:175|380:240,1,240,2|8,0:0|0:0,0:0:0:0:
260,320,131637,1,0,0:0:0:0:
120,280,132012,2,0,P|72:220|120:68,1,240,2|8,0:0|0:0,0:0:0:0:
392,12,133512,6,0,P|440:117|383:218,1,240,2|8,0:0|0:0,0:0:0:0:
432,356,134637,1,0,0:0:0:0:
432,356,135012,2,0,B|310:385|323:302|175:334,1,240,2|8,0:0|0:0,0:0:0:0:
50,82,136512,6,0,P|160:38|281:98,1,240,2|2,0:0|0:0,0:0:0:0:
458,297,138012,2,0,P|348:341|227:281,1,240,2|0,0:0|0:0,0:0:0:0:
266,82,139512,6,0,P|346:57|436:100,1,180.000006866455,4|2,0:0|0:0,0:0:0:0:
240,197,141012,2,0,P|160:222|70:179,1,180.000006866455,2|0,0:0|0:0,0:0:0:0:
256,192,141855,12,4,145512,0:0:0:0:
