osu file format v14

[General]
AudioFilename: audio.mp3
AudioLeadIn: 0
PreviewTime: 77262
Countdown: 0
SampleSet: Soft
StackLeniency: 0.4
Mode: 0
LetterboxInBreaks: 0
WidescreenStoryboard: 0

[Editor]
DistanceSpacing: 2
BeatDivisor: 2
GridSize: 4
TimelineZoom: 3.199999

[Metadata]
Title:Marigold (ft. Guriri)
TitleUnicode:Marigold (ft. グリリ)
Artist:M2U
ArtistUnicode:M2U
Creator:- Frontier -
Version:Insane
Source:Deemo
Tags:rayark magnolia myosotis alternate story symphonic boss song piano violin dnb drum'n'bass drum and bass Samsara Collection Diversity forgotten hourglass 3.0 SQUARE-MUSIQ TMDC @ SQ Lab nicode narae 구리리 boatkrab [_lost_] shockolatte -_frontier_- KittyAdventure gokugohan12468
BeatmapID:1258137
BeatmapSetID:594884

[Difficulty]
HPDrainRate:7
CircleSize:4
OverallDifficulty:7
ApproachRate:9
SliderMultiplier:1.6
SliderTickRate:1

[Events]
//Background and Video events
0,0,"bg.jpg",0,0
//Break Periods
2,103712,111912
//Storyboard Layer 0 (Background)
//Storyboard Layer 1 (Fail)
//Storyboard Layer 2 (Pass)
//Storyboard Layer 3 (Foreground)
//Storyboard Sound Samples

[TimingPoints]
1512,375,4,2,4,50,1,0
1512,-200,4,2,4,50,0,0
15762,526.315789473684,4,2,4,15,1,0
15762,-200,4,2,4,15,0,0
16025,535.714285714286,4,2,4,15,1,0
16292,750,4,2,4,15,1,0
16292,-200,4,2,4,15,0,0
16667,714.285714285714,4,2,4,15,1,0
16934,-100,4,2,5,35,0,0
17024,-100,4,2,5,35,0,0
17068,-100,4,2,6,35,0,0
17113,-100,4,2,6,35,0,0
17158,-100,4,2,6,35,0,0
19512,375,4,2,1,80,1,0
33012,-133.333333333333,4,2,1,60,0,0
35824,-200,4,2,2,60,0,0
36762,-200,4,2,2,30,0,0
37512,-200,4,2,4,45,0,0
47074,-200,4,1,1,45,0,0
48012,-166.666666666667,4,2,1,50,0,0
53637,-166.666666666667,4,2,4,50,0,0
54012,-166.666666666667,4,2,1,50,0,0
57574,-166.666666666667,4,1,0,50,0,0
57949,-166.666666666667,4,1,0,5,0,0
58137,-166.666666666667,4,1,0,50,0,0
58418,-166.666666666667,4,1,1,5,0,0
58512,-166.666666666667,4,1,1,50,0,0
59168,-166.666666666667,4,1,1,5,0,0
59262,-500,4,2,2,50,0,0
59918,-500,4,2,2,5,0,0
60012,-117.647058823529,4,2,1,55,0,0
72012,-200,4,2,4,35,0,0
75012,-100,4,2,1,65,0,0
77262,-80,4,2,1,70,0,0
77637,-66.6666666666667,4,2,1,75,0,0
78012,-100,4,2,1,80,0,1
84012,-100,4,2,1,80,0,1
84199,-100,4,2,4,80,0,1
84762,-100,4,2,1,80,0,1
84949,-100,4,2,4,80,0,1
85512,-100,4,2,1,80,0,1
85699,-100,4,2,4,80,0,1
86262,-100,4,2,1,80,0,1
86449,-100,4,2,4,80,0,1
87012,-100,4,2,1,80,0,1
87199,-100,4,2,4,80,0,1
88512,-100,4,2,1,80,0,1
89637,-66.6666666666667,4,2,1,75,0,0
90012,-100,4,2,1,80,0,1
93012,-100,4,2,1,80,0,1
93387,-100,4,2,4,80,0,1
93762,-100,4,2,1,80,0,1
93949,-100,4,2,4,80,0,1
94512,-100,4,2,1,80,0,1
94699,-100,4,2,4,80,0,1
94887,-100,4,2,1,80,0,1
95262,-100,4,2,4,80,0,1
95449,-100,4,2,1,80,0,1
95637,-66.6666666666667,4,2,1,80,0,1
96012,-100,4,2,1,80,0,1
101449,-100,4,2,4,80,0,0
101637,-285.714285714286,4,2,4,60,0,1
101730,-285.714285714286,4,2,4,60,0,0
102012,-285.714285714286,4,2,1,60,0,0
103512,-285.714285714286,4,2,2,45,0,0
112512,-200,4,2,1,45,0,0
122074,-200,4,1,1,45,0,0
123012,-133.333333333333,4,2,1,45,0,0
123762,-500,4,2,2,45,0,0
124512,-133.333333333333,4,2,1,50,0,0
136512,-200,4,2,4,35,0,0
139512,-312.5,4,2,2,20,0,0
141762,-312.5,4,2,2,20,0,0
141855,-312.5,4,2,1,20,0,0
144012,-312.5,4,2,1,15,0,0
144387,-312.5,4,2,1,10,0,0
144762,-312.5,4,2,1,5,0,0
145512,-312.5,4,2,2,5,0,0

[Colours]
Combo1 : 255,246,205
Combo2 : 26,44,94
Combo3 : 130,140,165
Combo4 : 177,148,148

[HitObjects]
192,248,1512,5,2,0:0:0:0:
85,213,1887,1,0,0:0:0:0:
85,101,2262,1,0,0:0:0:0:
192,66,2637,1,0,0:0:0:0:
257,157,3012,5,0,0:0:0:0:
322,66,3387,1,0,0:0:0:0:
429,101,3762,1,0,0:0:0:0:
429,213,4137,1,0,0:0:0:0:
322,248,4512,6,0,B|288:244|264:224|264:224|228:264|160:248,1,160,2|0,0:0|0:0,0:0:0:0:
85,213,5637,1,0,0:0:0:0:
193,93,6012,2,0,P|201:132|196:172,1,80,2|0,0:0|0:0,0:0:0:0:
85,213,6762,2,0,P|79:252|87:291,1,80,2|0,0:0|0:0,0:0:0:0:
128,336,7324,1,0,0:0:0:0:
180,308,7512,6,0,L|243:311,1,40,0|0,3:0|0:0,0:0:0:0:
259,311,7887,1,2,0:0:0:0:
364,368,8262,2,0,L|448:372,1,80,2|2,0:0|0:0,0:0:0:0:
492,264,9012,2,0,B|472:228|472:228|488:92,1,160,2|2,0:0|0:0,0:0:0:0:
400,28,10137,1,0,0:0:0:0:
300,96,10512,6,0,P|248:112|180:80,1,120,2|0,0:0|0:0,0:0:0:0:
152,40,11262,2,0,P|168:92|136:160,1,120,2|0,0:0|0:0,0:0:0:0:
116,200,12012,2,0,L|124:328,1,120,2|0,0:0|0:0,0:0:0:0:
168,360,12762,2,0,P|208:352|252:360,1,80,0|2,0:0|0:0,0:0:0:0:
364,380,13512,6,0,P|384:336|364:260,1,120,2|0,0:0|0:0,0:0:0:0:
316,244,14262,2,0,P|300:187|321:131,1,120,2|0,0:0|0:0,0:0:0:0:
372,100,15012,2,0,L|496:108,1,120,2|0,0:0|0:0,0:0:0:0:
491,107,15762,6,0,L|488:146,1,40
396,192,16292,6,0,L|398:234,1,40
463,342,16934,5,2,0:0:0:0:
467,350,17024,2,0,L|468:360,3,10,8|2|8|4,0:0|0:0|0:0|0:0,0:0:0:0:
468,360,19512,6,0,B|387:379|396:325|298:346,1,160,4|0,0:0|0:0,0:0:0:0:
196,372,20074,1,0,0:0:0:0:
196,372,20168,1,0,0:0:0:0:
196,372,20262,2,0,P|192:328|196:288,1,80,8|0,0:0|0:0,0:0:0:0:
355,129,20637,2,0,P|358:168|355:208,1,80,2|0,3:0|0:0,0:0:0:0:
324,292,21012,6,0,B|388:288|388:288|424:304|424:304|504:300,1,160,2|0,0:0|0:1,0:0:0:0:
512,192,21574,1,0,0:0:0:0:
420,80,21762,2,0,L|264:96,1,120,8|0,0:0|0:0,0:0:0:0:
271,111,22137,2,0,P|263:151|275:207,1,80,2|0,3:0|0:0,0:0:0:0:
158,305,22512,2,0,P|170:246|157:189,1,120,2|0,0:0|0:0,0:0:0:0:
148,155,22887,2,0,P|139:117|155:71,1,80,2|0,0:0|0:0,0:0:0:0:
173,52,23168,1,0,0:0:0:0:
173,52,23262,5,0,1:2:0:0:
52,260,23637,1,2,0:0:0:0:
278,340,24012,6,0,P|346:355|414:338,1,120,2|0,0:0|0:0,0:0:0:0:
445,313,24387,2,0,P|457:273|449:217,1,80,2|0,0:0|0:0,0:0:0:0:
297,153,24762,2,0,P|325:183|378:204,1,80,8|0,0:0|0:0,0:0:0:0:
509,104,25137,2,0,P|468:113|423:148,1,80,2|0,0:0|0:0,0:0:0:0:
386,302,25512,6,0,P|406:254|362:154,1,160,2|0,0:0|0:0,0:0:0:0:
351,146,25980,1,0,0:0:0:0:
334,137,26073,1,0,0:0:0:0:
315,131,26168,1,0,0:0:0:0:
295,128,26262,2,0,L|231:132,3,40,8|0|0|0,0:0|0:0|0:0|0:0,0:0:0:0:
170,75,26637,2,0,L|106:79,3,40
40,112,27012,6,0,P|32:156|40:196,1,80,2|0,0:0|0:0,0:0:0:0:
200,360,27387,2,0,P|208:316|200:276,1,80,0|0,0:0|0:0,0:0:0:0:
124,152,27762,5,8,0:0:0:0:
128,191,27855,1,0,0:0:0:0:
148,225,27949,1,0,0:0:0:0:
182,247,28043,1,0,0:0:0:0:
221,252,28137,1,0,0:0:0:0:
259,240,28230,1,0,0:0:0:0:
288,213,28324,1,0,0:0:0:0:
302,176,28418,1,0,0:0:0:0:
300,137,28512,6,0,P|256:96|176:108,1,120,2|0,0:0|0:0,0:0:0:0:
148,124,28887,2,0,P|156:72|156:12,1,80,0|0,0:0|0:0,0:0:0:0:
46,206,29262,5,8,0:0:0:0:
70,238,29355,1,0,0:0:0:0:
104,257,29449,1,0,0:0:0:0:
144,260,29543,1,0,0:0:0:0:
182,247,29637,1,8,0:3:0:0:
214,224,29731,1,8,0:3:0:0:
253,217,29825,1,4,0:3:0:0:
291,226,29919,1,4,0:3:0:0:
323,251,30012,6,0,P|344:292|260:308,1,160,4|0,0:0|0:0,0:0:0:0:
368,158,30574,1,2,0:0:0:0:
416,280,30762,2,0,P|413:320|384:368,1,80,0|0,0:0|0:0,0:0:0:0:
193,299,31137,2,0,P|196:259|214:224,1,80,2|0,0:0|0:0,0:0:0:0:
368,158,31512,6,0,B|287:177|296:123|198:144,1,160,2|0,0:0|0:0,0:0:0:0:
104,200,32074,1,2,0:0:0:0:
24,112,32262,2,0,P|20:64|32:24,1,80,0|0,0:0|0:0,0:0:0:0:
80,0,32543,1,0,0:0:0:0:
80,0,32637,2,0,L|164:4,1,80,2|0,0:0|0:0,0:0:0:0:
208,40,32918,1,0,0:0:0:0:
208,40,33012,6,0,B|302:19|292:79|383:57,1,180.000006866455,4|0,0:1|0:0,0:0:0:0:
464,20,33762,2,0,P|472:60|460:100,1,60.0000022888184
456,124,34043,1,0,0:0:0:0:
456,124,34137,2,0,P|453:153|461:182,1,60.0000022888184,0|0,0:0|0:0,0:0:0:0:
492,268,34512,6,0,B|448:252|448:252|352:264,1,120.000004577637,0|0,0:0|0:0,0:0:0:0:
304,320,35074,1,0,0:0:0:0:
240,260,35262,2,0,B|167:250,1,60.0000022888184,0|0,0:0|0:0,0:0:0:0:
100,292,35637,1,0,0:0:0:0:
44,224,35824,6,0,B|52:192|52:192|44:156|44:156|52:124|52:124|80:148|116:152|160:128,1,200,2|0,0:0|3:0,0:0:0:0:
144,40,37512,6,0,L|232:44,2,80,2|0|2,0:0|0:0|0:0,0:0:0:0:
84,96,38449,1,0,0:0:0:0:
160,116,38637,2,0,L|204:118,1,40
272,80,39012,2,0,P|256:116|264:164,1,80,2|0,0:0|0:0,0:0:0:0:
296,228,39574,1,0,0:0:0:0:
296,228,39762,2,0,P|258:215|211:227,1,80,2|0,0:0|0:0,0:0:0:0:
124,352,40512,6,0,L|248:356,1,120,2|0,0:0|0:0,0:0:0:0:
316,320,41262,2,0,L|401:322,1,80,2|0,0:0|0:0,0:0:0:0:
496,248,42012,2,0,P|516:192|496:120,1,120,2|0,0:0|0:0,0:0:0:0:
432,96,42762,2,0,L|346:98,1,80,2|0,0:0|0:0,0:0:0:0:
228,200,43512,6,0,P|156:216|88:168,1,160,2|2,0:0|0:0,0:0:0:0:
100,90,44449,1,0,0:0:0:0:
180,78,44637,2,0,L|174:118,1,40
236,172,45012,6,0,B|276:164|276:164|328:180,1,80,2|0,0:0|0:0,0:0:0:0:
384,212,45574,1,0,0:0:0:0:
384,212,45762,2,0,L|434:218,1,40,2|0,0:0|0:0,0:0:0:0:
436,136,46137,2,0,L|396:131,1,40,0|0,0:0|0:0,0:0:0:0:
276,280,46512,6,0,L|355:289,1,80,2|0,0:0|0:0,0:0:0:0:
374,293,46980,1,0,0:0:0:0:
391,304,47074,1,0,0:0:0:0:
404,319,47168,1,0,0:0:0:0:
411,338,47262,2,0,P|368:364|332:360,1,80,0|0,0:0|0:0,0:0:0:0:
156,308,48012,6,0,B|144:268|144:268|152:200,1,95.9999970703126,4|0,0:1|0:0,0:0:0:0:
200,132,48574,1,0,0:0:0:0:
128,68,48762,2,0,P|100:64|72:68,1,47.9999985351563,8|0,0:0|0:0,0:0:0:0:
200,132,49137,2,0,P|223:135|247:134,1,47.9999985351563,0|0,0:0|0:0,0:0:0:0:
316,100,49512,6,0,P|300:136|316:204,1,95.9999970703126,2|0,0:0|0:0,0:0:0:0:
320,288,50074,1,2,0:0:0:0:
320,288,50262,2,0,B|271:299|276:267|218:279,1,95.9999970703126,8|0,0:0|0:0,0:0:0:0:
148,332,50824,1,0,0:0:0:0:
80,264,51012,6,0,P|84:236|84:212,1,47.9999985351563,2|0,0:0|0:0,0:0:0:0:
64,120,51387,2,0,P|64:96|68:72,1,47.9999985351563,0|2,0:0|0:0,0:0:0:0:
140,8,51762,2,0,L|256:16,1,95.9999970703126,8|0,0:0|0:0,0:0:0:0:
300,84,52324,1,0,0:0:0:0:
384,40,52512,6,0,P|436:44|480:88,1,95.9999970703126,2|0,0:0|0:0,0:0:0:0:
488,164,53074,1,2,0:0:0:0:
488,164,53262,2,0,L|484:220,1,47.9999985351563,8|0,0:0|0:0,0:0:0:0:
396,176,53637,2,0,L|399:128,1,47.9999985351563,2|0,0:0|0:0,0:0:0:0:
459,301,54012,6,0,B|387:319|395:271|320:288,1,143.999995605469,2|0,0:0|0:0,0:0:0:0:
236,332,54762,1,8,0:0:0:0:
152,284,54949,2,0,P|128:280|100:288,1,47.9999985351563
24,336,55324,1,0,0:0:0:0:
24,336,55512,6,0,L|28:224,1,95.9999970703126,2|0,0:0|0:0,0:0:0:0:
155,188,56262,2,0,L|152:284,1,95.9999970703126,8|0,0:0|0:0,0:0:0:0:
332,348,57012,6,0,P|380:360|432:340,1,95.9999970703126,2|0,0:0|0:0,0:0:0:0:
432,323,57480,1,0,0:0:0:0:
435,300,57574,1,0,0:0:0:0:
431,276,57668,1,0,0:0:0:0:
421,254,57762,6,0,L|428:200,1,47.9999985351563,0|0,0:0|0:0,0:0:0:0:
308,120,58137,2,0,L|317:191,1,71.9999978027344,2|0,3:0|0:0,0:0:0:0:
276,252,58512,6,0,P|204:280|120:232,1,167.999994873047,0|8,3:0|0:3,0:0:0:0:
94,126,59262,6,0,L|87:182,1,56,4|0,0:0|0:0,0:0:0:0:
127,241,60012,6,0,L|144:106,1,136.000002593994,4|0,1:0|0:0,0:0:0:0:
216,32,60574,1,0,0:0:0:0:
296,96,60762,2,0,P|356:112|432:72,1,136.000002593994,8|0,0:0|0:0,0:0:0:0:
496,16,61324,1,0,0:0:0:0:
421,83,61512,2,0,B|438:153|391:145|408:219,1,136.000002593994,2|0,0:0|0:0,0:0:0:0:
460,304,62074,1,2,0:0:0:0:
372,356,62262,2,0,P|320:332|232:356,1,136.000002593994,8|0,0:0|0:0,0:0:0:0:
148,376,62824,1,0,0:0:0:0:
88,292,63012,6,0,L|96:148,1,136.000002593994,2|0,0:0|0:0,0:0:0:0:
95,156,63762,2,0,B|144:152|144:152|188:164|188:164|248:160,1,136.000002593994,8|0,0:0|0:0,0:0:0:0:
304,92,64324,1,0,0:0:0:0:
372,168,64512,2,0,B|396:232|396:232|368:304,1,136.000002593994,2|0,0:0|0:0,0:0:0:0:
371,295,65262,2,0,L|302:295,1,68.0000012969971,8|0,0:0|0:0,0:0:0:0:
241,213,65637,2,0,L|310:213,1,68.0000012969971,2|0,0:0|0:0,0:0:0:0:
200,304,66012,6,0,P|148:328|72:300,1,136.000002593994,2|0,0:0|0:0,0:0:0:0:
20,220,66574,1,0,0:0:0:0:
100,156,66762,2,0,B|120:120|120:120|112:20,1,136.000002593994,8|0,0:0|0:0,0:0:0:0:
28,80,67324,1,0,0:0:0:0:
204,68,67512,6,0,B|273:52|265:99|336:81,1,136.000002593994,2|0,0:0|0:0,0:0:0:0:
424,28,68074,1,2,0:0:0:0:
484,108,68262,2,0,L|476:248,1,136.000002593994,8|0,0:0|0:0,0:0:0:0:
476,243,69012,6,0,P|428:216|340:236,1,136.000002593994,2|0,0:0|0:0,0:0:0:0:
276,300,69574,1,0,0:0:0:0:
276,300,69762,2,0,P|210:314|150:285,1,136.000002593994,8|0,0:0|0:0,0:0:0:0:
72,220,70324,1,0,0:0:0:0:
72,220,70512,2,0,L|64:76,1,136.000002593994,2|0,0:0|0:0,0:0:0:0:
132,8,71074,1,2,0:0:0:0:
216,64,71262,2,0,P|284:80|352:56,1,136.000002593994,8|0,0:0|0:0,0:0:0:0:
345,60,72012,6,0,P|328:120|348:188,1,120,0|0,3:0|0:0,0:0:0:0:
380,220,72762,2,0,L|244:216,1,120,0|0,3:0|0:0,0:0:0:0:
212,252,73512,2,0,L|76:248,1,120,0|0,3:0|0:0,0:0:0:0:
64,196,74262,2,0,P|56:156|64:116,1,80,0|0,3:0|0:0,0:0:0:0:
112,56,74824,1,0,0:0:0:0:
188,156,75012,6,0,B|269:176|259:119|342:138,1,160,2|0,0:0|0:0,0:0:0:0:
428,96,75574,1,0,0:0:0:0:
488,172,75762,2,0,L|480:340,1,160,8|2,1:2|1:3,0:0:0:0:
396,376,76324,1,0,0:0:0:0:
316,324,76512,6,0,L|229:328,1,80,2|8,0:0|0:0,0:0:0:0:
264,228,76887,2,0,L|343:224,1,80,8|8,0:0|0:0,0:0:0:0:
96,360,77262,2,0,P|64:296|96:208,1,150,2|0,0:0|0:0,0:0:0:0:
152,196,77637,6,0,B|12:180|12:180|56:156,1,180.000006866455,8|0,1:0|0:0,0:0:0:0:
108,48,78012,6,0,B|195:58,1,80,4|0,1:0|0:0,0:0:0:0:
280,132,78387,2,0,B|359:122,1,80
445,37,78762,2,0,P|480:105|457:193,1,160,8|0,1:2|0:0,0:0:0:0:
392,280,79324,1,0,0:0:0:0:
304,200,79512,2,0,P|256:192|212:204,1,80,2|2,1:2|1:2,0:0:0:0:
264,308,79887,2,0,P|312:316|356:304,1,80,0|0,0:0|0:0,0:0:0:0:
392,280,80168,1,0,0:0:0:0:
392,280,80262,5,8,1:2:0:0:
496,224,80449,2,0,L|480:60,1,160,4|2,0:0|0:0,0:0:0:0:
436,28,80918,1,0,0:0:0:0:
436,28,81012,6,0,P|396:24|356:40,1,80,6|0,0:0|0:0,0:0:0:0:
256,104,81387,2,0,P|218:117|179:113,1,80,0|0,0:0|0:0,0:0:0:0:
76,56,81762,1,8,0:0:0:0:
108,79,81855,1,0,0:0:0:0:
127,113,81949,1,0,0:0:0:0:
129,153,82043,1,0,0:0:0:0:
115,190,82137,2,0,L|44:196,1,40,0|0,0:0|0:0,0:0:0:0:
152,284,82324,6,0,L|191:280,1,40,4|0,1:0|0:0,0:0:0:0:
268,206,82512,1,0,0:0:0:0:
263,245,82605,1,0,0:0:0:0:
276,283,82699,1,0,0:0:0:0:
305,309,82793,1,0,0:0:0:0:
343,319,82887,2,0,L|392:316,3,40,4|0|0|0,1:0|0:0|0:0|0:0,0:0:0:0:
428,276,83262,5,8,1:2:0:0:
268,206,83449,1,4,1:0:0:0:
268,206,83543,1,0,0:0:0:0:
268,206,83637,1,8,1:2:0:0:
408,103,83824,1,2,1:2:0:0:
348,240,84012,5,6,0:0:0:0:
259,119,84199,2,0,L|264:76,2,40,2|0|2,0:0|0:0|0:0,0:0:0:0:
199,257,84574,1,2,0:0:0:0:
110,136,84762,5,8,0:0:0:0:
93,100,84855,1,0,0:0:0:0:
96,60,84949,1,2,0:0:0:0:
118,27,85043,1,0,0:0:0:0:
153,9,85137,2,0,L|216:16,1,40,2|0,0:0|0:0,0:0:0:0:
263,79,85324,2,0,L|302:74,1,40,2|0,0:0|0:0,0:0:0:0:
372,9,85512,5,2,0:0:0:0:
460,92,85699,1,2,0:0:0:0:
480,126,85793,1,0,0:0:0:0:
487,165,85886,1,2,0:0:0:0:
481,204,85980,1,0,0:0:0:0:
461,238,86074,1,2,0:0:0:0:
356,300,86262,2,0,P|308:288|272:300,1,80,8|2,1:2|0:0,0:0:0:0:
228,328,86543,1,0,0:0:0:0:
228,328,86637,2,0,L|232:280,2,40,2|0|2,0:0|0:0|0:0,0:0:0:0:
116,284,87012,5,2,0:0:0:0:
104,136,87199,1,2,0:0:0:0:
99,105,87293,1,2,0:0:0:0:
127,93,87387,1,2,0:0:0:0:
147,115,87480,1,2,0:0:0:0:
132,141,87574,1,2,0:0:0:0:
236,224,87762,2,0,P|280:216|320:228,1,80,2|2,1:2|0:0,0:0:0:0:
274,314,88043,1,2,0:0:0:0:
274,314,88137,2,0,P|230:322|190:310,1,80,2|0,0:0|0:0,0:0:0:0:
116,284,88512,6,0,L|112:232,1,40,2|0,0:0|0:0,0:0:0:0:
232,184,88699,2,0,L|236:224,1,40,0|0,0:0|0:0,0:0:0:0:
104,293,88887,6,0,L|99:231,1,40,2|0,0:0|0:0,0:0:0:0:
244,174,89074,2,0,L|248:221,1,40,2|0,0:0|0:0,0:0:0:0:
90,305,89262,6,0,L|84:231,1,40,8|0,0:0|0:0,0:0:0:0:
258,162,89449,2,0,L|263:219,1,40,2|2,0:0|0:0,0:0:0:0:
75,316,89637,6,0,P|52:240|92:136,1,180.000006866455,8|0,0:0|0:0,0:0:0:0:
82,147,90012,6,0,P|42:155|2:147,1,80,4|0,1:0|0:0,0:0:0:0:
180,28,90387,2,0,P|220:20|260:28,1,80,0|0,0:0|0:0,0:0:0:0:
413,147,90762,2,0,B|332:126|341:180|258:162,1,160,8|0,1:2|0:0,0:0:0:0:
156,100,91324,1,0,0:0:0:0:
80,192,91512,2,0,L|88:288,1,80,2|2,1:2|1:2,0:0:0:0:
200,312,91887,2,0,L|193:232,1,80
96,376,92262,1,8,1:2:0:0:
288,256,92449,2,0,B|344:262|344:262|372:290|372:290|435:299,1,160,4|2,0:0|0:0,0:0:0:0:
492,192,93012,6,0,L|484:104,1,80,2|0,0:0|0:0,0:0:0:0:
464,88,93293,1,0,0:0:0:0:
464,88,93387,2,0,L|420:92,3,40,2|0|2|0,0:0|0:0|0:0|0:0,0:0:0:0:
366,35,93762,2,0,L|327:39,3,40,8|0|2|0,0:0|0:0|0:0|0:0,0:0:0:0:
250,65,94137,2,0,L|210:61,1,40,2|0,0:0|0:0,0:0:0:0:
98,13,94324,1,2,0:0:0:0:
98,13,94418,1,2,0:0:0:0:
98,13,94512,5,8,0:0:0:0:
14,207,94699,1,2,0:0:0:0:
224,182,94887,5,4,0:1:0:0:
0,86,95074,1,0,0:0:0:0:
127,256,95261,5,2,0:3:0:0:
210,61,95449,1,4,0:1:0:0:
14,207,95637,6,0,P|33:288|132:333,1,180.000006866455,4|0,1:0|0:0,0:0:0:0:
164,324,96012,6,0,L|252:332,1,80,4|0,0:0|0:0,0:0:0:0:
356,380,96387,1,2,0:0:0:0:
436,292,96574,2,0,B|456:210|402:219|421:136,1,160,8|0,0:0|0:0,0:0:0:0:
508,52,97137,2,0,P|512:96|504:136,1,80,8|2,0:0|0:0,0:0:0:0:
338,229,97512,6,0,P|331:190|335:150,1,80,2|0,0:0|0:0,0:0:0:0:
404,24,97887,1,0,0:0:0:0:
296,76,98074,2,0,P|240:100|144:60,1,160,8|2,0:0|0:0,0:0:0:0:
60,148,98637,2,0,L|63:192,3,40,8|0|2|0,0:0|0:0|0:0|0:0,0:0:0:0:
97,199,99012,6,0,L|92:120,1,80,2|0,0:0|0:0,0:0:0:0:
172,296,99387,1,0,0:0:0:0:
256,212,99574,2,0,P|336:192|404:248,1,160,8|2,0:0|0:0,0:0:0:0:
492,160,100137,2,0,P|488:108|484:72,1,80,8|2,0:0|0:0,0:0:0:0:
392,4,100512,5,2,0:0:0:0:
492,160,100699,1,0,0:0:0:0:
306,168,100887,1,2,0:0:0:0:
486,53,101074,5,8,0:0:0:0:
401,217,101261,1,0,0:0:0:0:
301,60,101449,2,0,L|348:64,1,40,8|4,0:3|0:3,0:0:0:0:
492,160,101637,5,2,0:0:0:0:
392,4,101824,1,2,0:0:0:0:
401,217,102012,5,4,0:0:0:0:
256,192,102105,12,4,103512,0:0:0:0:
100,96,112512,6,0,L|224:100,1,120,4|0,0:0|0:0,0:0:0:0:
284,152,113262,1,8,0:0:0:0:
352,108,113449,1,0,0:0:0:0:
404,168,113637,2,0,P|408:200|404:220,1,40,0|0,0:0|0:0,0:0:0:0:
428,284,114012,2,0,B|365:299|372:258|308:272,1,120,0|0,0:0|0:0,0:0:0:0:
240,304,114762,2,0,L|248:384,1,80,8|0,0:0|0:0,0:0:0:0:
120,288,115512,6,0,L|132:165,1,120,0|0,0:0|0:0,0:0:0:0:
192,116,116262,2,0,P|247:135|304:120,1,120,8|0,0:0|0:0,0:0:0:0:
344,57,117012,2,0,P|376:97|366:163,1,120
336,232,117762,1,8,0:0:0:0:
480,164,118137,1,0,0:0:0:0:
466,322,118512,6,0,B|384:302|393:355|311:336,1,160,0|8,0:0|0:0,0:0:0:0:
244,292,119449,1,0,0:0:0:0:
180,340,119637,2,0,L|136:336,1,40
103,264,120012,2,0,P|95:224|107:184,1,80
165,133,120574,1,0,0:0:0:0:
225,186,120762,2,0,L|264:189,1,40,8|0,0:0|0:0,0:0:0:0:
323,244,121137,2,0,L|362:247,1,40
434,284,121512,6,0,P|444:250|434:207,1,80
426,188,121980,1,0,0:0:0:0:
424,168,122074,1,0,0:0:0:0:
426,149,122168,1,0,0:0:0:0:
434,130,122262,2,0,L|479:134,1,40,0|0,0:0|0:2,0:0:0:0:
444,17,122637,2,0,L|404:13,1,40
309,9,123012,6,0,P|234:79|230:182,1,210.000008010865,0|0,0:0|0:0,0:0:0:0:
260,260,123762,6,0,L|315:263,1,56,4|0,0:0|0:0,0:0:0:0:
230,182,124512,6,0,L|371:190,1,120.000004577637,4|0,1:0|0:0,0:0:0:0:
428,144,125074,1,0,0:0:0:0:
480,216,125262,2,0,P|496:268|472:344,1,120.000004577637,8|0,0:0|0:0,0:0:0:0:
404,376,125824,1,0,0:0:0:0:
324,336,126012,2,0,B|261:351|268:310|206:325,1,120.000004577637,2|0,0:0|0:0,0:0:0:0:
136,380,126574,1,2,0:0:0:0:
76,312,126762,2,0,B|60:276|60:276|72:188,1,120.000004577637,8|0,0:0|0:0,0:0:0:0:
40,112,127324,1,0,0:0:0:0:
124,78,127512,6,0,P|164:66|252:86,1,120.000004577637,2|0,0:0|0:0,0:0:0:0:
240,80,128262,2,0,L|229:207,1,120.000004577637,8|0,0:0|0:0,0:0:0:0:
284,272,128824,1,0,0:0:0:0:
352,216,129012,2,0,P|408:204|472:240,1,120.000004577637,2|0,0:0|0:0,0:0:0:0:
462,229,129762,2,0,L|463:288,1,60.0000022888184,8|0,0:0|0:0,0:0:0:0:
393,347,130137,2,0,L|391:287,1,60.0000022888184,2|0,0:0|0:0,0:0:0:0:
352,216,130512,6,0,B|304:216|304:216|280:228|280:228|220:228,1,120.000004577637,2|0,0:0|0:0,0:0:0:0:
148,256,131074,1,0,0:0:0:0:
76,200,131262,2,0,P|59:142|72:84,1,120.000004577637,8|0,0:0|0:0,0:0:0:0:
132,20,131824,1,0,0:0:0:0:
212,64,132012,2,0,B|274:79|267:38|329:53,1,120.000004577637,2|0,0:0|0:0,0:0:0:0:
408,12,132574,1,2,0:0:0:0:
472,76,132762,2,0,L|460:220,1,120.000004577637,8|0,0:0|0:0,0:0:0:0:
462,195,133512,6,0,P|404:220|332:192,1,120.000004577637,2|0,0:0|0:0,0:0:0:0:
280,152,134074,1,2,0:0:0:0:
280,152,134262,2,0,P|222:139|168:163,1,120.000004577637,8|0,0:0|0:0,0:0:0:0:
103,226,134824,1,0,0:0:0:0:
103,226,135012,2,0,P|78:172|91:114,1,120.000004577637,2|0,0:0|0:0,0:0:0:0:
156,52,135574,1,2,0:0:0:0:
156,52,135762,2,0,P|180:105|167:163,1,120.000004577637,8|0,0:0|0:0,0:0:0:0:
73,343,136512,6,0,L|193:348,1,120,2|0,0:0|0:0,0:0:0:0:
239,309,137262,2,0,L|359:314,1,120,2|0,0:0|0:0,0:0:0:0:
405,276,138012,2,0,P|427:227|410:159,1,120,2|0,0:0|0:0,0:0:0:0:
358,139,138762,2,0,L|365:54,1,80,0|0,0:0|0:0,0:0:0:0:
308,1,139324,1,0,0:0:0:0:
240,44,139512,6,0,P|200:56|160:44,1,76.8,4|2,0:0|0:0,0:0:0:0:
112,104,140262,2,0,P|124:144|112:184,1,76.8,0|2,0:0|0:0,0:0:0:0:
172,232,141012,2,0,P|212:220|252:232,1,76.8,2|2,0:0|0:0,0:0:0:0:
304,280,141762,5,0,0:0:0:0:
256,192,141855,12,4,145512,0:0:0:0:
