osu file format v14

[General]
AudioFilename: audio.mp3
AudioLeadIn: 0
PreviewTime: 77262
Countdown: 0
SampleSet: Normal
StackLeniency: 0.4
Mode: 0
LetterboxInBreaks: 0
WidescreenStoryboard: 0

[Editor]
DistanceSpacing: 1.2
BeatDivisor: 8
GridSize: 4
TimelineZoom: 3.999998

[Metadata]
Title:Marigold (ft. Guriri)
TitleUnicode:Marigold (ft. グリリ)
Artist:M2U
ArtistUnicode:M2U
Creator:- Frontier -
Version:BoatKrab's Insane
Source:Deemo
Tags:rayark magnolia myosotis alternate story symphonic boss song piano violin dnb drum'n'bass drum and bass Samsara Collection Diversity forgotten hourglass 3.0 SQUARE-MUSIQ TMDC @ SQ Lab nicode narae 구리리 boatkrab [_lost_] shockolatte -_frontier_- KittyAdventure gokugohan12468
BeatmapID:1258217
BeatmapSetID:594884

[Difficulty]
HPDrainRate:7
CircleSize:4
OverallDifficulty:7.2
ApproachRate:9
SliderMultiplier:1.5
SliderTickRate:1

[Events]
//Background and Video events
0,0,"bg.jpg",0,0
//Break Periods
2,17357,18912
2,104262,111912
//Storyboard Layer 0 (Background)
//Storyboard Layer 1 (Fail)
//Storyboard Layer 2 (Pass)
//Storyboard Layer 3 (Foreground)
//Storyboard Sound Samples

[TimingPoints]
1512,375,4,2,4,50,1,0
1512,-200,4,2,4,50,0,0
14262,-250,4,2,4,40,0,0
15012,-333.333333333333,4,2,4,30,0,0
15762,526.315789473684,4,2,4,10,1,0
15762,-333.333333333333,4,2,4,10,0,0
16025,535.714285714286,4,2,4,15,1,0
16292,750,4,2,4,10,1,0
16292,-333.333333333333,4,2,4,10,0,0
16667,714.285714285714,4,2,4,10,1,0
16934,-100,4,2,5,35,0,0
17024,-100,4,2,5,35,0,0
17068,-100,4,2,6,35,0,0
17113,-100,4,2,6,35,0,0
17158,-100,4,2,6,35,0,0
19512,375,4,2,1,80,1,0
22137,-100,4,2,4,80,0,0
22512,-100,4,2,1,80,0,0
29262,-80,4,2,1,80,0,0
29637,-80,4,2,4,80,0,0
30012,-133.333333333333,4,2,1,80,0,0
33012,-200,4,2,0,60,0,0
35824,-200,4,2,2,60,0,0
36762,-200,4,2,1,30,0,0
37512,-200,4,2,4,45,0,0
47074,-100,4,1,1,45,0,0
48012,-100,4,2,1,45,0,0
53637,-100,4,2,4,45,0,0
54012,-100,4,2,1,45,0,0
55512,-166.666666666667,4,2,1,45,0,0
57574,-166.666666666667,4,1,0,50,0,0
59262,-500,4,2,2,50,0,0
60012,-200,4,2,1,55,0,0
61512,-200,4,2,1,55,0,0
65637,-200,4,2,4,55,0,0
66012,-200,4,2,1,55,0,0
72012,-200,4,2,4,25,0,0
75012,-133.333333333333,4,2,1,65,0,0
76137,-133.333333333333,4,2,4,65,0,0
76512,-133.333333333333,4,2,1,65,0,0
76699,-133.333333333333,4,2,1,50,0,0
77074,-133.333333333333,4,2,1,60,0,0
77168,-133.333333333333,4,2,1,70,0,0
77262,-66.6666666666667,4,2,1,85,0,0
78012,-100,4,2,1,80,0,1
80449,-133.333333333333,4,2,1,80,0,1
81012,-100,4,2,1,80,0,1
82324,-66.6666666666667,4,2,1,100,0,1
84012,-100,4,2,1,100,0,1
84199,-100,4,2,4,100,0,1
84762,-100,4,2,1,100,0,1
84949,-100,4,2,4,100,0,1
85512,-100,4,2,1,100,0,1
85699,-100,4,2,4,100,0,1
86262,-100,4,2,1,100,0,1
86637,-100,4,2,4,100,0,1
87012,-100,4,2,1,100,0,1
87199,-100,4,2,4,100,0,1
88512,-100,4,2,1,100,0,1
89637,-133.333333333333,4,2,1,75,0,0
90012,-100,4,2,1,80,0,1
92449,-200,4,2,1,80,0,1
93012,-100,4,2,1,80,0,1
93387,-100,4,2,4,80,0,1
93762,-100,4,2,1,80,0,1
93855,-100,4,2,4,80,0,1
94324,-100,4,2,1,80,0,1
94887,-66.6666666666667,4,2,1,80,0,1
95262,-66.6666666666667,4,2,4,80,0,1
95449,-100,4,2,1,80,0,1
95637,-66.6666666666667,4,2,1,80,0,1
96012,-100,4,2,1,80,0,1
101355,-100,4,2,4,80,0,1
101449,-100,4,2,4,80,0,0
101637,-285.714285714286,4,2,4,60,0,1
101730,-285.714285714286,4,2,4,60,0,0
102012,-285.714285714286,4,2,4,60,0,0
103512,-285.714285714286,4,2,2,45,0,0
112512,-285.714285714286,4,2,1,45,0,0
118137,-285.714285714286,4,2,4,45,0,0
118512,-285.714285714286,4,2,1,45,0,0
122074,-166.666666666667,4,1,1,45,0,0
123387,-166.666666666667,4,1,0,45,0,0
123762,-500,4,2,2,45,0,0
124512,-200,4,2,1,50,0,0
125262,-400,4,2,1,50,0,0
126012,-200,4,2,1,50,0,0
126762,-400,4,2,1,50,0,0
128262,-200,4,2,1,50,0,0
130137,-200,4,2,4,50,0,0
130512,-200,4,2,1,50,0,0
131262,-400,4,2,1,50,0,0
132012,-200,4,2,1,50,0,0
132762,-400,4,2,1,50,0,0
133512,-200,4,2,1,50,0,0
136324,-200,4,2,1,20,0,0
136512,-333.333333333333,4,2,4,35,0,0
139512,-312.5,4,2,2,20,0,0
140074,-312.5,4,2,4,20,0,0
141762,-250,4,2,2,20,0,0
141808,-250,4,2,1,20,0,0
144012,-250,4,2,1,15,0,0
144387,-250,4,2,1,10,0,0
144762,-250,4,2,1,5,0,0
145512,-250,4,2,2,5,0,0

[Colours]
Combo1 : 255,246,205
Combo2 : 26,44,94
Combo3 : 130,140,165
Combo4 : 177,148,148

[HitObjects]
84,169,1512,6,0,L|88:244,1,75
196,176,2262,2,0,L|192:101,1,75
52,320,3012,2,0,P|88:328|125:321,1,75
285,249,3762,2,0,P|248:241|211:247,1,75
336,348,4512,6,0,L|485:340,1,150,2|0,0:0|0:0,0:0:0:0:
408,260,5637,1,0,0:0:0:0:
502,126,6012,2,0,P|510:163|504:200,1,75,2|0,0:0|0:0,0:0:0:0:
311,199,6762,2,0,P|306:162|314:126,1,75,2|0,0:0|0:0,0:0:0:0:
408,260,7512,2,0,L|445:256,1,37.5,0|0,3:0|0:0,0:0:0:0:
356,324,7887,6,0,B|316:328|316:328|283:317,2,75,2|2|2,0:0|0:0|0:0,0:0:0:0:
220,224,9012,2,0,B|232:304|232:304|225:334,1,112.5,2|0,0:0|0:0,0:0:0:0:
192,208,9762,2,0,B|203:282,1,75,2|0,0:0|0:0,0:0:0:0:
156,96,10512,6,0,P|208:111|260:91,1,112.5,2|0,0:0|0:0,0:0:0:0:
272,80,11262,2,0,P|323:59|376:75,1,112.5,2|0,0:0|0:0,0:0:0:0:
388,87,12012,2,0,B|376:11|376:11|384:29|397:39,1,112.5,2|0,0:0|0:0,0:0:0:0:
406,53,12762,2,0,P|443:54|477:40,1,75,0|2,0:0|0:0,0:0:0:0:
458,135,13512,6,0,L|456:247,1,112.5,2|0,0:0|0:0,0:0:0:0:
440,112,14262,2,0,L|438:201,1,90,2|0,0:0|0:0,0:0:0:0:
422,89,15012,2,0,L|420:156,1,67.4999979400635,2|0,0:0|0:0,0:0:0:0:
413,299,15762,6,0,L|416:268,1,22.4999993133545,0|2,0:0|0:0,0:0:0:0:
332,300,16292,2,0,L|330:324,1,22.4999993133545
356,188,16934,5,2,0:0:0:0:
356,188,17024,2,0,L|357:177,3,9.375,8|2|8|4,0:0|0:0|0:0|0:0,0:0:0:0:
357,211,19512,6,0,P|394:216|429:203,1,75,4|0,0:0|0:0,0:0:0:0:
364,44,19887,1,0,0:0:0:0:
368,48,19980,1,0,0:0:0:0:
372,52,20074,1,0,0:0:0:0:
376,56,20168,1,0,0:0:0:0:
380,61,20262,2,0,L|384:136,1,75,8|0,0:0|0:0,0:0:0:0:
361,286,20637,2,0,L|357:211,1,75,2|0,3:0|0:0,0:0:0:0:
432,332,21012,6,0,B|400:348|360:332|360:332|328:320|285:331,1,150,2|0,0:0|0:1,0:0:0:0:
212,290,21574,1,0,0:0:0:0:
212,290,21762,2,0,P|256:252|310:250,1,112.5,8|0,0:0|0:0,0:0:0:0:
340,276,22137,2,0,L|336:201,1,75,2|0,3:0|0:0,0:0:0:0:
408,160,22512,6,0,L|402:47,1,112.5,2|0,0:0|0:0,0:0:0:0:
372,16,22887,2,0,P|403:35|440:35,1,75,2|0,0:0|0:0,0:0:0:0:
337,119,23262,1,0,1:2:0:0:
324,124,23637,1,2,0:0:0:0:
310,129,24012,6,0,P|256:136|212:103,1,112.5,2|0,0:0|0:0,0:0:0:0:
188,68,24387,2,0,P|151:60|116:72,1,75,2|0,0:0|0:0,0:0:0:0:
152,222,24762,2,0,L|156:148,1,75,8|0,0:0|0:0,0:0:0:0:
84,272,25137,2,0,L|87:346,1,75
267,274,25512,6,0,P|207:302|246:354,1,150,2|0,0:0|0:0,0:0:0:0:
276,351,25980,1,0,0:0:0:0:
304,349,26074,1,0,0:0:0:0:
332,346,26168,1,0,0:0:0:0:
360,343,26262,2,0,P|398:343|434:351,1,75,8|0,0:0|0:0,0:0:0:0:
352,178,26637,2,0,P|381:202|404:232,1,75
267,274,27012,6,0,B|215:282|215:282|175:274|175:274|119:282,1,150,2|0,0:0|0:0,0:0:0:0:
215,126,27574,1,0,0:0:0:0:
215,126,27762,2,0,P|223:162|214:198,1,75,8|0,0:0|0:0,0:0:0:0:
43,318,28137,2,0,P|34:281|43:245,1,75,0|0,0:0|0:0,0:0:0:0:
120,44,28512,6,0,L|112:156,1,112.5,2|0,0:0|0:0,0:0:0:0:
83,187,28887,2,0,P|113:166|150:161,1,75,0|0,0:0|0:0,0:0:0:0:
256,240,29262,6,0,L|262:333,1,93.75,8|0,0:0|0:0,0:0:0:0:
345,230,29637,1,8,0:3:0:0:
327,224,29730,1,8,0:3:0:0:
308,222,29824,1,4,0:3:0:0:
289,224,29918,1,4,0:3:0:0:
256,240,30012,6,0,L|252:183,1,56.2500021457673,4|0,0:0|0:0,0:0:0:0:
344,64,30387,2,0,L|347:120,1,56.2500021457673,0|2,0:0|0:0,0:0:0:0:
348,286,30762,6,0,L|345:230,1,56.2500021457673
436,110,31137,2,0,L|439:166,1,56.2500021457673,2|0,0:0|0:0,0:0:0:0:
348,286,31512,5,2,0:0:0:0:
347,120,31699,1,0,0:0:0:0:
347,120,31793,1,0,0:0:0:0:
347,120,31887,1,0,0:0:0:0:
348,286,32074,1,2,0:0:0:0:
205,204,32262,2,0,L|177:199,3,28.1250010728836,0|0|0|0,0:0|0:0|0:0|0:0,0:0:0:0:
108,256,32637,2,0,L|80:260,3,28.1250010728836,2|0|0|0,0:0|0:0|0:0|0:0,0:0:0:0:
180,307,33012,6,0,B|224:316|224:316|290:304,1,112.5,4|0,0:1|0:0,0:0:0:0:
180,228,33762,2,0,B|224:237|224:237|290:225,1,112.5,2|0,0:0|0:0,0:0:0:0:
351,142,34512,2,0,L|365:253,1,112.5,2|0,0:0|0:0,0:0:0:0:
375,380,35262,2,0,L|371:343,1,37.5
448,322,35637,2,0,L|452:359,1,37.5,0|2,0:0|0:0,0:0:0:0:
256,192,35918,12,0,36762,3:0:0:0:
452,359,37512,6,0,L|455:284,2,75,2|0|2,0:0|0:0|0:0,0:0:0:0:
376,336,38449,1,0,0:0:0:0:
376,336,38637,2,0,L|379:298,1,37.5
299,360,39012,6,0,P|263:368|228:358,1,75,2|0,0:0|0:0,0:0:0:0:
164,312,39574,1,0,0:0:0:0:
164,312,39762,2,0,P|128:301|92:310,1,75,2|0,0:0|0:0,0:0:0:0:
256,174,40512,6,0,L|263:286,1,112.5,2|0,0:0|0:0,0:0:0:0:
400,200,41262,2,0,B|404:188|404:188|342:198,1,75,2|0,0:0|0:0,0:0:0:0:
356,335,42012,2,0,P|408:350|459:329,1,112.5,2|0,0:0|0:0,0:0:0:0:
400,200,42762,2,0,L|403:274,1,75,2|0,0:0|0:0,0:0:0:0:
403,274,43324,1,2,0:0:0:0:
456,144,43512,6,0,L|453:70,1,75,2|2,0:0|0:0,0:0:0:0:
384,28,44074,1,0,0:0:0:0:
384,27,44262,2,0,P|365:29|347:25,1,37.5,2|0,0:0|0:0,0:0:0:0:
255,86,44637,2,0,P|273:82|292:84,1,37.5
315,228,45012,6,0,P|281:240|244:233,1,75,2|2,0:0|0:0,0:0:0:0:
276,160,45574,1,0,0:0:0:0:
388,200,45762,2,0,P|393:236|380:270,1,75,2|0,0:0|0:0,0:0:0:0:
200,348,46512,5,2,0:0:0:0:
188,192,46887,1,0,0:0:0:0:
200,348,47074,2,0,L|196:310,1,37.5
188,192,47262,1,0,0:0:0:0:
200,348,47637,1,0,0:0:0:0:
188,192,48012,5,4,0:1:0:0:
268,204,48199,1,0,0:0:0:0:
319,141,48387,1,0,0:0:0:0:
290,66,48574,1,0,0:0:0:0:
217,267,48762,6,0,L|132:272,1,75,8|0,0:0|0:0,0:0:0:0:
215,70,49137,2,0,L|290:66,1,75
475,150,49512,6,0,L|400:154,1,75,2|0,0:0|0:0,0:0:0:0:
384,80,49887,1,0,0:0:0:0:
472,224,50074,1,2,0:0:0:0:
303,228,50262,6,0,L|228:232,1,75,8|0,0:0|0:0,0:0:0:0:
400,153,50637,1,0,0:0:0:0:
375,292,50824,1,0,0:0:0:0:
156,264,51012,6,0,P|152:228|162:192,1,75,2|0,0:0|0:0,0:0:0:0:
319,141,51387,1,2,0:0:0:0:
228,231,51574,1,2,0:0:0:0:
335,319,51762,6,0,L|409:309,1,75,8|0,0:0|0:0,0:0:0:0:
283,381,52137,1,0,0:0:0:0:
176,293,52324,1,0,0:0:0:0:
320,140,52512,6,0,L|323:214,1,75,2|0,0:0|0:0,0:0:0:0:
427,230,52887,1,0,0:0:0:0:
244,340,53074,1,2,0:0:0:0:
375,292,53262,5,8,0:0:0:0:
296,278,53449,1,0,0:0:0:0:
238,128,53637,1,2,0:0:0:0:
319,141,53824,1,0,0:0:0:0:
166,326,54012,6,0,L|91:331,1,75,2|0,0:0|0:0,0:0:0:0:
217,264,54387,1,0,0:0:0:0:
324,356,54574,1,0,0:0:0:0:
268,204,54762,5,8,0:0:0:0:
244,340,54949,1,0,0:0:0:0:
374,293,55137,1,0,0:0:0:0:
138,251,55324,1,0,0:0:0:0:
270,159,55512,6,0,L|268:204,1,44.999998626709,2|0,0:0|0:0,0:0:0:0:
110,132,55887,2,0,L|112:176,1,44.999998626709,0|2,0:0|0:0,0:0:0:0:
275,69,56262,6,0,L|270:159,1,89.9999972534181,8|0,0:0|0:0,0:0:0:0:
328,216,56824,1,0,0:0:0:0:
416,132,57012,6,0,L|413:87,1,44.999998626709,2|0,0:0|0:0,0:0:0:0:
328,216,57387,1,0,0:0:0:0:
424,296,57574,2,0,L|448:292,1,22.4999993133545
328,216,57762,5,0,0:0:0:0:
336,340,58137,2,0,L|333:295,1,44.999998626709,0|0,0:0|0:0,0:0:0:0:
328,216,58512,1,0,3:0:0:0:
328,215,58887,1,4,0:3:0:0:
304,220,58980,1,4,0:3:0:0:
283,218,59074,1,8,0:3:0:0:
262,210,59168,1,8,0:3:0:0:
244,197,59262,6,0,B|292:192,1,45,4|0,0:0|0:0,0:0:0:0:
192,288,60012,6,0,B|136:304|136:304|85:283,1,112.5,4|0,1:0|0:0,0:0:0:0:
292,284,60762,2,0,B|277:340|277:340|235:374,1,112.5,8|0,0:0|0:0,0:0:0:0:
338,195,61512,2,0,B|379:235|379:235|387:289,1,112.5,2|2,0:0|0:0,0:0:0:0:
283,110,62262,2,0,B|339:94|339:94|389:114,1,112.5,8|0,0:0|0:0,0:0:0:0:
332,252,63012,5,2,0:0:0:0:
400,128,63762,2,0,L|392:16,1,112.5,8|0,0:0|0:0,0:0:0:0:
332,252,64512,2,0,L|340:364,1,112.5,2|2,0:0|0:0,0:0:0:0:
220,152,65262,2,0,B|212:116|212:116|221:78,1,75,8|2,0:0|0:0,0:0:0:0:
332,252,66012,6,0,L|443:241,1,112.5,2|0,0:0|0:0,0:0:0:0:
220,152,66762,2,0,L|331:141,1,112.5,8|0,0:0|0:0,0:0:0:0:
218,351,67512,2,0,L|107:341,1,112.5,2|2,0:0|0:0,0:0:0:0:
331,251,68262,2,0,L|220:241,1,112.5,8|0,0:0|0:0,0:0:0:0:
324,138,69012,5,2,0:0:0:0:
331,251,69575,1,0,0:0:0:0:
324,138,69762,2,0,L|331:251,1,112.5,8|0,0:0|0:0,0:0:0:0:
460,292,70512,2,0,L|453:179,1,112.5,2|2,0:0|0:0,0:0:0:0:
304,336,71262,2,0,P|340:340|375:328,1,75,8|0,0:0|0:0,0:0:0:0:
181,226,72012,5,0,3:0:0:0:
181,237,72574,1,0,0:0:0:0:
182,249,72762,5,0,3:0:0:0:
183,261,73324,1,0,0:0:0:0:
184,272,73512,5,0,3:0:0:0:
185,284,74074,1,0,0:0:0:0:
186,296,74262,5,0,3:0:0:0:
187,308,74824,1,0,0:0:0:0:
188,320,75012,6,0,L|200:208,1,112.500004291535,2|0,0:0|0:0,0:0:0:0:
200,208,75574,1,0,0:0:0:0:
344,376,75762,2,0,L|331:264,1,112.500004291535,8|2,1:2|1:3,0:0:0:0:
428,128,76324,1,0,0:0:0:0:
331,264,76512,1,2,0:0:0:0:
331,264,76699,5,8,0:0:0:0:
329,245,76793,1,8,0:0:0:0:
327,227,76887,1,8,0:0:0:0:
325,208,76981,1,8,0:0:0:0:
323,189,77074,1,8,0:0:0:0:
321,170,77168,1,8,0:0:0:0:
319,151,77262,6,0,B|365:156|393:112|393:112|409:160|448:166,1,168.750006437302,2|0,0:0|0:0,0:0:0:0:
473,68,77637,2,0,P|401:27|324:56,1,168.750006437302,8|0,1:0|0:0,0:0:0:0:
252,268,78012,6,0,L|247:230,1,37.5,4|0,1:0|0:0,0:0:0:0:
240,156,78199,1,0,0:0:0:0:
236,193,78292,1,0,0:0:0:0:
232,230,78386,1,0,0:0:0:0:
229,267,78480,1,0,0:0:0:0:
225,305,78574,1,0,0:0:0:0:
261,293,78667,1,0,0:0:0:0:
297,290,78761,5,8,1:2:0:0:
334,295,78855,1,0,0:0:0:0:
370,300,78949,1,0,0:0:0:0:
404,317,79042,1,0,0:0:0:0:
441,313,79136,1,0,0:0:0:0:
470,290,79230,1,0,0:0:0:0:
482,256,79324,1,0,0:0:0:0:
475,219,79418,1,0,0:0:0:0:
449,193,79512,6,0,L|486:188,3,37.5,2|0|2|0,1:2|0:0|1:2|0:0,0:0:0:0:
328,228,79887,2,0,L|291:223,3,37.5
370,300,80262,5,0,1:0:0:0:
235,275,80449,2,0,P|216:224|234:172,1,112.500004291535,4|2,0:0|0:0,0:0:0:0:
176,60,81012,5,6,0:0:0:0:
138,63,81105,1,0,0:0:0:0:
101,67,81199,1,0,0:0:0:0:
64,70,81293,1,0,0:0:0:0:
28,80,81387,1,0,0:0:0:0:
10,108,81480,1,0,0:0:0:0:
8,145,81574,1,0,0:0:0:0:
21,180,81668,1,0,0:0:0:0:
46,208,81762,6,0,L|83:202,3,37.5,8|0|0|0,0:0|0:0|0:0|0:0,0:0:0:0:
156,228,82137,1,0,0:0:0:0:
104,340,82324,6,0,P|49:345|2:315,1,112.500004291535,4|0,1:0|0:0,0:0:0:0:
244,188,82699,1,0,0:0:0:0:
248,360,82887,2,0,P|302:354|349:384,1,112.500004291535,4|0,1:0|0:0,0:0:0:0:
68,268,83262,5,8,1:2:0:0:
294,138,83449,2,0,L|276:192,1,56.2500021457673,4|0,1:0|0:0,0:0:0:0:
248,268,83637,1,8,1:2:0:0:
158,113,83824,1,2,1:2:0:0:
394,96,84012,6,0,P|376:94|357:90,1,37.5,6|0,0:0|0:0,0:0:0:0:
294,138,84199,1,2,0:0:0:0:
329,127,84292,1,2,0:0:0:0:
366,131,84386,1,2,0:0:0:0:
398,151,84480,1,2,0:0:0:0:
418,182,84574,1,2,0:0:0:0:
425,219,84667,1,0,0:0:0:0:
414,254,84762,6,0,P|433:254|452:251,1,37.5,8|0,0:0|0:0,0:0:0:0:
344,344,84949,2,0,P|362:344|381:347,1,37.5,2|0,0:0|0:0,0:0:0:0:
292,236,85137,2,0,P|310:231|328:224,1,37.5,2|0,0:0|0:0,0:0:0:0:
175,295,85324,2,0,P|192:300|210:308,1,37.5,2|0,0:0|0:0,0:0:0:0:
156,128,85512,5,2,0:0:0:0:
64,224,85699,2,0,L|67:261,4,37.5,2|2|2|2|0,0:0|0:0|0:0|0:0|0:0,0:0:0:0:
159,53,86262,6,0,L|156:128,1,75,8|2,1:2|0:0,0:0:0:0:
228,260,86543,1,0,0:0:0:0:
228,260,86637,2,0,L|224:222,1,37.5,2|0,0:0|0:0,0:0:0:0:
60,188,86824,2,0,L|63:225,1,37.5,2|0,0:0|0:0,0:0:0:0:
184,348,87012,5,2,0:0:0:0:
280,152,87199,1,2,0:0:0:0:
246,136,87292,1,2,0:0:0:0:
209,137,87387,2,0,L|160:148,2,37.5,2|2|2,0:0|0:0|0:0,0:0:0:0:
380,336,87762,5,2,1:2:0:0:
404,308,87855,1,2,0:0:0:0:
411,271,87949,1,2,0:0:0:0:
400,236,88043,1,2,0:0:0:0:
376,208,88137,2,0,L|326:218,2,37.5,2|2|0,0:0|0:0|0:0,0:0:0:0:
272,315,88512,6,0,P|237:328|199:325,1,75,2|0,0:0|0:0,0:0:0:0:
168,308,88793,1,0,0:0:0:0:
168,308,88887,2,0,L|164:345,1,37.5,2|0,0:0|0:0,0:0:0:0:
72,248,89074,2,0,L|68:210,1,37.5,2|0,0:0|0:0,0:0:0:0:
219,134,89262,2,0,L|216:172,1,37.5,8|0,0:0|0:0,0:0:0:0:
104,88,89449,1,2,0:0:0:0:
104,88,89543,1,2,0:0:0:0:
104,88,89637,6,0,B|100:60|100:60|108:33,1,56.2500021457673,8|2,0:0|0:0,0:0:0:0:
232,100,90012,5,4,1:0:0:0:
219,134,90106,1,0,0:0:0:0:
216,171,90199,1,0,0:0:0:0:
228,208,90293,1,0,0:0:0:0:
244,240,90387,1,0,0:0:0:0:
217,214,90480,1,0,0:0:0:0:
182,200,90574,1,0,0:0:0:0:
145,202,90668,1,0,0:0:0:0:
111,217,90762,6,0,L|117:255,3,37.5,8|0|0|0,1:2|0:0|0:0|0:0,0:0:0:0:
249,277,91137,2,0,L|244:240,3,37.5,0|0|0|0,0:0|0:0|0:0|0:0,0:0:0:0:
328,168,91512,5,2,1:2:0:0:
361,183,91605,1,0,0:0:0:0:
398,177,91699,1,2,1:2:0:0:
425,152,91793,1,0,0:0:0:0:
433,116,91887,1,0,0:0:0:0:
421,81,91980,1,0,0:0:0:0:
391,59,92074,1,0,0:0:0:0:
354,57,92168,1,0,0:0:0:0:
322,76,92262,1,8,1:2:0:0:
376,260,92449,6,0,P|413:259|447:245,1,75,4|2,0:0|0:0,0:0:0:0:
292,356,93012,6,0,B|254:355|254:355|220:341,1,75,2|0,0:0|0:0,0:0:0:0:
104,200,93387,2,0,L|100:162,1,37.5,2|0,0:0|0:0,0:0:0:0:
208,228,93574,2,0,L|204:190,1,37.5,2|0,0:0|0:0,0:0:0:0:
131,341,93762,2,0,L|135:303,1,37.5,8|0,0:0|0:0,0:0:0:0:
27,369,93949,2,0,L|31:331,1,37.5,2|0,0:0|0:0,0:0:0:0:
96,125,94137,2,0,L|100:163,1,37.5,2|0,0:0|0:0,0:0:0:0:
134,303,94324,1,2,0:0:0:0:
134,303,94418,1,2,0:0:0:0:
134,303,94512,5,8,0:0:0:0:
200,153,94699,1,2,0:0:0:0:
369,229,94887,2,0,P|329:249|342:207,1,112.500004291535,4|0,0:1|0:0,0:0:0:0:
468,240,95262,1,2,0:3:0:0:
304,369,95449,2,0,L|311:333,1,37.5,4|2,0:1|0:0,0:0:0:0:
342,207,95637,1,4,1:0:0:0:
436,365,95824,1,4,1:0:0:0:
259,251,96012,6,0,P|221:255|184:251,1,75,4|0,0:0|0:0,0:0:0:0:
296,144,96387,1,2,0:0:0:0:
100,176,96574,2,0,L|111:325,1,150,8|0,0:0|0:0,0:0:0:0:
344,281,97137,2,0,B|348:244|348:244|343:207,1,75,8|2,0:0|0:0,0:0:0:0:
184,251,97512,5,2,0:0:0:0:
343,207,97699,1,0,0:0:0:0:
100,176,97887,1,0,0:0:0:0:
272,72,98074,2,0,L|262:221,1,150,8|2,0:0|0:0,0:0:0:0:
424,316,98637,2,0,L|417:241,1,75,8|2,0:0|0:0,0:0:0:0:
256,336,99012,5,2,0:0:0:0:
424,316,99199,1,0,0:0:0:0:
323,181,99387,1,0,0:0:0:0:
175,290,99574,2,0,L|168:216,1,75,8|0,0:0|0:0,0:0:0:0:
323,181,99949,1,2,0:0:0:0:
236,64,100137,2,0,L|228:138,1,75,8|2,0:0|0:0,0:0:0:0:
348,276,100512,5,2,0:0:0:0:
323,181,100699,1,0,0:0:0:0:
278,345,100887,1,2,0:0:0:0:
422,279,101074,2,0,L|348:276,1,75,8|0,0:0|0:0,0:0:0:0:
276,192,101355,1,8,0:3:0:0:
285,183,101449,6,0,L|327:180,1,37.5,8|4,0:3|0:3,0:0:0:0:
412,168,101637,1,2,0:0:0:0:
356,96,101824,1,2,0:0:0:0:
348,276,102012,1,2,0:0:0:0:
256,192,102105,12,4,103512,0:0:0:0:
304,324,112512,6,0,B|388:312|388:312|368:305,1,104.999996795654,4|8,0:0|0:0,0:0:0:0:
412,205,113449,1,0,0:0:0:0:
412,205,113637,2,0,L|412:231,1,26.2499991989136,0|0,0:0|0:0,0:0:0:0:
240,364,114012,2,0,P|227:327|234:288,1,78.7499975967408,0|0,0:0|0:0,0:0:0:0:
294,156,114762,2,0,P|307:193|300:232,1,78.7499975967408,8|0,0:0|0:0,0:0:0:0:
153,203,115512,6,0,L|232:200,1,78.7499975967408,0|0,0:0|0:0,0:0:0:0:
176,120,116262,2,0,L|97:123,1,78.7499975967408,8|0,0:0|0:0,0:0:0:0:
107,264,117012,2,0,P|135:238|152:203,1,78.7499975967408
97,122,117762,1,8,0:0:0:0:
24,264,118137,1,2,0:0:0:0:
224,348,118512,6,0,L|216:244,1,104.999996795654,0|8,0:0|0:0,0:0:0:0:
292,204,119449,1,0,0:0:0:0:
292,204,119637,2,0,L|296:240,1,26.2499991989136,0|0,0:0|0:0,0:0:0:0:
356,288,120012,2,0,P|381:290|406:282,2,52.4999983978272,0|0|8,0:0|0:0|0:0,0:0:0:0:
368,212,121137,5,0,0:0:0:0:
464,372,121512,1,0,0:0:0:0:
456,256,121887,1,0,0:0:0:0:
464,372,122074,2,0,L|460:348,1,22.4999993133545,0|0,0:0|0:0,0:0:0:0:
456,256,122262,5,0,0:0:0:0:
339,284,122637,2,0,L|384:288,1,44.999998626709
456,256,123012,1,0,0:0:0:0:
276,352,123387,5,4,0:3:0:0:
259,352,123480,1,4,0:3:0:0:
242,352,123574,1,8,0:3:0:0:
225,352,123668,1,8,0:3:0:0:
208,352,123762,6,0,L|163:355,1,45,4|0,0:0|0:0,0:0:0:0:
252,152,124512,6,0,B|268:204|268:204|256:260,1,112.5,4|0,1:0|0:0,0:0:0:0:
136,328,125262,2,0,B|132:272,1,56.25,8|0,0:0|0:0,0:0:0:0:
363,261,126012,6,0,B|307:276|307:276|255:260,1,112.5,2|2,0:0|0:0,0:0:0:0:
336,124,126762,2,0,B|340:180,1,56.25,8|0,0:0|0:0,0:0:0:0:
254,260,127512,5,2,0:0:0:0:
172,180,128262,2,0,B|180:67,1,112.5,8|0,0:0|0:0,0:0:0:0:
327,67,129012,2,8,B|292:80|252:68|252:68|216:56|180:67,1,150,2|8,0:0|0:0,0:1:0:0:
112,132,130137,1,2,0:0:0:0:
208,256,130512,6,0,L|216:144,1,112.5,2|0,0:0|0:0,0:0:0:0:
304,256,131262,2,0,B|312:284|312:284|304:316,1,56.25,8|0,0:0|0:0,0:0:0:0:
124,280,132012,6,0,L|131:167,1,112.5,2|2,0:0|0:0,0:0:0:0:
205,33,132762,2,0,B|178:36|178:36|150:28,1,56.25,8|0,0:0|0:0,0:0:0:0:
259,229,133512,5,2,0:0:0:0:
249,117,134075,1,0,0:0:0:0:
259,229,134262,2,0,L|249:117,1,112.5,8|0,0:0|0:0,0:0:0:0:
372,175,135012,2,0,L|382:287,1,112.5,2|2,0:0|0:0,0:0:0:0:
460,96,135762,2,0,B|418:99|418:99|390:91|390:91|348:94,1,112.5,8|0,0:0|0:0,0:0:0:0:
331,95,136512,5,2,0:0:0:0:
331,96,137074,1,0,0:0:0:0:
432,28,137262,1,2,0:0:0:0:
432,28,137824,1,0,0:0:0:0:
440,149,138012,1,2,0:0:0:0:
440,149,138574,1,0,0:0:0:0:
331,96,138762,2,0,L|335:28,1,67.4999979400635
440,149,139512,5,4,0:0:0:0:
440,149,140074,1,0,0:0:0:0:
404,236,140262,5,2,0:0:0:0:
404,236,140824,1,0,0:0:0:0:
462,311,141012,5,2,0:0:0:0:
462,311,141574,1,0,0:0:0:0:
404,236,141762,6,2,B|357:238|357:238|319:253|319:253|277:245|231:258|231:258|252:242|252:242|274:209|256:156|256:156|237:184|211:201|170:217|124:190|106:164|89:115|115:61|171:48|194:63,1,600,2|4,0:0|0:0,0:0:0:0:
