osu file format v14

[General]
AudioFilename: audio.mp3
AudioLeadIn: 0
PreviewTime: 77262
Countdown: 0
SampleSet: Soft
StackLeniency: 0.4
Mode: 0
LetterboxInBreaks: 0
WidescreenStoryboard: 0

[Editor]
DistanceSpacing: 1.2
BeatDivisor: 4
GridSize: 32
TimelineZoom: 3.199999

[Metadata]
Title:Marigold (ft. Guriri)
TitleUnicode:Marigold (ft. グリリ)
Artist:M2U
ArtistUnicode:M2U
Creator:- Frontier -
Version:Another
Source:Deemo
Tags:rayark magnolia myosotis alternate story symphonic boss song piano violin dnb drum'n'bass drum and bass Samsara Collection Diversity forgotten hourglass 3.0 SQUARE-MUSIQ TMDC @ SQ Lab nicode narae 구리리 boatkrab [_lost_] shockolatte -_frontier_- KittyAdventure gokugohan12468
BeatmapID:1258138
BeatmapSetID:594884

[Difficulty]
HPDrainRate:7.5
CircleSize:3.8
OverallDifficulty:7.5
ApproachRate:9
SliderMultiplier:2
SliderTickRate:1

[Events]
//Background and Video events
0,0,"bg.jpg",0,0
//Break Periods
2,103712,111912
//Storyboard Layer 0 (Background)
//Storyboard Layer 1 (Fail)
//Storyboard Layer 2 (Pass)
//Storyboard Layer 3 (Foreground)
//Storyboard Sound Samples

[TimingPoints]
1512,375,4,2,4,50,1,0
1512,-200,4,2,4,50,0,0
15762,526.315789473684,4,2,4,15,1,0
15762,-200,4,2,4,15,0,0
16025,535.714285714286,4,2,4,15,1,0
16292,750,4,2,4,15,1,0
16292,-200,4,2,4,15,0,0
16667,714.285714285714,4,2,4,15,1,0
17024,-100,4,2,3,20,0,0
17068,-100,4,2,3,25,0,0
17113,-100,4,2,3,30,0,0
17158,-100,4,2,3,40,0,0
19512,375,4,2,1,80,1,0
33012,-133.333333333333,4,2,1,60,0,0
35824,-285.714285714286,4,2,2,60,0,0
36762,-285.714285714286,4,2,2,30,0,0
37512,-285.714285714286,4,2,4,45,0,0
47074,-285.714285714286,4,1,1,45,0,0
48012,-166.666666666667,4,2,1,50,0,0
53637,-166.666666666667,4,2,4,50,0,0
54012,-166.666666666667,4,2,1,50,0,0
57574,-166.666666666667,4,1,0,50,0,0
58793,-166.666666666667,4,1,0,5,0,0
58887,-166.666666666667,4,1,0,50,0,0
59262,-500,4,2,2,50,0,0
59918,-500,4,2,2,5,0,0
60012,-117.647058823529,4,2,1,55,0,0
72012,-200,4,2,4,35,0,0
75012,-100,4,2,1,65,0,0
77262,-80,4,2,1,70,0,0
77637,-66.6666666666667,4,2,1,75,0,0
78012,-100,4,2,1,80,0,1
84012,-100,4,2,1,80,0,1
84199,-100,4,2,4,80,0,1
84762,-100,4,2,1,80,0,1
84949,-100,4,2,4,80,0,1
85512,-100,4,2,1,80,0,1
85699,-100,4,2,4,80,0,1
86262,-100,4,2,1,80,0,1
86449,-100,4,2,4,80,0,1
87012,-100,4,2,1,80,0,1
87199,-100,4,2,4,80,0,1
88512,-100,4,2,1,80,0,1
89637,-66.6666666666667,4,2,1,75,0,0
90012,-100,4,2,1,80,0,1
93012,-100,4,2,1,80,0,1
93387,-100,4,2,4,80,0,1
93762,-100,4,2,1,80,0,1
93949,-100,4,2,4,80,0,1
94137,-100,4,2,1,80,0,1
94512,-100,4,2,1,80,0,1
94699,-100,4,2,4,80,0,1
94887,-100,4,2,1,80,0,1
95262,-100,4,2,4,80,0,1
95449,-100,4,2,1,80,0,1
95637,-66.6666666666667,4,2,1,80,0,1
96012,-100,4,2,1,80,0,1
101449,-100,4,2,4,80,0,0
101637,-285.714285714286,4,2,4,60,0,1
101730,-285.714285714286,4,2,4,60,0,0
102012,-285.714285714286,4,2,1,60,0,0
103512,-285.714285714286,4,2,2,45,0,0
112512,-285.714285714286,4,2,1,45,0,0
122074,-285.714285714286,4,1,1,45,0,0
123387,-285.714285714286,4,1,0,45,0,0
123762,-285.714285714286,4,2,2,45,0,0
124512,-133.333333333333,4,2,1,50,0,0
136512,-200,4,2,4,35,0,0
139512,-312.5,4,2,2,20,0,0
141762,-312.5,4,2,2,20,0,0
141855,-312.5,4,2,1,20,0,0
144012,-312.5,4,2,1,15,0,0
144387,-312.5,4,2,1,10,0,0
144762,-312.5,4,2,1,5,0,0
145512,-312.5,4,2,2,5,0,0

[Colours]
Combo1 : 255,246,205
Combo2 : 26,44,94
Combo3 : 130,140,165
Combo4 : 177,148,148

[HitObjects]
152,192,1512,5,2,0:0:0:0:
60,162,1887,1,0,0:0:0:0:
60,66,2262,1,0,0:0:0:0:
152,36,2637,1,0,0:0:0:0:
208,114,3012,5,0,0:0:0:0:
299,83,3387,1,0,0:0:0:0:
355,162,3762,1,0,0:0:0:0:
299,239,4137,1,0,0:0:0:0:
207,210,4512,6,0,P|172:160|224:32,1,200,2|0,0:0|0:0,0:0:0:0:
299,83,5637,1,0,0:0:0:0:
276,170,6012,2,0,L|171:162,1,100,2|0,0:0|0:0,0:0:0:0:
299,83,6762,2,0,L|399:89,1,100,2|0,0:0|0:0,0:0:0:0:
478,115,7324,1,0,0:0:0:0:
478,115,7512,6,0,L|472:168,1,50,0|0,3:0|0:0,0:0:0:0:
380,140,7887,2,0,P|370:91|389:45,2,100,2|2|2,0:0|0:0|0:0,0:0:0:0:
476,212,9012,2,0,L|272:224,1,200,2|2,0:0|0:0,0:0:0:0:
220,288,10137,1,0,0:0:0:0:
147,219,10512,6,0,P|123:148|153:74,1,150,2|0,0:0|0:0,0:0:0:0:
244,52,11262,2,0,L|404:60,1,150,2|0,0:0|0:0,0:0:0:0:
381,159,12012,2,0,L|221:151,1,150,2|0,0:0|0:0,0:0:0:0:
244,52,12762,1,0,0:0:0:0:
372,8,13137,1,2,0:0:0:0:
488,116,13512,6,0,B|504:164|504:164|482:261,1,150,2|0,0:0|0:0,0:0:0:0:
512,339,14262,2,0,B|436:358|444:307|352:327,1,150,2|0,0:0|0:0,0:0:0:0:
300,368,15012,2,0,P|256:380|176:324,1,150,2|0,0:0|0:0,0:0:0:0:
184,244,15762,6,0,L|188:171,1,50
68,244,16292,6,0,L|69:296,1,50
176,324,17024,6,0,L|155:326,3,12.5,2|2|8|4,0:0|0:0|0:0|0:0,0:0:0:0:
176,324,19512,6,0,B|276:298|265:366|387:339,1,200,4|0,0:0|0:0,0:0:0:0:
436,304,20074,1,0,0:0:0:0:
436,304,20168,1,0,0:0:0:0:
436,304,20262,2,0,P|439:247|445:198,1,100,8|0,0:0|0:0,0:0:0:0:
339,15,20637,2,0,P|344:64|347:114,1,100,2|0,3:0|0:0,0:0:0:0:
370,188,20918,1,0,0:0:0:0:
370,188,21012,6,0,P|300:138|193:157,1,200,2|0,0:0|0:1,0:0:0:0:
132,262,21574,1,0,0:0:0:0:
22,211,21762,2,0,L|36:62,1,150,8|0,0:0|0:0,0:0:0:0:
89,8,22137,2,0,P|145:12|189:32,1,100,2|0,3:0|0:0,0:0:0:0:
296,111,22512,6,0,P|222:99|158:141,1,150,2|0,0:2|0:0,0:0:0:0:
189,207,22887,2,0,P|193:255|185:311,1,100,2|0,0:0|0:0,0:0:0:0:
144,368,23168,1,0,0:0:0:0:
144,368,23262,5,0,1:2:0:0:
436,304,23637,1,2,0:0:0:0:
192,224,24012,6,0,B|176:180|176:180|194:78,1,150,2|0,0:0|0:0,0:0:0:0:
195,79,24387,2,0,P|143:103|87:95,1,100,2|0,0:0|0:0,0:0:0:0:
192,224,24762,2,0,P|238:257|259:309,1,100,8|0,0:0|0:0,0:0:0:0:
320,153,25137,2,0,P|325:95|360:51,1,100,2|0,0:0|0:0,0:0:0:0:
465,186,25512,6,0,P|389:154|269:202,1,200,2|0,0:0|0:0,0:0:0:0:
241,217,25980,1,0,0:0:0:0:
192,224,26074,1,0,0:0:0:0:
145,208,26168,1,0,0:0:0:0:
111,172,26262,6,0,L|116:120,1,50,8|0,0:0|0:0,0:0:0:0:
236,16,26449,2,0,L|231:65,1,50
345,195,26637,2,0,L|350:143,1,50,2|0,0:0|0:0,0:0:0:0:
470,39,26824,2,0,L|465:88,1,50
372,320,27012,6,0,B|271:345|282:277|160:304,1,200,2|0,0:0|0:0,0:0:0:0:
39,360,27574,1,0,0:0:0:0:
104,224,27762,2,0,P|128:152|96:72,1,150,8|0,0:0|0:0,0:0:0:0:
152,24,28137,2,0,P|208:28|276:36,1,100
448,128,28512,6,0,P|370:135|288:144,1,150,2|0,0:0|0:0,0:0:0:0:
246,196,28887,2,0,P|234:244|254:312,1,100
448,128,29262,5,8,0:0:0:0:
423,85,29355,1,0,0:0:0:0:
381,58,29449,1,0,0:0:0:0:
332,52,29543,1,0,0:0:0:0:
285,69,29637,1,8,0:3:0:0:
252,107,29731,1,8,0:3:0:0:
207,126,29825,1,4,0:3:0:0:
157,124,29919,1,4,0:3:0:0:
115,99,30012,6,0,B|72:72|72:72|80:232,1,200,4|0,0:0|0:0,0:0:0:0:
207,300,30574,1,2,0:0:0:0:
275,195,30762,2,0,P|219:175|163:183,1,100,0|0,0:0|0:0,0:0:0:0:
285,69,31137,2,0,P|341:89|397:81,1,100,2|0,0:0|0:0,0:0:0:0:
480,40,31512,6,0,B|456:92|456:92|472:240,1,200,2|0,0:0|0:0,0:0:0:0:
401,366,32074,1,2,0:0:0:0:
254,331,32262,2,0,P|198:319|154:327,1,100
152,176,32637,2,0,P|164:120|156:76,1,100,2|0,0:0|0:0,0:0:0:0:
136,48,32918,1,0,0:0:0:0:
136,48,33012,6,0,B|211:28|203:79|295:59,1,150.000005722046,4|0,0:1|0:0,0:0:0:0:
364,12,33574,1,0,0:0:0:0:
436,80,33762,2,0,L|428:160,1,75.0000028610231
420,204,34043,1,0,0:0:0:0:
420,204,34137,1,0,0:0:0:0:
332,168,34324,1,0,0:0:0:0:
252,276,34512,6,0,P|184:296|100:264,1,150.000005722046,0|0,0:0|0:0,0:0:0:0:
48,200,35074,1,0,0:0:0:0:
100,116,35262,2,0,L|176:120,1,75.0000028610231,0|0,0:0|0:0,0:0:0:0:
228,190,35637,1,0,0:0:0:0:
296,134,35824,6,0,P|311:216|251:275,1,174.999994659424,2|0,0:0|3:0,0:0:0:0:
220,48,37512,6,0,L|300:52,2,69.9999978637696,2|0|2,0:0|0:0|0:0,0:0:0:0:
148,100,38449,1,0,0:0:0:0:
216,152,38637,2,0,L|250:153,1,34.9999989318848
331,115,39012,6,0,P|340:149|333:184,1,69.9999978637696,2|0,0:0|0:0,0:0:0:0:
302,275,39574,1,0,0:0:0:0:
302,275,39762,2,0,P|336:282|370:274,1,69.9999978637696,2|0,0:0|0:0,0:0:0:0:
333,184,40512,6,0,B|274:171|279:204|230:191,1,104.999996795654,2|0,0:0|0:0,0:0:0:0:
157,143,41262,1,2,0:0:0:0:
170,317,41637,1,0,0:0:0:0:
6,256,42012,6,0,L|14:148,1,104.999996795654,2|0,0:0|0:0,0:0:0:0:
2,64,42762,1,2,0:0:0:0:
157,143,43137,1,0,0:0:0:0:
256,8,43512,6,0,L|332:12,2,69.9999978637696,2|0|2,0:0|0:0|0:0,0:0:0:0:
180,44,44449,1,0,0:0:0:0:
260,84,44637,2,0,L|299:86,1,34.9999989318848,0|0,0:0|0:0,0:0:0:0:
384,76,45012,6,0,P|406:46|412:4,1,69.9999978637696,2|0,0:0|0:0,0:0:0:0:
325,11,45574,1,0,0:0:0:0:
294,85,45762,2,0,L|298:134,1,34.9999989318848,2|0,0:0|0:0,0:0:0:0:
372,164,46137,2,0,L|369:198,1,34.9999989318848
308,260,46512,6,0,P|284:224|284:192,1,69.9999978637696,2|0,0:0|0:0,0:0:0:0:
402,57,47074,2,0,L|396:83,1,17.4999994659424
370,199,47262,1,0,0:0:0:0:
402,57,47637,1,0,0:0:0:0:
370,199,48012,6,0,L|504:212,1,119.999996337891,4|0,0:1|0:0,0:0:0:0:
489,210,48574,1,0,0:0:0:0:
392,284,48762,1,8,0:0:0:0:
440,124,48949,1,0,0:0:0:0:
277,162,49137,2,0,P|272:200|280:232,1,59.9999981689454,0|0,0:0|0:0,0:0:0:0:
328,296,49512,6,0,P|280:312|212:288,1,119.999996337891,2|0,0:0|0:0,0:0:0:0:
136,336,50074,1,2,0:0:0:0:
68,276,50262,2,0,L|76:148,1,119.999996337891,8|0,0:0|0:0,0:0:0:0:
120,28,51012,6,0,P|152:24|184:32,1,59.9999981689454,2|0,0:0|0:0,0:0:0:0:
252,84,51387,2,0,P|281:89|310:85,1,59.9999981689454,0|2,0:0|0:0,0:0:0:0:
380,28,51762,2,0,L|360:206,1,179.999994506836,8|0,0:0|0:0,0:0:0:0:
417,267,52512,6,0,P|334:287|277:222,1,179.999994506836,2|2,0:0|0:0,0:0:0:0:
256,140,53262,2,0,P|220:148|184:144,1,59.9999981689454,8|0,0:0|0:0,0:0:0:0:
124,92,53637,2,0,P|94:91|65:98,1,59.9999981689454,2|0,0:0|0:0,0:0:0:0:
12,172,54012,6,0,L|4:364,1,179.999994506836,2|0,0:0|0:0,0:0:0:0:
4,351,54762,1,8,0:0:0:0:
88,316,54949,1,0,0:0:0:0:
164,363,55137,2,0,P|196:371|228:363,1,59.9999981689454
288,304,55512,6,0,L|420:312,1,119.999996337891,2|0,0:0|0:0,0:0:0:0:
462,124,56262,2,0,L|343:117,1,119.999996337891,8|0,0:0|0:0,0:0:0:0:
264,160,56824,1,0,0:0:0:0:
192,108,57012,6,0,P|156:96|116:100,1,59.9999981689454,2|0,0:0|0:0,0:0:0:0:
60,148,57387,1,0,0:0:0:0:
161,243,57574,5,0,0:0:0:0:
161,243,57668,1,0,0:0:0:0:
161,243,57762,1,0,0:0:0:0:
172,20,58137,1,2,3:0:0:0:
306,139,58512,6,0,P|352:148|400:128,1,89.9999972534181,0|0,3:0|0:0,0:0:0:0:
432,72,58887,2,0,L|428:32,3,29.9999990844727,4|4|8|8,0:3|0:3|0:3|0:3,0:0:0:0:
480,128,59262,6,0,L|472:204,1,70,4|0,0:0|0:0,0:0:0:0:
504,275,60012,6,0,B|458:289|420:263|420:263|388:291|332:283,1,170.000003242493,4|0,1:0|0:0,0:0:0:0:
252,240,60574,1,0,0:0:0:0:
184,316,60762,2,0,P|152:248|196:152,1,170.000003242493,8|0,0:0|0:0,0:0:0:0:
252,88,61324,1,0,0:0:0:0:
176,20,61512,6,0,L|0:28,1,170.000003242493,2|0,0:0|0:0,0:0:0:0:
68,108,62074,1,2,0:0:0:0:
20,196,62262,2,0,L|189:188,1,170.000003242493,8|0,0:0|0:0,0:0:0:0:
268,120,62824,1,0,0:0:0:0:
352,180,63012,6,0,P|436:184|500:116,1,170.000003242493,2|0,0:0|0:0,0:0:0:0:
270,36,63762,2,0,P|262:77|268:120,1,85.0000016212464,8|0,0:0|0:0,0:0:0:0:
349,263,64137,2,0,P|357:222|352:180,1,85.0000016212464,0|0,0:0|0:0,0:0:0:0:
268,120,64512,6,0,B|333:123|333:123|367:107|367:107|451:111,1,170.000003242493,2|0,0:0|0:0,0:0:0:0:
504,188,65074,1,2,0:0:0:0:
448,272,65262,2,0,B|436:312|436:312|444:364,1,85.0000016212464,8|0,0:0|0:0,0:0:0:0:
349,263,65637,2,0,B|361:223|361:223|353:171,1,85.0000016212464,2|0,0:0|0:0,0:0:0:0:
268,120,66012,6,0,P|213:95|105:159,1,170.000003242493,2|0,0:0|0:0,0:0:0:0:
199,194,66574,1,0,0:0:0:0:
130,268,66762,2,0,P|184:292|292:228,1,170.000003242493,8|0,0:0|0:0,0:0:0:0:
354,180,67324,1,0,0:0:0:0:
452,212,67512,6,0,L|440:412,1,170.000003242493,2|0,0:0|0:0,0:0:0:0:
360,320,68074,1,2,0:0:0:0:
279,251,68262,2,0,P|219:219|108:256,1,170.000003242493,8|0,0:0|0:0,0:0:0:0:
108,260,69012,6,0,B|132:200|132:200|112:76,1,170.000003242493,2|0,0:0|0:0,0:0:0:0:
172,12,69574,1,0,0:0:0:0:
240,88,69762,2,0,B|326:111|317:52|424:75,1,170.000003242493,8|0,0:0|0:0,0:0:0:0:
476,144,70324,1,0,0:0:0:0:
376,156,70512,6,0,P|348:204|376:308,1,170.000003242493,2|0,0:0|0:0,0:0:0:0:
456,376,71074,1,2,0:0:0:0:
376,308,71262,2,0,L|196:316,1,170.000003242493,8|0,0:0|0:0,0:0:0:0:
96,364,72012,6,0,P|108:288|64:220,1,150,0|0,3:0|0:0,0:0:0:0:
84,106,72762,2,0,P|140:153|214:154,1,150,0|0,3:0|0:0,0:0:0:0:
312,226,73512,2,0,P|243:251|206:315,1,150,0|0,3:0|0:0,0:0:0:0:
206,315,74262,1,0,3:0:0:0:
172,72,74824,1,0,0:0:0:0:
260,120,75012,6,0,B|336:116|336:116|376:132|376:132|460:128,1,200,2|0,0:0|0:0,0:0:0:0:
496,36,75574,1,0,0:0:0:0:
396,52,75762,2,0,B|364:148|364:148|404:244,1,200,8|2,1:2|1:3,0:0:0:0:
472,312,76324,1,0,0:0:0:0:
380,356,76512,6,0,L|280:352,1,100,2|8,0:0|0:0,0:0:0:0:
240,260,76887,2,0,L|140:256,1,100,8|8,0:0|0:0,0:0:0:0:
36,324,77262,6,0,P|100:288|104:172,1,187.5,2|0,0:0|0:0,0:0:0:0:
21,67,77637,6,0,P|84:121|208:80,1,225.000008583069,8|0,1:0|0:0,0:0:0:0:
236,40,78012,6,0,L|300:44,1,50,4|0,1:0|0:0,0:0:0:0:
416,247,78199,1,0,0:0:0:0:
378,280,78292,1,0,0:0:0:0:
331,295,78386,1,0,0:0:0:0:
282,287,78480,1,0,0:0:0:0:
240,260,78574,2,0,L|244:196,1,50
392,0,78762,5,8,1:2:0:0:
423,37,78855,1,0,0:0:0:0:
434,86,78949,1,0,0:0:0:0:
420,134,79043,1,0,0:0:0:0:
386,170,79137,2,0,L|336:166,1,50,0|0,0:0|0:0,0:0:0:0:
120,31,79324,1,0,0:0:0:0:
168,45,79418,1,0,0:0:0:0:
204,80,79512,6,0,L|200:129,1,50,2|0,1:2|0:0,0:0:0:0:
86,258,79699,2,0,L|89:208,1,50,2|0,1:2|0:0,0:0:0:0:
321,125,79887,6,0,L|317:174,1,50
202,302,80074,2,0,L|205:252,1,50
392,0,80262,1,8,1:2:0:0:
394,196,80449,6,0,B|401:102|401:102|387:72|387:72|392:0,1,200,4|2,0:0|0:0,0:0:0:0:
381,2,80918,1,0,0:0:0:0:
370,4,81012,2,0,L|294:8,1,50,6|0,0:0|0:0,0:0:0:0:
162,89,81199,6,0,L|112:86,1,50,0|0,0:0|0:0,0:0:0:0:
168,104,81387,2,0,L|118:101,1,50,0|0,0:0|0:0,0:0:0:0:
174,119,81574,2,0,L|124:116,1,50,0|0,0:0|0:0,0:0:0:0:
192,268,81762,5,8,0:0:0:0:
222,228,81855,1,0,0:0:0:0:
265,204,81949,1,0,0:0:0:0:
315,198,82043,1,0,0:0:0:0:
363,212,82137,2,0,P|388:220|420:224,1,50,0|0,0:0|0:0,0:0:0:0:
412,76,82324,6,0,P|387:68|355:64,1,50,4|0,1:0|0:0,0:0:0:0:
266,87,82512,5,0,0:0:0:0:
223,113,82605,1,0,0:0:0:0:
174,119,82699,1,0,0:0:0:0:
127,104,82793,1,0,0:0:0:0:
90,71,82887,6,0,L|97:8,1,50,4|0,1:0|0:0,0:0:0:0:
36,229,83074,1,0,0:0:0:0:
36,229,83168,1,0,0:0:0:0:
36,229,83262,6,0,P|35:208|38:178,1,50,8|0,1:2|0:0,0:0:0:0:
184,180,83449,2,0,P|185:201|182:231,1,50,4|0,1:0|0:0,0:0:0:0:
24,328,83637,1,8,1:2:0:0:
110,115,83824,1,2,1:2:0:0:
198,328,84012,5,6,0:0:0:0:
363,212,84199,2,0,L|419:216,2,50,2|0|2,0:0|0:0|0:0,0:0:0:0:
198,328,84574,1,2,0:0:0:0:
444,300,84762,5,8,0:0:0:0:
466,288,84855,1,0,0:0:0:0:
484,271,84949,1,2,0:0:0:0:
496,249,85043,1,0,0:0:0:0:
503,225,85137,1,2,0:0:0:0:
502,200,85230,1,0,0:0:0:0:
495,177,85324,1,2,0:0:0:0:
481,156,85418,1,0,0:0:0:0:
462,139,85512,5,2,0:0:0:0:
301,302,85699,1,2,0:0:0:0:
301,302,85793,1,0,0:0:0:0:
301,302,85887,1,2,0:0:0:0:
296,92,86074,1,2,0:0:0:0:
184,180,86262,6,0,P|132:192|76:172,1,100,8|2,1:2|0:0,0:0:0:0:
32,112,86543,1,0,0:0:0:0:
32,112,86637,2,0,L|36:48,1,50,2|0,0:0|0:0,0:0:0:0:
216,0,86824,2,0,L|212:49,1,50,2|0,0:0|0:0,0:0:0:0:
256,240,87012,5,2,0:0:0:0:
422,86,87199,1,2,0:0:0:0:
419,118,87292,1,2,0:0:0:0:
417,150,87386,1,2,0:0:0:0:
414,183,87480,1,2,0:0:0:0:
412,215,87574,2,0,P|412:248|424:280,1,50
444,336,87762,6,0,P|396:320|344:332,1,100,2|2,1:2|0:0,0:0:0:0:
271,366,88043,1,2,0:0:0:0:
271,366,88137,2,0,P|222:375|176:360,1,100,2|0,0:0|0:0,0:0:0:0:
32,112,88512,6,0,L|36:180,1,50,2|0,0:0|0:0,0:0:0:0:
112,300,88699,2,0,L|114:250,1,50,0|0,0:0|0:0,0:0:0:0:
211,49,88887,6,0,L|215:117,1,50,2|0,0:0|0:0,0:0:0:0:
236,288,89074,2,0,L|238:238,1,50,2|0,0:0|0:0,0:0:0:0:
396,44,89262,6,0,L|400:112,1,50,8|0,0:0|0:0,0:0:0:0:
360,276,89449,2,0,L|362:226,1,50,2|2,0:0|0:0,0:0:0:0:
504,40,89637,6,0,B|531:153|455:140|486:277,1,225.000008583069,8|0,0:0|0:0,0:0:0:0:
500,356,90012,6,0,P|448:340|388:356,1,100,4|0,1:0|0:0,0:0:0:0:
256,164,90387,2,0,P|308:180|368:164,1,100,0|0,0:0|0:0,0:0:0:0:
193,70,90762,2,0,P|142:151|175:242,1,200,8|0,1:2|0:0,0:0:0:0:
284,336,91324,1,0,0:0:0:0:
175,243,91512,6,0,P|123:235|71:251,1,100,2|2,1:2|1:2,0:0:0:0:
194,70,91887,2,0,P|246:78|298:62,1,100
460,8,92262,1,8,1:2:0:0:
424,192,92449,2,0,B|344:195|344:195|303:176|303:176|200:181,1,200,4|2,0:0|0:0,0:0:0:0:
48,164,93012,6,0,P|40:216|54:261,1,100,2|0,0:0|0:0,0:0:0:0:
124,316,93293,1,0,0:0:0:0:
124,316,93387,2,0,L|184:312,3,50,2|0|2|0,0:0|0:0|0:0|0:0,0:0:0:0:
248,364,93762,2,0,L|308:360,3,50,8|0|2|0,0:0|0:0|0:0|0:0,0:0:0:0:
360,296,94137,1,2,0:0:0:0:
216,192,94324,1,2,0:0:0:0:
216,192,94418,1,2,0:0:0:0:
216,192,94512,6,0,L|208:132,1,50,8|0,0:0|0:0,0:0:0:0:
312,72,94699,2,0,L|318:121,1,50,2|0,0:0|0:0,0:0:0:0:
136,172,94887,6,0,L|128:112,1,50,4|0,0:1|0:0,0:0:0:0:
392,92,95074,2,0,L|400:152,1,50,0|0,0:0|0:0,0:0:0:0:
184,68,95262,6,0,L|176:8,1,50,2|0,0:3|0:0,0:0:0:0:
344,196,95449,2,0,L|352:256,1,50,4|2,0:1|0:0,0:0:0:0:
297,360,95637,6,0,P|341:300|493:356,1,225.000008583069,4|0,1:0|0:0,0:0:0:0:
496,356,96012,5,4,0:0:0:0:
344,196,96199,1,0,0:0:0:0:
504,40,96387,1,2,0:0:0:0:
360,212,96574,2,0,B|280:215|280:215|239:196|239:196|136:201,1,200,8|0,0:0|0:0,0:0:0:0:
44,260,97137,2,0,P|32:316|48:376,1,100,8|2,0:0|0:0,0:0:0:0:
164,199,97512,5,2,0:0:0:0:
32,112,97699,1,0,0:0:0:0:
296,140,97887,1,0,0:0:0:0:
139,354,98074,2,0,L|120:112,1,200,8|2,0:0|0:0,0:0:0:0:
320,8,98637,2,0,P|323:33|320:60,3,50,8|0|2|0,0:0|0:0|0:0|0:0,0:0:0:0:
296,140,99012,5,2,0:0:0:0:
504,40,99199,1,0,0:0:0:0:
353,272,99387,1,0,0:0:0:0:
228,24,99574,2,0,B|325:0|314:66|433:39,1,200,8|2,0:0|0:0,0:0:0:0:
353,272,100137,2,0,P|293:264|229:288,1,100,8|2,0:0|0:0,0:0:0:0:
88,376,100512,5,2,0:0:0:0:
64,192,100699,1,0,0:0:0:0:
176,372,100887,5,2,0:0:0:0:
160,160,101074,1,8,0:0:0:0:
264,368,101262,6,0,L|272:312,1,50,0|8,0:0|0:3,0:0:0:0:
256,128,101449,2,0,L|248:177,1,50,8|4,0:3|0:3,0:0:0:0:
359,314,101637,5,2,0:0:0:0:
352,96,101824,1,2,0:0:0:0:
431,247,102012,5,4,0:0:0:0:
256,192,102105,12,4,103512,0:0:0:0:
104,112,112512,6,0,B|175:94|167:143|254:123,1,139.999995727539,4|8,0:0|0:0,0:0:0:0:
320,88,113449,1,0,0:0:0:0:
376,156,113637,2,0,L|372:200,1,34.9999989318848,0|0,0:0|0:0,0:0:0:0:
448,236,114012,6,0,L|457:131,1,104.999996795654,0|0,0:0|0:0,0:0:0:0:
409,58,114762,2,0,P|358:54|307:79,1,104.999996795654,8|0,0:0|0:0,0:0:0:0:
240,126,115512,6,0,P|192:142|136:118,1,104.999996795654
70,74,116262,2,0,L|64:151,1,69.9999978637696,8|0,0:0|0:0,0:0:0:0:
28,224,116824,1,0,0:0:0:0:
28,224,117012,2,0,P|80:192|132:196,1,104.999996795654,0|0,0:0|0:0,0:0:0:0:
204,240,117762,1,8,0:0:0:0:
316,108,118137,1,0,0:0:0:0:
344,288,118512,6,0,B|274:291,2,69.9999978637696,0|0|8,0:0|0:0|0:0,0:0:0:0:
403,223,119449,1,0,0:0:0:0:
318,202,119637,2,0,B|284:204,1,34.9999989318848
204,240,120012,6,0,P|199:205|208:160,1,69.9999978637696,0|0,0:0|0:0,0:0:0:0:
364,100,120762,2,0,P|396:113|431:143,1,69.9999978637696,8|0,0:0|0:0,0:0:0:0:
405,308,121512,6,0,P|377:329|333:344,1,69.9999978637696
255,373,122074,2,0,L|259:345,1,17.4999994659424
281,186,122262,5,0,0:0:0:0:
255,373,122637,1,0,0:0:0:0:
381,194,123012,6,0,L|372:264,1,69.9999978637696,0|4,0:0|0:3,0:0:0:0:
376,302,123480,1,0,0:0:0:0:
374,310,123574,1,0,0:0:0:0:
373,319,123668,1,0,0:0:0:0:
372,327,123762,6,0,P|312:340|255:321,1,122.499996261597,4|0,0:0|0:0,0:0:0:0:
169,306,124512,6,0,B|176:273|200:253|200:253|187:166,1,150.000005722046,4|0,1:0|0:0,0:0:0:0:
132,68,125074,1,0,0:0:0:0:
236,24,125262,2,0,L|385:33,1,150.000005722046,8|0,0:0|0:0,0:0:0:0:
440,132,125824,1,0,0:0:0:0:
336,169,126012,2,0,L|187:160,1,150.000005722046,2|0,0:0|0:0,0:0:0:0:
132,64,126574,1,2,0:0:0:0:
44,136,126762,2,0,P|16:200|48:296,1,150.000005722046,8|0,0:0|0:0,0:0:0:0:
124,344,127324,1,0,0:0:0:0:
228,300,127512,6,0,B|306:281|297:333|391:312,1,150.000005722046,2|0,0:0|0:0,0:0:0:0:
374,315,128262,2,0,B|403:274|403:274|403:161,1,150.000005722046,8|0,0:0|0:0,0:0:0:0:
340,84,128824,1,0,0:0:0:0:
272,172,129012,2,0,P|204:196|126:163,1,150.000005722046,2|0,0:0|0:0,0:0:0:0:
133,170,129762,2,0,L|142:256,1,75.0000028610231,8|0,0:0|0:0,0:0:0:0:
63,376,130137,2,0,L|55:301,1,75.0000028610231,2|0,0:0|0:0,0:0:0:0:
188,368,130512,6,0,P|256:328|352:360,1,150.000005722046,2|0,0:0|0:0,0:0:0:0:
428,376,131074,1,0,0:0:0:0:
500,292,131262,2,0,L|488:132,1,150.000005722046,8|0,0:0|0:0,0:0:0:0:
424,48,131824,1,0,0:0:0:0:
328,108,132012,2,0,B|264:110|264:110|232:95|232:95|150:99,1,150.000005722046,2|0,0:0|0:0,0:0:0:0:
75,61,132574,1,2,0:0:0:0:
35,167,132762,2,0,B|11:239|11:239|40:308,1,150.000005722046,8|0,0:0|0:0,0:0:0:0:
40,308,133512,6,0,L|204:300,1,150.000005722046,2|0,0:0|0:0,0:0:0:0:
256,208,134074,1,2,0:0:0:0:
322,300,134262,2,0,L|472:308,1,150.000005722046,8|0,0:0|0:0,0:0:0:0:
512,208,134824,1,0,0:0:0:0:
416,152,135012,2,0,P|360:128|332:40,1,150.000005722046,2|0,0:0|0:0,0:0:0:0:
256,132,135574,1,2,0:0:0:0:
181,48,135762,2,0,P|160:118|96:152,1,150.000005722046,8|0,0:0|0:0,0:0:0:0:
38,291,136512,6,0,L|188:284,1,150,2|0,0:0|0:0,0:0:0:0:
254,318,137262,2,0,L|247:168,1,150,2|0,0:0|0:0,0:0:0:0:
281,102,138012,2,0,L|131:109,1,150,2|0,0:0|0:0,0:0:0:0:
65,75,138762,2,0,L|72:225,1,150,2|0,0:0|0:0,0:0:0:0:
137,271,139512,6,0,P|186:254|241:266,1,96,4|2,0:0|0:0,0:0:0:0:
303,289,140262,2,0,P|286:240|298:185,1,96,0|2,0:0|0:0,0:0:0:0:
321,123,141012,2,0,P|272:140|217:128,1,96,0|2,0:0|0:0,0:0:0:0:
155,105,141762,5,0,0:0:0:0:
256,192,141855,12,4,145512,0:0:0:0:
