osu file format v14

[General]
AudioFilename: audio.mp3
AudioLeadIn: 0
PreviewTime: 1449
Countdown: 0
SampleSet: Soft
StackLeniency: 0.2
Mode: 0
LetterboxInBreaks: 0
WidescreenStoryboard: 1

[Editor]
DistanceSpacing: 0.8
BeatDivisor: 4
GridSize: 32
TimelineZoom: 1.6

[Metadata]
Title:Marigold (feat. Guriri)
TitleUnicode:Marigold (feat. グリリ)
Artist:M2U
ArtistUnicode:M2U
Creator:osuskrub
Version:Normal
Source:Deemo
Tags:Finshie JeirYagtama rayark alternate story symphonic boss song piano violin dnb diversity forgotten hourglass
BeatmapID:1492373
BeatmapSetID:702461

[Difficulty]
HPDrainRate:3
CircleSize:3.4
OverallDifficulty:3
ApproachRate:4.5
SliderMultiplier:1.2
SliderTickRate:1

[Events]
//Background and Video events
0,0,"uhuhuh.png",0,0
//Break Periods
2,103712,111252
//Storyboard Layer 0 (Background)
//Storyboard Layer 1 (Fail)
//Storyboard Layer 2 (Pass)
//Storyboard Layer 3 (Foreground)
//Storyboard Sound Samples

[TimingPoints]
1512,375,4,2,4,50,1,0
1512,-100,4,2,4,50,0,0
2262,-100,4,2,4,50,0,0
3012,-100,4,2,4,50,0,0
3762,-100,4,2,4,50,0,0
4512,-100,4,2,4,50,0,0
13512,-100,4,2,4,50,0,0
15762,526.315789473684,4,2,4,15,1,0
15762,-100,4,2,4,15,0,0
16025,535.714285714286,4,2,4,15,1,0
16292,750,4,2,4,15,1,0
16292,-100,4,2,4,15,0,0
16667,714.285714285714,4,2,4,15,1,0
16934,-100,4,2,5,35,0,0
17024,-100,4,2,5,35,0,0
17068,-100,4,2,5,35,0,0
17113,-100,4,2,6,35,0,0
17158,-100,4,2,6,35,0,0
19512,375,4,2,1,80,1,0
22137,-100,4,2,4,80,0,0
22512,-100,4,2,1,80,0,0
33012,-100,4,2,1,60,0,0
35824,-100,4,2,2,60,0,0
36762,-100,4,2,1,30,0,0
37512,-100,4,2,4,45,0,0
47074,-100,4,1,1,45,0,0
47355,-100,4,2,1,45,0,0
48012,-100,4,2,1,50,0,0
53637,-100,4,2,4,50,0,0
54012,-100,4,2,1,50,0,0
57574,-100,4,1,0,60,0,0
57855,-100,4,2,1,50,0,0
58137,-100,4,2,1,50,0,0
58418,-100,4,2,1,5,0,0
58512,-100,4,2,1,50,0,0
58887,-100,4,2,2,50,0,0
59262,-100,4,2,1,50,0,0
59918,-100,4,2,1,5,0,0
60012,-100,4,2,1,55,0,0
72012,-100,4,2,1,35,0,0
75012,-100,4,2,1,65,0,0
77262,-100,4,2,1,70,0,0
77637,-100,4,2,1,75,0,0
78012,-100,4,2,1,80,0,1
81012,-100,4,2,1,80,0,1
81199,-100,4,2,2,80,0,1
81762,-100,4,2,1,80,0,1
81949,-100,4,2,2,80,0,1
82324,-100,4,2,1,80,0,1
82512,-100,4,2,2,80,0,1
83262,-100,4,2,1,80,0,1
84012,-100,4,2,1,80,0,1
84199,-100,4,2,2,80,0,1
84762,-100,4,2,1,80,0,1
84949,-100,4,2,2,80,0,1
85512,-100,4,2,1,80,0,1
85699,-100,4,2,2,80,0,1
85887,-100,4,2,2,80,0,1
86262,-100,4,2,1,80,0,1
86449,-100,4,2,2,80,0,1
87012,-100,4,2,1,80,0,1
87199,-100,4,2,2,80,0,1
87762,-100,4,2,1,80,0,1
88512,-100,4,2,1,80,0,1
89637,-100,4,2,1,75,0,0
90012,-100,4,2,1,80,0,1
93387,-100,4,2,2,80,0,1
93762,-100,4,2,1,80,0,1
93855,-100,4,2,4,80,0,1
94324,-100,4,2,2,80,0,1
94512,-100,4,2,1,80,0,1
94699,-100,4,2,2,80,0,1
94887,-100,4,2,1,80,0,1
95262,-100,4,2,1,80,0,1
95449,-100,4,2,1,80,0,1
95637,-100,4,2,1,80,0,1
96012,-100,4,2,1,80,0,1
101449,-100,4,2,4,80,0,0
101637,-100,4,2,4,60,0,1
101730,-100,4,2,4,60,0,0
102012,-100,4,2,2,60,0,0
103512,-100,4,2,2,45,0,0
112512,-100,4,2,1,45,0,0
122074,-100,4,1,1,45,0,0
122918,-100,4,1,1,5,0,0
123012,-100,4,1,1,45,0,0
123762,-100,4,2,2,45,0,0
124512,-100,4,2,1,50,0,0
136512,-100,4,2,4,35,0,0
139512,-100,4,2,2,20,0,0
141762,-100,4,2,2,20,0,0
141855,-100,4,2,1,20,0,0
144012,-100,4,2,1,15,0,0
144387,-100,4,2,1,10,0,0
144762,-100,4,2,1,5,0,0
145512,-100,4,2,2,5,0,0

[Colours]
Combo1 : 251,196,94
Combo2 : 255,219,72
Combo3 : 94,174,150
Combo4 : 251,155,125

[HitObjects]
55,45,1512,6,0,P|125:40|181:77,1,120,2|0,0:0|0:0,0:0:0:0:
226,138,2262,2,0,P|296:143|352:106,1,120,0|0,0:0|0:0,0:0:0:0:
432,102,3012,2,0,P|445:169|432:245,1,120,0|0,0:0|0:0,0:0:0:0:
355,266,3762,2,0,L|231:273,1,120,0|0,0:0|0:0,0:0:0:0:
157,328,4512,6,0,B|122:191|217:227|181:84,1,240,2|0,0:0|0:0,0:0:0:0:
209,4,5637,1,0,0:0:0:0:
113,9,6012,2,0,P|33:92|74:201,1,240,2|2,0:0|0:0,0:0:0:0:
123,278,7137,2,0,L|207:282,1,60
230,286,7512,5,0,0:0:0:0:
325,291,7887,2,0,L|469:296,2,120,2|2|2,0:0|0:0|0:0,0:0:0:0:
230,286,9012,2,0,P|201:177|248:51,1,240,2|2,0:0|0:0,0:0:0:0:
325,13,10137,1,0,0:0:0:0:
418,33,10512,6,0,P|455:110|414:206,1,180,2|0,0:0|0:0,0:0:0:0:
388,225,11262,2,0,P|305:254|214:211,1,180,2|0,0:0|0:0,0:0:0:0:
183,193,12012,2,0,P|100:164|-1:202,1,180,2|0,0:0|0:0,0:0:0:0:
0,235,12762,1,2,0:0:0:0:
68,302,13137,1,0,0:0:0:0:
161,323,13512,6,0,L|350:331,1,180,2|2,0:0|0:0,0:0:0:0:
388,332,14262,2,0,P|415:252|366:151,1,180,2|0,0:0|0:0,0:0:0:0:
335,178,15012,2,0,P|249:206|147:178,1,180,2|0,0:0|0:0,0:0:0:0:
132,172,15762,1,0,0:0:0:0:
256,192,16025,12,0,17158,0:0:0:0:
39,116,19512,6,0,B|99:106|99:106|181:131,1,120,0|0,0:0|0:0,0:0:0:0:
235,176,20262,2,0,B|216:235|216:235|234:305,1,120,8|2,0:0|0:0,0:0:0:0:
284,371,21012,1,2,0:0:0:0:
366,321,21387,1,0,0:0:0:0:
291,260,21762,2,0,P|224:251|157:276,1,120,8|2,0:0|0:0,0:0:0:0:
104,331,22512,6,0,P|88:275|106:198,1,120,2|0,0:0|0:0,0:0:0:0:
110,119,23262,1,8,0:0:0:0:
191,169,23637,1,2,0:0:0:0:
248,92,24012,2,0,L|393:88,1,120,2|2,0:0|0:0,0:0:0:0:
454,130,24762,2,0,L|458:275,1,120,8|0,0:0|0:0,0:0:0:0:
391,319,25512,6,0,P|333:332|252:305,1,120,2|0,0:0|0:0,0:0:0:0:
192,268,26262,1,8,0:0:0:0:
257,198,26637,1,0,3:0:0:0:
177,144,27012,2,0,P|114:149|68:202,1,120,2|0,0:0|0:0,0:0:0:0:
68,282,27762,2,0,L|212:286,1,120,8|0,0:0|0:0,0:0:0:0:
282,266,28512,6,0,P|304:208|281:133,1,120,2|0,0:0|0:0,0:0:0:0:
229,80,29262,1,8,0:0:0:0:
164,151,29637,1,0,0:0:0:0:
240,208,30012,2,0,P|323:221|375:241,2,120,4|0|0,0:0|0:0|0:0,0:0:0:0:
164,268,31137,1,2,0:0:0:0:
114,185,31512,6,0,P|100:124|128:49,1,120,2|0,0:0|0:0,0:0:0:0:
203,34,32262,2,0,L|344:39,1,120,0|2,0:0|0:0,0:0:0:0:
413,69,33012,2,0,B|448:144|448:144|446:308,1,240
372,363,34137,1,0,0:0:0:0:
256,192,34512,12,2,35824,0:0:0:0:
486,54,37512,6,0,L|500:194,2,120,2|0|2,0:0|0:0|0:0,0:0:0:0:
391,38,38637,1,0,0:0:0:0:
403,133,39012,2,0,L|417:273,2,120,2|0|2,0:0|0:0|0:0,0:0:0:0:
243,25,40512,6,0,B|188:140|286:138|247:256,1,240,2|2,0:0|0:0,0:0:0:0:
180,324,41637,1,0,0:0:0:0:
246,256,42012,2,0,B|323:240|323:240|502:246,1,240,2|2,0:0|0:0,0:0:0:0:
324,139,43512,6,0,P|215:182|94:127,1,240,2|2,0:0|0:0,0:0:0:0:
46,63,44637,1,0,0:0:0:0:
133,24,45012,2,0,L|376:44,1,240,2|2,0:0|0:0,0:0:0:0:
451,244,46512,6,0,P|460:156|451:107,2,120,0|0|0,0:0|0:0|0:0,0:0:0:0:
374,302,47637,1,2,0:3:0:0:
283,334,48012,2,0,P|217:338|152:320,1,120,4|0,3:0|0:0,0:0:0:0:
89,266,48762,2,0,P|85:200|103:135,1,120,8|0,0:0|0:0,0:0:0:0:
176,94,49512,6,0,B|296:60|296:153|421:96,1,240,2|8,0:0|0:0,0:0:0:0:
493,273,51012,2,0,P|443:315|260:315,1,240,2|8,0:0|0:0,0:0:0:0:
210,252,52137,1,0,0:0:0:0:
140,185,52512,2,0,P|63:182|16:209,1,120,2|0,0:0|0:0,0:0:0:0:
91,273,53262,2,0,P|168:276|215:249,1,120,8|2,0:0|0:0,0:0:0:0:
270,187,54012,6,0,P|270:97|254:20,2,120,2|0|8,0:0|0:0|0:0,0:0:0:0:
244,279,55137,1,0,0:0:0:0:
339,292,55512,2,0,P|415:283|465:253,1,120,2|0,0:0|0:0,0:0:0:0:
506,183,56262,2,0,P|497:107|467:57,1,120,8|0,0:0|0:0,0:0:0:0:
382,48,57012,6,0,L|225:69,2,120,2|0|0,0:0|0:0|0:0,0:0:0:0:
477,39,58137,1,2,0:3:0:0:
423,118,58512,2,0,P|401:194|410:267,1,120,0|2,0:0|0:0,0:0:0:0:
423,328,59262,1,4,1:0:0:0:
238,276,60012,6,0,P|212:162|275:42,1,240,2|8,0:0|0:0,0:0:0:0:
357,48,61137,1,0,0:0:0:0:
434,105,61512,2,0,P|458:225|384:339,1,240,2|8,0:0|0:0,0:0:0:0:
312,292,62637,1,0,0:0:0:0:
233,347,63012,6,0,B|151:346|151:346|85:310|85:310|2:309,1,240,0|8,0:0|0:0,0:0:0:0:
50,225,64137,1,0,0:0:0:0:
133,178,64512,2,0,L|136:44,1,120,2|0,0:0|0:0,0:0:0:0:
231,50,65262,2,0,L|365:53,1,120,8|0,0:0|0:0,0:0:0:0:
413,125,66012,6,0,P|405:239|277:262,1,240,2|8,0:0|0:0,0:0:0:0:
207,240,67137,1,0,0:0:0:0:
244,151,67512,2,0,P|244:67|103:21,1,240,2|8,0:0|0:0,0:0:0:0:
38,73,68637,1,0,0:0:0:0:
91,152,69012,6,0,B|245:152|245:152|321:113,1,240,2|8,0:0|0:0,0:0:0:0:
401,60,70137,1,0,0:0:0:0:
454,140,70512,2,0,P|459:255|338:301,1,240,2|8,0:0|0:0,0:0:0:0:
263,293,71637,1,0,0:0:0:0:
226,204,72012,6,0,P|118:160|8:248,2,240
335,298,74074,1,0,0:0:0:0:
335,298,74262,2,0,P|336:216|332:148,1,120
304,86,75012,6,0,B|214:65|214:65|97:92,1,180,2|0,0:0|0:0,0:0:0:0:
103,125,75762,2,0,B|87:188|87:188|112:245,1,120,8|0,0:0|0:0,0:0:0:0:
199,271,76512,2,0,L|336:283,2,120,8|8|8,0:0|0:0|0:0,0:0:0:0:
109,238,77637,1,8,0:0:0:0:
173,166,78012,6,0,B|230:139|314:162,1,120,4|0,1:0|0:0,0:0:0:0:
382,189,78762,1,8,0:0:0:0:
444,116,79137,2,0,L|448:44,1,60
408,27,79512,2,0,P|352:9|282:37,1,120,2|0,0:0|0:0,0:0:0:0:
219,85,80262,2,0,L|139:93,1,60,8|10,0:0|0:0,0:0:0:0:
100,167,80824,1,2,0:0:0:0:
100,167,81012,6,0,B|81:228|81:228|101:304,1,120,2|0,0:0|0:0,0:0:0:0:
174,337,81762,2,0,P|244:349|308:329,1,120,10|2,0:0|0:0,0:0:0:0:
335,321,82324,2,0,P|347:235|323:135,1,180,2|2,0:0|0:0,0:0:0:0:
241,188,83262,1,8,0:0:0:0:
158,139,83637,1,8,0:0:0:0:
204,55,84012,6,0,B|325:54,1,120,10|2,0:0|0:0,0:0:0:0:
417,77,84762,2,0,P|449:164|437:232,1,120,8|0,0:0|0:0,0:0:0:0:
416,280,85512,2,0,P|329:312|261:300,1,120,2|2,0:0|0:0,0:0:0:0:
210,285,86262,1,10,0:0:0:0:
287,227,86637,1,0,0:0:0:0:
358,163,87012,6,0,P|366:90|331:24,1,120,2|2,0:0|0:0,0:0:0:0:
254,32,87762,2,0,L|117:42,1,120,8|0,0:0|0:0,0:0:0:0:
54,94,88512,1,2,0:0:0:0:
28,186,88887,1,10,0:0:0:0:
18,281,89262,2,0,P|77:313|177:309,1,120,8|10,0:0|0:0,0:0:0:0:
218,285,90012,6,0,P|293:276|385:298,2,120,4|0|8,1:0|0:0|0:0,0:0:0:0:
128,319,91137,1,0,0:0:0:0:
99,227,91512,2,0,P|95:142|117:73,2,120,2|0|8,0:0|0:0|0:0,0:0:0:0:
146,232,92449,1,2,0:0:0:0:
224,287,92824,1,0,0:0:0:0:
224,287,93012,6,0,L|368:294,1,120,2|2,0:0|0:0,0:0:0:0:
431,333,93762,2,0,L|417:207,1,120,8|0,0:0|0:0,0:0:0:0:
412,117,94512,1,8,0:0:0:0:
333,172,94887,1,2,0:0:0:0:
257,231,95262,2,0,P|190:239|117:221,1,120,10|8,0:0|0:0,0:0:0:0:
44,211,96012,6,0,L|50:69,1,120,2|0,0:0|0:0,0:0:0:0:
74,50,96574,2,0,P|158:27|249:58,1,180,8|8,0:0|0:0,0:0:0:0:
326,104,97512,2,0,P|356:166|336:238,1,120,2|0,0:0|0:0,0:0:0:0:
327,257,98074,2,0,B|252:280|252:280|150:275,1,180,8|8,0:0|0:0,0:0:0:0:
54,285,99012,6,0,L|54:149,1,120,2|0,0:0|0:0,0:0:0:0:
85,128,99574,2,0,P|168:100|261:131,1,180,8|8,0:0|0:0,0:0:0:0:
326,188,100512,2,0,L|333:325,1,120,0|2,0:0|0:0,0:0:0:0:
289,330,101074,2,0,L|220:328,2,60,8|0|0,0:0|0:0|0:0,0:0:0:0:
329,356,101637,1,2,0:0:0:0:
256,192,102012,12,2,103512,0:0:0:0:
28,337,112512,6,0,L|46:75,1,240,4|8,0:1|0:0,0:0:0:0:
127,49,113637,1,0,0:0:0:0:
205,104,114012,2,0,B|266:132|266:132|456:126,1,240,0|8,0:0|0:0,0:0:0:0:
329,284,115512,2,0,P|255:279|174:311,1,120,0|0,0:0|0:0,0:0:0:0:
132,344,116262,2,0,P|58:349|4:264,1,180,8|0,0:0|0:0,0:0:0:0:
27,225,117012,6,0,P|143:207|243:299,1,240,0|8,0:0|0:0,0:0:0:0:
312,333,118137,1,0,0:0:0:0:
389,276,118512,2,0,P|407:217|381:142,1,120
364,70,119262,1,8,0:0:0:0:
272,99,119637,1,0,0:0:0:0:
204,31,120012,6,0,P|146:28|76:74,1,120
36,134,120762,2,0,P|43:206|79:262,1,120,8|0,0:0|0:0,0:0:0:0:
157,273,121512,2,0,L|277:265,2,120
64,248,122637,1,0,0:0:0:0:
130,179,123012,6,0,P|140:117|127:44,1,120
37,44,123762,1,4,1:0:0:0:
228,59,124512,2,0,B|351:48|351:48|487:66,1,240,6|8,0:0|0:0,0:0:0:0:
488,156,125637,1,0,0:0:0:0:
419,223,126012,6,0,P|306:259|180:224,1,240,2|8,0:0|0:0,0:0:0:0:
113,173,127137,1,0,0:0:0:0:
171,101,127512,2,0,L|302:99,1,120
386,107,128262,1,2,0:0:0:0:
343,245,128824,1,0,0:0:0:0:
343,245,129012,6,0,P|348:337|340:402,1,120,8|0,0:0|0:0,0:0:0:0:
256,328,129762,2,0,P|199:349|132:327,1,120,0|0,0:0|0:0,0:0:0:0:
138,238,130512,6,0,P|240:182|354:238,1,240,2|8,0:0|0:0,0:0:0:0:
438,257,131637,1,0,0:0:0:0:
370,325,132012,2,0,B|289:345|289:345|117:345,1,240,2|8,0:0|0:0,0:0:0:0:
60,281,133137,1,0,0:0:0:0:
137,223,133512,6,0,B|223:189|209:256|315:229,1,180,2|0,0:0|0:0,0:0:0:0:
358,235,134262,2,0,P|454:212|475:116,1,180,8|0,0:0|0:0,0:0:0:0:
479,94,135012,2,0,P|421:34|279:77,1,240,2|8,0:0|0:0,0:0:0:0:
245,160,136137,1,0,0:0:0:0:
178,229,136512,6,0,P|83:255|12:130,1,240,2|2,0:0|0:0,0:0:0:0:
182,72,138012,2,0,P|277:46|348:171,1,240,2|0,0:0|0:0,0:0:0:0:
272,322,139512,6,0,B|165:336|165:336|41:278,1,240,2|2,0:0|0:0,0:0:0:0:
203,171,141012,2,0,B|297:171|297:171|439:224,1,240,2|2,0:0|0:0,0:0:0:0:
256,192,141949,12,0,145324,0:0:0:0:
