osu file format v14

[General]
AudioFilename: audio.mp3
AudioLeadIn: 0
PreviewTime: 77259
Countdown: 0
SampleSet: Soft
StackLeniency: 0.7
Mode: 2
LetterboxInBreaks: 0
EpilepsyWarning: 1
WidescreenStoryboard: 1

[Editor]
Bookmarks: 94134
DistanceSpacing: 2.1
BeatDivisor: 8
GridSize: 16
TimelineZoom: 1.7

[Metadata]
Title:Marigold (feat. Guriri)
TitleUnicode:Marigold (feat. 구리리)
Artist:M2U
ArtistUnicode:M2U
Creator:Spectator
Version:Platter
Source:Deemo
Tags:Ascendance Sinnoh グリリ NICODE Rayark SQUAR SQUARE MUSIQ Narae Hans Diversity.
BeatmapID:1286451
BeatmapSetID:605710

[Difficulty]
HPDrainRate:5
CircleSize:3.7
OverallDifficulty:8
ApproachRate:8
SliderMultiplier:1.5
SliderTickRate:2

[Events]
//Background and Video events
0,0,"marigold_.png",0,0
//Break Periods
2,103709,111759
//Storyboard Layer 0 (Background)
//Storyboard Layer 1 (Fail)
//Storyboard Layer 2 (Pass)
//Storyboard Layer 3 (Foreground)
//Storyboard Sound Samples

[TimingPoints]
1509,375,4,2,0,50,1,0
13509,-100,4,2,0,40,0,0
14259,-100,4,2,0,37,0,0
15759,500,4,2,0,35,1,0
16009,545.454545454546,4,2,0,35,1,0
16281,750,4,2,0,35,1,0
16656,714.285714285714,4,2,0,35,1,0
17013,600,4,2,0,30,1,0
17163,-100,4,2,0,50,0,0
18009,375,4,2,0,70,1,0
19509,-83.3333333333333,4,2,0,70,0,1
19602,-83.3333333333333,4,2,0,60,0,0
33009,-83.3333333333333,4,2,0,50,0,0
33946,-90.9090909090909,4,2,0,50,0,0
34509,-90.9090909090909,4,2,0,45,0,0
36009,-90.9090909090909,4,2,0,25,0,0
37509,-100,4,2,0,35,0,0
45009,-100,4,2,0,39,0,0
46509,-90.9090909090909,4,2,0,46,0,0
48009,-90.9090909090909,4,2,0,49,0,0
58884,-90.9090909090909,4,2,0,51,0,0
60009,-83.3333333333333,4,2,0,60,0,1
60102,-83.3333333333333,4,2,0,60,0,0
72009,-90.9090909090909,4,2,0,50,0,0
75009,-83.3333333333333,4,2,0,65,0,1
75102,-83.3333333333333,4,2,0,65,0,0
77259,-83.3333333333333,4,2,0,70,0,0
77634,-66.6666666666667,4,2,0,70,0,0
78009,-76.9230769230769,4,2,0,80,0,1
89915,-76.9230769230769,4,2,0,80,0,0
90009,-76.9230769230769,4,2,0,80,0,1
102009,-90.9090909090909,4,2,0,80,0,0
102384,-90.9090909090909,4,2,0,70,0,0
102759,-90.9090909090909,4,2,0,60,0,0
103134,-90.9090909090909,4,2,0,47,0,0
112509,-90.9090909090909,4,2,0,55,0,0
123009,-83.3333333333333,4,2,0,58,0,0
123759,-83.3333333333333,4,2,0,55,0,0
124509,-83.3333333333333,4,2,0,65,0,1
124602,-83.3333333333333,4,2,0,65,0,0
130884,-83.3333333333333,4,2,0,60,0,0
135665,-83.3333333333333,4,2,0,56,0,0
136040,-83.3333333333333,4,2,0,52,0,0
136509,-90.9090909090909,4,2,0,45,0,0
139321,-100,4,2,0,39,0,0
141009,-100,4,2,0,36,0,0
141759,-100,4,2,0,34,0,0
141852,-100,4,2,0,20,0,0

[Colours]
Combo1 : 255,255,98
Combo2 : 249,132,167
Combo3 : 251,219,108
Combo4 : 81,192,240

[HitObjects]
181,291,1509,5,2,0:0:0:0:
352,208,1884,1,0,0:0:0:0:
169,269,2259,2,0,P|129:222|208:210,1,150,2|0,0:0|0:0,0:0:0:0:
331,291,3009,1,2,0:0:0:0:
160,208,3384,1,0,0:0:0:0:
352,272,3759,2,0,P|392:225|313:213,1,150,2|2,0:0|0:0,0:0:0:0:
132,288,4509,6,0,P|129:232|211:175,1,150,2|0,0:0|0:0,0:0:0:0:
303,175,5071,1,0,0:0:0:0:
402,92,5259,2,0,L|233:90,1,150,2|2,0:0|0:0,0:0:0:0:
426,202,6009,5,2,0:0:0:0:
249,273,6384,2,0,L|183:319,2,75,2|0|2,0:0|0:0|0:0,0:0:0:0:
82,264,7134,2,0,P|55:236|46:187,1,75,2|0,0:0|0:0,0:0:0:0:
138,130,7509,6,0,L|224:128,1,75
340,277,7884,2,2,P|266:287|188:268,1,150,2|2,0:0|0:0,0:0:0:0:
388,135,8634,1,2,0:0:0:0:
182,349,9009,1,2,0:0:0:0:
126,308,9196,1,0,0:0:0:0:
102,243,9384,1,2,0:0:0:0:
122,177,9571,1,2,0:0:0:0:
174,131,9759,1,2,0:0:0:0:
401,177,10134,1,2,0:0:0:0:
177,328,10509,6,0,P|151:280|234:214,1,150,2|0,0:0|0:0,0:0:0:0:
307,198,11071,1,2,0:0:0:0:
426,241,11259,2,0,P|474:179|431:115,1,150,2|0,0:0|0:0,0:0:0:0:
324,121,11821,1,2,0:0:0:0:
170,361,12009,6,0,P|122:299|227:224,1,225,2|2,0:0|0:0,0:0:0:0:
352,144,12759,2,0,L|271:110,1,75,2|2,0:0|0:0,0:0:0:0:
186,61,13134,2,0,L|267:27,1,75,2|2,0:0|0:0,0:0:0:0:
414,323,13509,5,2,0:0:0:0:
462,256,13696,1,0,0:0:0:0:
452,173,13884,1,0,0:0:0:0:
396,112,14071,1,2,0:0:0:0:
223,265,14259,1,2,0:0:0:0:
175,198,14446,1,0,0:0:0:0:
185,115,14634,1,0,0:0:0:0:
241,54,14821,1,2,0:0:0:0:
394,144,15009,6,0,L|493:147,1,75,2|0,0:0|0:0,0:0:0:0:
300,248,15384,2,0,L|204:243,1,75,0|0,0:0|0:0,0:0:0:0:
86,332,15759,5,2,0:0:0:0:
218,235,16009,1,0,0:0:0:0:
43,240,16281,1,2,0:0:0:0:
240,107,16656,1,0,0:0:0:0:
77,26,17163,1,2,0:0:0:0:
125,346,19509,6,0,P|99:285|188:225,1,179.999994506836,4|2,0:0|0:0,0:0:0:0:
299,187,20071,1,0,0:0:0:0:
128,96,20259,2,0,L|315:78,1,179.999994506836,2|0,0:0|1:0,0:0:0:0:
64,288,21009,6,0,P|46:235|138:178,1,179.999994506836,4|2,0:0|0:0,0:0:0:0:
261,174,21571,1,0,0:0:0:0:
71,142,21759,2,0,P|42:88|109:23,1,134.999995880127,4|0,0:0|0:0,0:0:0:0:
125,31,22134,2,0,P|172:32|224:33,1,89.9999972534181,2|0,0:0|0:0,0:0:0:0:
462,204,22509,6,0,L|484:109,1,89.9999972534181,4|0,1:2|0:0,0:0:0:0:
403,46,22884,2,0,L|313:56,1,89.9999972534181,2|0,0:0|0:0,0:0:0:0:
495,154,23259,1,2,1:0:0:0:
247,66,23634,1,2,1:0:0:0:
432,352,24009,6,0,L|450:259,1,89.9999972534181,0|0,1:0|0:0,0:0:0:0:
264,173,24384,2,0,L|174:170,1,89.9999972534181,2|0,0:0|0:0,0:0:0:0:
303,298,24759,1,2,1:0:0:0:
415,230,24946,1,0,0:0:0:0:
257,103,25134,2,0,L|371:98,1,89.9999972534181,4|0,2:2|0:0,0:0:0:0:
457,158,25509,5,0,1:0:0:0:
160,320,25884,1,2,0:0:0:0:
129,287,25977,1,0,0:0:0:0:
113,244,26071,1,0,0:0:0:0:
127,201,26165,1,0,0:0:0:0:
167,180,26259,1,4,0:0:0:0:
461,185,26634,2,0,L|362:181,1,89.9999972534181,2|0,0:0|0:0,0:0:0:0:
172,46,27009,6,0,P|232:39|383:58,2,179.999994506836,4|2|2,0:0|0:0|0:0,0:0:0:0:
294,228,27946,1,0,0:0:0:0:
196,328,28134,2,0,L|92:342,1,89.9999972534181,2|2,0:0|0:0,0:0:0:0:
239,214,28509,6,0,L|246:117,1,89.9999972534181,0|0,1:0|0:0,0:0:0:0:
105,121,28884,2,0,L|98:24,1,89.9999972534181,2|0,2:0|0:0,0:0:0:0:
380,310,29259,2,0,P|474:258|370:197,1,269.999991760254,4|0,0:0|0:0,0:0:0:0:
118,283,30009,6,0,P|90:233|93:175,1,89.9999972534181,4|0,0:0|0:0,0:0:0:0:
202,156,30384,2,0,L|303:146,1,89.9999972534181,2|2,0:0|0:0,0:0:0:0:
453,284,30759,2,0,P|481:234|478:176,1,89.9999972534181,2|0,0:0|0:0,0:0:0:0:
280,191,31134,2,0,P|252:141|255:83,1,89.9999972534181,2|2,0:0|0:0,0:0:0:0:
412,72,31509,6,0,L|529:66,1,89.9999972534181,2|0,0:0|0:0,0:0:0:0:
329,193,31884,2,0,L|228:184,1,89.9999972534181,2|2,0:0|0:0,0:0:0:0:
95,289,32259,1,2,0:0:0:0:
40,206,32446,1,0,0:0:0:0:
65,109,32634,1,2,0:0:0:0:
152,63,32821,1,0,0:0:0:0:
335,280,33009,6,0,P|360:226|257:142,1,179.999994506836,4|2,0:0|0:0,0:0:0:0:
198,215,33571,1,0,0:0:0:0:
320,150,33759,2,0,L|338:59,1,89.9999972534181,0|2,0:0|0:0,0:0:0:0:
224,20,34134,1,0,0:0:0:0:
256,192,34509,12,2,37134,0:0:0:0:
286,296,37509,5,2,0:0:0:0:
107,157,37884,1,0,0:0:0:0:
281,62,38259,1,2,0:0:0:0:
133,308,39009,6,0,L|313:299,1,150,2|0,0:0|0:0,0:0:0:0:
64,173,39759,1,2,0:0:0:0:
351,324,40509,6,0,P|397:269|353:192,1,150,2|0,0:0|0:0,0:0:0:0:
161,324,41259,2,0,P|115:269|159:192,1,150,2|0,0:0|0:0,0:0:0:0:
366,166,42009,1,2,0:0:0:0:
159,107,42384,1,2,0:0:0:0:
360,328,42759,2,0,L|441:316,1,75,2|0,0:0|0:0,0:0:0:0:
332,238,43134,2,0,L|254:223,1,75,2|0,0:0|0:0,0:0:0:0:
84,309,43509,6,0,L|75:209,1,75,2|0,0:0|0:0,0:0:0:0:
258,255,43884,2,0,L|422:239,1,150,2|2,0:0|0:0,0:0:0:0:
302,142,44446,2,0,L|205:127,2,75,0|2|0,0:0|0:0|0:0,0:0:0:0:
474,154,45009,5,2,0:0:0:0:
211,276,45384,1,2,0:0:0:0:
474,340,45759,2,0,L|301:311,1,150,2|2,0:0|0:0,0:0:0:0:
71,332,46509,6,0,L|58:217,1,82.5000025177003,0|0,0:0|0:0,0:0:0:0:
198,248,46884,1,2,0:0:0:0:
241,235,46977,1,0,0:0:0:0:
284,221,47071,1,2,0:0:0:0:
402,243,47259,2,0,L|409:147,1,82.5000025177003,0|0,1:0|0:0,0:0:0:0:
213,122,47634,2,0,L|206:26,1,82.5000025177003,0|0,1:0|0:0,0:0:0:0:
480,350,48009,6,0,L|491:243,1,82.5000025177003,4|0,0:0|0:0,0:0:0:0:
395,227,48384,2,0,L|307:202,1,82.5000025177003,2|2,0:0|0:0,0:0:0:0:
425,117,48759,2,0,L|508:103,2,82.5000025177003,0|2|0,1:0|0:0|0:0,0:0:0:0:
325,66,49321,1,2,0:0:0:0:
140,303,49509,6,0,L|47:285,1,82.5000025177003,4|0,0:0|0:0,0:0:0:0:
191,216,49884,2,0,L|283:199,1,82.5000025177003,2|0,0:0|0:0,0:0:0:0:
130,164,50259,2,0,P|82:108|144:57,1,165.000005035401,0|0,1:0|0:0,0:0:0:0:
484,314,51009,6,0,P|482:254|403:172,1,165.000005035401,6|0,0:0|0:0,0:0:0:0:
319,177,51571,1,2,0:0:0:0:
64,310,51759,2,0,P|66:250|145:168,1,165.000005035401,0|2,1:0|0:0,0:0:0:0:
235,175,52321,1,0,0:0:0:0:
400,175,52509,2,0,L|394:87,1,82.5000025177003,2|0,0:0|0:0,0:0:0:0:
224,174,52884,2,0,L|234:88,1,82.5000025177003,0|0,1:0|0:0,0:0:0:0:
355,96,53259,1,0,1:0:0:0:
485,101,53634,1,2,1:0:0:0:
296,305,54009,6,0,L|131:293,2,165.000005035401,4|2|0,0:0|0:0|1:0,0:0:0:0:
162,159,54946,1,0,0:0:0:0:
279,167,55134,2,0,L|385:147,1,82.5000025177003,2|0,0:0|0:0,0:0:0:0:
500,180,55509,5,2,0:0:0:0:
305,271,55884,1,2,2:0:0:0:
41,82,56259,1,0,1:0:0:0:
205,161,56634,1,2,0:0:0:0:
443,324,57009,6,0,L|459:218,1,82.5000025177003,4|0,1:2|0:0,0:0:0:0:
331,172,57384,2,0,L|281:159,2,41.2500012588501,2|0|0,2:0|0:0|0:0,0:0:0:0:
467,52,57759,2,0,L|373:60,1,82.5000025177003,2|0,1:0|0:0,0:0:0:0:
126,316,58134,2,0,L|116:217,1,82.5000025177003,2|0,1:0|0:0,0:0:0:0:
291,340,58509,6,0,L|385:332,1,82.5000025177003,4|0,0:0|0:0,0:0:0:0:
253,261,58884,1,4,0:0:0:0:
213,231,58977,1,0,0:0:0:0:
205,186,59071,1,2,0:0:0:0:
236,139,59165,1,0,0:0:0:0:
308,126,59259,2,0,P|384:86|279:39,1,247.500007553101,4|0,0:0|0:0,0:0:0:0:
31,334,60009,6,0,P|36:273|147:213,1,179.999994506836,4|0,0:0|0:0,0:0:0:0:
239,212,60571,1,2,0:0:0:0:
396,133,60759,2,0,L|212:127,1,179.999994506836,2|2,1:0|0:0,0:0:0:0:
338,131,61321,1,0,0:0:0:0:
81,267,61509,6,0,P|37:181|177:116,1,269.999991760254,4|2,0:0|0:0,0:0:0:0:
342,80,62259,2,0,L|155:84,1,179.999994506836,2|0,1:0|0:0,0:0:0:0:
287,178,62821,1,2,0:0:0:0:
155,257,63009,5,0,1:0:0:0:
457,342,63384,2,0,L|477:248,1,89.9999972534181,2|0,0:0|0:0,0:0:0:0:
295,194,63759,1,4,0:0:0:0:
92,351,64134,2,0,L|72:257,1,89.9999972534181,4|0,0:0|0:0,0:0:0:0:
250,236,64509,2,0,L|430:196,1,179.999994506836,4|2,0:0|0:0,0:0:0:0:
329,140,65071,2,0,L|231:120,1,89.9999972534181,2|0,0:0|1:0,0:0:0:0:
62,223,65634,1,2,0:0:0:0:
395,332,66009,6,0,L|409:222,1,89.9999972534181,2|0,1:0|0:0,0:0:0:0:
257,192,66384,2,0,L|158:165,1,89.9999972534181,0|2,0:0|0:0,0:0:0:0:
63,251,66759,2,0,L|42:142,1,89.9999972534181,4|0,2:0|0:0,0:0:0:0:
216,321,67134,2,0,L|319:302,1,89.9999972534181,0|2,0:0|0:0,0:0:0:0:
108,322,67509,6,0,L|94:212,1,89.9999972534181,2|0,1:0|0:0,0:0:0:0:
208,207,67884,2,0,L|307:180,1,89.9999972534181,0|2,0:0|0:0,0:0:0:0:
459,248,68259,1,4,0:0:0:0:
493,155,68446,1,0,0:0:0:0:
442,69,68634,1,2,0:0:0:0:
344,52,68821,1,2,0:0:0:0:
80,64,69009,5,0,1:0:0:0:
308,301,69384,1,2,0:0:0:0:
313,202,69571,1,0,0:0:0:0:
319,102,69759,1,2,1:0:0:0:
101,254,70134,1,2,0:0:0:0:
96,155,70321,1,0,0:0:0:0:
90,55,70509,1,0,1:0:0:0:
306,266,70884,1,2,0:0:0:0:
301,167,71071,1,0,0:0:0:0:
156,234,71259,6,0,L|63:221,1,89.9999972534181,4|2,0:0|0:0,0:0:0:0:
202,139,71634,2,0,L|305:126,1,89.9999972534181,0|2,0:0|0:0,0:0:0:0:
433,294,72009,6,0,P|483:230|369:130,1,247.500007553101,2|2,0:0|0:0,0:0:0:0:
262,337,72759,2,0,P|233:278|302:222,1,165.000005035401,2|2,0:0|0:0,0:0:0:0:
409,232,73321,1,2,0:0:0:0:
311,132,73509,2,0,L|126:109,1,165.000005035401,2|0,0:0|0:0,0:0:0:0:
243,44,74071,1,2,0:0:0:0:
351,128,74259,1,2,0:0:0:0:
91,314,74634,2,0,L|68:196,1,82.5000025177003,0|2,0:0|0:0,0:0:0:0:
372,297,75009,6,0,P|425:265|475:162,1,179.999994506836,2|2,1:0|0:0,0:0:0:0:
310,105,75571,1,0,0:0:0:0:
140,297,75759,2,0,P|87:265|37:162,1,179.999994506836,4|2,1:2|0:0,0:0:0:0:
160,104,76321,1,0,1:0:0:0:
423,251,76509,2,0,L|513:264,1,89.9999972534181,4|0,0:0|3:0,0:0:0:0:
376,151,76884,2,0,L|287:159,1,89.9999972534181,2|8,3:0|3:0,0:0:0:0:
437,53,77259,1,4,0:0:0:0:
109,233,77634,1,2,1:0:0:0:
303,350,78009,6,0,L|322:234,1,97.4999955368044,4|0,0:0|0:0,0:0:0:0:
160,230,78384,2,0,L|137:102,1,97.4999955368044,2|0,0:0|0:0,0:0:0:0:
391,129,78759,2,0,L|528:121,1,97.4999955368044,4|0,0:0|0:0,0:0:0:0:
355,290,79134,2,0,L|225:302,1,97.4999955368044,0|2,0:0|0:0,0:0:0:0:
100,228,79509,6,0,L|226:217,1,97.4999955368044,0|0,1:0|0:0,0:0:0:0:
339,167,79884,1,0,3:0:0:0:
212,82,80071,1,0,3:0:0:0:
338,31,80259,1,0,1:0:0:0:
73,344,80446,2,0,P|37:263|143:208,1,194.999991073609,4|2,1:2|0:0,0:0:0:0:
388,316,81009,6,0,L|505:300,1,97.4999955368044,4|2,0:0|0:0,0:0:0:0:
380,217,81384,1,2,2:0:0:0:
321,199,81477,1,0,0:0:0:0:
261,180,81571,1,2,0:0:0:0:
451,349,81759,2,0,L|491:229,1,97.4999955368044,4|2,1:2|0:0,0:0:0:0:
393,158,82134,1,0,1:0:0:0:
145,213,82321,5,4,0:0:0:0:
15,274,82509,2,0,L|35:158,1,97.4999955368044,2|2,0:0|0:0,0:0:0:0:
149,51,82884,2,0,L|161:105,2,48.7499977684022,2|0|0,1:0|0:0|1:0,0:0:0:0:
330,124,83259,2,0,L|448:115,1,97.4999955368044,0|0,1:0|1:0,0:0:0:0:
121,245,83634,2,0,L|6:226,1,97.4999955368044,0|0,1:0|0:0,0:0:0:0:
272,348,84009,6,0,L|394:334,1,97.4999955368044,4|2,0:0|0:0,0:0:0:0:
498,263,84384,2,0,L|508:196,2,48.7499977684022,2|0|2,1:0|0:0|0:0,0:0:0:0:
369,135,84759,2,0,L|494:117,1,97.4999955368044,4|0,1:2|0:0,0:0:0:0:
336,51,85134,2,0,L|214:32,1,97.4999955368044,2|2,0:0|0:0,0:0:0:0:
93,122,85509,6,0,L|86:253,1,97.4999955368044,4|2,0:0|0:0,0:0:0:0:
218,320,85884,1,2,1:0:0:0:
278,311,85977,1,2,0:0:0:0:
339,302,86071,1,2,0:0:0:0:
227,220,86259,1,0,1:0:0:0:
84,241,86446,1,2,0:0:0:0:
40,214,86540,1,0,0:0:0:0:
14,169,86634,1,0,0:0:0:0:
23,118,86727,1,0,0:0:0:0:
62,94,86821,1,2,0:0:0:0:
326,322,87009,6,0,L|456:310,1,97.4999955368044,4|2,1:2|0:0,0:0:0:0:
300,210,87384,2,0,L|257:162,2,48.7499977684022,2|0|2,0:0|0:0|0:0,0:0:0:0:
426,59,87759,2,0,P|372:41|310:70,1,97.4999955368044,0|0,1:0|0:0,0:0:0:0:
175,193,88134,2,0,P|121:175|59:204,1,97.4999955368044,2|0,0:0|2:0,0:0:0:0:
371,308,88509,1,2,1:0:0:0:
495,305,88696,6,0,L|515:170,1,97.4999955368044,2|4,0:0|0:0,0:0:0:0:
375,151,89071,1,0,1:0:0:0:
211,172,89259,2,0,L|107:128,1,97.4999955368044,0|0,1:0|1:0,0:0:0:0:
400,61,89634,1,2,1:0:0:0:
178,358,90009,6,0,P|255:334|408:355,1,194.999991073609,4|2,0:0|0:0,0:0:0:0:
247,247,90571,1,0,0:0:0:0:
377,226,90759,2,0,L|397:108,1,97.4999955368044,4|0,0:0|0:0,0:0:0:0:
235,360,91134,2,0,L|216:228,1,97.4999955368044,2|0,0:0|0:0,0:0:0:0:
368,327,91509,6,0,L|501:327,1,97.4999955368044,0|0,3:0|3:0,0:0:0:0:
356,222,91884,2,0,L|223:222,1,97.4999955368044,0|0,3:0|3:0,0:0:0:0:
388,112,92259,1,0,1:0:0:0:
141,322,92446,2,0,P|123:255|244:188,1,194.999991073609,4|4,0:0|1:2,0:0:0:0:
374,174,93009,6,0,L|396:32,1,97.4999955368044,4|2,1:2|0:0,0:0:0:0:
95,296,93384,1,2,0:0:0:0:
82,201,93571,1,2,0:0:0:0:
211,217,93759,1,2,1:0:0:0:
224,122,93946,1,2,0:0:0:0:
365,151,94134,1,2,0:0:0:0:
352,56,94321,1,0,1:0:0:0:
160,336,94509,6,0,L|48:346,1,97.4999955368044,4|2,0:0|1:1,0:0:0:0:
198,194,94884,2,0,L|309:209,1,97.4999955368044,4|2,1:2|1:0,0:0:0:0:
452,322,95259,2,0,L|334:312,1,97.4999955368044,4|2,0:0|1:1,0:0:0:0:
211,217,95634,1,4,1:2:0:0:
339,130,95821,1,2,1:0:0:0:
46,338,96009,6,0,P|31:283|158:206,1,194.999991073609,0|0,1:0|0:0,0:0:0:0:
281,117,96571,2,0,L|152:92,1,97.4999955368044,4|2,0:0|0:0,0:0:0:0:
265,6,96946,1,2,0:0:0:0:
104,121,97134,2,0,L|80:11,1,97.4999955368044,4|2,0:0|1:0,0:0:0:0:
390,328,97509,6,0,L|511:320,2,97.4999955368044,0|4|4,1:0|1:2|0:0,0:0:0:0:
487,198,98071,2,0,L|254:171,1,194.999991073609,4|2,0:0|0:0,0:0:0:0:
396,128,98634,2,0,L|421:15,1,97.4999955368044,4|0,1:2|0:0,0:0:0:0:
113,333,99009,6,0,L|91:217,1,97.4999955368044,0|4,1:0|1:2,0:0:0:0:
205,167,99384,1,2,0:0:0:0:
336,105,99571,2,0,L|104:78,1,194.999991073609,0|2,1:2|0:0,0:0:0:0:
260,31,100134,2,0,L|378:7,1,97.4999955368044,4|0,1:2|0:0,0:0:0:0:
88,322,100509,5,4,1:2:0:0:
40,214,100696,1,0,1:0:0:0:
190,155,100884,1,2,0:0:0:0:
458,236,101071,1,0,1:0:0:0:
492,119,101259,1,4,1:2:0:0:
367,69,101446,1,8,1:3:0:0:
64,224,101634,2,0,L|36:112,1,97.4999955368044,4|2,1:2|2:0,0:0:0:0:
402,338,102009,5,2,0:0:0:0:
431,252,102196,1,0,0:0:0:0:
394,168,102384,1,2,0:0:0:0:
308,137,102571,1,0,0:0:0:0:
421,78,102759,5,2,0:0:0:0:
312,159,102946,1,0,0:0:0:0:
406,196,103134,5,2,0:0:0:0:
337,272,103321,1,2,0:0:0:0:
388,345,103509,5,2,0:0:0:0:
108,324,112509,6,0,P|80:260|140:177,1,165.000005035401,2|0,0:0|0:0,0:0:0:0:
325,272,113259,1,2,0:0:0:0:
366,200,113446,1,0,0:0:0:0:
357,117,113634,1,2,0:0:0:0:
303,54,113821,1,2,0:0:0:0:
197,37,114009,2,0,P|156:88|213:157,1,165.000005035401,2|0,0:0|0:0,0:0:0:0:
347,248,114759,2,0,L|445:275,2,82.5000025177003,2|0|0,0:0|0:0|0:0,0:0:0:0:
48,296,115509,6,0,P|29:235|162:135,1,247.500007553101,2|2,0:0|0:0,0:0:0:0:
281,259,116259,2,0,L|460:248,1,165.000005035401,2|0,0:0|0:0,0:0:0:0:
346,168,116821,1,2,0:0:0:0:
206,335,117009,2,0,P|173:266|304:208,1,247.500007553101,2|2,0:0|0:0,0:0:0:0:
166,114,117759,1,2,0:0:0:0:
491,233,118134,1,2,0:0:0:0:
277,348,118509,6,0,L|253:253,1,82.5000025177003,2|0,0:0|0:0,0:0:0:0:
368,262,118884,2,0,L|389:164,1,82.5000025177003,2|0,0:0|0:0,0:0:0:0:
271,116,119259,2,0,L|167:99,1,82.5000025177003,2|2,0:0|0:0,0:0:0:0:
70,196,119634,2,0,L|164:184,1,82.5000025177003,0|2,0:0|0:0,0:0:0:0:
311,250,120009,5,2,0:0:0:0:
443,187,120384,1,2,0:0:0:0:
219,307,120759,1,2,0:0:0:0:
72,241,121134,1,2,0:0:0:0:
248,270,121509,6,0,L|356:264,1,82.5000025177003,2|0,0:0|0:0,0:0:0:0:
435,164,121884,2,0,L|340:156,1,82.5000025177003,2|2,0:0|0:0,0:0:0:0:
212,97,122259,1,2,0:0:0:0:
419,252,122634,1,2,0:0:0:0:
221,351,123009,2,0,P|208:298|313:235,1,179.999994506836,2|2,0:0|0:0,0:0:0:0:
423,188,123571,1,0,0:0:0:0:
306,100,123759,6,0,L|109:98,1,179.999994506836,2|0,0:0|0:0,0:0:0:0:
241,100,124321,1,0,0:0:0:0:
52,308,124509,6,0,P|29:227|110:163,1,179.999994506836,2|2,1:0|0:0,0:0:0:0:
193,161,125071,1,2,0:0:0:0:
452,325,125259,2,0,P|475:244|394:180,1,179.999994506836,4|0,2:0|0:0,0:0:0:0:
313,178,125821,1,2,0:0:0:0:
188,268,126009,6,0,L|9:275,1,179.999994506836,2|2,1:0|0:0,0:0:0:0:
95,183,126571,1,2,0:0:0:0:
244,140,126759,2,0,L|356:133,1,89.9999972534181,4|2,2:0|0:0,0:0:0:0:
459,226,127134,2,0,L|361:221,1,89.9999972534181,2|0,0:0|0:0,0:0:0:0:
110,214,127509,5,2,1:0:0:0:
256,322,127884,2,0,L|370:314,2,89.9999972534181,2|0|4,0:0|0:0|2:0,0:0:0:0:
424,103,128634,2,0,L|310:95,2,89.9999972534181,4|2|4,0:0|0:0|2:0,0:0:0:0:
208,237,129384,2,0,L|312:222,1,89.9999972534181,0|2,0:0|0:0,0:0:0:0:
435,274,129759,2,0,P|471:201|380:181,1,179.999994506836,2|2,1:0|2:0,0:0:0:0:
107,329,130509,6,0,L|92:241,1,89.9999972534181,2|0,1:0|0:0,0:0:0:0:
232,231,130884,2,0,L|330:216,1,89.9999972534181,2|0,0:0|0:0,0:0:0:0:
467,324,131259,2,0,L|482:225,1,89.9999972534181,4|0,2:0|0:0,0:0:0:0:
341,157,131634,2,0,L|244:142,1,89.9999972534181,2|2,0:0|0:0,0:0:0:0:
336,333,132009,6,0,P|363:276|272:227,1,179.999994506836,2|2,1:0|0:0,0:0:0:0:
179,159,132571,1,0,0:0:0:0:
301,108,132759,2,0,L|400:105,1,89.9999972534181,4|0,0:0|0:0,0:0:0:0:
267,300,133134,2,0,L|168:307,1,89.9999972534181,2|2,0:0|0:0,0:0:0:0:
470,338,133509,6,0,P|473:260|382:216,1,179.999994506836,2|2,1:0|0:0,0:0:0:0:
271,181,134071,1,0,0:0:0:0:
170,331,134259,2,0,L|382:324,1,179.999994506836,4|2,2:0|0:0,0:0:0:0:
457,232,134821,1,0,0:0:0:0:
349,253,135009,6,0,L|233:235,1,89.9999972534181,2|0,2:0|0:0,0:0:0:0:
169,142,135384,2,0,L|281:124,1,89.9999972534181,0|2,0:0|0:0,0:0:0:0:
361,328,135759,2,0,L|391:215,1,89.9999972534181,2|0,0:0|0:0,0:0:0:0:
252,219,136134,2,0,L|222:106,1,89.9999972534181,2|0,0:0|0:0,0:0:0:0:
365,81,136509,5,2,0:0:0:0:
191,286,137071,1,0,0:0:0:0:
301,355,137259,2,0,P|327:297|241:224,1,165.000005035401,2|0,0:0|0:0,0:0:0:0:
152,232,137821,1,0,0:0:0:0:
53,150,138009,2,0,L|248:140,1,165.000005035401,2|0,0:0|0:0,0:0:0:0:
330,49,138571,2,0,L|225:37,1,82.5000025177003,0|2,0:0|0:0,0:0:0:0:
311,285,139321,5,2,0:0:0:0:
453,354,139509,2,0,P|462:296|442:208,1,150,2|2,0:0|0:0,0:0:0:0:
331,163,140071,1,2,0:0:0:0:
208,347,140259,5,2,0:0:0:0:
152,291,140446,1,0,0:0:0:0:
139,216,140634,1,2,0:0:0:0:
169,146,140821,1,2,0:0:0:0:
256,132,141009,5,0,0:0:0:0:
325,158,141196,1,0,0:0:0:0:
356,226,141384,1,0,0:0:0:0:
325,294,141571,1,2,0:0:0:0:
200,346,141759,1,2,0:0:0:0:
256,192,141946,12,2,145509,0:0:0:0:
