osu file format v14

[General]
AudioFilename: audio.mp3
AudioLeadIn: 0
PreviewTime: 77259
Countdown: 0
SampleSet: Soft
StackLeniency: 0.7
Mode: 2
LetterboxInBreaks: 0
EpilepsyWarning: 1
WidescreenStoryboard: 1

[Editor]
DistanceSpacing: 2.1
BeatDivisor: 8
GridSize: 16
TimelineZoom: 1.7

[Metadata]
Title:Marigold (feat. Guriri)
TitleUnicode:Marigold (feat. 구리리)
Artist:M2U
ArtistUnicode:M2U
Creator:Spectator
Version:Overdose
Source:Deemo
Tags:Ascendance Sinnoh グリリ NICODE Rayark SQUAR SQUARE MUSIQ Narae Hans Diversity.
BeatmapID:1279723
BeatmapSetID:605710

[Difficulty]
HPDrainRate:6
CircleSize:4
OverallDifficulty:9.2
ApproachRate:9.2
SliderMultiplier:1.6
SliderTickRate:2

[Events]
//Background and Video events
0,0,"marigold_.png",0,0
//Break Periods
2,103709,111939
//Storyboard Layer 0 (Background)
//Storyboard Layer 1 (Fail)
//Storyboard Layer 2 (Pass)
//Storyboard Layer 3 (Foreground)
//Storyboard Sound Samples

[TimingPoints]
1509,375,4,2,0,50,1,0
13509,-100,4,2,0,40,0,0
14259,-100,4,2,0,37,0,0
15759,500,4,2,0,35,1,0
16009,545.454545454546,4,2,0,35,1,0
16281,750,4,2,0,35,1,0
16656,714.285714285714,4,2,0,35,1,0
17013,600,4,2,0,30,1,0
17163,-100,4,2,0,50,0,0
18009,375,4,2,0,70,1,0
19509,-83.3333333333333,4,2,0,70,0,1
19602,-83.3333333333333,4,2,0,60,0,0
33009,-83.3333333333333,4,2,0,50,0,0
33946,-90.9090909090909,4,2,0,50,0,0
34509,-90.9090909090909,4,2,0,45,0,0
36009,-90.9090909090909,4,2,0,25,0,0
37509,-100,4,2,0,35,0,0
45009,-100,4,2,0,39,0,0
46509,-90.9090909090909,4,2,0,46,0,0
48009,-90.9090909090909,4,2,0,49,0,0
58884,-90.9090909090909,4,2,0,51,0,0
60009,-83.3333333333333,4,2,0,60,0,1
60102,-83.3333333333333,4,2,0,60,0,0
72009,-90.9090909090909,4,2,0,50,0,0
75009,-83.3333333333333,4,2,0,65,0,1
75102,-83.3333333333333,4,2,0,65,0,0
77259,-83.3333333333333,4,2,0,70,0,0
77634,-66.6666666666667,4,2,0,70,0,0
78009,-66.6666666666667,4,2,0,80,0,1
89915,-66.6666666666667,4,2,0,80,0,0
90009,-66.6666666666667,4,2,0,80,0,1
102009,-90.9090909090909,4,2,0,80,0,0
102384,-90.9090909090909,4,2,0,70,0,0
102759,-90.9090909090909,4,2,0,60,0,0
103134,-90.9090909090909,4,2,0,47,0,0
112509,-90.9090909090909,4,2,0,55,0,0
117009,-83.3333333333333,4,2,0,55,0,0
123009,-83.3333333333333,4,2,0,58,0,0
123759,-83.3333333333333,4,2,0,55,0,0
124509,-83.3333333333333,4,2,0,65,0,1
124602,-83.3333333333333,4,2,0,65,0,0
130884,-83.3333333333333,4,2,0,60,0,0
135665,-83.3333333333333,4,2,0,56,0,0
136040,-83.3333333333333,4,2,0,52,0,0
136509,-90.9090909090909,4,2,0,45,0,0
139321,-100,4,2,0,39,0,0
141009,-100,4,2,0,36,0,0
141759,-100,4,2,0,34,0,0
141852,-100,4,2,0,20,0,0

[Colours]
Combo1 : 106,186,244
Combo2 : 249,132,167
Combo3 : 251,219,108
Combo4 : 226,238,123

[HitObjects]
141,293,1509,6,0,P|127:243|211:201,1,160,2|0,0:0|0:0,0:0:0:0:
351,120,2259,2,0,L|190:110,1,160,2|0,0:0|0:0,0:0:0:0:
371,293,3009,2,0,P|385:243|301:201,1,160,2|0,0:0|0:0,0:0:0:0:
124,115,3759,1,2,0:0:0:0:
322,75,4134,1,2,0:0:0:0:
104,296,4509,5,2,0:0:0:0:
49,238,4696,1,0,0:0:0:0:
43,159,4884,1,0,0:0:0:0:
80,95,5071,1,0,0:0:0:0:
159,82,5259,2,0,L|336:88,1,160,2|2,0:0|0:0,0:0:0:0:
468,215,6009,5,2,0:0:0:0:
317,341,6384,2,0,L|395:310,2,80,2|0|2,0:0|0:0|0:0,0:0:0:0:
195,341,7134,2,0,L|117:310,1,80,2|0,0:0|0:0,0:0:0:0:
225,232,7509,6,0,L|133:202,1,80,0|2,0:0|0:0,0:0:0:0:
26,136,7884,2,0,P|89:107|202:126,2,160,2|2|2,0:0|0:0|0:0,0:0:0:0:
234,327,9009,5,2,0:0:0:0:
291,271,9196,1,0,0:0:0:0:
301,191,9384,1,2,0:0:0:0:
267,118,9571,1,2,0:0:0:0:
192,88,9759,1,2,0:0:0:0:
401,187,10134,1,2,0:0:0:0:
87,338,10509,6,0,P|85:270|185:214,1,160,2|0,0:0|0:0,0:0:0:0:
264,242,11071,1,2,0:0:0:0:
429,263,11259,2,0,P|431:195|331:139,1,160,2|0,0:0|0:0,0:0:0:0:
256,141,11821,1,2,0:0:0:0:
111,283,12009,2,0,P|93:224|156:160,1,160,2|0,0:0|0:0,0:0:0:0:
284,111,12571,1,2,0:0:0:0:
185,35,12759,1,2,0:0:0:0:
295,259,12946,2,2,L|190:245,2,80
135,347,13509,5,2,0:0:0:0:
88,281,13696,1,0,0:0:0:0:
106,203,13884,1,0,0:0:0:0:
168,153,14071,1,2,0:0:0:0:
97,230,14259,1,2,0:0:0:0:
144,164,14446,1,0,0:0:0:0:
126,86,14634,1,0,0:0:0:0:
64,36,14821,1,2,0:0:0:0:
184,184,15009,2,0,L|267:182,1,80,2|0,0:0|0:0,0:0:0:0:
356,94,15384,2,0,L|276:89,1,80
399,191,15759,5,2,0:0:0:0:
273,257,16009,1,0,0:0:0:0:
412,312,16281,1,2,0:0:0:0:
256,168,16656,1,0,0:0:0:0:
449,154,17013,2,0,L|455:135,3,13.3333333333333,0|0|0|2,0:0|0:0|0:0|0:0,0:0:0:0:
422,307,19509,6,0,L|445:183,1,95.9999970703126,4|0,0:0|0:0,0:0:0:0:
254,243,19884,1,2,0:0:0:0:
225,198,19977,1,0,0:0:0:0:
243,148,20071,1,0,0:0:0:0:
292,129,20165,1,0,0:0:0:0:
448,48,20259,2,0,L|459:77,4,31.9999990234375,2|0|0|0|0,0:0|0:0|0:0|0:0|0:0,0:0:0:0:
264,314,20634,2,0,L|121:321,1,143.999995605469,0|0,1:0|0:0,0:0:0:0:
281,221,21009,6,0,L|415:226,1,95.9999970703126,4|2,0:0|0:0,0:0:0:0:
448,149,21290,1,2,0:0:0:0:
382,57,21384,2,0,L|268:52,1,95.9999970703126,2|0,0:0|0:0,0:0:0:0:
124,309,21759,2,0,P|107:243|188:213,1,143.999995605469,4|0,0:0|0:0,0:0:0:0:
243,235,22134,1,2,0:0:0:0:
96,145,22321,1,0,0:0:0:0:
348,316,22509,6,0,L|191:313,1,143.999995605469,4|0,1:2|0:0,0:0:0:0:
109,231,22884,2,0,L|244:217,1,95.9999970703126,2|0,0:0|0:0,0:0:0:0:
480,170,23259,2,0,L|358:155,1,95.9999970703126,2|0,1:0|0:0,0:0:0:0:
119,105,23634,1,2,1:0:0:0:
365,326,24009,6,0,P|386:271|302:222,1,143.999995605469,0|0,1:0|0:0,0:0:0:0:
251,171,24384,1,2,0:0:0:0:
419,79,24571,1,0,0:0:0:0:
151,339,24759,2,0,L|122:230,1,95.9999970703126,2|0,1:0|0:0,0:0:0:0:
326,249,25134,2,0,L|355:140,1,95.9999970703126,4|0,2:2|0:0,0:0:0:0:
195,111,25509,5,0,1:0:0:0:
343,49,25696,1,2,0:0:0:0:
178,307,25884,2,0,L|169:236,1,47.9999985351563,2|0,0:0|0:0,0:0:0:0:
268,255,26071,2,0,L|257:187,1,47.9999985351563,2|0,0:0|0:0,0:0:0:0:
357,169,26259,2,0,L|392:172,4,31.9999990234375,2|0|0|0|0,0:0|0:0|0:0|0:0|0:0,0:0:0:0:
68,182,26634,2,0,L|51:69,1,95.9999970703126,2|0,0:0|0:0,0:0:0:0:
387,348,27009,6,0,L|404:235,1,95.9999970703126,4|0,0:0|0:0,0:0:0:0:
199,313,27384,1,2,0:0:0:0:
160,277,27477,1,0,0:0:0:0:
145,226,27571,1,0,0:0:0:0:
166,177,27665,1,0,0:0:0:0:
212,151,27759,1,2,0:0:0:0:
254,120,27852,1,0,0:0:0:0:
261,67,27946,1,0,0:0:0:0:
228,24,28040,1,0,0:0:0:0:
176,12,28134,2,0,L|121:18,1,47.9999985351563,2|0,0:0|0:0,0:0:0:0:
303,223,28321,2,0,L|358:229,1,47.9999985351563,2|0,0:0|0:0,0:0:0:0:
135,355,28509,6,0,P|121:301|186:232,1,143.999995605469,0|2,1:0|0:0,0:0:0:0:
252,232,28884,1,2,2:0:0:0:
114,120,29071,1,0,0:0:0:0:
418,309,29259,2,0,L|433:198,1,95.9999970703126,4|0,0:0|0:0,0:0:0:0:
242,192,29634,2,0,P|229:127|301:78,1,143.999995605469,2|0,0:0|0:0,0:0:0:0:
476,126,30009,6,0,L|361:117,1,95.9999970703126,4|0,0:0|0:0,0:0:0:0:
249,206,30384,1,2,0:0:0:0:
375,272,30571,1,2,0:0:0:0:
240,208,30759,2,0,L|355:199,1,95.9999970703126,2|0,0:0|0:0,0:0:0:0:
467,288,31134,1,2,0:0:0:0:
332,354,31321,1,2,0:0:0:0:
462,119,31509,6,0,L|347:110,1,95.9999970703126,2|0,0:0|0:0,0:0:0:0:
253,191,31884,1,2,0:0:0:0:
370,265,32071,1,2,0:0:0:0:
193,333,32259,2,0,L|187:229,1,95.9999970703126,2|0,0:0|0:0,0:0:0:0:
253,191,32540,1,0,0:0:0:0:
427,260,32634,1,2,0:0:0:0:
465,224,32727,1,0,0:0:0:0:
453,172,32821,1,0,0:0:0:0:
407,145,32915,1,0,0:0:0:0:
150,122,33009,5,4,0:0:0:0:
263,254,33384,2,0,L|378:237,1,95.9999970703126,2|0,0:0|0:0,0:0:0:0:
201,157,33759,1,0,0:0:0:0:
61,100,33946,2,0,L|4:95,2,44.0000013427735,2|0|0,0:0|0:0|0:0,0:0:0:0:
184,35,34321,1,0,0:0:0:0:
448,336,34509,6,0,L|464:232,1,88.000002685547,0|2,0:0|0:0,0:0:0:0:
331,247,34884,2,0,L|334:148,1,88.000002685547,2|0,0:0|0:0,0:0:0:0:
207,239,35259,2,0,L|195:135,1,88.000002685547,2|0,0:0|0:0,0:0:0:0:
72,301,35634,2,0,L|43:185,1,88.000002685547,2|0,0:0|0:0,0:0:0:0:
256,192,36009,12,2,37134,0:0:0:0:
259,268,37509,5,2,0:0:0:0:
406,174,37884,1,0,0:0:0:0:
233,311,38259,1,2,0:0:0:0:
350,337,38446,2,0,L|436:326,2,80,0|2|0,0:0|0:0|0:0,0:0:0:0:
184,288,39009,5,2,0:0:0:0:
408,185,39384,1,0,0:0:0:0:
192,151,39759,2,0,L|14:125,1,160,2|0,0:0|0:0,0:0:0:0:
344,338,40509,6,0,P|397:281|344:212,1,160,2|0,0:0|0:0,0:0:0:0:
252,220,41071,1,0,0:0:0:0:
126,276,41259,2,0,P|73:219|126:150,1,160,2|0,0:0|0:0,0:0:0:0:
286,116,42009,6,0,L|385:105,3,80,2|0|2|0,0:0|0:0|0:0|0:0,0:0:0:0:
496,106,42759,1,2,0:0:0:0:
437,170,42946,1,0,0:0:0:0:
430,257,43134,1,2,0:0:0:0:
478,330,43321,1,0,0:0:0:0:
334,295,43509,6,0,L|324:192,1,80,2|0,0:0|0:0,0:0:0:0:
466,199,43884,2,0,L|472:160,4,26.6666666666667,2|0|0|0|0,0:0|0:0|0:0|0:0|0:0,0:0:0:0:
372,107,44259,2,0,L|277:93,1,80,2|0,0:0|0:0,0:0:0:0:
142,193,44634,2,0,L|232:181,1,80,2|0,0:0|0:0,0:0:0:0:
392,95,45009,1,2,0:0:0:0:
88,94,45384,5,2,0:0:0:0:
298,301,45759,2,0,L|313:206,1,80,2|0,0:0|0:0,0:0:0:0:
188,152,46134,1,2,0:0:0:0:
417,239,46509,6,0,P|436:187|349:138,1,132.00000402832
305,117,46884,1,2,0:0:0:0:
52,243,47071,2,0,L|47:176,1,44.0000013427735,2|2,0:0|0:0,0:0:0:0:
271,261,47259,2,0,L|382:256,1,88.000002685547,0|0,1:0|0:0,0:0:0:0:
207,159,47634,2,0,L|96:154,1,88.000002685547,0|0,1:0|0:0,0:0:0:0:
421,350,48009,5,4,0:0:0:0:
469,276,48196,1,0,0:0:0:0:
450,189,48384,1,2,0:0:0:0:
376,140,48571,1,2,0:0:0:0:
225,291,48759,1,0,1:0:0:0:
177,217,48946,1,2,0:0:0:0:
196,130,49134,1,0,0:0:0:0:
270,81,49321,1,2,0:0:0:0:
176,349,49509,5,4,0:0:0:0:
238,286,49696,1,0,0:0:0:0:
224,198,49884,1,2,0:0:0:0:
156,141,50071,1,0,0:0:0:0:
278,262,50259,2,0,L|289:158,1,88.000002685547,0|0,1:0|0:0,0:0:0:0:
148,155,50634,2,0,L|137:51,1,88.000002685547,2|0,2:0|0:0,0:0:0:0:
474,314,51009,6,0,L|299:285,1,176.000005371094,6|0,0:0|0:0,0:0:0:0:
396,209,51571,1,2,0:0:0:0:
31,314,51759,2,0,L|206:285,1,176.000005371094,0|2,1:0|0:0,0:0:0:0:
104,210,52321,1,0,0:0:0:0:
352,272,52509,6,0,L|382:147,1,88.000002685547,2|0,0:0|0:0,0:0:0:0:
211,162,52884,2,0,L|187:56,1,88.000002685547,0|0,1:0|0:0,0:0:0:0:
258,36,53165,1,0,0:0:0:0:
461,306,53259,2,0,P|461:241|371:206,1,132.00000402832,0|0,1:0|0:0,0:0:0:0:
326,198,53634,1,2,1:0:0:0:
60,304,54009,6,0,L|147:298,1,88.000002685547,4|0,0:0|0:0,0:0:0:0:
267,201,54384,1,2,0:0:0:0:
134,138,54571,1,0,0:0:0:0:
288,312,54759,2,0,L|200:306,1,88.000002685547,0|0,1:0|0:0,0:0:0:0:
81,209,55134,1,2,0:0:0:0:
214,146,55321,1,0,0:0:0:0:
76,331,55509,6,0,P|64:266|138:222,1,132.00000402832,2|0,0:0|0:0,0:0:0:0:
201,234,55884,2,0,L|366:233,1,132.00000402832,2|0,2:0|0:0,0:0:0:0:
251,159,56259,2,0,L|221:55,1,88.000002685547,0|0,1:0|0:0,0:0:0:0:
425,323,56634,2,0,L|455:219,1,88.000002685547,2|0,0:0|0:0,0:0:0:0:
151,314,57009,5,4,1:2:0:0:
348,172,57384,1,2,2:0:0:0:
124,293,57759,2,0,L|108:206,1,88.000002685547,2|0,1:0|0:0,0:0:0:0:
367,168,58134,2,0,L|382:81,1,88.000002685547,2|0,1:0|0:0,0:0:0:0:
231,288,58509,6,0,L|344:271,1,88.000002685547,4|0,0:0|0:0,0:0:0:0:
471,278,58884,1,4,0:0:0:0:
499,234,58977,1,0,0:0:0:0:
490,187,59071,1,2,0:0:0:0:
441,153,59165,1,0,0:0:0:0:
378,137,59259,2,0,P|356:79|451:42,1,176.000005371094,4|2,0:0|0:0,0:0:0:0:
135,301,60009,6,0,L|335:292,1,191.999994140625,4|0,0:0|0:0,0:0:0:0:
189,195,60571,1,2,0:0:0:0:
496,157,60759,2,0,L|296:148,1,191.999994140625,2|2,1:0|0:0,0:0:0:0:
420,53,61321,1,0,0:0:0:0:
158,311,61509,6,0,P|142:254|258:196,1,191.999994140625,4|0,0:0|0:0,0:0:0:0:
379,179,62071,1,2,0:0:0:0:
52,294,62259,2,0,L|39:193,1,95.9999970703126,2|0,1:0|0:0,0:0:0:0:
304,164,62634,2,0,L|317:59,1,95.9999970703126,0|2,0:0|0:0,0:0:0:0:
178,112,63009,5,0,1:0:0:0:
351,212,63384,2,0,L|255:224,1,95.9999970703126,2|0,0:0|0:0,0:0:0:0:
384,102,63759,1,4,0:0:0:0:
132,131,64134,2,0,L|260:116,1,95.9999970703126,4|0,0:0|0:0,0:0:0:0:
416,261,64509,6,0,P|461:202|360:120,1,191.999994140625,4|2,0:0|0:0,0:0:0:0:
224,281,65071,2,0,L|213:216,1,47.9999985351563,2|0,0:0|0:0,0:0:0:0:
294,220,65259,5,0,1:0:0:0:
332,194,65352,1,0,0:0:0:0:
338,146,65446,1,2,0:0:0:0:
311,105,65540,1,0,0:0:0:0:
263,97,65634,1,2,0:0:0:0:
224,125,65727,1,0,0:0:0:0:
211,171,65821,1,2,0:0:0:0:
243,206,65915,1,0,0:0:0:0:
457,337,66009,6,0,P|477:263|383:201,1,191.999994140625,2|0,1:0|0:0,0:0:0:0:
247,214,66571,1,2,0:0:0:0:
55,337,66759,2,0,P|35:263|129:201,1,191.999994140625,4|0,2:0|0:0,0:0:0:0:
265,214,67321,1,2,0:0:0:0:
88,310,67509,6,0,L|293:312,1,191.999994140625,2|0,1:0|0:0,0:0:0:0:
142,211,68071,1,2,0:0:0:0:
476,153,68259,2,0,P|435:128|366:129,1,95.9999970703126,4|0,0:0|0:0,0:0:0:0:
295,228,68634,2,0,P|342:224|382:199,1,95.9999970703126,2|2,0:0|0:0,0:0:0:0:
80,80,69009,5,0,1:0:0:0:
34,212,69384,2,0,L|27:87,1,95.9999970703126,2|0,0:0|0:0,0:0:0:0:
276,191,69759,1,2,1:0:0:0:
229,316,70134,2,0,L|222:191,1,95.9999970703126,2|0,0:0|0:0,0:0:0:0:
475,221,70509,6,0,L|485:22,1,191.999994140625,0|2,1:0|0:0,0:0:0:0:
361,117,71071,1,0,0:0:0:0:
194,261,71259,1,4,0:0:0:0:
143,191,71446,1,2,0:0:0:0:
170,108,71634,1,0,0:0:0:0:
247,69,71821,1,2,0:0:0:0:
126,313,72009,6,0,L|116:225,1,88.000002685547,2|0,0:0|0:0,0:0:0:0:
233,249,72384,2,0,L|242:161,1,88.000002685547,2|2,0:0|0:0,0:0:0:0:
101,199,72759,2,0,L|91:111,1,88.000002685547,2|0,0:0|0:0,0:0:0:0:
208,135,73134,2,0,L|217:47,1,88.000002685547,2|2,0:0|0:0,0:0:0:0:
107,327,73509,6,0,P|83:277|181:216,1,176.000005371094,2|0,0:0|0:0,0:0:0:0:
274,152,74071,1,2,0:0:0:0:
159,88,74259,1,2,0:0:0:0:
396,203,74634,2,0,L|402:101,1,88.000002685547,0|2,0:0|0:0,0:0:0:0:
41,326,75009,6,0,L|155:315,1,95.9999970703126,2|0,1:0|0:0,0:0:0:0:
318,191,75384,2,0,L|193:179,1,95.9999970703126,2|0,0:0|0:0,0:0:0:0:
483,325,75759,2,0,L|369:314,1,95.9999970703126,4|0,1:2|0:0,0:0:0:0:
194,185,76134,2,0,L|319:173,1,95.9999970703126,2|0,0:0|1:0,0:0:0:0:
420,80,76509,5,4,0:0:0:0:
158,335,76696,2,0,L|146:288,1,47.9999985351563,0|0,3:0|3:0,3:0:0:0:
244,278,76884,2,0,L|232:231,1,47.9999985351563,2|0,3:0|3:0,3:0:0:0:
329,226,77071,2,0,L|317:179,1,47.9999985351563,8|0,3:0|3:0,3:0:0:0:
55,187,77259,6,0,L|66:70,1,95.9999970703126,4|0,0:0|0:0,0:0:0:0:
395,185,77634,1,2,1:0:0:0:
133,33,77821,1,0,0:0:0:0:
483,295,78009,6,0,L|326:282,1,120.000004577637,4|0,0:0|0:0,0:0:0:0:
194,191,78384,1,2,0:0:0:0:
373,127,78571,1,0,0:0:0:0:
29,295,78759,2,0,L|186:282,1,120.000004577637,4|0,0:0|0:0,0:0:0:0:
320,195,79134,1,0,0:0:0:0:
139,127,79321,1,2,0:0:0:0:
422,331,79509,6,0,L|453:210,1,120.000004577637,0|0,1:0|0:0,2:0:0:0:
367,165,79790,1,0,0:0:0:0:
80,272,79884,1,0,3:0:0:0:
55,234,79946,1,0,0:0:0:0:
53,189,80009,1,0,0:0:0:0:
203,129,80071,1,0,3:0:0:0:
238,101,80134,1,0,0:0:0:0:
281,91,80196,1,0,0:0:0:0:
463,226,80259,2,0,L|484:103,1,120.000004577637,0|4,1:0|1:2,0:0:0:0:
149,221,80634,1,2,0:0:0:0:
394,142,80821,1,2,0:0:0:0:
26,265,81009,5,4,0:0:0:0:
348,281,81196,1,2,0:0:0:0:
188,215,81384,2,0,L|168:154,1,60.0000022888184,2|0,2:0|0:0,0:0:0:0:
401,85,81571,1,2,0:0:0:0:
134,328,81759,2,0,L|54:316,1,60.0000022888184,4|0,1:2|0:0,0:0:0:0:
245,183,81946,2,0,L|304:192,1,60.0000022888184,2|0,0:0|0:0,0:0:0:0:
467,137,82134,1,0,1:0:0:0:
342,338,82321,2,0,L|346:269,1,60.0000022888184,4|0,0:0|0:0,0:0:0:0:
122,241,82509,6,0,L|39:224,1,60.0000022888184,2|0,0:0|0:0,0:0:0:0:
136,152,82696,2,0,L|52:136,1,60.0000022888184,2|0,0:0|0:0,0:0:0:0:
322,309,82884,2,0,L|338:237,1,60.0000022888184,0|0,1:0|0:0,0:0:0:0:
167,127,83071,2,0,L|152:54,1,60.0000022888184,2|0,1:0|0:0,0:0:0:0:
362,166,83259,2,0,L|509:160,1,120.000004577637,0|0,1:0|1:0,0:0:0:0:
254,285,83540,1,0,1:0:0:0:
158,318,83634,2,0,L|2:297,1,120.000004577637,0|0,1:0|0:0,0:0:0:0:
202,166,84009,5,4,0:0:0:0:
68,184,84196,2,0,L|41:111,1,60.0000022888184,2|0,0:0|0:0,0:0:0:0:
252,340,84384,2,0,L|278:269,1,60.0000022888184,2|0,1:0|0:0,0:0:0:0:
199,239,84571,1,2,0:0:0:0:
75,315,84759,6,0,L|160:314,1,60.0000022888184,4|0,1:2|0:0,0:0:0:0:
301,214,84946,2,0,L|392:212,1,60.0000022888184
445,231,85134,1,2,0:0:0:0:
477,188,85227,1,0,0:0:0:0:
460,136,85321,1,2,0:0:0:0:
412,109,85415,1,0,0:0:0:0:
139,155,85509,1,4,0:0:0:0:
28,268,85696,6,0,L|23:188,1,60.0000022888184,2|0,0:0|0:0,0:0:0:0:
198,346,85884,2,2,L|292:333,1,60.0000022888184,2|2,1:0|0:0,0:0:0:0:
424,190,86071,1,2,0:0:0:0:
108,91,86259,5,0,1:0:0:0:
255,239,86446,2,0,L|356:203,1,60.0000022888184,2|0,0:0|0:0,0:0:0:0:
228,153,86634,2,0,L|311:123,1,60.0000022888184,2|0,0:0|0:0,0:0:0:0:
185,79,86821,1,2,0:0:0:0:
473,167,87009,1,4,1:2:0:0:
193,327,87196,6,0,L|120:312,1,60.0000022888184,2|0,0:0|0:0,0:0:0:0:
337,234,87384,2,0,L|407:229,1,60.0000022888184,2|0,0:0|0:0,0:0:0:0:
311,150,87571,1,2,0:0:0:0:
66,206,87759,2,0,L|0:208,2,60.0000022888184,0|0|0,1:0|0:0|0:0,0:0:0:0:
324,132,88134,1,2,0:0:0:0:
142,53,88321,1,0,2:0:0:0:
418,278,88509,6,0,P|470:242|484:183,1,120.000004577637,2|2,1:0|0:0,0:0:0:0:
391,146,88790,1,0,0:0:0:0:
196,264,88884,2,0,L|94:243,1,60.0000022888184,4|0,0:0|0:0,0:0:0:0:
362,48,89071,2,0,L|438:37,1,60.0000022888184,0|0,1:0|0:0,0:0:0:0:
153,348,89259,6,0,L|136:255,1,60.0000022888184,0|0,1:0|0:0,0:0:0:0:
251,266,89446,2,0,L|264:182,1,60.0000022888184,0|0,1:0|2:0,1:0:0:0:
36,123,89634,2,0,P|90:89|173:88,1,120.000004577637,2|0,1:0|0:0,0:0:0:0:
455,338,90009,6,0,L|472:204,1,120.000004577637,4|0,0:0|0:0,0:0:0:0:
191,195,90384,1,2,0:0:0:0:
357,98,90571,1,0,0:0:0:0:
57,338,90759,6,0,L|40:204,1,120.000004577637,4|0,0:0|0:0,0:0:0:0:
321,195,91134,1,2,0:0:0:0:
151,95,91321,1,0,0:0:0:0:
414,346,91509,5,0,3:0:0:0:
442,315,91571,1,0,2:0:0:0:
452,272,91634,1,0,2:0:0:0:
311,180,91696,1,0,3:0:0:0:
280,148,91759,1,0,2:0:0:0:
241,131,91821,1,0,2:0:0:0:
54,272,91884,5,0,3:0:0:0:
25,241,91946,1,0,2:0:0:0:
16,198,92009,1,0,2:0:0:0:
150,125,92071,1,0,3:0:0:0:
180,93,92134,1,0,2:0:0:0:
220,76,92196,1,0,2:0:0:0:
462,214,92259,6,0,L|485:88,1,120.000004577637,0|4,1:0|0:0,0:0:0:0:
209,194,92634,1,0,0:0:0:0:
488,265,92821,1,4,1:2:0:0:
78,349,93009,6,0,L|62:228,1,120.000004577637,4|2,1:2|0:0,0:0:0:0:
144,183,93290,1,2,0:0:0:0:
371,313,93384,2,0,L|387:243,1,60.0000022888184,2|0,0:0|0:0,0:0:0:0:
291,228,93571,2,0,L|304:157,1,60.0000022888184,2|0,0:0|0:0,0:0:0:0:
209,171,93759,2,0,L|219:98,1,60.0000022888184,2|0,1:0|0:0,0:0:0:0:
124,133,93946,2,0,L|129:64,1,60.0000022888184,2|0,0:0|0:0,0:0:0:0:
431,328,94134,2,0,L|529:325,1,60.0000022888184,2|0,0:0|0:0,0:0:0:0:
301,184,94321,2,0,L|242:188,1,60.0000022888184,0|0,1:0|0:0,0:0:0:0:
73,252,94509,6,0,P|32:193|95:186,1,120.000004577637,4|2,0:0|1:1,0:0:0:0:
348,174,94884,1,4,1:2:0:0:
98,76,95071,1,2,1:0:0:0:
439,252,95259,6,0,P|480:193|417:186,1,120.000004577637,4|2,0:0|1:1,0:0:0:0:
164,174,95634,1,4,1:2:0:0:
414,76,95821,1,2,1:0:0:0:
90,313,96009,6,0,L|215:291,1,120.000004577637,0|4,1:0|1:2,0:0:0:0:
41,211,96384,1,0,0:0:0:0:
334,268,96571,2,0,L|344:187,1,60.0000022888184,4|0,0:0|0:0,0:0:0:0:
157,181,96759,2,0,L|146:98,1,60.0000022888184,2|0,0:0|0:0,0:0:0:0:
221,86,96946,1,2,0:0:0:0:
402,105,97134,2,0,L|481:95,1,60.0000022888184,4|0,0:0|0:0,0:0:0:0:
276,301,97321,2,0,L|187:287,1,60.0000022888184,2|0,1:0|0:0,0:0:0:0:
27,162,97509,6,0,L|159:152,1,120.000004577637,0|4,1:0|1:2,0:0:0:0:
436,183,97884,1,4,0:0:0:0:
141,328,98071,2,0,L|68:310,1,60.0000022888184,4|0,0:0|0:0,0:0:0:0:
279,211,98259,2,0,L|362:195,1,60.0000022888184,2|0,0:0|0:0,0:0:0:0:
245,125,98446,1,2,0:0:0:0:
409,125,98634,2,0,L|421:70,4,40.000001525879,4|0|2|0|2,1:2|0:0|0:0|0:0|0:0,0:0:0:0:
80,313,99009,6,0,L|210:304,1,120.000004577637,0|4,1:0|1:2,0:0:0:0:
356,183,99384,1,2,0:0:0:0:
71,252,99571,6,0,L|55:164,1,60.0000022888184,0|0,1:2|0:0,0:0:0:0:
246,141,99759,2,0,L|258:60,1,60.0000022888184,2|0,0:0|0:0,0:0:0:0:
156,45,99946,1,2,0:0:0:0:
316,329,100134,2,0,L|449:314,1,120.000004577637,4|0,1:2|0:0,0:0:0:0:
32,288,100509,5,4,1:2:0:0:
340,182,100696,1,0,1:0:0:0:
194,117,100884,1,2,0:0:0:0:
480,272,101071,1,0,1:0:0:0:
134,230,101259,1,4,1:2:0:0:
379,122,101446,1,8,1:3:0:0:
32,176,101634,2,0,L|9:58,1,120.000004577637,4|2,1:2|2:0,0:0:0:0:
328,342,102009,5,2,0:0:0:0:
378,280,102196,1,0,0:0:0:0:
382,200,102384,1,2,0:0:0:0:
333,138,102571,1,0,0:0:0:0:
256,118,102759,5,2,0:0:0:0:
373,189,102946,1,0,0:0:0:0:
260,243,103134,5,2,0:0:0:0:
321,319,103321,1,2,0:0:0:0:
275,384,103509,5,2,0:0:0:0:
106,319,112509,5,2,0:0:0:0:
68,249,112696,1,0,0:0:0:0:
104,178,112884,1,0,0:0:0:0:
181,160,113071,1,2,0:0:0:0:
79,286,113259,2,0,L|173:281,1,88.000002685547,2|0,0:0|0:0,0:0:0:0:
282,177,113634,2,0,L|191:167,1,88.000002685547,2|2,0:0|0:0,0:0:0:0:
79,332,114009,6,0,P|58:270|145:215,1,176.000005371094,2|0,0:0|0:0,0:0:0:0:
245,140,114571,1,2,0:0:0:0:
358,58,114759,2,0,L|151:46,1,176.000005371094,2|0,0:0|0:0,0:0:0:0:
352,352,115509,6,0,L|366:166,1,176.000005371094,2|0,0:0|0:0,0:0:0:0:
245,139,116071,1,2,0:0:0:0:
50,334,116259,2,0,L|36:148,1,176.000005371094,2|0,0:0|0:0,0:0:0:0:
142,123,116821,1,2,0:0:0:0:
278,246,117009,6,0,P|324:164|240:142,1,191.999994140625,2|0,0:0|0:0,0:0:0:0:
361,72,117571,1,2,0:0:0:0:
269,20,117759,1,2,0:0:0:0:
31,142,118134,1,2,0:0:0:0:
281,363,118509,5,2,0:0:0:0:
350,326,118696,1,0,0:0:0:0:
376,251,118884,1,2,0:0:0:0:
353,175,119071,1,0,0:0:0:0:
286,131,119259,1,2,0:0:0:0:
208,145,119446,1,2,0:0:0:0:
168,213,119634,1,0,0:0:0:0:
199,285,119821,1,2,0:0:0:0:
460,289,120009,5,2,0:0:0:0:
180,256,120384,1,2,0:0:0:0:
411,215,120759,5,2,0:0:0:0:
202,168,121134,1,2,0:0:0:0:
442,126,121509,6,0,L|275:105,1,143.999995605469,2|0,0:0|0:0,0:0:0:0:
218,326,121884,2,0,L|191:245,1,47.9999985351563,2|0,0:0|0:0,0:0:0:0:
294,235,122071,2,0,L|310:177,1,47.9999985351563,2|0,0:0|0:0,0:0:0:0:
134,171,122259,2,0,L|13:153,1,95.9999970703126,2|0,0:0|0:0,0:0:0:0:
183,61,122634,2,0,L|304:43,1,95.9999970703126,2|0,0:0|0:0,0:0:0:0:
80,263,123009,6,0,P|58:210|154:166,1,143.999995605469,2|0,0:0|0:0,0:0:0:0:
302,248,123384,1,2,0:0:0:0:
337,223,123477,1,0,0:0:0:0:
345,180,123571,1,0,0:0:0:0:
322,143,123665,1,0,0:0:0:0:
141,342,123759,5,2,0:0:0:0:
117,326,123821,1,0,0:0:0:0:
96,305,123884,1,0,0:0:0:0:
83,279,123946,1,0,0:0:0:0:
75,250,124009,1,0,0:0:0:0:
74,221,124071,1,0,0:0:0:0:
82,193,124134,1,0,0:0:0:0:
96,168,124196,1,0,0:0:0:0:
117,148,124259,1,0,0:0:0:0:
140,132,124321,1,0,0:0:0:0:
166,120,124384,1,0,0:0:0:0:
372,293,124509,6,0,P|402:222|298:167,1,191.999994140625,2|2,1:0|0:0,0:0:0:0:
194,115,125071,1,2,0:0:0:0:
465,309,125259,2,0,L|239:275,1,191.999994140625,4|0,2:0|0:0,0:0:0:0:
374,196,125821,1,2,0:0:0:0:
76,289,126009,6,0,P|59:233|161:159,1,191.999994140625,2|2,1:0|0:0,0:0:0:0:
295,114,126571,1,2,0:0:0:0:
161,222,126759,1,4,2:0:0:0:
155,179,126852,1,0,0:0:0:0:
149,136,126946,1,2,0:0:0:0:
288,324,127134,2,0,L|301:210,1,95.9999970703126,2|0,0:0|0:0,0:0:0:0:
139,240,127509,6,0,P|121:146|201:111,1,191.999994140625,2|2,1:0|0:0,0:0:0:0:
345,157,128071,1,0,0:0:0:0:
172,330,128259,2,0,L|379:324,1,191.999994140625,4|4,2:0|0:0,0:0:0:0:
244,233,128821,1,2,0:0:0:0:
53,275,129009,6,0,P|48:193|42:68,1,191.999994140625,4|0,2:0|0:0,0:0:0:0:
179,56,129571,1,2,0:0:0:0:
459,171,129759,1,2,1:0:0:0:
192,297,130134,1,2,2:0:0:0:
457,326,130509,6,0,P|465:243|376:204,1,191.999994140625,2|2,1:0|0:0,0:0:0:0:
240,136,131071,1,0,0:0:0:0:
55,326,131259,2,0,P|47:243|136:204,1,191.999994140625,4|2,2:0|0:0,0:0:0:0:
269,137,131821,1,2,0:0:0:0:
151,315,132009,6,0,L|132:216,1,95.9999970703126,2|0,1:0|0:0,0:0:0:0:
286,249,132384,2,0,L|301:143,1,95.9999970703126,2|0,0:0|0:0,0:0:0:0:
142,225,132759,1,4,0:0:0:0:
87,158,132946,1,0,0:0:0:0:
109,74,133134,1,2,0:0:0:0:
188,40,133321,1,2,0:0:0:0:
71,323,133509,6,0,L|298:308,1,191.999994140625,2|2,1:0|0:0,0:0:0:0:
157,229,134071,1,0,0:0:0:0:
462,235,134259,2,0,L|235:220,1,191.999994140625,4|2,2:0|0:0,0:0:0:0:
376,141,134821,1,0,0:0:0:0:
246,331,135009,5,2,2:0:0:0:
205,254,135196,1,0,0:0:0:0:
239,174,135384,1,0,0:0:0:0:
321,149,135571,1,2,0:0:0:0:
208,144,135759,5,2,0:0:0:0:
283,43,135946,1,0,0:0:0:0:
181,111,136134,2,0,P|148:71|166:5,1,95.9999970703126,2|0,0:0|0:0,0:0:0:0:
422,242,136509,5,2,0:0:0:0:
258,308,137071,2,0,L|257:217,1,88.000002685547,0|2,0:0|0:0,0:0:0:0:
86,190,137821,2,0,L|85:99,1,88.000002685547,0|2,0:0|0:0,0:0:0:0:
277,115,138571,2,0,L|278:24,1,88.000002685547,0|2,0:0|0:0,0:0:0:0:
151,248,139322,5,2,0:0:0:0:
276,329,139509,5,2,0:0:0:0:
228,275,139696,1,0,0:0:0:0:
248,205,139884,1,2,0:0:0:0:
312,172,140071,1,2,0:0:0:0:
255,208,140259,5,2,0:0:0:0:
303,154,140446,1,0,0:0:0:0:
283,84,140634,1,2,0:0:0:0:
219,51,140821,1,2,0:0:0:0:
88,308,141009,5,0,0:0:0:0:
55,244,141196,1,0,0:0:0:0:
89,180,141384,1,0,0:0:0:0:
160,170,141571,1,2,0:0:0:0:
60,99,141759,5,2,0:0:0:0:
256,192,141852,12,2,145509,0:0:0:0:
256,191,146868,5,2,0:0:0:0:
