osu file format v14

[General]
AudioFilename: audio.mp3
AudioLeadIn: 0
PreviewTime: 77259
Countdown: 0
SampleSet: Soft
StackLeniency: 0.7
Mode: 2
LetterboxInBreaks: 0
EpilepsyWarning: 1
WidescreenStoryboard: 1

[Editor]
Bookmarks: 60009,72009
DistanceSpacing: 2.1
BeatDivisor: 4
GridSize: 16
TimelineZoom: 1.7

[Metadata]
Title:Marigold (feat. Guriri)
TitleUnicode:Marigold (feat. 구리리)
Artist:M2U
ArtistUnicode:M2U
Creator:Spectator
Version:Alice
Source:Deemo
Tags:Ascendance Sinnoh グリリ NICODE Rayark SQUAR SQUARE MUSIQ Narae Hans Diversity.
BeatmapID:1279904
BeatmapSetID:605710

[Difficulty]
HPDrainRate:7
CircleSize:4
OverallDifficulty:9.5
ApproachRate:9.5
SliderMultiplier:1.7
SliderTickRate:2

[Events]
//Background and Video events
0,0,"marigold_.png",0,0
//Break Periods
2,103709,111984
//Storyboard Layer 0 (Background)
//Storyboard Layer 1 (Fail)
//Storyboard Layer 2 (Pass)
//Storyboard Layer 3 (Foreground)
//Storyboard Sound Samples

[TimingPoints]
1509,375,4,2,0,50,1,0
13509,-100,4,2,0,40,0,0
14259,-100,4,2,0,37,0,0
15759,500,4,2,0,35,1,0
16009,545.454545454546,4,2,0,35,1,0
16281,750,4,2,0,35,1,0
16656,714.285714285714,4,2,0,35,1,0
17013,600,4,2,0,30,1,0
17163,-100,4,2,0,50,0,0
18009,375,4,2,0,70,1,0
19509,-76.9230769230769,4,2,0,70,0,1
19602,-76.9230769230769,4,2,0,60,0,0
30009,-90.9090909090909,4,2,0,60,0,0
33009,-76.9230769230769,4,2,0,50,0,0
33946,-90.9090909090909,4,2,0,50,0,0
34509,-90.9090909090909,4,2,0,45,0,0
36009,-90.9090909090909,4,2,0,25,0,0
37509,-100,4,2,0,35,0,0
45009,-100,4,2,0,39,0,0
46509,-90.9090909090909,4,2,0,46,0,0
48009,-90.9090909090909,4,2,0,49,0,0
58884,-90.9090909090909,4,2,0,51,0,0
60009,-83.3333333333333,4,2,0,60,0,1
60102,-83.3333333333333,4,2,0,60,0,0
72009,-90.9090909090909,4,2,0,50,0,0
75009,-83.3333333333333,4,2,0,65,0,1
75102,-83.3333333333333,4,2,0,65,0,0
77259,-83.3333333333333,4,2,0,70,0,0
77634,-50,4,2,0,70,0,0
78009,-66.6666666666667,4,2,0,80,0,1
89915,-66.6666666666667,4,2,0,80,0,0
90009,-66.6666666666667,4,2,0,80,0,1
102009,-90.9090909090909,4,2,0,80,0,0
102384,-90.9090909090909,4,2,0,70,0,0
102759,-90.9090909090909,4,2,0,60,0,0
103134,-90.9090909090909,4,2,0,47,0,0
112509,-90.9090909090909,4,2,0,55,0,0
117009,-83.3333333333333,4,2,0,55,0,0
123009,-83.3333333333333,4,2,0,58,0,0
123759,-83.3333333333333,4,2,0,55,0,0
124509,-83.3333333333333,4,2,0,65,0,1
124602,-83.3333333333333,4,2,0,65,0,0
130884,-83.3333333333333,4,2,0,60,0,0
135665,-83.3333333333333,4,2,0,56,0,0
136040,-83.3333333333333,4,2,0,52,0,0
136509,-90.9090909090909,4,2,0,45,0,0
139321,-100,4,2,0,39,0,0
141009,-100,4,2,0,36,0,0
141759,-100,4,2,0,34,0,0
141852,-100,4,2,0,20,0,0
145509,-100,4,2,0,20,0,0

[Colours]
Combo1 : 106,186,244
Combo2 : 249,132,167
Combo3 : 251,219,108
Combo4 : 226,238,123

[HitObjects]
167,319,1509,6,0,P|159:251|251:205,1,170,2|0,0:0|0:0,0:0:0:0:
359,135,2071,1,0,0:0:0:0:
240,297,2259,2,0,P|225:246|241:201,1,85,2|0,0:0|0:0,0:0:0:0:
339,146,2634,2,0,P|354:95|338:50,1,85,0|0,0:0|0:0,0:0:0:0:
234,342,3009,6,0,P|290:313|326:205,1,170,2|0,0:0|0:0,0:0:0:0:
206,190,3571,1,0,0:0:0:0:
361,119,3759,2,0,L|168:111,1,170,2|2,0:0|0:0,0:0:0:0:
267,204,4321,1,0,0:0:0:0:
138,348,4509,6,0,L|124:243,1,85,2|0,0:0|0:0,0:0:0:0:
264,159,4884,2,0,L|157:160,1,85,0|0,0:0|0:0,0:0:0:0:
374,348,5259,6,0,L|388:243,1,85,2|0,0:0|0:0,0:0:0:0:
67,125,5634,2,0,L|56:23,1,85,2|0,0:0|0:0,0:0:0:0:
331,274,6009,6,0,P|333:209|225:180,1,170,2|2,0:0|0:0,0:0:0:0:
129,226,6571,1,0,0:0:0:0:
377,340,6759,6,0,P|379:275|271:246,1,170,2|2,0:0|0:0,0:0:0:0:
407,177,7321,1,0,0:0:0:0:
105,172,7509,5,0,0:0:0:0:
226,169,7696,1,2,0:0:0:0:
93,257,7884,2,0,L|286:255,2,170,2|2|2,0:0|0:0|0:0,0:0:0:0:
195,317,8821,1,0,0:0:0:0:
444,337,9009,5,2,0:0:0:0:
484,272,9196,1,0,0:0:0:0:
452,201,9384,1,2,0:0:0:0:
377,184,9571,1,2,0:0:0:0:
241,310,9759,2,0,L|346:309,1,85,2|0,0:0|0:0,0:0:0:0:
181,241,10134,2,0,L|156:149,1,85,2|0,0:0|0:0,0:0:0:0:
453,286,10509,6,0,P|451:221|356:157,1,170,2|0,0:0|0:0,0:0:0:0:
496,112,11071,1,2,0:0:0:0:
219,346,11259,2,0,P|221:281|316:217,1,170,2|0,0:0|0:0,0:0:0:0:
166,193,11821,1,2,0:0:0:0:
38,123,12009,6,0,L|207:122,1,170,2|0,0:0|0:0,0:0:0:0:
111,221,12571,1,2,0:0:0:0:
269,224,12759,2,0,L|291:126,1,85,2|2,0:0|0:0,0:0:0:0:
176,23,13134,2,0,L|157:105,1,85,2|2,0:0|0:0,0:0:0:0:
281,308,13509,6,0,L|383:308,2,85,2|0|0,0:0|0:0|0:0,0:0:0:0:
410,218,14071,1,2,0:0:0:0:
242,199,14259,6,0,L|341:160,2,85,2|0|0,0:0|0:0|0:0,0:0:0:0:
355,99,14821,1,2,0:0:0:0:
204,322,15009,6,0,L|269:256,2,85,2|0|0,0:0|0:0|0:0,0:0:0:0:
302,203,15571,1,0,0:0:0:0:
442,223,15759,5,2,0:0:0:0:
282,133,16009,5,0,0:0:0:0:
458,181,16281,5,2,0:0:0:0:
231,108,16656,5,0,0:0:0:0:
474,133,17013,6,0,L|492:134,3,14.1666666666667,0|0|2|0,0:0|0:0|0:0|0:0,0:0:0:0:
128,297,19509,6,0,P|130:232|226:192,1,165.749992412568,4|0,0:0|0:0,0:0:0:0:
419,255,19884,2,0,L|342:254,1,55.2499974708558,2|0,0:0|0:0,0:0:0:0:
289,193,20071,2,0,L|369:192,1,55.2499974708558,0|0,0:0|0:0,0:0:0:0:
161,288,20259,6,0,L|149:250,5,36.8333316472372,2|0|0|0|0|0,0:0|0:0|0:0|0:0|0:0|0:0,0:0:0:0:
342,252,20634,2,0,P|396:215|423:122,1,165.749992412568,0|0,1:0|0:0,0:0:0:0:
207,317,21009,6,0,L|64:320,1,110.499994941712,4|2,0:0|0:0,0:0:0:0:
244,195,21384,2,0,L|370:194,1,110.499994941712,2|0,0:0|0:0,0:0:0:0:
512,175,21759,2,0,P|492:115|396:68,1,165.749992412568,4|0,0:0|0:0,0:0:0:0:
168,332,22134,2,0,L|204:203,1,110.499994941712,2|0,0:0|0:0,0:0:0:0:
363,136,22509,6,0,L|174:136,1,165.749992412568,4|0,1:2|0:0,0:0:0:0:
438,32,22884,2,0,L|465:138,1,110.499994941712,2|0,0:0|0:0,0:0:0:0:
16,160,23259,5,2,1:0:0:0:
480,160,23634,1,2,1:0:0:0:
106,328,24009,6,0,P|130:257|223:216,1,165.749992412568,0|0,1:0|0:0,0:0:0:0:
286,138,24384,2,0,L|141:138,1,110.499994941712,2|0,0:0|0:0,0:0:0:0:
462,308,24759,2,0,L|485:184,1,110.499994941712,2|0,1:0|0:0,0:0:0:0:
50,308,25134,2,0,L|27:184,1,110.499994941712,4|0,2:2|0:0,0:0:0:0:
329,275,25509,6,0,P|391:239|418:132,1,165.749992412568,0|0,1:0|0:0,0:0:0:0:
201,348,25884,2,0,L|185:262,1,55.2499974708558,2|0,0:0|0:0,0:0:0:0:
279,261,26071,2,0,L|289:206,1,55.2499974708558,2|0,0:0|0:0,0:0:0:0:
97,182,26259,6,0,L|92:141,4,36.8333316472372,2|0|0|0|0,0:0|0:0|0:0|0:0|0:0,0:0:0:0:
369,296,26634,2,0,P|432:272|471:162,1,165.749992412568,2|0,0:0|0:0,0:0:0:0:
284,318,27009,6,0,L|146:321,1,110.499994941712,4|0,0:0|0:0,0:0:0:0:
304,185,27384,2,0,L|442:188,1,110.499994941712,2|0,0:0|0:0,0:0:0:0:
120,325,27759,5,2,0:0:0:0:
87,274,27852,1,0,0:0:0:0:
115,220,27946,1,0,0:0:0:0:
173,203,28040,1,0,0:0:0:0:
354,204,28134,1,2,0:0:0:0:
387,153,28227,1,0,0:0:0:0:
359,99,28321,1,2,0:0:0:0:
301,82,28415,1,0,0:0:0:0:
66,358,28509,6,0,P|84:302|184:259,1,165.749992412568,0|2,1:0|0:0,0:0:0:0:
261,183,28884,2,0,L|144:184,1,110.499994941712,2|0,2:0|0:0,0:0:0:0:
481,288,29259,2,0,L|493:175,1,110.499994941712,4|0,0:0|0:0,0:0:0:0:
31,288,29634,2,0,L|19:175,1,110.499994941712,2|0,0:0|0:0,0:0:0:0:
281,299,30009,6,0,L|399:297,2,93.5000028533936,4|0|2,0:0|0:0|0:0,0:0:0:0:
420,211,30571,1,2,0:0:0:0:
231,299,30759,6,0,L|113:297,2,93.5000028533936,2|0|2,0:0|0:0|0:0,0:0:0:0:
92,211,31321,1,2,0:0:0:0:
281,299,31509,6,0,L|399:297,2,93.5000028533936,2|0|2,0:0|0:0|0:0,0:0:0:0:
420,211,32071,1,2,0:0:0:0:
130,354,32259,5,2,0:0:0:0:
85,328,32352,1,0,0:0:0:0:
48,292,32446,1,0,0:0:0:0:
31,243,32540,1,0,0:0:0:0:
35,191,32634,1,2,0:0:0:0:
56,144,32727,1,0,0:0:0:0:
98,114,32821,1,0,0:0:0:0:
148,104,32915,1,0,0:0:0:0:
400,290,33009,6,0,P|427:221|320:131,1,220.999989883423,4|2,0:0|0:0,0:0:0:0:
206,132,33571,1,0,0:0:0:0:
482,333,33759,1,0,0:0:0:0:
367,264,33946,2,0,L|352:199,2,46.7500014266968,2|0|0,0:0|0:0|0:0,0:0:0:0:
484,157,34321,1,0,0:0:0:0:
200,345,34509,5,0,0:0:0:0:
297,334,34696,1,2,0:0:0:0:
182,332,34884,5,2,0:0:0:0:
311,317,35071,1,0,0:0:0:0:
154,324,35259,5,2,0:0:0:0:
330,303,35446,1,0,0:0:0:0:
131,318,35634,5,2,0:0:0:0:
382,291,35821,1,0,0:0:0:0:
256,192,36009,12,2,37134,0:0:0:0:
259,268,37509,5,2,0:0:0:0:
451,176,37884,1,0,0:0:0:0:
256,288,38259,2,0,L|368:288,3,85,2|0|2|0,0:0|0:0|0:0|0:0,0:0:0:0:
194,192,39009,6,0,P|177:122|251:64,1,170,2|0,0:0|0:0,0:0:0:0:
355,87,39571,1,0,0:0:0:0:
466,110,39759,1,2,0:0:0:0:
206,104,40134,1,0,0:0:0:0:
473,232,40509,5,2,0:0:0:0:
246,340,40884,2,0,L|149:341,2,85,0|0|2,0:0|0:0|0:0,0:0:0:0:
28,254,41634,1,0,0:0:0:0:
298,183,42009,6,0,L|382:191,3,85,2|0|2|0,0:0|0:0|0:0|0:0,0:0:0:0:
240,339,42759,1,2,0:0:0:0:
192,263,42946,1,0,0:0:0:0:
235,180,43134,1,2,0:0:0:0:
325,157,43321,1,0,0:0:0:0:
191,255,43509,6,0,L|165:167,1,85,2|0,0:0|0:0,0:0:0:0:
448,185,43884,2,0,L|455:146,4,28.3333333333333,2|0|0|0|0,0:0|0:0|0:0|0:0|0:0,0:0:0:0:
207,344,44259,6,0,P|155:318|138:277,1,85,2|0,0:0|0:0,0:0:0:0:
292,224,44634,2,0,P|344:198|361:157,1,85,2|0,0:0|0:0,0:0:0:0:
136,211,45009,6,0,P|69:193|30:78,1,170,2|2,0:0|0:0,0:0:0:0:
198,118,45571,1,0,0:0:0:0:
376,211,45759,2,0,P|443:193|482:78,1,170,2|2,0:0|0:0,0:0:0:0:
175,319,46509,6,0,L|348:319,1,140.25000428009,0|0,0:0|0:0,0:0:0:0:
156,234,46884,1,2,0:0:0:0:
122,202,46977,1,0,0:0:0:0:
138,158,47071,1,2,0:0:0:0:
182,143,47165,1,2,0:0:0:0:
354,104,47259,2,0,L|245:107,1,93.5000028533936,0|0,1:0|0:0,0:0:0:0:
96,146,47634,2,0,L|82:114,4,31.1666676177979,0|0|0|0|0,1:0|0:0|0:0|0:0|0:0,0:0:0:0:
421,350,48009,5,4,0:0:0:0:
481,279,48196,1,0,0:0:0:0:
448,191,48384,1,2,0:0:0:0:
359,162,48571,1,2,0:0:0:0:
225,291,48759,1,0,1:0:0:0:
153,231,48946,1,2,0:0:0:0:
175,140,49134,1,0,0:0:0:0:
265,119,49321,1,2,0:0:0:0:
176,349,49509,5,4,0:0:0:0:
253,296,49696,1,0,0:0:0:0:
236,203,49884,1,2,0:0:0:0:
149,168,50071,1,0,0:0:0:0:
304,192,50259,2,0,L|315:88,1,93.5000028533936,0|0,1:0|0:0,0:0:0:0:
148,155,50634,2,0,L|137:51,1,93.5000028533936,2|0,2:0|0:0,0:0:0:0:
473,313,51009,6,0,L|265:311,1,187.000005706787,6|0,0:0|0:0,0:0:0:0:
396,209,51571,1,2,0:0:0:0:
38,314,51759,2,0,L|257:313,1,187.000005706787,0|2,1:0|0:0,0:0:0:0:
116,209,52321,1,0,0:0:0:0:
389,284,52509,6,0,L|419:159,1,93.5000028533936,2|0,0:0|0:0,0:0:0:0:
230,156,52884,2,0,L|206:50,1,93.5000028533936,0|0,1:0|0:0,0:0:0:0:
266,28,53165,1,0,0:0:0:0:
461,306,53259,2,0,P|461:241|371:206,1,140.25000428009,0|0,1:0|0:0,0:0:0:0:
191,197,53634,1,2,1:0:0:0:
42,236,54009,6,0,L|164:228,1,93.5000028533936,4|0,0:0|0:0,0:0:0:0:
278,188,54384,1,2,0:0:0:0:
139,185,54571,1,0,0:0:0:0:
455,286,54759,2,0,L|333:278,1,93.5000028533936,0|0,1:0|0:0,0:0:0:0:
219,238,55134,1,2,0:0:0:0:
358,235,55321,1,0,0:0:0:0:
41,241,55509,6,0,P|17:193|38:125,1,93.5000028533936,2|0,0:0|0:0,0:0:0:0:
187,166,55884,2,0,P|211:118|190:50,1,93.5000028533936,2|0,2:0|0:0,0:0:0:0:
88,330,56259,2,0,L|185:319,1,93.5000028533936,0|0,1:0|0:0,0:0:0:0:
359,230,56634,2,0,L|262:219,1,93.5000028533936,2|0,0:0|0:0,0:0:0:0:
96,240,57009,6,0,P|48:192|48:144,1,93.5000028533936,4|0,1:2|0:0,0:0:0:0:
106,104,57290,1,0,0:0:0:0:
276,88,57384,2,0,L|344:90,1,46.7500014266968,2|0,2:0|0:0,0:0:0:0:
152,230,57571,2,0,L|98:228,1,46.7500014266968,0|0,0:0|0:0,0:0:0:0:
303,333,57759,2,0,L|400:332,1,93.5000028533936,2|0,1:0|0:0,0:0:0:0:
146,263,58134,2,0,P|141:189|221:189,1,140.25000428009,2|0,1:0|0:0,0:0:0:0:
398,151,58509,6,0,L|249:151,1,140.25000428009,4|0,0:0|0:0,0:0:0:0:
441,321,58884,2,0,L|452:255,1,46.7500014266968,4|0,0:0|0:0,0:0:0:0:
268,250,59071,2,0,L|254:180,1,46.7500014266968,2|0,0:0|0:0,0:0:0:0:
62,239,59259,5,4,0:0:0:0:
32,216,59321,1,0,0:0:0:0:
17,185,59384,1,0,0:0:0:0:
18,151,59446,1,0,0:0:0:0:
35,122,59509,1,0,0:0:0:0:
70,109,59571,1,0,0:0:0:0:
261,164,59634,1,2,0:0:0:0:
294,141,59696,1,0,0:0:0:0:
309,110,59759,1,0,0:0:0:0:
308,76,59821,1,0,0:0:0:0:
291,47,59884,1,0,0:0:0:0:
253,34,59946,1,0,0:0:0:0:
63,335,60009,6,0,P|55:255|172:219,1,203.999993774414,4|0,0:0|0:0,0:0:0:0:
295,212,60571,1,2,0:0:0:0:
23,97,60759,2,0,L|234:97,1,203.999993774414,2|2,1:0|0:0,0:0:0:0:
75,101,61321,1,0,0:0:0:0:
416,341,61509,6,0,P|424:261|307:225,1,203.999993774414,4|0,0:0|0:0,0:0:0:0:
173,218,62071,1,2,0:0:0:0:
452,133,62259,2,0,L|241:133,1,203.999993774414,2|0,1:0|0:0,0:0:0:0:
377,57,62821,1,2,0:0:0:0:
73,334,63009,6,2,P|81:253|209:216,1,203.999993774414,0|2,1:0|0:0,0:0:0:0:
319,193,63571,1,0,0:0:0:0:
72,190,63759,1,4,0:0:0:0:
304,219,64134,2,0,L|411:221,1,101.999996887207,4|0,0:0|0:0,0:0:0:0:
86,224,64509,6,0,P|48:163|152:123,1,203.999993774414,4|2,0:0|0:0,0:0:0:0:
271,123,65071,1,2,0:0:0:0:
127,356,65259,1,0,1:0:0:0:
81,333,65352,1,0,0:0:0:0:
44,296,65446,1,2,0:0:0:0:
33,245,65540,1,0,0:0:0:0:
49,196,65634,1,2,0:0:0:0:
87,163,65727,1,0,0:0:0:0:
136,150,65821,1,2,0:0:0:0:
186,154,65915,1,0,0:0:0:0:
437,333,66009,6,0,P|457:259|363:197,1,203.999993774414,2|0,1:0|0:0,0:0:0:0:
227,210,66571,1,2,0:0:0:0:
81,333,66759,2,0,P|61:259|155:197,1,203.999993774414,4|0,2:0|0:0,0:0:0:0:
291,210,67321,1,2,0:0:0:0:
136,303,67509,6,0,L|341:305,1,203.999993774414,2|0,1:0|0:0,0:0:0:0:
204,203,68071,1,2,0:0:0:0:
352,118,68259,2,0,P|311:93|242:94,1,101.999996887207,4|0,0:0|0:0,0:0:0:0:
383,250,68634,2,0,P|430:246|478:215,1,101.999996887207,2|2,0:0|0:0,0:0:0:0:
62,133,69009,5,0,1:0:0:0:
39,199,69384,2,0,L|21:94,1,101.999996887207,2|0,0:0|0:0,0:0:0:0:
271,252,69759,1,2,1:0:0:0:
252,287,70134,2,0,L|234:182,1,101.999996887207,2|0,0:0|0:0,0:0:0:0:
485,222,70509,6,0,L|500:17,1,203.999993774414,0|2,1:0|0:0,0:0:0:0:
374,85,71071,1,0,0:0:0:0:
81,326,71259,1,4,0:0:0:0:
21,243,71446,1,2,0:0:0:0:
58,147,71634,1,0,0:0:0:0:
157,125,71821,1,2,0:0:0:0:
300,333,72009,6,0,L|310:238,1,93.5000028533936,2|0,0:0|0:0,0:0:0:0:
185,264,72384,2,0,L|175:169,1,93.5000028533936,2|2,0:0|0:0,0:0:0:0:
326,210,72759,2,0,L|336:115,1,93.5000028533936,2|0,0:0|0:0,0:0:0:0:
212,142,73134,2,0,L|202:47,1,93.5000028533936,2|2,0:0|0:0,0:0:0:0:
400,290,73509,6,0,P|424:240|321:164,1,187.000005706787,2|0,0:0|0:0,0:0:0:0:
207,159,74071,1,2,0:0:0:0:
350,244,74259,2,0,P|430:225|461:123,1,187.000005706787,2|0,0:0|0:0,0:0:0:0:
344,117,74821,1,0,0:0:0:0:
8,336,75009,6,0,L|122:325,1,101.999996887207,2|0,1:0|0:0,0:0:0:0:
355,187,75384,2,0,L|230:175,1,101.999996887207,2|0,0:0|0:0,0:0:0:0:
511,337,75759,2,0,L|397:326,1,101.999996887207,4|0,1:2|0:0,0:0:0:0:
157,187,76134,2,0,L|282:175,1,101.999996887207,2|0,0:0|1:0,0:0:0:0:
420,80,76509,5,4,0:0:0:0:
175,335,76696,2,0,L|166:280,1,50.9999984436036,0|0,3:0|3:0,0:0:0:0:
278,260,76884,2,0,L|282:197,1,50.9999984436036,2|0,3:0|3:0,0:0:0:0:
392,192,77071,2,0,L|385:130,1,50.9999984436036,8|0,3:0|3:0,0:0:0:0:
55,187,77259,6,0,L|66:70,1,101.999996887207,4|0,0:0|0:0,0:0:0:0:
395,185,77634,1,2,1:0:0:0:
133,33,77821,1,0,0:0:0:0:
458,127,78009,5,4,1:2:0:0:
187,292,78196,2,0,L|123:278,1,63.7500024318696,2|0,0:0|0:0,0:0:0:0:
315,185,78384,2,0,L|337:115,1,63.7500024318696,2|0,0:0|0:0,0:0:0:0:
155,81,78571,1,0,0:0:0:0:
316,283,78759,2,0,L|377:259,1,63.7500024318696,0|0,1:2|0:0,0:0:0:0:
172,197,78947,2,0,L|139:131,1,63.7500024318696
314,69,79134,1,2,0:0:0:0:
143,101,79321,2,0,L|63:102,1,63.7500024318696,0|0,1:0|0:0,0:0:0:0:
422,331,79509,6,0,L|453:194,1,127.500004863739,0|0,1:0|0:0,0:0:0:0:
367,165,79790,1,0,0:0:0:0:
54,242,79884,1,0,3:0:0:0:
31,207,79946,1,0,0:0:0:0:
29,166,80009,1,0,0:0:0:0:
205,141,80071,1,0,3:0:0:0:
236,116,80134,1,0,0:0:0:0:
275,107,80196,1,0,0:0:0:0:
466,221,80259,1,0,1:0:0:0:
316,180,80446,1,4,1:2:0:0:
152,204,80634,1,0,2:0:0:0:
415,138,80821,1,4,0:0:0:0:
26,265,81009,5,4,0:0:0:0:
348,281,81196,1,2,0:0:0:0:
188,215,81384,2,0,L|168:154,1,63.7500024318696,2|0,2:0|0:0,0:0:0:0:
351,138,81571,1,2,0:0:0:0:
76,339,81759,5,4,1:2:0:0:
151,265,81852,1,0,0:0:0:0:
66,247,81946,1,2,0:0:0:0:
136,178,82040,1,0,0:0:0:0:
55,135,82134,1,0,1:0:0:0:
342,338,82321,2,0,L|448:336,1,63.7500024318696,4|0,0:0|0:0,0:0:0:0:
160,241,82509,5,2,0:0:0:0:
84,183,82602,1,0,0:0:0:0:
188,127,82696,1,2,0:0:0:0:
110,83,82790,1,0,0:0:0:0:
322,309,82884,2,0,L|338:237,1,63.7500024318696,0|0,1:0|0:0,0:0:0:0:
167,127,83071,2,0,L|152:54,1,63.7500024318696,2|0,1:0|0:0,0:0:0:0:
362,166,83259,2,0,L|509:160,1,127.500004863739,0|0,1:0|1:0,0:0:0:0:
254,285,83540,1,0,1:0:0:0:
158,318,83634,2,0,L|2:297,1,127.500004863739,0|0,1:0|0:0,0:0:0:0:
202,166,84009,5,4,0:0:0:0:
41,199,84196,1,2,0:0:0:0:
202,166,84290,1,0,0:0:0:0:
128,113,84384,1,2,1:0:0:0:
318,123,84477,1,0,0:0:0:0:
249,69,84571,1,2,2:0:0:0:
69,303,84759,6,0,L|155:266,1,63.7500024318696,4|0,1:2|0:0,0:0:0:0:
311,344,84946,1,2,0:0:0:0:
396,293,85039,1,0,0:0:0:0:
319,255,85134,1,2,0:0:0:0:
404,204,85227,1,0,0:0:0:0:
327,151,85321,1,2,0:0:0:0:
414,101,85415,1,0,0:0:0:0:
139,155,85509,1,4,0:0:0:0:
32,279,85696,5,2,0:0:0:0:
109,248,85790,1,0,0:0:0:0:
383,161,85884,1,2,1:0:0:0:
310,103,85977,1,2,0:0:0:0:
385,39,86071,1,2,0:0:0:0:
108,91,86259,5,0,1:0:0:0:
231,273,86446,1,2,0:0:0:0:
303,220,86540,1,0,0:0:0:0:
209,179,86634,1,2,0:0:0:0:
284,128,86727,1,0,0:0:0:0:
188,87,86821,1,2,0:0:0:0:
473,167,87009,1,4,1:2:0:0:
214,324,87196,6,0,L|141:309,1,63.7500024318696,2|0,0:0|0:0,0:0:0:0:
337,234,87384,2,0,L|407:229,1,63.7500024318696,2|0,0:0|0:0,0:0:0:0:
311,150,87571,1,2,0:0:0:0:
62,129,87759,1,0,1:0:0:0:
132,163,87852,1,0,0:0:0:0:
52,210,87946,1,0,0:0:0:0:
129,244,88040,1,0,0:0:0:0:
324,132,88134,1,2,0:0:0:0:
142,53,88321,1,0,2:0:0:0:
418,278,88509,6,0,P|470:242|484:183,1,127.500004863739,2|2,1:0|0:0,0:0:0:0:
391,146,88790,1,0,0:0:0:0:
196,264,88884,2,0,L|94:243,1,63.7500024318696,4|0,0:0|0:0,0:0:0:0:
362,48,89071,2,0,L|438:37,1,63.7500024318696,0|0,1:0|0:0,0:0:0:0:
181,346,89259,5,0,1:0:0:0:
255,286,89352,1,0,0:0:0:0:
176,248,89446,1,0,1:0:0:0:
261,184,89540,1,0,2:0:0:0:
36,123,89634,2,0,P|90:89|173:88,1,127.500004863739,2|0,1:0|0:0,0:0:0:0:
455,338,90009,6,0,L|472:204,1,127.500004863739,4|0,0:0|0:0,0:0:0:0:
191,195,90384,1,2,0:0:0:0:
338,98,90571,1,0,0:0:0:0:
57,338,90759,6,0,L|40:204,1,127.500004863739,4|0,0:0|0:0,0:0:0:0:
321,195,91134,1,2,0:0:0:0:
160,97,91321,1,0,0:0:0:0:
414,346,91509,5,0,3:0:0:0:
442,315,91571,1,0,2:0:0:0:
452,272,91634,1,0,2:0:0:0:
322,225,91696,1,0,3:0:0:0:
291,193,91759,1,0,2:0:0:0:
252,176,91821,1,0,2:0:0:0:
54,272,91884,5,0,3:0:0:0:
25,241,91946,1,0,2:0:0:0:
16,198,92009,1,0,2:0:0:0:
160,97,92071,1,0,3:0:0:0:
190,65,92134,1,0,2:0:0:0:
230,48,92196,1,0,2:0:0:0:
496,90,92259,1,0,1:0:0:0:
368,80,92446,1,4,0:2:0:0:
209,194,92634,1,0,0:0:0:0:
500,279,92821,1,4,1:2:0:0:
78,349,93009,6,0,L|57:211,1,127.500004863739,4|2,1:2|0:0,0:0:0:0:
144,183,93290,1,2,0:0:0:0:
371,313,93384,2,0,L|387:243,1,63.7500024318696,2|0,0:0|0:0,0:0:0:0:
291,228,93571,2,0,L|299:156,1,63.7500024318696,2|0,0:0|0:0,0:0:0:0:
37,229,93759,2,0,L|20:150,1,63.7500024318696,2|0,1:0|0:0,0:0:0:0:
190,160,93946,2,0,L|211:79,1,63.7500024318696,2|0,0:0|0:0,0:0:0:0:
406,95,94134,2,0,L|478:96,1,63.7500024318696,2|0,0:0|0:0,0:0:0:0:
305,249,94321,2,0,L|235:249,1,63.7500024318696,0|0,1:0|0:0,0:0:0:0:
73,252,94509,6,0,P|32:193|95:186,1,127.500004863739,4|2,0:0|1:1,0:0:0:0:
348,174,94884,1,4,1:2:0:0:
98,76,95071,1,2,1:0:0:0:
439,252,95259,6,0,P|480:193|417:186,1,127.500004863739,4|2,0:0|1:1,0:0:0:0:
164,174,95634,1,4,1:2:0:0:
414,76,95821,1,2,1:0:0:0:
90,313,96009,6,0,L|215:291,1,127.500004863739,0|4,1:0|1:2,0:0:0:0:
41,211,96384,1,0,0:0:0:0:
334,268,96571,2,0,L|344:187,1,63.7500024318696,4|0,0:0|0:0,0:0:0:0:
136,174,96759,1,2,0:0:0:0:
208,96,96852,1,0,0:0:0:0:
134,42,96946,1,2,0:0:0:0:
402,105,97134,2,0,L|481:95,1,63.7500024318696,4|0,0:0|0:0,0:0:0:0:
276,301,97321,2,0,L|187:287,1,63.7500024318696,2|0,1:0|0:0,0:0:0:0:
27,162,97509,6,0,L|159:152,1,127.500004863739,0|4,1:0|1:2,0:0:0:0:
436,183,97884,1,4,0:0:0:0:
141,328,98071,2,0,L|68:310,1,63.7500024318696,4|0,0:0|0:0,0:0:0:0:
298,202,98259,1,2,0:0:0:0:
472,131,98352,1,0,0:0:0:0:
306,59,98446,1,2,0:0:0:0:
53,120,98634,2,0,L|41:65,4,42.5000016212464,4|0|2|0|2,1:2|0:0|0:0|0:0|0:0,0:0:0:0:
393,308,99009,6,0,L|536:317,1,127.500004863739,0|4,1:0|1:2,0:0:0:0:
193,174,99384,1,2,0:0:0:0:
42,90,99571,1,0,1:2:0:0:
328,151,99759,1,2,0:0:0:0:
510,113,99852,1,0,0:0:0:0:
328,40,99946,1,2,0:0:0:0:
16,338,100134,2,0,L|149:323,1,127.500004863739,4|0,1:2|0:0,0:0:0:0:
481,299,100509,5,4,1:2:0:0:
181,177,100696,1,0,1:0:0:0:
339,136,100884,1,2,0:0:0:0:
24,66,101071,1,0,1:0:0:0:
406,320,101259,1,4,1:2:0:0:
97,171,101446,1,8,1:3:0:0:
488,50,101634,2,0,L|512:183,1,127.500004863739,4|2,1:2|2:0,0:0:0:0:
160,319,102009,5,2,0:0:0:0:
102,248,102196,1,0,0:0:0:0:
111,158,102384,1,2,0:0:0:0:
167,87,102571,1,0,0:0:0:0:
259,68,102759,5,2,0:0:0:0:
123,154,102946,1,0,0:0:0:0:
238,205,103134,5,2,0:0:0:0:
168,293,103321,1,2,0:0:0:0:
435,303,103509,5,2,0:0:0:0:
101,323,112509,5,2,0:0:0:0:
61,250,112696,1,0,0:0:0:0:
98,177,112884,1,0,0:0:0:0:
178,158,113071,1,2,0:0:0:0:
358,263,113259,2,0,L|264:258,1,93.5000028533936,2|0,0:0|0:0,0:0:0:0:
115,152,113634,2,0,L|226:142,1,93.5000028533936,2|2,0:0|0:0,0:0:0:0:
462,238,114009,6,0,P|483:176|373:117,1,187.000005706787,2|0,0:0|0:0,0:0:0:0:
225,108,114571,1,2,0:0:0:0:
489,331,114759,2,0,L|282:319,1,187.000005706787,2|0,0:0|0:0,0:0:0:0:
97,300,115509,2,0,P|79:222|192:176,1,187.000005706787,2|0,0:0|0:0,0:0:0:0:
314,169,116071,1,2,0:0:0:0:
128,298,116259,2,0,P|42:259|36:163,1,187.000005706787,2|0,0:0|0:0,0:0:0:0:
176,176,116821,1,2,0:0:0:0:
437,244,117009,6,0,P|483:162|399:140,1,203.999993774414,2|0,0:0|0:0,0:0:0:0:
241,142,117571,1,2,0:0:0:0:
390,142,117759,1,2,0:0:0:0:
58,138,118134,1,2,0:0:0:0:
384,314,118509,6,0,P|335:305|261:312,1,101.999996887207,2|0,0:0|0:0,0:0:0:0:
410,218,118884,2,0,P|361:209|287:216,1,101.999996887207,2|0,0:0|0:0,0:0:0:0:
168,336,119259,2,0,P|143:284|166:213,1,101.999996887207,2|2,0:0|0:0,0:0:0:0:
313,235,119634,2,0,P|338:183|315:112,1,101.999996887207,0|2,0:0|0:0,0:0:0:0:
52,289,120009,5,2,0:0:0:0:
359,257,120384,1,2,0:0:0:0:
101,215,120759,5,2,0:0:0:0:
412,181,121134,1,2,0:0:0:0:
142,134,121509,6,0,P|75:108|57:18,1,152.999995330811,2|0,0:0|0:0,0:0:0:0:
272,231,121884,2,0,L|324:231,1,50.9999984436036,2|0,0:0|0:0,0:0:0:0:
150,352,122071,2,0,L|87:350,1,50.9999984436036,2|0,0:0|0:0,0:0:0:0:
384,352,122259,2,0,P|424:312|419:246,1,101.999996887207,2|0,0:0|0:0,0:0:0:0:
145,178,122634,2,0,P|133:103|233:93,1,152.999995330811,2|0,0:0|0:0,0:0:0:0:
360,109,123009,6,0,L|196:108,1,152.999995330811,2|0,0:0|0:0,0:0:0:0:
422,271,123384,1,2,0:0:0:0:
462,240,123477,1,0,0:0:0:0:
454,189,123571,1,0,0:0:0:0:
400,161,123665,1,0,0:0:0:0:
144,283,123759,5,2,0:0:0:0:
107,266,123821,1,0,0:0:0:0:
88,229,123884,1,0,0:0:0:0:
95,189,123946,1,0,0:0:0:0:
126,162,124009,1,0,0:0:0:0:
166,159,124071,1,0,0:0:0:0:
323,174,124134,1,0,0:0:0:0:
360,157,124196,1,0,0:0:0:0:
379,120,124259,1,0,0:0:0:0:
372,80,124321,1,0,0:0:0:0:
341,53,124384,1,0,0:0:0:0:
301,50,124446,1,0,0:0:0:0:
77,214,124509,6,0,P|47:143|151:88,1,203.999993774414,2|2,1:0|0:0,0:0:0:0:
301,89,125071,1,2,0:0:0:0:
465,309,125259,2,0,L|239:275,1,203.999993774414,4|0,2:0|0:0,0:0:0:0:
106,318,125821,1,2,0:0:0:0:
435,214,126009,6,0,P|465:143|361:88,1,203.999993774414,2|2,1:0|0:0,0:0:0:0:
211,87,126571,1,2,0:0:0:0:
47,309,126759,2,0,L|273:275,1,203.999993774414,4|2,2:0|0:0,0:0:0:0:
401,316,127321,1,0,0:0:0:0:
139,240,127509,6,0,P|121:146|218:111,1,203.999993774414,2|2,1:0|0:0,0:0:0:0:
363,121,128071,1,0,0:0:0:0:
98,146,128259,1,4,2:0:0:0:
351,298,128634,2,0,P|388:255|378:203,1,101.999996887207,4|2,0:0|0:0,0:0:0:0:
101,246,129009,6,0,P|40:197|139:122,1,203.999993774414,4|0,2:0|0:0,0:0:0:0:
244,112,129571,1,2,0:0:0:0:
123,324,129759,1,2,1:0:0:0:
83,277,129852,1,0,0:0:0:0:
106,220,129946,1,0,0:0:0:0:
163,198,130040,1,0,0:0:0:0:
322,194,130134,1,2,2:0:0:0:
362,147,130227,1,0,0:0:0:0:
339,90,130321,1,0,0:0:0:0:
282,68,130415,1,0,0:0:0:0:
55,326,130509,6,0,P|47:243|168:201,1,203.999993774414,2|2,1:0|0:0,0:0:0:0:
296,193,131071,1,0,0:0:0:0:
457,326,131259,2,0,P|465:243|348:200,1,203.999993774414,4|2,2:0|0:0,0:0:0:0:
216,193,131821,1,2,0:0:0:0:
392,217,132009,6,0,L|408:317,1,101.999996887207,2|0,1:0|0:0,0:0:0:0:
227,98,132384,2,0,L|213:199,1,101.999996887207,2|0,0:0|0:0,0:0:0:0:
387,225,132759,1,4,0:0:0:0:
442,158,132946,1,0,0:0:0:0:
420,74,133134,1,2,0:0:0:0:
341,40,133321,1,2,0:0:0:0:
71,323,133509,6,0,L|298:308,1,203.999993774414,2|2,1:0|0:0,0:0:0:0:
157,229,134071,1,0,0:0:0:0:
462,235,134259,2,0,L|235:220,1,203.999993774414,4|2,2:0|0:0,0:0:0:0:
376,141,134821,1,0,0:0:0:0:
115,325,135009,5,2,2:0:0:0:
74,248,135196,1,0,0:0:0:0:
108,168,135384,1,0,0:0:0:0:
190,143,135571,1,2,0:0:0:0:
331,147,135759,5,2,0:0:0:0:
190,143,135946,1,0,0:0:0:0:
369,147,136134,2,0,P|399:103|392:36,1,101.999996887207,2|0,0:0|0:0,0:0:0:0:
62,230,136509,5,2,0:0:0:0:
16,159,136696,1,0,0:0:0:0:
55,84,136884,1,0,0:0:0:0:
137,67,137071,1,0,0:0:0:0:
271,315,137259,5,2,0:0:0:0:
317,244,137446,1,0,0:0:0:0:
278,169,137634,1,0,0:0:0:0:
196,152,137821,1,0,0:0:0:0:
358,226,138009,5,2,0:0:0:0:
404,155,138196,1,0,0:0:0:0:
365,80,138384,1,0,0:0:0:0:
283,63,138571,1,0,0:0:0:0:
148,275,138759,2,0,L|254:272,1,93.5000028533936,2|0,0:0|0:0,0:0:0:0:
368,208,139134,1,0,0:0:0:0:
233,140,139321,1,2,0:0:0:0:
373,274,139509,5,2,0:0:0:0:
421,220,139696,1,0,0:0:0:0:
401,150,139884,1,2,0:0:0:0:
337,117,140071,1,2,0:0:0:0:
197,212,140259,5,2,0:0:0:0:
149,158,140446,1,0,0:0:0:0:
169,88,140634,1,2,0:0:0:0:
233,55,140821,1,2,0:0:0:0:
371,207,141009,5,0,0:0:0:0:
404,143,141196,1,0,0:0:0:0:
370,79,141384,1,0,0:0:0:0:
299,69,141571,1,2,0:0:0:0:
157,71,141759,5,2,0:0:0:0:
256,192,141852,12,2,145509,0:0:0:0:
256,192,146868,5,2,0:0:0:0:
