osu file format v14

[General]
AudioFilename: audio.mp3
AudioLeadIn: 0
PreviewTime: 77259
Countdown: 0
SampleSet: Soft
StackLeniency: 0.7
Mode: 2
LetterboxInBreaks: 0
EpilepsyWarning: 1
WidescreenStoryboard: 1

[Editor]
Bookmarks: 12759,94134
DistanceSpacing: 1.8
BeatDivisor: 8
GridSize: 32
TimelineZoom: 1.7

[Metadata]
Title:Marigold (feat. Guriri)
TitleUnicode:Marigold (feat. 구리리)
Artist:M2U
ArtistUnicode:M2U
Creator:Spectator
Version:Cup
Source:Deemo
Tags:Ascendance Sinnoh グリリ NICODE Rayark SQUAR SQUARE MUSIQ Narae Hans Diversity.
BeatmapID:1366079
BeatmapSetID:605710

[Difficulty]
HPDrainRate:3
CircleSize:3
OverallDifficulty:6
ApproachRate:6
SliderMultiplier:1.3
SliderTickRate:2

[Events]
//Background and Video events
0,0,"marigold_.png",0,0
//Break Periods
2,102209,111459
//Storyboard Layer 0 (Background)
//Storyboard Layer 1 (Fail)
//Storyboard Layer 2 (Pass)
//Storyboard Layer 3 (Foreground)
//Storyboard Sound Samples

[TimingPoints]
1509,375,4,2,0,50,1,0
13509,-100,4,2,0,40,0,0
14259,-100,4,2,0,37,0,0
15759,500,4,2,0,35,1,0
16009,545.454545454546,4,2,0,35,1,0
16281,750,4,2,0,35,1,0
16656,714.285714285714,4,2,0,35,1,0
17013,600,4,2,0,30,1,0
17163,-100,4,2,0,50,0,0
18009,375,4,2,0,70,1,0
19509,-83.3333333333333,4,2,0,70,0,1
19602,-83.3333333333333,4,2,0,60,0,0
33009,-83.3333333333333,4,2,0,50,0,0
33946,-90.9090909090909,4,2,0,50,0,0
34509,-90.9090909090909,4,2,0,45,0,0
36009,-90.9090909090909,4,2,0,25,0,0
37509,-100,4,2,0,35,0,0
45009,-100,4,2,0,39,0,0
46509,-90.9090909090909,4,2,0,46,0,0
48009,-90.9090909090909,4,2,0,49,0,0
58884,-90.9090909090909,4,2,0,51,0,0
60009,-83.3333333333333,4,2,0,60,0,1
60102,-83.3333333333333,4,2,0,60,0,0
72009,-90.9090909090909,4,2,0,50,0,0
75009,-83.3333333333333,4,2,0,65,0,1
75102,-83.3333333333333,4,2,0,65,0,0
77259,-83.3333333333333,4,2,0,70,0,0
77634,-66.6666666666667,4,2,0,70,0,0
78009,-83.3333333333333,4,2,0,80,0,1
89915,-83.3333333333333,4,2,0,80,0,0
90009,-83.3333333333333,4,2,0,80,0,1
102009,-90.9090909090909,4,2,0,80,0,0
112509,-90.9090909090909,4,2,0,55,0,0
123009,-83.3333333333333,4,2,0,58,0,0
123759,-83.3333333333333,4,2,0,55,0,0
124509,-83.3333333333333,4,2,0,65,0,1
124602,-83.3333333333333,4,2,0,65,0,0
130884,-83.3333333333333,4,2,0,60,0,0
135665,-83.3333333333333,4,2,0,56,0,0
136040,-83.3333333333333,4,2,0,52,0,0
136509,-90.9090909090909,4,2,0,45,0,0
139321,-100,4,2,0,39,0,0
141009,-100,4,2,0,36,0,0
141759,-100,4,2,0,34,0,0
141852,-100,4,2,0,20,0,0

[Colours]
Combo1 : 255,255,98
Combo2 : 249,132,167
Combo3 : 251,219,108
Combo4 : 81,192,240

[HitObjects]
164,318,1509,6,0,P|144:267|294:237,1,260,2|0,0:0|0:0,0:0:0:0:
442,223,3009,1,2,0:0:0:0:
240,220,3759,1,0,0:0:0:0:
449,307,4509,6,0,P|467:252|311:211,1,260,2|0,0:0|0:0,0:0:0:0:
139,196,6009,2,0,P|121:141|277:100,1,260,2|0,0:0|0:0,0:0:0:0:
383,89,7134,1,0,0:0:0:0:
261,87,7509,5,2,0:0:0:0:
125,313,8259,2,0,P|110:257|135:191,1,130
280,219,9009,2,0,P|340:223|435:64,1,260,2|0,0:0|0:0,0:0:0:0:
310,26,10134,1,0,0:0:0:0:
190,78,10509,6,0,P|170:175|192:212,1,130,2|0,0:0|0:0,0:0:0:0:
296,306,11259,2,0,P|345:297|393:224,1,130,2|0,0:0|0:0,0:0:0:0:
263,180,12009,6,0,P|214:171|166:98,1,130,2|0,0:0|0:0,0:0:0:0:
322,306,12759,2,0,P|342:209|320:172,1,130,2|0,0:0|0:0,0:0:0:0:
168,253,13509,6,0,P|136:203|283:126,1,260,2|0,0:0|0:0,0:0:0:0:
430,113,14634,1,0,0:0:0:0:
309,182,15009,1,2,0:0:0:0:
432,239,15384,1,0,0:0:0:0:
296,334,15759,6,0,P|250:300|249:276,1,65,2|0,0:0|0:0,0:0:0:0:
340,239,16281,2,0,P|366:202|350:165,1,65,2|0,0:0|0:0,0:0:0:0:
164,148,17163,1,2,0:0:0:0:
163,306,19509,6,0,P|154:252|255:192,1,155.999995239258,4|0,0:0|0:0,0:0:0:0:
344,186,20259,2,0,P|353:132|252:72,1,155.999995239258,0|0,1:0|0:0,0:0:0:0:
155,283,21009,6,0,P|97:240|246:152,1,311.999990478516,4|0,0:0|1:0,0:0:0:0:
367,133,22134,1,0,0:0:0:0:
229,225,22509,6,0,P|168:187|192:98,1,155.999995239258,4|0,0:0|0:0,0:0:0:0:
297,116,23259,1,0,1:0:0:0:
182,117,23634,1,0,1:0:0:0:
344,144,24009,6,0,P|398:121|476:182,2,155.999995239258,4|2|0,0:0|0:0|1:0,0:0:0:0:
187,147,25134,1,2,0:0:0:0:
302,252,25509,6,0,P|323:181|285:103,1,155.999995239258,4|0,2:0|0:0,0:0:0:0:
157,237,26259,2,0,P|116:170|277:108,1,311.999990478516,0|4,1:0|0:0,0:0:0:0:
399,109,27384,5,2,0:0:0:0:
264,190,27759,2,0,P|210:165|129:215,1,155.999995239258,0|0,1:0|0:0,0:0:0:0:
271,296,28509,2,0,P|325:271|406:321,1,155.999995239258,4|0,0:0|0:0,0:0:0:0:
451,232,29259,2,0,P|431:70|276:56,1,311.999990478516,0|4,1:0|0:0,0:0:0:0:
103,232,30759,5,0,3:0:0:0:
326,234,31509,1,0,3:0:0:0:
123,312,32259,2,0,P|86:262|111:175,1,155.999995239258,0|0,3:0|0:0,0:0:0:0:
216,182,33009,5,4,0:0:0:0:
397,222,33571,1,2,0:0:0:0:
414,167,33759,1,0,0:0:0:0:
261,150,34321,1,2,0:0:0:0:
244,95,34509,1,0,0:0:0:0:
256,192,34884,12,0,37134,0:0:0:0:
334,301,37509,6,0,P|385:280|397:198,1,130,2|0,0:0|0:0,0:0:0:0:
263,193,38259,2,0,P|212:172|200:90,1,130,2|0,0:0|0:0,0:0:0:0:
323,108,39009,5,2,0:0:0:0:
198,103,39384,1,0,0:0:0:0:
323,108,39759,1,2,0:0:0:0:
137,348,40509,6,0,P|178:271|302:233,1,195,2|0,0:0|0:0,0:0:0:0:
340,229,41259,1,2,0:0:0:0:
199,229,41634,1,0,0:0:0:0:
375,348,42009,6,0,P|334:271|210:233,1,195,2|0,0:0|0:0,0:0:0:0:
172,229,42759,1,2,0:0:0:0:
312,232,43134,2,0,P|342:201|340:102,1,130,0|2,0:0|0:0,0:0:0:0:
206,116,43884,5,0,0:0:0:0:
339,114,44259,1,2,0:0:0:0:
182,120,44634,1,0,0:0:0:0:
42,214,45009,6,0,P|53:158|109:116,1,130,2|0,0:0|0:0,0:0:0:0:
242,118,45759,1,2,0:0:0:0:
114,117,46134,1,0,0:0:0:0:
286,112,46509,6,0,P|332:95|403:157,1,143.000004364014,2|0,0:0|0:0,0:0:0:0:
215,216,47259,1,2,0:0:0:0:
336,218,47634,1,0,1:0:0:0:
190,309,48009,6,0,P|126:278|106:203,2,143.000004364014,4|0|0,0:0|0:0|1:0,0:0:0:0:
319,307,49134,1,0,0:0:0:0:
193,334,49509,6,0,P|156:295|156:205,1,143.000004364014,4|0,0:0|0:0,0:0:0:0:
276,205,50259,1,0,1:0:0:0:
152,200,50634,1,0,0:0:0:0:
301,321,51009,6,0,P|378:296|278:175,1,286.000008728028,4|0,0:0|1:0,0:0:0:0:
159,168,52134,1,0,0:0:0:0:
298,178,52509,6,0,P|338:160|431:192,1,143.000004364014,4|0,0:0|0:0,0:0:0:0:
325,256,53259,1,2,0:0:0:0:
426,337,53634,1,0,1:0:0:0:
305,356,54009,6,0,P|263:324|244:218,1,143.000004364014,4|0,0:0|0:0,0:0:0:0:
376,233,54759,2,0,P|418:201|437:95,1,143.000004364014,0|2,1:0|0:0,0:0:0:0:
338,359,55509,5,2,0:0:0:0:
230,312,55884,1,2,0:0:0:0:
339,275,56259,1,2,0:0:0:0:
454,314,56634,1,2,0:0:0:0:
308,313,57009,6,0,P|257:275|241:187,1,143.000004364014,4|0,0:0|0:0,0:0:0:0:
375,193,57759,1,2,1:0:0:0:
239,191,58134,1,2,1:0:0:0:
395,239,58509,6,0,P|461:199|364:146,1,214.500006546021,4|0,0:0|0:0,0:0:0:0:
301,176,59259,2,0,P|296:112|424:47,1,214.500006546021,0|0,1:0|0:0,0:0:0:0:
342,118,60009,6,0,P|254:86|140:162,1,233.999992858887,4|0,0:0|0:0,0:0:0:0:
210,232,60759,2,0,P|240:285|169:347,1,155.999995239258,2|0,1:0|0:0,0:0:0:0:
39,238,61509,6,0,P|36:158|161:92,1,233.999992858887,4|0,0:0|0:0,0:0:0:0:
247,94,62259,2,0,P|311:86|385:144,1,155.999995239258,2|0,1:0|0:0,0:0:0:0:
224,284,63009,5,6,2:0:0:0:
341,357,63384,1,0,0:0:0:0:
211,344,63759,2,0,P|161:303|147:213,1,155.999995239258,0|0,1:0|0:0,0:0:0:0:
301,218,64509,6,0,P|351:177|365:87,1,155.999995239258,4|0,0:0|0:0,0:0:0:0:
233,93,65259,1,0,1:0:0:0:
355,90,65634,1,0,0:0:0:0:
211,198,66009,6,0,P|155:170|58:176,2,155.999995239258,4|0|2,2:0|0:0|1:0,0:0:0:0:
354,131,67134,1,0,0:0:0:0:
211,198,67509,6,0,P|155:170|58:176,1,155.999995239258,4|0,0:0|0:0,0:0:0:0:
220,264,68259,2,0,P|278:217|279:134,1,155.999995239258,2|0,1:0|0:0,0:0:0:0:
131,197,69009,6,0,P|108:131|248:60,1,233.999992858887,4|0,0:0|0:0,0:0:0:0:
301,51,69759,2,0,P|227:101|162:78,1,155.999995239258,0|0,1:0|0:0,0:0:0:0:
327,252,70509,6,0,P|385:203|377:123,1,155.999995239258,2|0,0:0|0:0,0:0:0:0:
217,184,71259,2,0,P|159:135|167:55,1,155.999995239258,2|0,0:0|0:0,0:0:0:0:
283,62,72009,5,2,0:0:0:0:
79,128,72759,1,2,0:0:0:0:
323,220,73509,1,2,0:0:0:0:
74,281,74259,1,2,0:0:0:0:
329,339,75009,6,0,P|378:316|397:212,1,155.999995239258,4|0,0:0|0:0,0:0:0:0:
259,175,75759,1,0,1:0:0:0:
389,174,76134,1,0,0:0:0:0:
216,275,76509,6,0,P|181:232|222:137,1,155.999995239258,0|0,1:0|1:0,1:0:0:0:
274,145,77071,1,0,1:0:0:0:
342,147,77259,1,0,1:0:0:0:
190,140,77634,1,4,1:2:0:0:
363,235,78009,6,0,P|421:194|389:128,1,155.999995239258,4|0,1:2|0:0,0:0:0:0:
269,115,78759,1,0,1:0:0:0:
385,115,79134,1,0,0:0:0:0:
233,198,79509,6,0,P|171:187|81:230,2,155.999995239258,0|0|0,1:0|0:0|1:0,0:0:0:0:
312,263,80446,2,0,P|362:225|320:126,1,155.999995239258,4|0,1:2|0:0,0:0:0:0:
258,139,81009,5,4,1:2:0:0:
107,138,81384,1,0,0:0:0:0:
256,209,81759,2,0,P|303:180|415:193,1,155.999995239258,0|0,1:0|0:0,0:0:0:0:
337,258,82321,6,0,P|294:198|341:123,1,155.999995239258,4|0,1:2|0:0,0:0:0:0:
415,174,82884,2,0,P|458:114|411:39,1,155.999995239258,4|0,1:2|1:0,0:0:0:0:
356,50,83446,1,0,1:0:0:0:
287,55,83634,1,0,1:0:0:0:
142,265,84009,6,0,P|109:216|140:124,1,155.999995239258,0|0,1:2|0:0,0:0:0:0:
277,217,84759,2,0,P|320:199|344:95,1,155.999995239258,0|0,1:0|0:0,0:0:0:0:
265,50,85321,1,0,0:0:0:0:
176,81,85509,6,0,P|109:93|41:43,1,155.999995239258,0|0,1:0|0:0,0:0:0:0:
207,237,86259,2,0,P|274:249|342:199,1,155.999995239258,0|0,1:0|0:0,0:0:0:0:
196,330,87009,6,0,P|172:273|251:194,1,155.999995239258,0|0,1:0|0:0,0:0:0:0:
364,192,87759,1,0,1:0:0:0:
224,193,88134,1,0,0:0:0:0:
371,275,88509,6,0,L|389:114,1,155.999995239258,4|4,1:2|1:2,0:0:0:0:
302,211,89071,1,0,0:0:0:0:
246,132,89259,1,0,1:0:0:0:
316,50,89446,2,0,L|414:52,1,77.999997619629,0|0,0:0|1:0,0:0:0:0:
228,317,90009,6,0,P|144:275|314:252,1,467.999985717774,4|0,0:2|0:0,0:0:0:0:
204,332,91509,6,0,P|148:305|61:347,2,155.999995239258,0|0|0,1:0|0:0|1:0,0:0:0:0:
280,348,92446,2,0,P|332:330|365:231,1,155.999995239258,0|0,1:0|0:0,0:0:0:0:
300,197,93009,5,0,1:0:0:0:
161,198,93384,1,0,0:0:0:0:
300,197,93759,2,0,P|352:145|352:59,1,155.999995239258,0|0,1:0|0:0,0:0:0:0:
190,352,94509,6,4,P|170:305|234:222,1,155.999995239258
217,137,95259,1,4,0:0:0:0:
169,96,95446,1,0,0:0:0:0:
100,97,95634,1,4,0:0:0:0:
239,278,96009,6,0,P|301:251|202:186,1,233.999992858887,0|0,1:0|1:0,0:0:0:0:
35,168,97134,1,0,1:0:0:0:
219,278,97509,6,0,P|269:268|351:110,1,233.999992858887,0|0,1:0|1:0,0:0:0:0:
160,129,98634,1,0,1:0:0:0:
310,255,99009,6,0,P|357:208|250:135,1,233.999992858887,0|0,1:0|1:0,1:0:0:0:
128,137,100134,1,0,1:0:0:0:
304,278,100509,6,0,L|316:183,2,77.999997619629,0|0|0,1:0|0:0|0:0,0:0:0:0:
227,346,101071,2,0,P|149:358|77:317,1,155.999995239258,0|0,1:0|1:0,0:0:0:0:
56,266,101634,5,4,1:2:0:0:
78,208,101821,1,0,0:0:0:0:
130,184,102009,1,2,0:0:0:0:
316,301,112509,6,0,P|397:255|271:194,1,286.000008728028,2|0,0:0|0:0,0:0:0:0:
165,279,114009,2,0,P|135:225|188:149,1,143.000004364014,2|0,0:0|0:0,0:0:0:0:
303,157,114759,1,2,0:0:0:0:
131,314,115509,6,0,P|92:259|197:180,1,214.500006546021,2|0,0:0|0:0,0:0:0:0:
256,174,116259,2,0,P|318:151|337:58,1,143.000004364014,2|0,0:0|0:0,0:0:0:0:
189,128,117009,5,2,0:0:0:0:
314,127,117384,1,0,0:0:0:0:
164,193,117759,2,0,L|128:51,1,143.000004364014,2|2,0:0|0:0,0:0:0:0:
285,235,118509,6,0,P|356:203|247:90,1,286.000008728028,2|0,0:0|0:0,0:0:0:0:
139,118,119634,1,0,0:0:0:0:
299,210,120009,6,0,P|354:191|436:222,1,143.000004364014,2|0,0:0|0:0,0:0:0:0:
254,323,120759,2,0,P|212:282|233:194,1,143.000004364014,2|0,0:0|0:0,0:0:0:0:
352,203,121509,6,0,P|394:162|373:74,1,143.000004364014,2|0,0:0|0:0,0:0:0:0:
265,88,122259,1,2,0:0:0:0:
140,85,122634,1,0,0:0:0:0:
271,278,123009,6,0,P|344:241|271:147,1,233.999992858887,2|0,0:0|0:0,0:0:0:0:
207,185,123759,2,0,P|156:153|171:52,1,155.999995239258,2|0,0:0|0:0,0:0:0:0:
301,80,124509,5,2,1:0:0:0:
163,90,124884,1,0,0:0:0:0:
305,220,125259,2,0,L|327:35,1,155.999995239258,4|0,0:2|0:0,0:0:0:0:
167,210,126009,5,2,1:0:0:0:
305,220,126384,1,0,0:0:0:0:
163,350,126759,2,0,L|141:165,1,155.999995239258,4|0,0:0|0:0,0:0:0:0:
293,243,127509,6,0,P|352:217|227:164,1,311.999990478516,2|0,1:0|1:0,0:0:0:0:
367,148,128634,1,2,0:0:0:0:
229,235,129009,6,0,P|181:197|210:102,1,155.999995239258,0|0,1:0|0:0,0:0:0:0:
321,56,129759,2,0,P|391:52|465:115,1,155.999995239258,0|0,1:0|0:0,0:0:0:0:
305,331,130509,6,0,P|240:288|332:211,1,233.999992858887,2|0,1:0|0:0,0:0:0:0:
392,139,131259,2,0,P|358:82|260:53,1,155.999995239258,4|0,0:0|0:0,0:0:0:0:
158,310,132009,6,0,P|150:229|269:161,1,233.999992858887,2|0,1:0|0:0,0:0:0:0:
347,213,132759,2,0,P|364:164|286:100,1,155.999995239258,4|0,0:0|0:0,0:0:0:0:
155,298,133509,6,0,P|131:237|213:189,1,155.999995239258,0|0,1:0|0:0,0:0:0:0:
357,298,134259,2,0,P|381:237|299:189,1,155.999995239258,4|0,0:0|0:0,0:0:0:0:
174,255,135009,6,0,P|128:219|152:119,1,155.999995239258,2|0,2:0|0:0,0:0:0:0:
208,98,135571,1,0,0:0:0:0:
281,113,135759,2,0,P|339:118|391:213,1,155.999995239258,2|0,0:0|0:0,0:0:0:0:
279,274,136509,5,2,0:0:0:0:
111,200,137259,1,2,0:0:0:0:
252,114,138009,1,2,0:0:0:0:
423,188,138759,1,2,0:0:0:0:
249,141,139509,5,2,0:0:0:0:
105,191,140071,1,0,0:0:0:0:
120,107,140259,1,2,0:0:0:0:
288,282,140821,1,0,0:0:0:0:
275,199,141009,1,2,0:0:0:0:
105,206,141571,1,0,0:0:0:0:
191,204,141759,1,2,0:0:0:0:
256,192,142134,12,0,145509,0:0:0:0:
