osu file format v14

[General]
AudioFilename: audio.mp3
AudioLeadIn: 0
PreviewTime: 77259
Countdown: 0
SampleSet: Soft
StackLeniency: 0.7
Mode: 2
LetterboxInBreaks: 0
EpilepsyWarning: 1
WidescreenStoryboard: 1

[Editor]
Bookmarks: 94134
DistanceSpacing: 1
BeatDivisor: 4
GridSize: 32
TimelineZoom: 1.7

[Metadata]
Title:Marigold (feat. Guriri)
TitleUnicode:Marigold (feat. 구리리)
Artist:M2U
ArtistUnicode:M2U
Creator:Spectator
Version:Ascendance's Salad
Source:Deemo
Tags:Ascendance Sinnoh グリリ NICODE Rayark SQUAR SQUARE MUSIQ Narae Hans Diversity.
BeatmapID:1349503
BeatmapSetID:605710

[Difficulty]
HPDrainRate:4
CircleSize:3.3
OverallDifficulty:7
ApproachRate:7
SliderMultiplier:1.3
SliderTickRate:2

[Events]
//Background and Video events
0,0,"marigold_.png",0,0
//Break Periods
2,103709,111609
//Storyboard Layer 0 (Background)
//Storyboard Layer 1 (Fail)
//Storyboard Layer 2 (Pass)
//Storyboard Layer 3 (Foreground)
//Storyboard Sound Samples

[TimingPoints]
1509,375,4,2,0,50,1,0
13509,-100,4,2,0,40,0,0
14259,-100,4,2,0,37,0,0
15759,500,4,2,0,35,1,0
16009,545.454545454546,4,2,0,35,1,0
16281,750,4,2,0,35,1,0
16656,714.285714285714,4,2,0,35,1,0
17013,600,4,2,0,30,1,0
17163,-100,4,2,0,50,0,0
18009,375,4,2,0,10,1,0
19509,-83.3333333333333,4,2,0,70,0,1
19602,-83.3333333333333,4,2,0,60,0,0
33009,-83.3333333333333,4,2,0,50,0,0
33946,-90.9090909090909,4,2,0,50,0,0
34509,-90.9090909090909,4,2,0,45,0,0
36009,-90.9090909090909,4,2,0,25,0,0
37509,-100,4,2,0,35,0,0
45009,-100,4,2,0,39,0,0
46509,-90.9090909090909,4,2,0,46,0,0
48009,-90.9090909090909,4,2,0,49,0,0
58884,-90.9090909090909,4,2,0,51,0,0
60009,-83.3333333333333,4,2,0,60,0,1
60102,-83.3333333333333,4,2,0,60,0,0
72009,-90.9090909090909,4,2,0,50,0,0
75009,-83.3333333333333,4,2,0,65,0,1
75102,-83.3333333333333,4,2,0,65,0,0
77259,-83.3333333333333,4,2,0,70,0,0
77634,-66.6666666666667,4,2,0,70,0,0
78009,-76.9230769230769,4,2,0,80,0,1
89915,-76.9230769230769,4,2,0,80,0,0
90009,-76.9230769230769,4,2,0,80,0,1
102009,-90.9090909090909,4,2,0,80,0,0
102384,-90.9090909090909,4,2,0,70,0,0
102759,-90.9090909090909,4,2,0,60,0,0
103134,-90.9090909090909,4,2,0,47,0,0
112509,-90.9090909090909,4,2,0,55,0,0
123009,-83.3333333333333,4,2,0,58,0,0
123759,-83.3333333333333,4,2,0,55,0,0
124509,-83.3333333333333,4,2,0,65,0,1
124602,-83.3333333333333,4,2,0,65,0,0
130884,-83.3333333333333,4,2,0,60,0,0
135665,-83.3333333333333,4,2,0,56,0,0
136040,-83.3333333333333,4,2,0,52,0,0
136509,-90.9090909090909,4,2,0,45,0,0
139321,-100,4,2,0,39,0,0
141009,-100,4,2,0,36,0,0
141759,-100,4,2,0,34,0,0
141852,-100,4,2,0,20,0,0

[Colours]
Combo1 : 255,255,98
Combo2 : 249,132,167
Combo3 : 251,219,108
Combo4 : 81,192,240

[HitObjects]
71,296,1509,6,0,P|75:191|210:109,1,260,2|2,0:0|0:0,0:0:0:0:
357,109,2634,1,0,0:0:0:0:
194,109,3009,2,0,P|198:214|333:296,1,260,2|2,0:0|0:0,0:0:0:0:
480,296,4134,1,2,0:0:0:0:
296,349,4509,6,0,L|264:268,2,65,2|0|0,0:0|0:0|0:0,0:0:0:0:
416,210,5259,2,0,L|255:213,1,130,2|2,0:0|0:0,0:0:0:0:
111,115,6009,2,0,L|243:128,1,130,2|2,0:0|0:0,0:0:0:0:
395,74,6759,2,0,L|383:212,1,130,2|2,0:0|0:0,0:0:0:0:
221,293,7509,6,0,L|147:302,2,65,0|2|2,0:0|0:0|0:0,0:0:0:0:
376,231,8259,2,0,L|233:214,2,130,2|2|2,0:0|0:0|0:0,0:0:0:0:
231,212,9384,1,2,0:0:0:0:
441,161,9759,2,0,L|424:298,1,130,2|2,0:0|0:0,0:0:0:0:
146,340,10509,6,0,P|97:265|169:182,1,195,2|2,0:0|0:0,0:0:0:0:
278,173,11259,2,0,L|501:171,1,195,2|2,0:0|0:0,0:0:0:0:
314,170,12009,2,0,P|270:244|334:337,1,195,2|2,0:0|0:0,0:0:0:0:
454,338,12759,2,0,L|259:336,1,195,2|2,0:0|0:0,0:0:0:0:
151,332,13509,5,2,0:0:0:0:
410,337,14259,1,2,0:0:0:0:
150,327,15009,1,2,0:0:0:0:
361,231,15759,6,0,L|371:152,1,65,2|0,0:0|0:0,0:0:0:0:
246,122,16281,2,0,L|235:44,1,65,2|0,0:0|0:0,0:0:0:0:
390,66,17013,2,0,L|437:62,1,32.5,0|2,0:0|0:0,0:0:0:0:
256,192,18009,12,0,19134,0:0:0:0:
422,74,19509,5,4,0:0:0:0:
290,145,19884,1,2,0:0:0:0:
293,222,20071,1,0,0:0:0:0:
458,282,20259,2,0,P|472:211|353:113,1,233.999992858887,2|0,0:0|0:0,0:0:0:0:
192,256,21009,6,0,P|147:158|256:72,1,233.999992858887,4|0,0:0|0:0,0:0:0:0:
355,61,21759,2,0,L|176:42,1,155.999995239258,4|2,0:0|0:0,0:0:0:0:
34,143,22509,2,0,L|210:127,1,155.999995239258,4|2,1:2|0:0,0:0:0:0:
299,201,23071,1,0,0:0:0:0:
155,331,23259,2,0,P|84:306|86:205,1,155.999995239258,2|2,1:0|1:0,0:0:0:0:
234,111,24009,5,0,1:0:0:0:
352,175,24290,2,0,L|342:231,1,38.9999988098145,0|2,0:0|0:0,0:0:0:0:
463,298,24759,2,0,L|291:315,1,155.999995239258,2|4,1:0|2:2,0:0:0:0:
51,339,25509,2,0,P|42:258|173:157,1,233.999992858887,0|2,1:0|0:0,0:0:0:0:
324,249,26259,2,0,P|357:192|258:67,1,233.999992858887,2|0,0:0|0:0,0:0:0:0:
141,42,27009,6,0,L|156:205,1,155.999995239258,4|2,0:0|0:0,0:0:0:0:
357,201,27759,2,0,L|370:365,1,155.999995239258,2|2,0:0|0:0,0:0:0:0:
177,270,28509,1,0,1:0:0:0:
320,183,28790,2,0,L|328:141,1,38.9999988098145,2|2,0:0|2:0,0:0:0:0:
221,77,29071,1,0,0:0:0:0:
333,79,29259,1,4,0:0:0:0:
133,77,29634,1,2,0:0:0:0:
424,327,30009,6,0,P|457:252|370:134,1,233.999992858887,4|2,0:0|0:0,0:0:0:0:
274,128,30759,1,2,0:0:0:0:
77,337,31509,6,0,P|44:262|131:144,1,233.999992858887,2|2,0:0|0:0,0:0:0:0:
227,138,32259,1,2,0:0:0:0:
51,144,32634,1,2,0:0:0:0:
213,68,33009,6,0,L|383:68,2,155.999995239258,4|2|0,0:0|0:0|0:0,0:0:0:0:
78,69,34134,1,0,0:0:0:0:
275,255,34509,2,0,L|293:101,1,143.000004364014,0|2,0:0|0:0,0:0:0:0:
256,192,35259,12,2,37134,0:0:0:0:
113,344,37509,6,0,P|46:246|141:133,1,260,2|2,0:0|0:0,0:0:0:0:
273,131,38634,1,2,0:0:0:0:
83,56,39009,2,0,L|285:70,1,195,2|0,0:0|0:0,0:0:0:0:
391,135,39759,2,0,L|387:281,1,130,2|0,0:0|0:0,0:0:0:0:
209,322,40509,6,0,L|473:337,1,260,2|2,0:0|0:0,0:0:0:0:
288,304,41634,1,0,0:0:0:0:
456,82,42009,2,0,L|444:229,1,130,2|2,0:0|0:0,0:0:0:0:
234,260,42759,2,0,L|76:275,1,130,2|2,0:0|0:0,0:0:0:0:
408,356,43509,6,0,P|464:248|368:141,1,260,2|2,0:0|0:0,0:0:0:0:
239,123,44634,1,2,0:0:0:0:
394,25,45009,2,0,L|181:32,1,195,2|0,0:0|0:0,0:0:0:0:
92,121,45759,2,0,L|251:115,1,130,2|2,0:0|0:0,0:0:0:0:
356,147,46509,5,0,0:0:0:0:
160,145,46884,1,2,0:0:0:0:
413,347,47259,2,0,L|418:201,1,143.000004364014,0|0,1:0|1:0,0:0:0:0:
240,235,48009,6,0,L|144:243,2,71.5000021820069,4|0|2,0:0|0:0|0:0,0:0:0:0:
394,227,48759,2,0,L|419:69,1,143.000004364014,0|0,1:0|0:0,0:0:0:0:
226,314,49509,2,0,L|210:146,1,143.000004364014,4|2,0:0|0:0,0:0:0:0:
315,117,50071,2,0,L|394:103,1,71.5000021820069,0|0,0:0|1:0,0:0:0:0:
196,52,50634,1,2,2:0:0:0:
409,329,51009,6,0,P|446:247|371:144,1,214.500006546021,6|2,0:0|0:0,0:0:0:0:
271,112,51759,2,0,L|124:127,1,143.000004364014,0|2,1:0|0:0,0:0:0:0:
340,231,52509,6,0,L|181:245,2,143.000004364014,2|0|0,0:0|1:0|1:0,0:0:0:0:
128,190,53634,1,2,1:0:0:0:
442,322,54009,6,0,P|476:246|329:108,1,286.000008728028,4|0,0:0|1:0,0:0:0:0:
179,106,55134,1,2,0:0:0:0:
355,309,55509,2,0,L|355:158,1,143.000004364014,2|2,0:0|2:0,0:0:0:0:
139,79,56259,2,0,L|139:231,1,143.000004364014,0|2,1:0|0:0,0:0:0:0:
279,188,57009,6,0,L|124:187,2,143.000004364014,4|2|2,1:2|2:0|1:0,0:0:0:0:
111,342,58134,2,0,L|102:252,1,71.5000021820069,2|0,1:0|0:0,0:0:0:0:
265,271,58509,5,4,0:0:0:0:
406,267,58884,1,4,0:0:0:0:
432,238,58977,1,0,0:0:0:0:
444,204,59071,1,2,0:0:0:0:
430,169,59165,1,0,0:0:0:0:
401,144,59259,1,4,0:0:0:0:
305,106,59634,1,2,0:0:0:0:
38,178,60009,6,0,P|37:244|190:338,1,233.999992858887,4|2,0:0|0:0,0:0:0:0:
289,368,60759,2,0,P|287:312|136:228,1,233.999992858887,2|0,1:0|0:0,0:0:0:0:
39,166,61509,6,0,P|111:183|269:125,1,233.999992858887,4|2,0:0|0:0,0:0:0:0:
363,40,62259,2,0,L|377:207,1,155.999995239258,2|0,1:0|0:0,0:0:0:0:
208,286,63009,1,0,1:0:0:0:
481,324,63759,6,2,L|164:352,1,311.999990478516,6|6,0:0|0:0,0:0:0:0:
305,209,64884,2,2,L|294:381,1,155.999995239258,2|2,0:0|1:0,0:0:0:0:
88,282,65634,1,2,0:0:0:0:
365,267,66009,6,0,P|414:174|322:75,1,233.999992858887,2|2,1:0|0:0,0:0:0:0:
225,50,66759,2,0,L|-18:60,1,233.999992858887,4|2,2:0|0:0,0:0:0:0:
114,102,67509,2,0,P|145:156|65:291,1,233.999992858887,2|2,1:0|0:0,0:0:0:0:
166,306,68259,2,0,L|356:317,1,155.999995239258,4|2,0:0|0:0,0:0:0:0:
506,231,69009,5,0,1:0:0:0:
331,124,69571,2,0,L|240:129,1,77.999997619629,0|2,0:0|1:0,0:0:0:0:
94,215,70321,2,0,L|187:226,1,77.999997619629,0|0,0:0|1:0,0:0:0:0:
337,292,71071,2,0,L|258:303,1,77.999997619629,0|4,0:0|0:0,0:0:0:0:
91,346,71634,2,0,L|81:260,1,77.999997619629,0|2,0:0|0:0,0:0:0:0:
189,257,72009,5,2,0:0:0:0:
232,201,72196,1,0,0:0:0:0:
235,131,72384,1,2,0:0:0:0:
197,72,72571,1,2,0:0:0:0:
131,46,72759,1,2,0:0:0:0:
197,72,72946,1,0,0:0:0:0:
235,131,73134,1,2,0:0:0:0:
232,201,73321,1,2,0:0:0:0:
179,256,73509,6,0,L|79:262,2,71.5000021820069,2|0|0,0:0|0:0|0:0,0:0:0:0:
298,250,74071,1,2,0:0:0:0:
411,356,74259,2,0,L|415:201,1,143.000004364014,2|0,0:0|0:0,0:0:0:0:
147,63,75009,6,0,P|97:118|170:255,1,233.999992858887,2|0,1:0|0:0,0:0:0:0:
285,271,75759,2,0,P|223:270|61:348,1,233.999992858887,4|0,1:2|1:0,0:0:0:0:
220,350,76509,2,0,P|244:286|143:168,1,233.999992858887,4|8,0:0|3:0,0:0:0:0:
33,161,77259,2,0,L|202:152,1,155.999995239258,4|2,0:0|1:0,0:0:0:0:
477,253,78009,6,0,P|339:311|244:259,1,253.499988395691,4|0,0:0|0:0,0:0:0:0:
368,317,78759,2,0,P|387:243|307:169,1,168.999992263794,4|0,0:0|0:0,0:0:0:0:
164,129,79321,2,0,L|78:142,2,84.4999961318971,2|0|0,0:0|1:0|0:0,0:0:0:0:
321,147,79884,1,0,3:0:0:0:
188,99,80259,1,0,1:0:0:0:
354,76,80446,2,0,P|402:141|359:219,1,168.999992263794,4|2,1:2|0:0,0:0:0:0:
149,312,81009,6,0,L|40:317,2,84.4999961318971,4|2|2,0:0|0:0|2:0,0:0:0:0:
248,309,81571,1,0,0:0:0:0:
347,263,81759,1,4,1:2:0:0:
372,221,81852,1,0,0:0:0:0:
373,173,81946,1,2,0:0:0:0:
351,131,82040,1,0,0:0:0:0:
310,105,82134,1,0,1:0:0:0:
127,97,82321,5,4,0:0:0:0:
341,55,82884,1,0,1:0:0:0:
201,28,83259,1,0,1:0:0:0:
394,72,83446,2,0,L|387:175,1,84.4999961318971,0|0,1:0|1:0,0:0:0:0:
227,217,84009,5,4,0:0:0:0:
349,276,84196,2,0,L|452:264,2,84.4999961318971,2|0|0,0:0|0:0|0:0,0:0:0:0:
218,323,84759,2,0,L|172:320,2,42.2499980659486
334,238,85134,2,0,L|348:141,1,84.4999961318971,2|2,0:0|0:0,0:0:0:0:
133,55,85509,5,4,0:0:0:0:
232,121,85696,2,0,L|243:176,2,42.2499980659486,2|0|2,0:0|0:0|1:0,0:0:0:0:
133,55,86071,1,0,0:0:0:0:
331,55,86259,1,4,0:0:0:0:
440,139,86446,2,0,L|451:194,2,42.2499980659486,2|0|2,0:0|0:0|1:0,0:0:0:0:
331,55,86821,1,0,0:0:0:0:
212,53,87009,5,4,1:2:0:0:
379,272,87196,1,2,0:0:0:0:
408,233,87289,1,0,0:0:0:0:
420,186,87383,1,2,0:0:0:0:
389,96,87571,1,2,0:0:0:0:
212,53,87758,1,0,1:0:0:0:
111,105,88134,2,0,L|124:219,1,84.4999961318971,2|0,0:0|2:0,0:0:0:0:
313,203,88509,5,2,1:0:0:0:
446,327,88884,2,0,L|419:236,1,84.4999961318971,4|0,0:0|1:0,0:0:0:0:
213,215,89259,2,0,L|20:190,1,168.999992263794,0|2,1:0|1:0,0:0:0:0:
337,323,90009,6,0,P|356:244|243:123,1,253.499988395691,4|0,0:0|0:0,0:0:0:0:
79,107,90759,2,0,L|274:94,1,168.999992263794,4|2,0:0|0:0,0:0:0:0:
425,137,91509,2,0,P|474:199|421:271,1,168.999992263794,0|0,3:0|3:0,0:0:0:0:
204,337,92259,5,0,1:0:0:0:
364,258,92446,2,0,L|382:61,1,168.999992263794,4|4,0:0|1:2,0:0:0:0:
264,91,93009,1,4,1:2:0:0:
448,155,93384,1,2,0:0:0:0:
253,99,93759,2,0,L|141:108,2,84.4999961318971,2|2|2,1:0|0:0|0:0,0:0:0:0:
371,88,94321,1,0,1:0:0:0:
198,40,94509,5,4,0:0:0:0:
129,106,94696,1,2,1:1:0:0:
115,201,94884,1,4,1:2:0:0:
162,284,95071,1,2,1:0:0:0:
251,320,95259,1,4,0:0:0:0:
155,347,95446,1,2,1:1:0:0:
328,346,95634,1,4,1:2:0:0:
197,286,96009,5,0,1:0:0:0:
136,169,96196,1,4,1:2:0:0:
178,169,96289,1,0,0:0:0:0:
230,168,96383,1,0,0:0:0:0:
406,284,96571,2,0,P|441:205|376:139,1,168.999992263794,4|2,0:0|0:0,0:0:0:0:
281,80,97134,2,0,L|179:85,1,84.4999961318971,4|2,0:0|1:0,0:0:0:0:
86,95,97509,5,0,1:0:0:0:
213,212,97696,2,0,L|219:113,1,84.4999961318971,4|4,1:2|0:0,0:0:0:0:
56,306,98071,2,0,P|166:352|296:293,1,253.499988395691,4|4,0:0|1:2,0:0:0:0:
172,292,99009,6,0,L|64:300,2,84.4999961318971,0|4|2,1:0|1:2|0:0,0:0:0:0:
295,223,99571,2,0,L|391:232,2,84.4999961318971,0|2|2,1:2|0:0|0:0,0:0:0:0:
139,161,100134,2,0,L|124:59,1,84.4999961318971,4|0,1:2|0:0,0:0:0:0:
255,76,100509,6,0,L|451:90,1,168.999992263794,4|2,1:2|0:0,0:0:0:0:
248,277,101071,2,0,P|220:204|219:172,2,84.4999961318971,0|8|0,1:0|1:3|1:3,0:0:0:0:
457,111,101634,1,4,1:2:0:0:
256,192,102009,12,2,103509,0:0:0:0:
110,338,112509,6,0,P|70:256|193:103,1,286.000008728028,2|2,0:0|0:0,0:0:0:0:
326,114,113634,1,2,0:0:0:0:
157,108,114009,2,0,L|391:126,1,214.500006546021,2|2,0:0|0:0,0:0:0:0:
484,188,114759,2,0,L|454:346,1,143.000004364014,2|0,0:0|0:0,0:0:0:0:
162,314,115509,6,0,P|131:223|222:133,1,214.500006546021,2|2,0:0|0:0,0:0:0:0:
309,96,116259,2,0,L|89:69,1,214.500006546021,2|0,0:0|0:0,0:0:0:0:
28,222,117009,2,0,L|273:206,1,214.500006546021,2|0,0:0|0:0,0:0:0:0:
364,196,117759,1,2,0:0:0:0:
153,122,118134,1,2,0:0:0:0:
408,71,118509,6,0,P|469:123|405:307,1,286.000008728028,2|2,0:0|0:0,0:0:0:0:
279,338,119634,2,0,L|184:340,2,71.5000021820069,0|2|2,0:0|0:0|0:0,0:0:0:0:
426,328,120384,1,2,0:0:0:0:
257,251,120759,2,0,L|85:255,1,143.000004364014,2|2,0:0|0:0,0:0:0:0:
365,91,121509,6,0,L|352:242,1,143.000004364014,2|2,0:0|0:0,0:0:0:0:
206,237,122259,2,0,L|189:389,1,143.000004364014,2|2,0:0|0:0,0:0:0:0:
424,276,123009,2,0,P|457:213|363:89,1,233.999992858887,2|0,0:0|0:0,0:0:0:0:
198,41,123759,2,0,P|158:105|263:231,1,233.999992858887,2|0,0:0|0:0,0:0:0:0:
391,292,124509,6,0,L|142:320,1,233.999992858887,2|2,1:0|0:0,0:0:0:0:
61,269,125259,2,0,P|25:198|117:79,1,233.999992858887,4|2,2:0|0:0,0:0:0:0:
248,32,126009,2,0,P|292:95|209:215,1,233.999992858887,2|2,1:0|0:0,0:0:0:0:
96,241,126759,2,0,L|341:267,1,233.999992858887,4|0,2:0|0:0,0:0:0:0:
434,327,127509,5,2,1:0:0:0:
237,358,127884,1,2,0:0:0:0:
434,327,128259,2,0,L|445:155,1,155.999995239258,4|4,2:0|0:0,0:0:0:0:
286,100,129009,2,0,P|214:88|63:152,1,233.999992858887,4|2,2:0|0:0,0:0:0:0:
161,220,129759,2,0,L|331:202,1,155.999995239258,2|2,1:0|2:0,0:0:0:0:
87,338,130509,6,0,P|48:270|144:155,1,233.999992858887,2|0,1:0|0:0,0:0:0:0:
236,236,131259,2,0,P|272:171|170:61,1,233.999992858887,4|2,2:0|0:0,0:0:0:0:
63,67,132009,2,0,L|320:48,1,233.999992858887,2|0,1:0|0:0,0:0:0:0:
399,66,132759,2,0,L|422:231,1,155.999995239258,4|2,0:0|0:0,0:0:0:0:
220,326,133509,5,2,1:0:0:0:
393,254,134071,2,0,L|412:154,1,77.999997619629,0|4,0:0|2:0,0:0:0:0:
229,136,134821,2,0,L|215:49,1,77.999997619629,0|2,0:0|2:0,0:0:0:0:
393,254,135571,2,0,L|412:154,1,77.999997619629,2|2,0:0|0:0,0:0:0:0:
229,136,136134,1,2,0:0:0:0:
56,288,136509,6,0,L|6:204,2,71.5000021820069,2|0|0,0:0|0:0|0:0,0:0:0:0:
207,166,137259,2,0,L|220:73,2,71.5000021820069,2|0|0,0:0|0:0|0:0,0:0:0:0:
358,300,138009,2,0,L|346:207,2,71.5000021820069,2|0|0,0:0|0:0|0:0,0:0:0:0:
472,165,138759,2,0,L|519:79,2,71.5000021820069,2|0|0,0:0|0:0|0:0,0:0:0:0:
312,89,139509,6,0,L|109:69,1,195,2|2,0:0|0:0,0:0:0:0:
221,118,140259,1,2,0:0:0:0:
69,274,140821,2,0,L|61:195,1,65,2|0,0:0|0:0,0:0:0:0:
256,344,141571,2,0,L|266:273,1,65,2|2,0:0|0:0,0:0:0:0:
256,192,142134,12,2,145509,0:0:0:0:
