osu file format v14

[General]
AudioFilename: audio.mp3
AudioLeadIn: 0
PreviewTime: 77637
Countdown: 0
SampleSet: Soft
StackLeniency: 0.7
Mode: 0
LetterboxInBreaks: 0
EpilepsyWarning: 1
WidescreenStoryboard: 1

[Editor]
Bookmarks: 19584,30084,37584,48084,54084,60084,69084,78084,101709,112584,124584,136584
DistanceSpacing: 0.83
BeatDivisor: 4
GridSize: 16
TimelineZoom: 1

[Metadata]
Title:Marigold (feat. Guriri)
TitleUnicode:Marigold (feat. Guriri)
Artist:M2U
ArtistUnicode:M2U
Creator:SLM
Version:Insane
Source:Deemo
Tags:Narae
BeatmapID:1702761
BeatmapSetID:739346

[Difficulty]
HPDrainRate:6
CircleSize:4.2
OverallDifficulty:7.5
ApproachRate:8.7
SliderMultiplier:1.5
SliderTickRate:1

[Events]
//Background and Video events
0,0,"bg.jpg",0,0
//Break Periods
//Storyboard Layer 0 (Background)
//Storyboard Layer 1 (Fail)
//Storyboard Layer 2 (Pass)
//Storyboard Layer 3 (Foreground)
//Storyboard Sound Samples

[TimingPoints]
1512,375,4,2,1,35,1,0
1512,-142.857142857143,4,2,1,35,0,0
12012,-166.666666666667,4,2,1,35,0,0
19324,-166.666666666667,4,2,1,55,0,0
19512,-71.4285714285714,4,2,1,55,0,0
19887,-83.3333333333333,4,2,1,55,0,0
30012,-83.3333333333333,4,2,1,45,0,0
32262,-90.9090909090909,4,2,1,45,0,0
32637,-83.3333333333333,4,2,1,45,0,0
33012,-90.9090909090909,4,2,1,40,0,0
33762,-83.3333333333333,4,2,1,40,0,0
37512,-142.857142857143,4,2,1,40,0,0
46512,-83.3333333333333,4,2,1,50,0,0
46887,-100,4,2,1,50,0,0
47262,-83.3333333333333,4,2,1,50,0,0
47637,-100,4,2,1,50,0,0
48012,-125,4,2,1,45,0,0
57012,-100,4,2,1,45,0,0
57762,-83.3333333333333,4,2,1,45,0,0
58137,-76.9230769230769,4,2,1,45,0,0
58512,-90.9090909090909,4,2,1,45,0,0
58887,-142.857142857143,4,2,1,45,0,0
59262,-142.857142857143,4,2,1,55,0,0
60762,-111.111111111111,4,2,1,55,0,0
61512,-100,4,2,1,55,0,0
62262,-125,4,2,1,55,0,0
63762,-111.111111111111,4,2,1,55,0,0
64512,-100,4,2,1,55,0,0
65262,-111.111111111111,4,2,1,55,0,0
66012,-142.857142857143,4,2,1,50,0,0
66762,-111.111111111111,4,2,1,50,0,0
67512,-100,4,2,1,50,0,0
68262,-125,4,2,1,50,0,0
69012,-142.857142857143,4,2,1,50,0,0
69762,-153.846153846154,4,2,1,50,0,0
70512,-166.666666666667,4,2,1,45,0,0
72012,-166.666666666667,4,2,1,35,0,0
74824,-166.666666666667,4,2,1,65,0,0
75012,-125,4,2,1,65,0,0
75762,-100,4,2,1,65,0,0
76512,-111.111111111111,4,2,1,65,0,0
77074,-83.3333333333333,4,2,1,65,0,0
77637,-83.3333333333333,4,1,1,65,0,1
78012,-71.4285714285714,4,1,1,65,0,1
78949,-83.3333333333333,4,1,1,65,0,1
82324,-71.4285714285714,4,1,1,65,0,1
84012,-83.3333333333333,4,1,1,65,0,1
85512,-76.9230769230769,4,1,1,65,0,1
87012,-71.4285714285714,4,1,1,65,0,1
89637,-100,4,1,1,65,0,0
90012,-76.9230769230769,4,1,1,65,0,1
90762,-71.4285714285714,4,1,1,65,0,1
93387,-83.3333333333333,4,1,1,65,0,1
95262,-71.4285714285714,4,1,1,65,0,1
96574,-76.9230769230769,4,1,1,65,0,1
97137,-66.6666666666667,4,1,1,65,0,1
98074,-83.3333333333333,4,1,1,65,0,1
98637,-71.4285714285714,4,1,1,65,0,1
99574,-76.9230769230769,4,1,1,65,0,1
100137,-66.6666666666667,4,1,1,65,0,1
100512,-76.9230769230769,4,1,1,65,0,1
101637,-83.3333333333333,4,2,1,45,0,0
112512,-125,4,2,1,40,0,0
117762,-125,4,2,1,50,0,0
121512,-100,4,2,1,50,0,0
122637,-76.9230769230769,4,2,1,50,0,0
123012,-90.9090909090909,4,2,1,50,0,0
123387,-142.857142857143,4,2,1,50,0,0
123762,-142.857142857143,4,2,0,50,0,0
125262,-111.111111111111,4,2,0,50,0,0
126012,-100,4,2,0,50,0,0
126762,-125,4,2,0,50,0,0
128262,-111.111111111111,4,2,0,50,0,0
129012,-100,4,2,0,50,0,0
129762,-111.111111111111,4,2,0,50,0,0
130512,-142.857142857143,4,2,0,50,0,0
131262,-111.111111111111,4,2,0,50,0,0
132012,-100,4,2,0,50,0,0
132762,-125,4,2,0,50,0,0
133512,-142.857142857143,4,2,0,50,0,0
134262,-153.846153846154,4,2,0,50,0,0
135012,-166.666666666667,4,2,0,50,0,0
136512,-166.666666666667,4,2,0,40,0,0
138012,-166.666666666667,4,2,0,35,0,0
139512,-200,4,2,0,30,0,0
141012,-222.222222222222,4,2,0,30,0,0

[HitObjects]
434,89,1512,6,0,P|383:76|333:90,1,104.999996795654,2|0,0:0|0:0,0:0:0:0:
234,106,2262,1,2,0:0:0:0:
234,106,2637,2,0,P|238:133|236:158,1,52.4999983978272,2|2,0:0|0:0,0:0:0:0:
204,193,3012,6,0,P|154:178|103:190,1,104.999996795654,2|0,0:0|0:0,0:0:0:0:
65,280,3574,1,0,0:0:0:0:
7,205,3762,1,2,0:0:0:0:
7,205,4137,2,0,P|3:178|4:152,1,52.4999983978272,2|2,0:0|0:0,0:0:0:0:
94,164,4512,6,0,P|98:137|97:111,1,52.4999983978272,2|0,0:0|0:0,0:0:0:0:
28,45,4887,1,2,0:0:0:0:
114,22,5074,1,0,0:0:0:0:
197,148,5262,5,0,0:0:0:0:
247,71,5449,1,0,0:0:0:0:
197,148,5637,2,0,P|196:174|200:200,1,52.4999983978272,2|0,0:0|0:0,0:0:0:0:
164,282,6012,6,0,B|207:295|240:280|240:280|273:265|318:276,1,157.499995193482,2|2,0:0|0:0,0:0:0:0:
403,250,6762,2,0,P|403:223|404:197,1,52.4999983978272,2|0,0:0|0:0,0:0:0:0:
407,103,7137,1,2,0:0:0:0:
331,154,7324,1,2,0:0:0:0:
486,159,7512,6,0,P|486:133|485:107,2,52.4999983978272,2|2|0,0:0|0:0|0:0,0:0:0:0:
400,68,8262,1,2,0:0:0:0:
320,121,8637,2,0,L|267:114,1,52.4999983978272,2|2,0:0|0:0,0:0:0:0:
173,97,9012,6,0,L|226:90,1,52.4999983978272,2|0,0:0|0:0,0:0:0:0:
329,207,9387,2,0,L|276:200,1,52.4999983978272,2|2,0:0|0:0,0:0:0:0:
186,181,9762,5,2,0:0:0:0:
156,262,9949,1,2,0:0:0:0:
76,223,10137,1,2,0:0:0:0:
46,303,10324,1,2,0:0:0:0:
126,354,10512,6,0,L|238:336,1,104.999996795654,2|0,0:0|0:0,0:0:0:0:
281,262,11074,1,2,0:0:0:0:
230,337,11262,6,0,L|126:320,1,104.999996795654,2|0,0:0|0:0,0:0:0:0:
75,245,11824,1,2,0:0:0:0:
135,166,12012,6,0,L|224:152,1,89.9999972534181,2|0,0:0|0:0,0:0:0:0:
313,136,12574,1,2,0:0:0:0:
256,55,12762,6,0,L|208:48,1,44.999998626709,2|2,0:0|0:0,0:0:0:0:
135,72,13137,2,0,L|90:65,1,44.999998626709,2|2,0:0|0:0,0:0:0:0:
57,141,13512,6,0,L|61:185,2,44.999998626709,0|0|0,0:0|0:0|0:0,0:0:0:0:
109,192,14262,6,0,L|97:235,2,44.999998626709,0|0|0,0:0|0:0|0:0,0:0:0:0:
132,274,15012,6,0,P|141:251|157:236,1,44.999998626709,0|0,0:0|0:0,0:0:0:0:
237,201,15387,1,2,0:0:0:0:
256,192,15762,12,0,18762,0:0:0:0:
462,182,19512,6,0,P|404:134|336:166,1,157.499995193482,6|0,0:0|0:0,0:0:0:0:
261,227,19887,2,0,L|246:184,3,44.999998626709,2|0|0|0,0:0|0:0|0:0|0:0,0:0:0:0:
275,96,20261,5,10,0:0:0:0:
260,66,20355,1,0,0:0:0:0:
232,49,20449,1,0,0:0:0:0:
199,47,20543,1,0,0:0:0:0:
170,64,20637,2,0,L|125:69,3,44.999998626709,2|0|0|0,0:0|0:0|0:0|0:0,0:0:0:0:
41,176,21012,6,0,B|46:125|46:125|29:95|29:95|35:47,1,134.999995880127,6|0,0:0|0:0,0:0:0:0:
138,160,21387,2,0,P|182:157|224:173,1,89.9999972534181,2|0,0:0|0:0,0:0:0:0:
320,299,21762,6,0,L|231:289,1,89.9999972534181,10|0,0:0|0:0,0:0:0:0:
174,343,22043,1,2,0:0:0:0:
174,343,22137,2,0,L|165:253,1,89.9999972534181,2|0,0:0|0:0,0:0:0:0:
340,148,22512,6,0,L|430:157,1,89.9999972534181,6|0,0:0|0:0,0:0:0:0:
490,117,22793,1,2,0:0:0:0:
490,117,22887,2,0,L|480:206,1,89.9999972534181,2|0,0:0|0:0,0:0:0:0:
431,332,23262,6,0,P|383:287|318:299,1,134.999995880127,10|0,0:0|0:0,0:0:0:0:
272,356,23637,2,0,L|254:267,1,89.9999972534181,2|0,0:0|0:0,0:0:0:0:
256,145,24012,6,0,L|166:154,1,89.9999972534181,6|0,0:0|0:0,0:0:0:0:
114,205,24293,1,2,0:0:0:0:
114,205,24387,2,0,L|104:115,1,89.9999972534181,2|0,0:0|0:0,0:0:0:0:
201,40,24762,6,0,L|246:44,3,44.999998626709,10|0|0|0,0:0|0:0|0:0|0:0,0:0:0:0:
336,75,25137,2,0,L|385:64,3,44.999998626709,10|0|0|0,0:0|0:0|0:0|0:0,0:0:0:0:
251,166,25512,6,0,L|255:255,1,89.9999972534181,6|0,0:0|0:0,0:0:0:0:
327,350,25887,1,2,0:0:0:0:
337,318,25981,1,0,0:0:0:0:
359,293,26075,1,0,0:0:0:0:
389,278,26169,1,0,0:0:0:0:
422,278,26262,6,0,L|471:267,3,44.999998626709,10|0|0|0,0:0|0:0|0:0|0:0,0:0:0:0:
404,182,26637,2,0,L|355:171,3,44.999998626709,2|0|0|0,0:0|0:0|0:0|0:0,0:0:0:0:
326,166,27012,5,6,0:0:0:0:
471,114,27199,1,0,0:0:0:0:
465,268,27387,2,0,L|474:224,2,44.999998626709,2|0|0,0:0|0:0|0:0,0:0:0:0:
383,95,27762,5,10,0:0:0:0:
350,79,27855,1,0,0:0:0:0:
313,76,27949,1,0,0:0:0:0:
279,88,28043,1,0,0:0:0:0:
252,112,28137,2,0,L|243:68,3,44.999998626709,2|0|0|0,0:0|0:0|0:0|0:0,0:0:0:0:
261,154,28512,6,0,L|172:144,1,89.9999972534181,6|0,0:0|0:0,0:0:0:0:
115,198,28793,1,2,0:0:0:0:
115,198,28887,2,0,L|106:108,1,89.9999972534181,2|0,0:0|0:0,0:0:0:0:
96,290,29262,6,0,P|73:286|51:286,3,44.999998626709,10|0|0|0,0:0|0:0|0:0|0:0,0:0:0:0:
197,310,29637,2,0,L|203:265,1,44.999998626709,10|0,0:0|0:0,0:0:0:0:
240,240,29824,2,0,L|261:200,1,44.999998626709,0|4,0:0|0:0,0:0:0:0:
357,172,30012,6,0,L|446:165,1,89.9999972534181,6|0,0:0|0:0,0:0:0:0:
484,65,30387,2,0,L|394:58,1,89.9999972534181,0|4,0:0|0:0,0:0:0:0:
253,110,30762,6,0,L|260:199,1,89.9999972534181,10|0,0:0|0:0,0:0:0:0:
357,172,31137,2,0,L|446:179,1,89.9999972534181,0|0,0:0|0:0,0:0:0:0:
312,266,31512,6,0,P|270:249|226:257,1,89.9999972534181,6|0,0:0|0:0,0:0:0:0:
213,263,31793,1,0,0:0:0:0:
201,272,31887,1,8,0:0:0:0:
138,336,32074,1,4,0:0:0:0:
55,292,32262,6,0,L|47:247,1,41.2500012588501,10|0,0:0|0:0,0:0:0:0:
80,228,32449,2,0,L|87:183,1,41.2500012588501,0|0,0:0|0:0,0:0:0:0:
7,176,32637,2,0,L|-1:131,3,44.999998626709,6|0|0|0,0:0|0:0|0:0|0:0,0:0:0:0:
86,90,33012,6,0,P|126:82|167:77,1,82.5000025177003,6|0,0:0|0:0,0:0:0:0:
247,129,33387,1,0,0:0:0:0:
247,129,33574,1,0,0:0:0:0:
87,187,33762,6,0,P|134:185|179:187,1,89.9999972534181,2|0,0:0|0:0,0:0:0:0:
176,186,34043,1,0,0:0:0:0:
176,186,34137,1,0,0:0:0:0:
254,256,34324,1,0,0:0:0:0:
287,129,34512,1,2,0:0:0:0:
256,192,34699,12,0,37137,2:0:0:0:
282,201,37512,6,0,P|332:190|385:193,2,104.999996795654,2|0|2,0:0|0:0|0:0,0:0:0:0:
223,265,38449,2,0,L|166:258,2,52.4999983978272,0|0|0,0:0|0:0|0:0,0:0:0:0:
141,332,39012,6,0,P|90:277|110:204,1,157.499995193482,2|0,0:0|0:0,0:0:0:0:
186,179,39762,2,0,B|203:127|203:127|198:77,1,104.999996795654,2|0,0:0|0:0,0:0:0:0:
186,179,40512,6,0,L|290:169,1,104.999996795654,2|0,0:0|0:0,0:0:0:0:
314,254,41074,1,0,0:0:0:0:
425,172,41262,2,0,P|399:165|373:165,1,52.4999983978272,2|0,0:0|0:0,0:0:0:0:
314,254,41637,2,0,P|339:248|366:248,1,52.4999983978272,0|0,0:0|0:0,0:0:0:0:
450,255,42012,6,0,L|449:308,2,52.4999983978272,2|0|2,0:0|0:0|0:0,0:0:0:0:
504,192,42574,1,2,0:0:0:0:
487,112,42762,5,2,0:0:0:0:
487,112,43137,2,0,L|436:98,1,52.4999983978272,0|0,0:0|0:0,0:0:0:0:
289,38,43512,6,0,P|337:20|389:29,2,104.999996795654,2|0|2,0:0|0:0|0:0,0:0:0:0:
230,97,44449,2,0,L|177:100,2,52.4999983978272,0|0|0,0:0|0:0|0:0,0:0:0:0:
344,107,45012,6,0,P|348:159|349:225,1,104.999996795654,2|0,0:0|0:0,0:0:0:0:
349,211,45574,1,0,0:0:0:0:
333,294,45762,2,0,P|307:287|281:286,1,52.4999983978272,2|0,0:0|0:0,0:0:0:0:
171,232,46137,2,0,P|196:226|223:225,1,52.4999983978272,0|0,0:0|0:0,0:0:0:0:
153,314,46512,6,0,P|102:272|101:206,1,134.999995880127,2|0,0:0|0:0,0:0:0:0:
100,207,46887,2,0,B|118:159|118:159|111:98,1,112.5,2|2,0:0|0:0,0:0:0:0:
56,44,47262,6,0,P|115:16|175:44,1,134.999995880127,2|0,0:0|0:0,0:0:0:0:
175,44,47637,2,0,L|304:38,1,112.5,2|0,0:0|0:0,0:0:0:0:
344,101,48012,6,0,L|348:160,2,60,6|0|2,0:0|0:0|0:0,0:0:0:0:
388,30,48574,1,0,0:0:0:0:
433,145,48762,6,0,L|428:204,2,60,10|0|2,0:0|0:0|0:0,0:0:0:0:
491,84,49324,1,0,0:0:0:0:
509,214,49512,6,0,P|428:204|398:287,1,180,2|0,0:0|0:0,0:0:0:0:
342,351,50262,2,0,L|222:344,1,120,2|0,0:0|0:0,0:0:0:0:
49,233,51012,6,0,P|78:227|108:225,1,60,2|0,0:0|0:0,0:0:0:0:
193,210,51387,2,0,P|199:239|201:269,1,60,2|0,0:0|0:0,0:0:0:0:
127,142,51762,6,0,P|180:118|237:132,1,120,2|0,0:0|0:0,0:0:0:0:
305,192,52324,1,2,0:0:0:0:
305,192,52512,6,0,B|362:173|362:173|419:191,1,120,2|2,0:0|0:0,0:0:0:0:
501,233,53074,1,0,0:0:0:0:
501,233,53262,2,0,L|501:174,1,60,2|0,0:0|0:0,0:0:0:0:
461,98,53637,2,0,P|431:96|401:97,1,60,2|0,0:0|0:0,0:0:0:0:
305,192,54012,6,0,L|301:251,2,60,2|0|2,0:0|0:0|0:0,0:0:0:0:
261,121,54574,1,0,0:0:0:0:
206,218,54762,6,0,L|212:276,2,60,10|0|2,0:0|0:0|0:0,0:0:0:0:
150,155,55324,1,0,0:0:0:0:
105,238,55512,6,0,L|46:245,1,60,2|0,0:0|0:0,0:0:0:0:
68,144,55887,2,0,L|128:151,1,60,2|0,0:0|0:0,0:0:0:0:
208,58,56262,6,0,L|148:65,1,60,2|0,0:0|0:0,0:0:0:0:
247,147,56637,2,0,L|307:154,1,60,2|0,0:0|0:0,0:0:0:0:
379,241,57012,6,0,L|398:122,1,112.5,2|0,0:0|0:0,0:0:0:0:
336,90,57387,2,0,L|339:128,3,37.5,2|2|2|2,0:0|0:0|0:0|0:0,0:0:0:0:
356,41,57762,5,2,0:0:0:0:
375,176,58137,2,0,P|313:151|337:89,1,146.249993305207,2|0,0:0|0:0,0:0:0:0:
275,150,58512,6,0,P|246:179|235:218,1,82.5000025177003,2|0,0:0|0:0,0:0:0:0:
275,345,58887,5,2,0:0:0:0:
249,322,58980,1,2,0:0:0:0:
219,307,59074,1,2,0:0:0:0:
186,299,59168,1,2,0:0:0:0:
153,299,59262,2,0,B|141:221|141:221|135:170|91:157,1,157.499995193482,2|0,0:0|0:0,0:0:0:0:
201,139,60012,6,0,L|98:159,1,104.999996795654,6|2,0:0|0:0,0:0:0:0:
28,102,60574,1,0,0:0:0:0:
233,167,60762,6,0,L|98:158,1,134.999995880127,10|2,0:0|0:0,0:0:0:0:
48,86,61324,1,0,0:0:0:0:
185,46,61512,6,0,L|346:23,1,150,6|2,0:0|0:0,0:0:0:0:
411,67,62074,1,0,0:0:0:0:
184,47,62262,6,0,L|310:59,1,120,10|2,0:0|0:0,0:0:0:0:
394,96,62824,1,0,0:0:0:0:
451,199,63012,6,0,P|395:178|337:210,1,120,6|2,0:0|0:0,0:0:0:0:
326,294,63762,6,0,P|288:292|256:286,1,67.4999979400635,10|0,0:0|0:0,0:0:0:0:
276,195,64137,2,0,P|314:197|346:203,1,67.4999979400635,2|0,0:0|0:0,0:0:0:0:
415,272,64512,2,0,P|443:204|415:132,1,150,6|2,0:0|0:0,0:0:0:0:
326,289,65262,6,0,L|258:286,1,67.4999979400635,10|0,0:0|0:0,0:0:0:0:
208,200,65637,2,0,L|276:194,1,67.4999979400635,2|0,0:0|0:0,0:0:0:0:
371,99,66012,6,0,L|362:203,1,104.999996795654,6|2,0:0|0:0,0:0:0:0:
326,289,66574,1,0,0:0:0:0:
347,69,66762,6,0,L|362:207,1,134.999995880127,10|2,0:0|0:0,0:0:0:0:
374,297,67324,1,0,0:0:0:0:
270,176,67512,6,0,L|108:165,1,150,6|2,0:0|0:0,0:0:0:0:
55,106,68074,1,0,0:0:0:0:
209,25,68262,6,0,L|203:145,1,120,10|2,0:0|0:0,0:0:0:0:
195,245,68824,1,0,0:0:0:0:
291,290,69012,6,0,L|402:274,1,104.999996795654,6|2,0:0|0:0,0:0:0:0:
486,279,69574,1,0,0:0:0:0:
442,191,69762,6,0,L|344:183,1,97.4999955368044,10|2,0:0|0:0,0:0:0:0:
257,192,70324,1,0,0:0:0:0:
285,110,70512,6,0,L|382:96,1,89.9999972534181,6|2,0:0|0:0,0:0:0:0:
458,105,71074,1,0,0:0:0:0:
416,15,71262,6,0,L|357:8,1,44.999998626709,10|0,0:0|0:0,0:0:0:0:
323,19,71637,2,0,L|264:12,1,44.999998626709,2|0,0:0|0:0,0:0:0:0:
196,19,72012,5,2,0:0:0:0:
143,86,72574,6,0,L|131:137,1,44.999998626709,0|2,0:0|0:0,0:0:0:0:
215,140,73324,6,0,L|215:189,1,44.999998626709,0|2,0:0|0:0,0:0:0:0:
293,209,74074,6,0,L|300:253,1,44.999998626709,0|0,0:0|0:0,0:0:0:0:
257,97,74824,5,0,0:0:0:0:
307,284,75012,2,0,L|320:165,1,120,6|2,0:0|0:0,0:0:0:0:
278,74,75574,5,0,0:0:0:0:
328,314,75762,2,0,L|320:165,1,150,10|2,0:0|0:0,0:0:0:0:
236,120,76324,5,0,0:0:0:0:
354,294,76512,2,0,L|319:163,1,134.999995880127,6|2,0:0|0:0,0:0:0:0:
295,69,77074,5,0,0:0:0:0:
309,286,77262,2,0,L|315:196,1,89.9999972534181,10|0,0:0|0:0,0:0:0:0:
319,162,77637,6,0,P|283:216|220:208,1,134.999995880127,8|0,0:0|0:0,0:0:0:0:
137,153,78012,5,2,0:0:0:0:
277,272,78199,2,0,P|282:323|260:370,2,104.999996795654,0|0|0,0:0|0:0|0:0,0:0:0:0:
212,89,78762,5,8,0:0:0:0:
145,264,78949,2,0,L|153:219,2,44.999998626709,0|0|0,0:0|0:0|0:0,0:0:0:0:
220,327,79324,5,0,0:0:0:0:
66,205,79512,2,0,L|21:197,2,44.999998626709,2|0|0,0:0|0:0|0:0,0:0:0:0:
270,163,79887,2,0,P|291:155|311:145,1,44.999998626709,0|0,0:0|0:0,0:0:0:0:
302,110,80074,2,0,P|319:95|334:79,1,44.999998626709,0|0,0:0|0:0,0:0:0:0:
377,213,80262,5,8,0:0:0:0:
233,39,80449,2,0,P|203:97|231:155,1,134.999995880127,2|0,0:0|0:0,0:0:0:0:
270,163,80824,2,0,P|291:155|311:145,1,44.999998626709,2|0,0:0|0:0,0:0:0:0:
450,64,81012,5,2,0:0:0:0:
512,205,81199,2,0,P|490:212|469:217,1,44.999998626709,0|0,0:0|0:0,0:0:0:0:
454,244,81387,2,0,P|431:243|409:240,1,44.999998626709,0|0,0:0|0:0,0:0:0:0:
377,213,81574,1,0,0:0:0:0:
195,108,81762,5,8,0:0:0:0:
158,88,81855,1,0,0:0:0:0:
118,85,81949,1,0,0:0:0:0:
80,98,82043,1,0,0:0:0:0:
51,126,82137,1,0,0:0:0:0:
149,270,82324,6,0,P|126:224|132:173,1,104.999996795654,2|0,0:0|0:0,0:0:0:0:
176,78,82699,2,0,L|228:81,1,52.4999983978272,0|0,0:0|0:0,0:0:0:0:
309,134,82887,2,0,P|332:88|326:37,1,104.999996795654,2|0,0:0|0:0,0:0:0:0:
350,26,83168,1,0,0:0:0:0:
376,31,83262,5,8,0:0:0:0:
367,209,83449,1,2,0:0:0:0:
140,92,83637,2,0,L|243:71,1,104.999996795654,8|2,0:0|0:0,0:0:0:0:
70,271,84012,5,2,0:0:0:0:
26,174,84199,2,0,L|70:165,1,44.999998626709,0|0,0:0|0:0,0:0:0:0:
103,185,84387,2,0,L|147:193,1,44.999998626709,0|0,0:0|0:0,0:0:0:0:
180,174,84574,1,0,0:0:0:0:
234,315,84762,6,0,P|231:292|231:270,3,44.999998626709,8|0|0|0,0:0|0:0|0:0|0:0,0:0:0:0:
283,196,85137,2,0,P|305:189|327:184,1,44.999998626709,0|0,0:0|0:0,0:0:0:0:
350,213,85324,2,0,P|372:213|395:216,1,44.999998626709,0|0,0:0|0:0,0:0:0:0:
495,335,85512,5,2,0:0:0:0:
483,241,85699,2,0,L|491:189,1,48.7499977684022,0|0,0:0|0:0,0:0:0:0:
475,158,85887,2,0,L|466:106,1,48.7499977684022,0|0,0:0|0:0,0:0:0:0:
486,67,86074,1,0,0:0:0:0:
350,213,86262,5,8,0:0:0:0:
235,161,86449,2,0,P|258:153|282:149,1,48.7499977684022,0|0,0:0|0:0,0:0:0:0:
338,71,86637,2,0,P|314:63|290:59,1,48.7499977684022,0|0,0:0|0:0,0:0:0:0:
203,60,86824,1,0,0:0:0:0:
12,222,87012,5,2,0:0:0:0:
157,333,87199,2,0,L|165:281,1,52.4999983978272,0|0,0:0|0:0,0:0:0:0:
124,201,87387,2,0,L|115:149,1,52.4999983978272,0|0,0:0|0:0,0:0:0:0:
172,83,87574,1,0,0:0:0:0:
240,215,87762,6,0,P|266:208|292:205,3,52.4999983978272,8|0|0|0,0:0|0:0|0:0|0:0,0:0:0:0:
341,178,88137,2,0,P|348:229|345:282,1,104.999996795654,0|0,0:0|0:0,0:0:0:0:
492,79,88512,5,2,0:0:0:0:
441,162,88699,1,0,0:0:0:0:
442,191,88793,1,0,0:0:0:0:
456,214,88887,2,0,P|481:209|505:199,3,52.4999983978272,2|0|2|2,0:0|0:0|0:0|0:0,0:0:0:0:
421,325,89262,2,0,P|396:314|371:310,1,52.4999983978272,8|0,0:0|0:0,0:0:0:0:
345,282,89449,2,0,P|318:280|292:285,1,52.4999983978272,2|2,0:0|0:0,0:0:0:0:
211,351,89637,6,0,P|203:295|206:239,1,112.5,8|0,0:0|0:0,0:0:0:0:
107,253,90012,6,0,P|133:163|224:144,1,194.999991073609,2|0,0:0|0:0,0:0:0:0:
119,348,90574,1,0,0:0:0:0:
12,214,90762,6,0,P|8:240|0:265,3,52.4999983978272,8|0|0|0,0:0|0:0|0:0|0:0,0:0:0:0:
85,154,91137,1,0,0:0:0:0:
85,154,91230,1,0,0:0:0:0:
85,154,91324,2,0,P|75:129|72:104,1,52.4999983978272,0|0,0:0|0:0,0:0:0:0:
196,32,91512,6,0,P|170:36|145:45,3,52.4999983978272,2|0|0|0,0:0|0:0|0:0|0:0,0:0:0:0:
252,105,91887,2,0,P|276:115|301:120,1,52.4999983978272,0|0,0:0|0:0,0:0:0:0:
354,45,92074,2,0,L|428:32,1,52.4999983978272,0|0,0:0|0:0,0:0:0:0:
496,19,92262,1,8,0:0:0:0:
422,235,92449,6,0,B|402:184|402:184|404:134,1,104.999996795654,2|0,0:0|0:0,0:0:0:0:
498,165,92824,1,2,0:0:0:0:
478,309,93012,6,0,P|429:327|379:316,1,104.999996795654,2|0,0:0|0:0,0:0:0:0:
317,134,93387,2,0,P|367:122|411:138,1,89.9999972534181,0|0,0:0|0:0,0:0:0:0:
284,340,93762,5,8,0:0:0:0:
237,194,93949,1,0,0:0:0:0:
329,261,94137,2,0,L|373:268,2,44.999998626709,0|0|2,0:0|0:0|0:0,0:0:0:0:
205,369,94512,5,8,0:0:0:0:
150,190,94699,1,0,0:0:0:0:
51,291,94887,2,0,P|93:278|136:289,1,89.9999972534181,2|0,0:0|0:0,0:0:0:0:
22,185,95262,5,8,0:0:0:0:
136,289,95449,1,2,0:0:0:0:
193,105,95637,2,0,P|142:93|95:113,1,104.999996795654,8|2,0:0|0:0,0:0:0:0:
231,255,96012,6,0,P|278:274|328:262,1,104.999996795654,2|0,0:0|0:0,0:0:0:0:
407,214,96387,1,0,0:0:0:0:
271,81,96574,6,0,L|282:178,1,97.4999955368044,8|0,0:0|0:0,0:0:0:0:
329,261,96949,1,2,0:0:0:0:
300,42,97137,6,0,L|288:153,1,112.500004291535,8|2,0:0|0:0,0:0:0:0:
189,240,97512,5,2,0:0:0:0:
80,83,97699,1,0,0:0:0:0:
201,125,97887,1,0,0:0:0:0:
88,248,98074,6,0,L|0:263,1,89.9999972534181,8|0,0:0|0:0,0:0:0:0:
4,168,98449,1,2,0:0:0:0:
126,286,98637,6,0,L|22:268,1,104.999996795654,8|2,0:0|0:0,0:0:0:0:
197,369,99012,6,0,P|247:357|299:358,2,104.999996795654,2|0|0,0:0|0:0|0:0,0:0:0:0:
287,242,99574,6,0,L|382:220,1,97.4999955368044,8|0,0:0|0:0,0:0:0:0:
480,187,99949,1,2,0:0:0:0:
296,184,100137,6,0,L|405:208,1,112.500004291535,8|2,0:0|0:0,0:0:0:0:
507,94,100512,6,0,P|459:92|416:115,1,97.4999955368044,2|0,0:0|0:0,0:0:0:0:
344,55,100887,1,2,0:0:0:0:
294,217,101074,5,8,0:0:0:0:
197,140,101262,2,0,P|191:116|181:94,2,48.7499977684022,2|0|2,0:0|0:0|0:0,0:0:0:0:
75,271,101637,6,0,P|119:276|164:283,1,89.9999972534181,6|0,0:0|0:0,0:0:0:0:
228,351,102012,1,2,0:0:0:0:
256,192,103512,12,2,105762,0:0:0:0:
256,192,106512,12,0,111012,0:0:0:0:
138,317,112512,6,0,P|179:244|260:267,1,180,2|0,0:0|0:0,0:0:0:0:
317,350,113262,1,2,0:0:0:0:
317,350,113449,2,0,P|346:353|376:351,2,60,0|0|0,0:0|0:0|0:0,0:0:0:0:
414,259,114012,6,0,P|414:203|407:129,1,120,2|0,0:0|0:0,0:0:0:0:
475,67,114574,1,0,0:0:0:0:
475,67,114762,2,0,P|500:107|495:185,1,120,2|0,0:0|0:0,0:0:0:0:
328,210,115512,6,0,P|270:195|210:201,1,120,2|0,0:0|0:0,0:0:0:0:
122,248,116074,1,0,0:0:0:0:
122,248,116262,2,0,B|113:203|113:203|126:130,1,120,2|0,0:0|0:0,0:0:0:0:
225,108,116824,5,0,0:0:0:0:
225,108,117012,2,0,P|174:38|88:39,1,180,2|0,0:0|0:0,0:0:0:0:
0,79,117762,1,2,0:0:0:0:
27,169,118137,2,0,L|85:155,1,60,2|0,0:0|0:0,0:0:0:0:
207,192,118512,6,0,L|211:251,2,60,2|0|0,0:0|0:0|0:0,0:0:0:0:
251,121,119074,1,0,0:0:0:0:
306,218,119262,6,0,L|300:276,2,60,2|0|0,0:0|0:0|0:0,0:0:0:0:
362,155,119824,1,0,0:0:0:0:
407,238,120012,6,0,L|466:245,1,60,2|0,0:0|0:0,0:0:0:0:
444,144,120387,2,0,L|384:151,1,60,0|0,0:0|0:0,0:0:0:0:
304,58,120762,6,0,L|364:65,1,60,2|0,0:0|0:0,0:0:0:0:
265,147,121137,2,0,L|205:154,1,60,0|0,0:0|0:0,0:0:0:0:
133,241,121512,6,0,L|114:122,1,112.5,2|0,0:0|0:0,0:0:0:0:
176,90,121887,2,0,L|173:128,3,37.5,2|2|2|2,0:0|0:0|0:0|0:0,0:0:0:0:
156,41,122262,5,2,0:0:0:0:
137,176,122637,2,0,P|199:151|175:89,1,146.249993305207,2|0,0:0|0:0,0:0:0:0:
237,150,123012,6,0,P|266:179|277:218,1,82.5000025177003,2|0,0:0|0:0,0:0:0:0:
237,345,123387,5,2,0:0:0:0:
263,322,123480,1,2,0:0:0:0:
293,307,123574,1,2,0:0:0:0:
326,299,123668,1,2,0:0:0:0:
359,299,123762,2,0,B|371:221|371:221|377:170|421:157,1,157.499995193482,2|0,0:0|0:0,0:0:0:0:
311,139,124512,6,0,L|414:159,1,104.999996795654,2|2,0:0|0:0,0:0:0:0:
484,102,125074,1,0,0:0:0:0:
279,167,125262,6,0,L|414:158,1,134.999995880127,10|2,0:0|0:0,0:0:0:0:
464,86,125824,1,0,0:0:0:0:
327,46,126012,6,0,L|166:23,1,150,2|2,0:0|0:0,0:0:0:0:
101,67,126574,1,0,0:0:0:0:
328,47,126762,6,0,L|202:59,1,120,10|2,0:0|0:0,0:0:0:0:
118,96,127324,1,0,0:0:0:0:
61,199,127512,6,0,P|117:178|175:210,1,120,2|2,0:0|0:0,0:0:0:0:
186,294,128262,6,0,P|224:292|256:286,1,67.4999979400635,10|0,0:0|0:0,0:0:0:0:
236,195,128637,2,0,P|198:197|166:203,1,67.4999979400635,2|0,0:0|0:0,0:0:0:0:
97,272,129012,2,0,P|69:204|97:132,1,150,2|2,0:0|0:0,0:0:0:0:
186,289,129762,6,0,L|254:286,1,67.4999979400635,10|0,0:0|0:0,0:0:0:0:
304,200,130137,2,0,L|236:194,1,67.4999979400635,2|0,0:0|0:0,0:0:0:0:
141,99,130512,6,0,L|150:203,1,104.999996795654,2|2,0:0|0:0,0:0:0:0:
186,289,131074,1,0,0:0:0:0:
165,69,131262,6,0,L|150:207,1,134.999995880127,2|2,0:0|0:0,0:0:0:0:
138,297,131824,1,0,0:0:0:0:
242,176,132012,6,0,L|404:165,1,150,2|2,0:0|0:0,0:0:0:0:
457,106,132574,1,0,0:0:0:0:
303,25,132762,6,0,L|309:145,1,120,2|2,0:0|0:0,0:0:0:0:
317,245,133324,1,0,0:0:0:0:
221,290,133512,6,0,L|110:274,1,104.999996795654,2|0,0:0|0:0,0:0:0:0:
26,279,134074,1,0,0:0:0:0:
70,191,134262,6,0,L|168:183,1,97.4999955368044,2|0,0:0|0:0,0:0:0:0:
255,192,134824,1,0,0:0:0:0:
227,110,135012,6,0,L|130:96,1,89.9999972534181,2|0,0:0|0:0,0:0:0:0:
54,105,135574,1,0,0:0:0:0:
96,15,135762,6,0,L|155:8,1,44.999998626709,2|0,0:0|0:0,0:0:0:0:
189,19,136137,2,0,L|248:12,1,44.999998626709,2|0,0:0|0:0,0:0:0:0:
309,46,136512,5,2,0:0:0:0:
388,86,137074,2,0,L|382:130,1,44.999998626709,0|2,0:0|0:0,0:0:0:0:
302,140,137824,2,0,L|307:184,1,44.999998626709,0|2,0:0|0:0,0:0:0:0:
385,211,138574,2,0,L|382:270,1,44.999998626709,0|2,0:0|0:0,0:0:0:0:
336,324,139324,5,0,0:0:0:0:
336,324,139512,2,0,P|283:306|225:324,1,112.5,2|0,0:0|0:0,0:0:0:0:
202,299,140262,2,0,P|184:246|199:192,1,112.5,2|0,0:0|0:0,0:0:0:0:
222,172,141012,6,0,L|322:186,1,101.249996910095,2|0,0:0|0:0,0:0:0:0:
350,169,141762,1,0,0:0:0:0:
256,192,142512,12,0,145512,0:0:0:0:
