osu file format v14

[General]
AudioFilename: Marigold.mp3
AudioLeadIn: 0
PreviewTime: 74727
Countdown: 0
SampleSet: Soft
StackLeniency: 0.7
Mode: 2
LetterboxInBreaks: 0
WidescreenStoryboard: 0

[Editor]
DistanceSpacing: 1
BeatDivisor: 8
GridSize: 4
TimelineZoom: 4.199998

[Metadata]
Title:Marigold (feat. Guriri)
TitleUnicode:Marigold (feat. 구리리)
Artist:M2U
ArtistUnicode:M2U
Creator:Hareimu
Version:Rain
Source:Deemo
Tags:nicode グリリ rayark inc magnolia myosotis squar square musiq square-musiq narae hans alice alternate story symphonic boss piano violin dnb drum'n'bass drum and bass diversity deif
BeatmapID:1260986
BeatmapSetID:596327

[Difficulty]
HPDrainRate:5
CircleSize:4
OverallDifficulty:9
ApproachRate:9
SliderMultiplier:1.75
SliderTickRate:2

[Events]
//Background and Video events
0,0,"BG3.jpg",0,0
//Break Periods
2,17363,18721
//Storyboard Layer 0 (Background)
//Storyboard Layer 1 (Fail)
//Storyboard Layer 2 (Pass)
//Storyboard Layer 3 (Foreground)
//Storyboard Sound Samples

[TimingPoints]
1509,375,4,2,1,50,1,0
15759,500,4,2,1,50,1,0
16009,545.454545454546,4,2,1,50,1,0
16281,750,4,2,1,50,1,0
16656,714.285714285714,4,2,1,50,1,0
17013,600,4,2,1,50,1,0
18009,375,4,2,1,100,1,0
19509,-100,4,2,1,100,0,0
33009,-100,4,2,1,75,0,0
48009,-100,4,2,1,85,0,0
60009,-100,4,2,1,100,0,0
72009,-100,4,2,1,75,0,0
74821,-100,4,2,1,100,0,0
78009,-100,4,2,1,100,0,1
89634,-100,4,2,1,100,0,0
90009,-100,4,2,1,100,0,1
101634,-100,4,2,1,75,0,0
103509,-100,4,2,1,50,0,0
111759,-100,4,2,1,75,0,0
122259,-100,4,2,1,100,0,0
136509,-100,4,2,1,75,0,0
139509,-100,4,2,1,65,0,0
140259,-100,4,2,1,55,0,0
141009,-100,4,2,1,40,0,0
141759,-100,4,2,1,33,0,0
141946,-100,4,2,1,25,0,0
144759,-100,4,2,1,15,0,0
146852,-100,4,2,1,5,0,0

[Colours]
Combo1 : 170,85,0
Combo2 : 255,185,0
Combo3 : 0,170,85
Combo4 : 191,191,191

[HitObjects]
71,51,1509,6,0,L|63:226,1,175,4|2,0:0|0:0,0:0:0:0:
343,186,2259,2,0,L|168:186,1,175,2|0,0:0|0:0,0:0:0:0:
441,51,3009,2,0,L|448:226,1,175,0|2,0:0|0:0,0:0:0:0:
71,51,3759,2,0,L|63:226,1,175,2|0,0:0|0:0,0:0:0:0:
383,108,4509,6,0,P|440:163|383:218,1,175,2|0,0:0|0:0,0:0:0:0:
297,216,5071,1,0,0:0:0:0:
122,229,5259,2,0,L|37:203,1,87.5,2|0,0:0|0:0,0:0:0:0:
167,179,5634,2,0,L|82:205,1,87.5
395,110,6009,6,0,P|479:245|346:334,1,350,2|2,0:0|0:0,0:0:0:0:
261,334,6946,1,0,0:0:0:0:
85,331,7134,2,0,L|174:319,1,87.5,2|0,0:0|0:0,0:0:0:0:
436,304,7509,6,0,L|311:304,1,87.5
174,305,7884,1,2,0:0:0:0:
436,80,8259,2,0,P|463:167|405:211,1,175,2|0,0:0|0:0,0:0:0:0:
124,157,9009,5,2,0:0:0:0:
63,98,9196,1,0,0:0:0:0:
76,184,9384,1,0,0:0:0:0:
163,187,9571,1,0,0:0:0:0:
338,182,9759,2,0,L|327:90,1,87.5,2|0,0:0|0:0,0:0:0:0:
154,89,10134,1,0,0:0:0:0:
417,105,10509,6,0,P|501:189|416:271,1,262.5,2|0,0:0|0:0,0:0:0:0:
125,297,11259,2,0,L|387:297,1,262.5,2|0,0:0|0:0,0:0:0:0:
90,283,12009,2,0,P|33:166|124:100,1,262.5,2|0,0:0|0:0,0:0:0:0:
299,103,12759,2,0,L|211:103,1,87.5,2|0,0:0|0:0,0:0:0:0:
37,103,13134,2,0,L|125:103,1,87.5
377,128,13509,5,2,0:0:0:0:
451,168,13696,1,0,0:0:0:0:
472,253,13884,1,0,0:0:0:0:
451,168,14071,1,0,0:0:0:0:
377,128,14259,2,0,L|288:128,1,87.5,2|0,0:0|0:0,0:0:0:0:
116,124,14634,2,0,L|203:124,1,87.5
378,126,15009,5,2,0:0:0:0:
304,166,15196,1,0,0:0:0:0:
281,250,15384,1,0,0:0:0:0:
304,166,15571,1,0,0:0:0:0:
378,126,15759,1,2,0:0:0:0:
168,128,16009,1,0,0:0:0:0:
378,126,16281,1,2,0:0:0:0:
85,93,16656,1,2,0:0:0:0:
256,90,17013,1,0,0:0:0:0:
242,90,17063,1,0,0:0:0:0:
263,90,17113,1,0,0:0:0:0:
234,90,17163,1,2,0:0:0:0:
432,187,19321,5,0,0:0:0:0:
454,187,19368,1,0,0:0:0:0:
432,187,19415,1,2,0:0:0:0:
211,165,19509,6,0,L|37:161,1,175,6|0,3:2|0:0,0:0:0:0:
80,161,19977,1,0,0:0:0:0:
132,161,20071,1,0,0:0:0:0:
193,162,20165,1,2,0:0:0:0:
368,321,20259,5,10,0:1:0:0:
427,310,20352,1,0,0:0:0:0:
460,288,20446,1,0,0:0:0:0:
476,247,20540,1,0,0:0:0:0:
475,205,20634,1,10,0:0:0:0:
450,168,20727,1,0,0:0:0:0:
407,156,20821,1,0,0:0:0:0:
354,154,20915,1,0,0:0:0:0:
156,140,21009,6,0,L|331:139,1,175,6|0,3:2|0:0,0:0:0:0:
68,144,21759,2,0,L|205:141,1,131.25,10|2,0:1|0:0,0:0:0:0:
243,144,22134,2,0,L|155:140,1,87.5,2|0,0:0|0:0,0:0:0:0:
479,144,22509,6,0,L|347:142,1,131.25,6|2,3:2|0:0,0:0:0:0:
324,178,22884,2,0,L|416:180,1,87.5,2|0,0:0|0:0,0:0:0:0:
456,183,23165,1,0,0:0:0:0:
236,260,23259,2,0,B|60:256,1,175,10|0,0:1|0:0,0:0:0:0:
405,239,24009,6,0,L|272:239,1,131.25,6|0,3:2|0:0,0:0:0:0:
318,238,24384,2,0,L|406:239,1,87.5,2|0,0:0|0:0,0:0:0:0:
117,68,24759,5,10,0:1:0:0:
73,90,24852,1,0,0:0:0:0:
51,127,24946,1,0,0:0:0:0:
44,169,25040,1,0,0:0:0:0:
51,127,25134,1,10,0:0:0:0:
73,90,25227,1,0,0:0:0:0:
117,68,25321,1,0,0:0:0:0:
169,71,25415,1,0,0:0:0:0:
421,240,25509,6,0,L|332:234,1,87.5,6|0,0:0|0:0,0:0:0:0:
168,229,25884,1,2,0:0:0:0:
130,188,25977,1,0,0:0:0:0:
136,147,26071,1,2,0:0:0:0:
192,144,26165,1,0,0:0:0:0:
383,145,26259,2,0,L|407:193,1,43.75,10|0,0:1|0:0,0:0:0:0:
326,191,26446,2,0,L|302:241,1,43.75,2|0,0:0|0:0,0:0:0:0:
384,231,26634,2,0,L|473:231,1,87.5,2|0,0:0|0:0,0:0:0:0:
206,228,27009,6,0,L|254:153,1,87.5,6|0,0:0|0:0,0:0:0:0:
78,152,27384,2,0,L|59:61,1,87.5,2|0,0:0|0:0,0:0:0:0:
366,93,27759,5,10,0:1:0:0:
410,91,27852,1,0,0:0:0:0:
434,54,27946,1,0,0:0:0:0:
444,97,28040,1,0,0:0:0:0:
437,141,28134,1,10,0:0:0:0:
415,179,28227,1,0,0:0:0:0:
379,203,28321,1,0,0:0:0:0:
328,210,28415,1,0,0:0:0:0:
65,167,28509,6,0,L|194:185,1,131.25,6|2,3:2|0:0,0:0:0:0:
238,111,28884,2,0,L|152:102,1,87.5,2|0,0:0|0:0,0:0:0:0:
414,140,29259,5,10,0:1:0:0:
370,138,29352,1,0,0:0:0:0:
346,101,29446,1,0,0:0:0:0:
336,144,29540,1,0,0:0:0:0:
343,188,29634,1,10,0:0:0:0:
365,226,29727,1,0,0:0:0:0:
401,250,29821,1,0,0:0:0:0:
452,257,29915,1,0,0:0:0:0:
186,101,30009,6,0,L|10:101,1,175,6|0,0:0|0:0,0:0:0:0:
99,102,30571,1,0,3:0:0:0:
403,101,30759,1,2,0:0:0:0:
315,101,30946,1,0,0:0:0:0:
447,280,31134,1,2,0:0:0:0:
359,280,31321,1,0,0:0:0:0:
52,249,31509,6,0,L|141:248,1,87.5,2|0,3:2|0:0,0:0:0:0:
228,248,31884,1,2,0:0:0:0:
54,251,32071,1,0,3:0:0:0:
401,247,32259,1,2,0:0:0:0:
440,227,32352,1,0,0:0:0:0:
451,184,32446,1,2,0:0:0:0:
440,227,32540,1,0,0:0:0:0:
401,247,32634,1,2,3:2:0:0:
225,95,32821,1,2,0:0:0:0:
172,95,32915,1,0,0:0:0:0:
345,108,33009,6,0,L|439:106,2,87.5,4|0|0,0:0|0:0|0:0,0:0:0:0:
257,109,33571,1,0,0:0:0:0:
432,88,33759,1,2,0:0:0:0:
471,110,33852,1,0,0:0:0:0:
482,152,33946,1,0,0:0:0:0:
471,110,34040,1,0,0:0:0:0:
432,88,34134,2,0,L|344:88,1,87.5,2|2,0:0|0:0,0:0:0:0:
169,88,34509,6,0,L|71:89,2,87.5,2|0|0,0:0|0:0|0:0,0:0:0:0:
299,88,35071,1,0,0:0:0:0:
169,88,35259,2,0,L|259:88,1,87.5,2|0,0:0|0:0,0:0:0:0:
409,92,35634,1,2,0:0:0:0:
121,66,35821,2,0,P|35:249|204:353,1,437.5,2|0,0:0|0:0,0:0:0:0:
377,215,37509,6,0,P|433:150|377:105,1,175,2|0,0:0|0:0,0:0:0:0:
152,265,38259,1,0,0:0:0:0:
282,268,38446,2,0,L|385:267,2,87.5,2|0|0,0:0|0:0|0:0,0:0:0:0:
108,87,39009,6,0,L|288:87,1,175,2|0,0:0|0:0,0:0:0:0:
187,97,39571,1,2,0:0:0:0:
363,288,39759,2,0,L|188:288,1,175,2|0,0:0|0:0,0:0:0:0:
101,292,40321,1,0,0:0:0:0:
255,105,40509,6,0,L|342:104,2,87.5,2|0|0,0:0|0:0|0:0,0:0:0:0:
168,106,41071,1,2,0:0:0:0:
357,281,41259,2,0,P|424:267|448:169,1,175,2|0,0:0|0:0,0:0:0:0:
188,308,42009,5,2,0:0:0:0:
114,262,42196,1,0,0:0:0:0:
92,185,42384,1,0,0:0:0:0:
114,112,42571,1,2,0:0:0:0:
189,76,42759,2,0,L|277:75,1,87.5,2|0,0:0|0:0,0:0:0:0:
451,76,43134,2,0,L|364:76,1,87.5
79,177,43509,6,0,L|73:265,1,87.5,2|0,0:0|0:0,0:0:0:0:
249,264,43884,2,0,L|339:264,1,87.5
293,264,44165,1,0,0:0:0:0:
249,160,44259,2,0,L|337:160,1,87.5,0|2,0:0|0:0,0:0:0:0:
162,160,44634,2,2,L|74:155,1,87.5,2|0,0:0|0:0,0:0:0:0:
401,216,45009,6,0,P|461:167|404:114,1,175,2|0,0:0|0:0,0:0:0:0:
231,112,45571,1,2,0:0:0:0:
407,109,45759,2,0,L|494:117,1,87.5,2|0,0:0|0:0,0:0:0:0:
319,113,46134,2,0,L|364:192,1,87.5
99,194,46509,6,0,P|56:131|118:75,1,175,2|2,0:0|0:0,0:0:0:0:
365,82,47071,1,0,0:0:0:0:
312,81,47165,1,0,0:0:0:0:
259,82,47259,2,0,L|81:81,1,175,2|2,0:0|0:0,0:0:0:0:
77,109,47696,1,0,0:0:0:0:
84,137,47759,1,0,0:0:0:0:
112,139,47821,1,0,0:0:0:0:
156,141,47884,1,0,0:0:0:0:
366,95,48009,5,2,0:0:0:0:
416,112,48102,1,0,0:0:0:0:
432,160,48196,1,0,0:0:0:0:
416,208,48290,1,0,0:0:0:0:
368,224,48384,2,0,L|280:225,1,87.5,0|0,0:0|0:0,0:0:0:0:
105,217,48759,2,0,L|194:211,1,87.5,8|2,0:3|0:0,0:0:0:0:
367,207,49134,2,0,L|459:203,1,87.5,2|0,0:0|0:0,0:0:0:0:
208,80,49509,6,0,L|32:98,1,175,2|0,0:0|0:0,0:0:0:0:
120,92,50071,1,2,0:0:0:0:
405,102,50259,2,0,L|417:193,1,87.5,8|0,0:3|0:0,0:0:0:0:
241,194,50634,2,0,L|333:193,1,87.5
76,94,51009,6,0,P|39:166|161:261,1,262.5,2|2,0:0|0:0,0:0:0:0:
411,99,51759,2,0,L|141:102,1,262.5,8|2,0:3|0:0,0:0:0:0:
399,288,52509,6,0,P|480:233|382:154,1,262.5,2|2,0:0|0:0,0:0:0:0:
76,187,53259,2,0,L|163:181,1,87.5,8|0,0:3|0:0,0:0:0:0:
251,182,53634,2,0,L|164:181,1,87.5
427,318,54009,5,2,0:0:0:0:
353,272,54196,1,0,0:0:0:0:
331,195,54384,1,0,0:0:0:0:
353,122,54571,1,0,0:0:0:0:
428,86,54759,1,8,0:3:0:0:
253,92,54946,2,0,L|150:91,2,87.5,2|2|0,0:0|0:0|0:0,0:0:0:0:
427,183,55509,6,0,B|431:86,1,87.5,2|0,0:0|0:0,0:0:0:0:
251,90,55884,2,0,L|342:87,1,87.5,2|0,0:0|0:0,0:0:0:0:
79,91,56259,2,0,L|74:180,1,87.5,8|0,0:3|0:0,0:0:0:0:
237,176,56634,2,0,L|133:174,1,87.5,2|0,0:0|0:0,0:0:0:0:
448,253,57009,6,0,L|274:248,1,175,2|0,0:0|0:0,0:0:0:0:
124,246,57571,2,0,L|78:248,1,43.75,0|0,0:0|0:0,0:0:0:0:
124,246,57759,2,0,L|213:246,1,87.5,2|0,0:0|0:0,0:0:0:0:
459,242,58134,2,0,L|370:242,1,87.5,6|0,0:0|0:0,0:0:0:0:
126,239,58509,6,0,B|35:240|35:240|127:239,1,175,2|2,0:0|0:0,0:0:0:0:
156,217,58977,1,0,0:0:0:0:
149,173,59071,1,2,0:0:0:0:
99,156,59165,1,0,0:0:0:0:
353,91,59259,5,2,0:0:0:0:
409,96,59352,1,0,0:0:0:0:
440,120,59446,1,2,0:0:0:0:
452,162,59540,1,0,0:0:0:0:
446,205,59634,1,2,0:0:0:0:
423,241,59727,1,0,0:0:0:0:
382,254,59821,1,0,0:0:0:0:
325,253,59915,1,0,0:0:0:0:
103,107,60009,6,0,P|34:172|129:274,1,262.5,6|2,3:2|0:0,0:0:0:0:
436,204,60759,2,0,P|465:109|343:34,1,262.5,10|2,0:1|0:0,0:0:0:0:
98,194,61509,2,0,L|364:193,1,262.5,2|2,3:2|0:0,0:0:0:0:
95,288,62259,2,0,P|40:205|126:89,1,262.5,10|2,0:1|0:0,0:0:0:0:
373,242,63009,5,2,3:2:0:0:
429,237,63102,1,0,0:0:0:0:
460,213,63196,1,0,0:0:0:0:
472,171,63290,1,0,0:0:0:0:
466,128,63384,1,0,0:0:0:0:
443,92,63477,1,0,0:0:0:0:
402,79,63571,1,0,0:0:0:0:
345,80,63665,1,0,0:0:0:0:
120,48,63759,2,0,P|59:146|171:228,1,262.5,10|2,0:1|0:0,0:0:0:0:
399,147,64509,6,0,L|100:148,1,262.5,2|0,3:2|0:0,0:0:0:0:
383,295,65259,1,10,0:1:0:0:
470,286,65446,1,0,0:0:0:0:
217,98,65634,1,2,0:0:0:0:
130,97,65821,1,0,0:0:0:0:
428,271,66009,6,0,P|474:151|374:100,1,262.5,2|2,3:2|0:0,0:0:0:0:
129,277,66759,2,0,L|391:278,1,262.5,10|2,0:1|0:0,0:0:0:0:
136,99,67509,2,0,P|33:161|84:271,1,262.5,2|2,3:2|0:0,0:0:0:0:
391,278,68259,1,10,0:1:0:0:
452,215,68446,1,0,0:0:0:0:
438,128,68634,1,0,0:0:0:0:
350,128,68821,1,0,0:0:0:0:
78,103,69009,5,2,3:2:0:0:
165,104,69196,1,0,0:0:0:0:
190,140,69289,1,0,0:0:0:0:
184,183,69383,1,0,0:0:0:0:
150,210,69477,1,0,0:0:0:0:
89,211,69571,1,2,0:0:0:0:
432,103,69759,1,10,0:1:0:0:
344,106,69946,1,0,0:0:0:0:
319,142,70039,1,0,0:0:0:0:
325,185,70133,1,0,0:0:0:0:
359,212,70227,1,0,0:0:0:0:
420,213,70321,1,2,0:0:0:0:
56,119,70509,6,0,L|49:206,1,87.5,2|0,3:2|0:0,0:0:0:0:
202,170,70884,1,0,0:0:0:0:
49,206,71071,1,2,0:0:0:0:
399,278,71259,1,8,0:1:0:0:
486,274,71446,1,0,0:0:0:0:
442,274,71540,1,0,0:0:0:0:
398,106,71634,2,0,L|309:107,1,87.5
119,300,72009,5,2,0:0:0:0:
206,300,72196,1,0,0:0:0:0:
293,300,72384,1,0,0:0:0:0:
119,84,72571,1,2,0:0:0:0:
294,86,72759,2,0,L|392:86,2,87.5,2|0|0,3:2|0:0|0:0,0:0:0:0:
119,88,73321,1,2,0:0:0:0:
463,304,73509,5,2,0:0:0:0:
474,217,73696,1,0,0:0:0:0:
342,221,73884,1,0,0:0:0:0:
353,134,74071,1,2,0:0:0:0:
47,195,74259,1,2,0:0:0:0:
34,108,74446,1,0,0:0:0:0:
165,114,74634,1,0,0:0:0:0:
34,108,74821,1,2,0:0:0:0:
437,185,75009,6,0,L|350:182,1,87.5,6|0,1:2|0:0,0:0:0:0:
174,182,75384,1,0,0:0:0:0:
349,181,75571,1,2,0:0:0:0:
85,191,75759,2,0,L|265:191,1,175,10|8,1:0|0:0,0:0:0:0:
427,191,76321,1,2,0:0:0:0:
165,191,76509,5,2,1:0:0:0:
56,159,76696,1,8,1:0:0:0:
231,155,76884,1,8,0:1:0:0:
100,157,77071,1,2,0:1:0:0:
381,110,77259,2,0,L|481:110,1,87.5,10|0,0:1|0:0,0:0:0:0:
151,103,77634,2,0,P|94:143|116:191,1,131.25,10|0,1:0|0:0,0:0:0:0:
334,163,78009,5,6,1:1:0:0:
464,165,78196,1,2,0:0:0:0:
377,164,78384,2,0,L|472:167,1,87.5,0|0,0:0|0:0,0:0:0:0:
93,220,78759,2,0,P|41:129|93:86,1,175,10|0,1:0|0:0,0:0:0:0:
209,83,79321,1,2,0:0:0:0:
464,166,79509,6,0,L|377:166,1,87.5,0|0,1:0|0:0,0:0:0:0:
288,166,79884,1,2,0:0:0:0:
464,166,80071,1,0,1:0:0:0:
421,166,80165,1,0,1:0:0:0:
220,102,80259,1,8,0:1:0:0:
89,102,80446,2,0,L|181:103,1,87.5,2|0,1:2|0:0,0:0:0:0:
308,105,80821,1,2,1:0:0:0:
55,264,81009,6,0,L|45:176,1,87.5,2|0,1:0|0:0,0:0:0:0:
176,178,81384,1,2,0:0:0:0:
45,177,81571,1,0,0:0:0:0:
389,189,81759,1,10,0:1:0:0:
432,189,81852,1,2,0:0:0:0:
443,146,81946,1,2,0:0:0:0:
432,189,82040,1,2,0:0:0:0:
389,189,82134,1,2,0:0:0:0:
86,180,82321,6,0,L|41:172,1,43.75,2|0,1:0|0:0,0:0:0:0:
198,179,82509,2,2,L|242:176,1,43.75,2|0,0:0|0:0,0:0:0:0:
198,179,82696,2,0,L|153:173,1,43.75,2|0,0:0|0:0,0:0:0:0:
426,180,82884,1,2,1:0:0:0:
458,150,82977,1,0,0:0:0:0:
451,106,83071,1,2,0:0:0:0:
399,100,83165,1,0,0:0:0:0:
143,140,83259,6,0,L|48:143,1,87.5,10|0,0:1|1:0,0:0:0:0:
99,148,83540,1,0,1:0:0:0:
369,140,83634,2,0,L|458:145,1,87.5,10|0,0:1|0:0,0:0:0:0:
168,130,84009,5,0,1:0:0:0:
298,130,84196,1,2,0:0:0:0:
309,172,84290,1,0,0:0:0:0:
298,130,84384,1,2,0:0:0:0:
210,128,84571,1,0,0:0:0:0:
473,98,84759,1,10,0:1:0:0:
342,102,84946,1,2,0:0:0:0:
298,103,85040,1,0,0:0:0:0:
210,100,85134,1,2,0:0:0:0:
188,137,85227,1,0,0:0:0:0:
120,155,85321,1,2,0:0:0:0:
119,198,85415,1,0,0:0:0:0:
382,52,85509,5,0,1:0:0:0:
470,54,85696,1,2,0:0:0:0:
427,53,85790,1,0,0:0:0:0:
351,74,85884,1,2,0:0:0:0:
393,73,85977,1,0,0:0:0:0:
470,54,86071,1,2,0:0:0:0:
130,332,86259,1,8,0:1:0:0:
43,332,86446,2,0,L|87:334,1,43.75,0|0,0:0|0:0,0:0:0:0:
163,313,86634,2,0,L|120:313,1,43.75,0|0,0:0|0:0,0:0:0:0:
43,332,86821,1,0,0:0:0:0:
375,59,87009,5,0,1:0:0:0:
462,60,87196,1,2,0:0:0:0:
142,72,87384,2,2,L|19:72,1,87.5
472,146,87759,1,10,0:1:0:0:
328,145,87946,1,0,0:0:0:0:
472,146,88134,2,0,L|385:146,1,87.5,2|0,0:0|0:0,0:0:0:0:
121,146,88509,5,0,1:0:0:0:
255,239,88696,2,0,L|302:241,1,43.75,2|0,0:1|0:0,0:0:0:0:
77,145,88884,2,0,L|52:108,1,43.75,2|0,1:0|0:0,0:0:0:0:
260,149,89071,2,0,L|266:103,1,43.75,2|0,1:0|0:0,0:0:0:0:
62,101,89259,1,10,0:1:0:0:
25,124,89352,1,0,0:0:0:0:
33,167,89446,1,2,0:0:0:0:
84,179,89540,1,0,0:0:0:0:
301,213,89634,2,0,L|434:213,1,131.25,10|0,1:0|0:0,0:0:0:0:
151,214,90009,5,6,1:0:0:0:
77,166,90196,1,0,0:0:0:0:
88,78,90384,1,0,0:0:0:0:
175,80,90571,1,0,0:0:0:0:
438,76,90759,2,0,L|264:70,1,175,8|0,0:1|0:0,0:0:0:0:
177,75,91321,1,0,0:0:0:0:
437,80,91509,5,0,1:0:0:0:
476,103,91602,1,0,0:0:0:0:
486,145,91696,1,0,0:0:0:0:
475,187,91790,1,0,0:0:0:0:
433,207,91884,1,0,0:0:0:0:
381,207,91977,1,0,0:0:0:0:
432,209,92071,1,0,0:0:0:0:
381,207,92165,1,0,0:0:0:0:
201,220,92259,1,8,0:1:0:0:
70,226,92446,2,0,L|159:225,1,87.5,2|0,1:0|0:0,0:0:0:0:
25,225,92821,1,2,1:0:0:0:
327,54,93009,5,2,1:0:0:0:
414,55,93196,1,0,0:0:0:0:
247,55,93384,1,2,0:0:0:0:
210,78,93477,1,0,0:0:0:0:
216,121,93571,1,0,0:0:0:0:
266,135,93665,1,0,0:0:0:0:
444,194,93759,6,0,L|446:242,1,43.75,10|2,0:1|0:0,0:0:0:0:
367,245,93946,2,0,L|319:244,1,43.75,2|2,0:0|0:0,0:0:0:0:
399,219,94134,2,0,L|405:128,1,87.5,2|0,0:0|1:0,0:0:0:0:
360,130,94415,1,0,1:0:0:0:
116,259,94509,6,0,L|38:218,1,87.5,10|2,0:1|0:0,0:0:0:0:
214,225,94884,2,0,L|136:184,1,87.5,0|2,1:0|0:0,0:0:0:0:
396,259,95259,2,0,L|474:218,1,87.5,10|0,0:1|1:0,0:0:0:0:
429,215,95540,1,0,1:0:0:0:
211,209,95634,2,0,L|302:194,1,87.5,10|0,0:1|0:0,0:0:0:0:
123,208,96009,6,0,L|36:191,2,87.5,0|2|0,1:0|0:0|0:0,0:0:0:0:
389,208,96571,2,0,L|476:191,2,87.5,10|0|0,0:1|0:0|1:0,0:0:0:0:
123,208,97134,2,0,L|36:191,1,87.5,8|0,0:1|1:0,0:0:0:0:
212,209,97509,6,0,L|299:208,2,87.5,0|2|0,1:0|0:0|0:0,0:0:0:0:
471,189,98071,2,0,L|378:188,2,87.5,10|0|0,0:1|0:0|1:0,0:0:0:0:
209,196,98634,1,8,0:1:0:0:
166,180,98727,1,2,0:0:0:0:
153,132,98821,1,0,1:0:0:0:
166,84,98915,1,2,0:0:0:0:
209,68,99009,6,0,L|298:67,1,87.5,0|2,1:0|0:0,0:0:0:0:
127,163,99384,1,0,0:0:0:0:
389,310,99571,2,0,L|476:293,1,87.5,8|2,0:1|0:0,0:0:0:0:
486,252,99852,1,0,0:0:0:0:
474,204,99946,1,2,1:0:0:0:
426,193,100040,1,0,0:0:0:0:
248,193,100134,2,0,L|157:188,1,87.5,8|0,0:1|1:0,0:0:0:0:
338,194,100509,6,0,L|425:193,2,87.5,2|2|0,1:0|0:0|1:0,0:0:0:0:
77,195,101071,2,0,L|164:191,1,87.5,10|2,0:1|0:0,0:0:0:0:
209,193,101352,1,0,0:0:0:0:
386,189,101446,2,0,L|388:138,1,43.75,0|0,1:0|0:0,0:0:0:0:
184,283,101634,5,6,0:0:0:0:
96,281,101821,1,0,0:0:0:0:
271,282,102009,1,2,0:0:0:0:
336,224,102196,1,0,0:0:0:0:
317,138,102384,1,0,0:0:0:0:
229,135,102571,1,2,0:0:0:0:
54,138,102759,2,0,L|144:138,3,87.5,2|0|2|2,0:0|0:0|0:0|0:0,0:0:0:0:
185,137,103415,1,0,0:0:0:0:
362,125,103509,6,0,P|415:189|361:247,1,175,8|2,3:2|0:0,0:0:0:0:
188,245,104259,2,0,L|362:246,1,175,2|0,0:0|0:0,0:0:0:0:
100,244,105009,2,0,P|38:150|95:111,1,175,0|2,0:0|0:0,0:0:0:0:
328,117,105759,5,2,0:0:0:0:
384,122,105852,1,0,0:0:0:0:
415,146,105946,1,2,0:0:0:0:
427,188,106040,1,0,0:0:0:0:
421,231,106134,1,2,0:0:0:0:
398,267,106227,1,0,0:0:0:0:
357,280,106321,1,0,0:0:0:0:
300,279,106415,1,0,0:0:0:0:
213,322,106509,6,0,L|38:318,1,175,8|2,0:0|0:0,0:0:0:0:
213,65,107259,2,0,L|387:68,1,175,0|2,0:0|0:0,0:0:0:0:
76,211,108009,2,0,L|79:31,1,175,2|0,0:0|0:0,0:0:0:0:
429,210,108759,6,0,L|254:209,1,175,2|0,0:0|0:0,0:0:0:0:
217,192,109227,1,0,0:0:0:0:
205,144,109321,1,0,0:0:0:0:
216,96,109415,1,0,0:0:0:0:
253,79,109509,2,0,P|403:185|334:295,1,350,10|2,0:0|0:0,0:0:0:0:
68,292,110634,1,0,0:0:0:0:
57,249,110727,1,0,0:0:0:0:
68,207,110821,1,0,0:0:0:0:
108,184,110915,1,0,0:0:0:0:
163,172,111009,6,0,L|338:167,1,175,2|0,0:0|0:0,0:0:0:0:
76,155,111759,2,0,P|56:218|122:293,1,175,2|0,0:0|0:0,0:0:0:0:
436,229,112509,6,0,P|456:166|390:91,1,175,2|0,0:0|0:0,0:0:0:0:
192,127,113259,1,0,0:0:0:0:
301,122,113446,1,2,0:0:0:0:
192,127,113634,2,0,L|101:120,1,87.5,2|0,0:0|0:0,0:0:0:0:
280,122,114009,6,0,B|370:123|370:123|280:123,1,175,2|0,0:0|0:0,0:0:0:0:
176,121,114571,1,2,0:0:0:0:
280,262,114759,2,0,L|458:261,1,175,2|0,0:0|0:0,0:0:0:0:
191,196,115509,6,0,P|116:148|95:50,1,175,2|0,0:0|0:0,0:0:0:0:
354,78,116259,2,0,P|462:120|432:241,1,262.5,2|2,0:0|0:0,0:0:0:0:
276,41,117009,2,0,P|160:72|178:190,1,262.5,2|2,0:0|0:0,0:0:0:0:
435,217,117759,1,2,0:0:0:0:
129,219,118134,1,0,0:0:0:0:
392,267,118509,6,0,P|446:143|283:47,1,350,2|0,0:0|0:0,0:0:0:0:
203,49,119446,1,2,0:0:0:0:
375,334,119634,1,2,0:0:0:0:
287,332,119821,1,0,0:0:0:0:
111,331,120009,6,0,L|201:328,1,87.5,2|0,0:0|0:0,0:0:0:0:
373,326,120384,2,0,L|462:323,1,87.5,2|0,0:0|0:0,0:0:0:0:
285,327,120759,2,0,L|278:229,1,87.5,2|0,0:0|0:0,0:0:0:0:
103,232,121134,2,0,L|92:134,1,87.5,2|0,0:0|0:0,0:0:0:0:
377,282,121509,5,2,0:0:0:0:
420,262,121602,1,0,0:0:0:0:
444,226,121696,1,0,0:0:0:0:
447,184,121790,1,0,0:0:0:0:
442,140,121884,1,2,0:0:0:0:
416,105,121977,1,0,0:0:0:0:
379,83,122071,1,0,0:0:0:0:
326,77,122165,1,0,0:0:0:0:
148,78,122259,2,0,L|324:78,2,175,2|6|2,0:0|0:0|0:0,0:0:0:0:
411,82,123384,5,2,0:0:0:0:
436,122,123477,1,0,0:0:0:0:
425,164,123571,1,0,0:0:0:0:
372,185,123665,1,0,0:0:0:0:
171,187,123759,1,2,0:0:0:0:
121,188,123853,1,0,0:0:0:0:
80,175,123947,1,0,0:0:0:0:
57,139,124040,1,0,0:0:0:0:
51,96,124134,1,0,0:0:0:0:
63,54,124228,1,0,0:0:0:0:
94,30,124322,1,0,0:0:0:0:
145,25,124415,1,0,0:0:0:0:
365,64,124509,6,0,P|454:138|369:216,1,262.5,6|2,1:2|0:0,0:0:0:0:
102,56,125259,2,0,L|365:64,1,262.5,10|2,0:1|0:0,0:0:0:0:
81,87,126009,2,0,P|45:179|157:269,1,262.5,2|2,1:0|0:0,0:0:0:0:
424,272,126759,2,0,P|472:159|377:82,1,262.5,10|2,0:1|0:0,0:0:0:0:
130,80,127509,5,2,1:0:0:0:
74,85,127602,1,0,0:0:0:0:
43,109,127696,1,0,0:0:0:0:
31,151,127790,1,0,0:0:0:0:
37,194,127884,1,0,0:0:0:0:
60,230,127977,1,0,0:0:0:0:
101,243,128071,1,0,0:0:0:0:
149,243,128165,1,0,0:0:0:0:
379,262,128259,2,0,P|457:150|377:82,1,262.5,10|2,0:1|0:0,0:0:0:0:
122,97,129009,6,0,L|396:97,1,262.5,2|0,1:2|1:0,0:0:0:0:
139,198,129759,2,0,L|52:198,1,87.5,10|0,0:1|0:0,0:0:0:0:
299,284,130134,2,0,L|387:284,1,87.5,2|0,0:0|0:0,0:0:0:0:
120,88,130509,6,0,L|391:89,1,262.5,2|2,1:0|0:0,0:0:0:0:
123,271,131259,2,0,P|75:156|161:67,1,262.5,10|2,0:1|0:0,0:0:0:0:
431,87,132009,6,0,P|467:179|355:269,1,262.5,2|2,1:0|0:0,0:0:0:0:
102,117,132759,1,10,0:1:0:0:
41,180,132946,1,0,0:0:0:0:
55,267,133134,1,0,0:0:0:0:
143,267,133321,1,0,0:0:0:0:
434,103,133509,5,2,1:0:0:0:
329,106,133696,1,0,0:0:0:0:
304,142,133789,1,0,0:0:0:0:
310,185,133883,1,0,0:0:0:0:
344,212,133977,1,0,0:0:0:0:
405,213,134071,1,2,0:0:0:0:
80,103,134259,1,10,0:1:0:0:
184,101,134446,1,0,0:0:0:0:
209,137,134539,1,0,0:0:0:0:
203,180,134633,1,0,0:0:0:0:
169,207,134727,1,0,0:0:0:0:
108,208,134821,1,2,0:0:0:0:
374,96,135009,6,0,L|471:96,1,87.5,2|0,1:2|0:0,0:0:0:0:
303,96,135384,1,0,0:0:0:0:
461,96,135571,1,2,0:0:0:0:
198,193,135759,2,0,L|288:192,1,87.5,10|0,0:1|0:0,0:0:0:0:
125,214,136134,2,0,L|124:126,1,87.5
390,132,136509,6,0,L|303:131,1,87.5,2|0,0:0|0:0,0:0:0:0:
197,129,136884,2,0,L|110:129,1,87.5,0|2,0:0|0:0,0:0:0:0:
281,178,137259,1,2,0:0:0:0:
368,179,137446,1,0,0:0:0:0:
281,178,137634,1,0,0:0:0:0:
193,178,137821,1,2,0:0:0:0:
324,205,138009,6,0,L|411:206,3,87.5,2|0|0|2,0:0|0:0|0:0|0:0,0:0:0:0:
246,63,138759,2,0,L|242:157,1,87.5,2|0,0:0|0:0,0:0:0:0:
323,151,139134,2,0,L|410:151,1,87.5,0|2,0:0|0:0,0:0:0:0:
157,56,139509,6,0,L|70:58,2,87.5,2|0|0,0:0|0:0|0:0,0:0:0:0:
341,55,140071,1,2,0:0:0:0:
166,328,140259,1,2,0:0:0:0:
253,328,140446,1,0,0:0:0:0:
340,327,140634,1,0,0:0:0:0:
166,56,140821,1,2,0:0:0:0:
341,56,141009,6,0,L|434:57,2,87.5,2|0|0,0:0|0:0|0:0,0:0:0:0:
165,56,141571,1,2,0:0:0:0:
341,56,141759,1,2,0:0:0:0:
266,100,141946,1,0,0:0:0:0:
243,184,142134,1,0,0:0:0:0:
266,100,142321,1,0,0:0:0:0:
341,56,142509,5,2,0:0:0:0:
254,54,142696,1,0,0:0:0:0:
167,53,142884,1,0,0:0:0:0:
423,289,143446,2,0,L|332:287,2,87.5,2|0|0,0:0|0:0|0:0,0:0:0:0:
247,287,144009,6,0,L|245:194,1,87.5,2|0,0:0|0:0,0:0:0:0:
330,219,144384,2,0,L|334:130,1,87.5,0|2,0:0|0:0,0:0:0:0:
158,125,144759,1,2,0:0:0:0:
84,172,144946,1,0,0:0:0:0:
61,257,145134,1,0,0:0:0:0:
84,172,145321,1,0,0:0:0:0:
159,127,145509,1,0,0:0:0:0:
416,112,146852,1,0,0:0:0:0:
