osu file format v14

[General]
AudioFilename: Marigold.mp3
AudioLeadIn: 0
PreviewTime: 74727
Countdown: 0
SampleSet: Soft
StackLeniency: 0.7
Mode: 2
LetterboxInBreaks: 0
WidescreenStoryboard: 0

[Editor]
DistanceSpacing: 2.2
BeatDivisor: 4
GridSize: 4
TimelineZoom: 4.699998

[Metadata]
Title:Marigold (feat. Guriri)
TitleUnicode:Marigold (feat. 구리리)
Artist:M2U
ArtistUnicode:M2U
Creator:Hareimu
Version:Platter
Source:Deemo
Tags:nicode グリリ rayark inc magnolia myosotis squar square musiq square-musiq narae hans alice alternate story symphonic boss piano violin dnb drum'n'bass drum and bass diversity deif
BeatmapID:1278915
BeatmapSetID:596327

[Difficulty]
HPDrainRate:4
CircleSize:3.5
OverallDifficulty:8
ApproachRate:8
SliderMultiplier:1.6
SliderTickRate:2

[Events]
//Background and Video events
0,0,"BG3.jpg",0,0
//Break Periods
2,17362,18759
//Storyboard Layer 0 (Background)
//Storyboard Layer 1 (Fail)
//Storyboard Layer 2 (Pass)
//Storyboard Layer 3 (Foreground)
//Storyboard Sound Samples

[TimingPoints]
1509,375,4,2,1,50,1,0
15759,500,4,2,1,50,1,0
16009,545.454545454546,4,2,1,50,1,0
16281,750,4,2,1,50,1,0
16656,714.285714285714,4,2,1,50,1,0
17013,600,4,2,1,50,1,0
18009,375,4,2,1,100,1,0
19509,-100,4,2,1,100,0,0
33009,-100,4,2,1,75,0,0
48009,-100,4,2,1,85,0,0
60009,-100,4,2,1,100,0,0
72009,-100,4,2,1,75,0,0
74821,-100,4,2,1,100,0,0
78009,-100,4,2,1,100,0,1
89634,-100,4,2,1,100,0,0
90009,-100,4,2,1,100,0,1
101634,-100,4,2,1,75,0,0
103509,-100,4,2,1,50,0,0
111759,-100,4,2,1,75,0,0
122259,-100,4,2,1,100,0,0
136509,-100,4,2,1,75,0,0
139509,-100,4,2,1,65,0,0
140259,-100,4,2,1,55,0,0
141009,-100,4,2,1,40,0,0
141759,-100,4,2,1,33,0,0
141946,-100,4,2,1,25,0,0
144759,-100,4,2,1,15,0,0
146852,-100,4,2,1,5,0,0

[Colours]
Combo1 : 170,85,0
Combo2 : 255,185,0
Combo3 : 0,170,85
Combo4 : 191,191,191

[HitObjects]
354,194,1509,6,0,L|193:193,1,160,4|2,0:0|0:0,0:0:0:0:
353,196,2259,2,0,B|432:193|432:193|352:195,1,160,2|0,0:0|0:0,0:0:0:0:
86,198,3009,2,0,L|248:194,1,160,0|2,0:0|0:0,0:0:0:0:
86,198,3759,2,0,B|24:144|24:144|84:196,1,160,2|0,0:0|0:0,0:0:0:0:
409,276,4509,6,0,P|443:220|307:53,1,320,2|2,0:0|0:0,0:0:0:0:
227,54,5446,1,0,0:0:0:0:
306,53,5634,2,0,L|337:155,1,80,0|0,0:0|0:0,0:0:0:0:
145,57,6009,6,0,P|81:180|204:280,1,320,2|2,0:0|0:0,0:0:0:0:
282,282,6946,1,0,0:0:0:0:
378,280,7134,2,0,L|472:280,1,80,2|0,0:0|0:0,0:0:0:0:
377,204,7509,6,0,L|297:203,1,80,0|0,0:0|0:0,0:0:0:0:
112,201,7884,2,0,L|278:202,1,160,2|2,0:0|0:0,0:0:0:0:
458,110,8634,1,0,0:0:0:0:
196,127,9009,5,2,0:0:0:0:
128,168,9196,1,0,0:0:0:0:
108,245,9384,1,0,0:0:0:0:
128,168,9571,1,0,0:0:0:0:
196,127,9759,2,0,L|308:128,1,80,2|0,0:0|0:0,0:0:0:0:
396,256,10134,1,0,0:0:0:0:
116,254,10509,6,0,P|31:195|115:134,1,240,2|0,0:0|0:0,0:0:0:0:
314,124,11259,2,0,P|325:189|197:277,1,240,2|0,0:0|0:0,0:0:0:0:
400,269,12009,6,0,P|485:210|401:149,1,240,2|0,0:0|0:0,0:0:0:0:
334,190,12759,1,2,0:0:0:0:
314,267,12946,1,0,0:0:0:0:
335,189,13134,1,0,0:0:0:0:
403,148,13321,1,0,0:0:0:0:
201,150,13509,6,0,L|119:147,1,80,2|0,0:0|0:0,0:0:0:0:
200,151,13884,2,0,L|283:150,1,80,0|0,0:0|0:0,0:0:0:0:
121,147,14259,1,2,0:0:0:0:
53,189,14446,1,0,0:0:0:0:
33,267,14634,1,0,0:0:0:0:
53,189,14821,1,0,0:0:0:0:
121,147,15009,6,0,L|201:147,1,80,2|0,0:0|0:0,0:0:0:0:
281,147,15384,2,0,L|200:147,1,80,0|0,0:0|0:0,0:0:0:0:
150,179,15759,1,2,0:0:0:0:
128,249,16009,1,0,0:0:0:0:
149,194,16281,1,2,0:0:0:0:
232,194,16656,1,2,0:0:0:0:
327,194,17013,6,0,L|329:180,3,13.3333333333333,0|0|0|2,0:0|0:0|0:0|0:0,0:0:0:0:
93,199,19509,6,0,L|253:193,1,160,6|0,3:2|0:0,0:0:0:0:
93,212,20259,2,0,L|66:53,1,160,10|10,0:1|0:0,0:0:0:0:
337,62,21009,2,0,L|172:61,1,160,6|0,3:2|0:0,0:0:0:0:
336,62,21759,2,0,L|458:61,1,120,10|2,0:1|0:0,0:0:0:0:
416,65,22134,2,0,L|335:66,1,80,2|0,0:0|0:0,0:0:0:0:
168,143,22509,6,0,L|46:141,1,120,6|2,3:2|0:0,0:0:0:0:
87,240,22884,2,0,L|170:237,1,80,2|0,0:0|0:0,0:0:0:0:
207,236,23165,1,0,0:0:0:0:
166,237,23259,2,0,P|117:163|162:121,1,160,10|0,0:1|0:0,0:0:0:0:
429,191,24009,6,0,L|310:192,1,120,6|0,3:2|0:0,0:0:0:0:
268,192,24384,2,0,L|175:192,1,80,2|0,0:0|0:0,0:0:0:0:
269,91,24759,1,10,0:1:0:0:
308,94,24852,1,0,0:0:0:0:
349,92,24946,1,0,0:0:0:0:
429,92,25134,1,10,0:0:0:0:
83,230,25509,6,0,P|35:163|90:116,1,160,6|2,0:0|0:0,0:0:0:0:
119,114,25977,1,0,0:0:0:0:
159,114,26071,2,0,L|212:114,1,40,2|0,0:0|0:0,0:0:0:0:
127,228,26259,5,10,0:1:0:0:
93,206,26352,1,0,0:0:0:0:
84,166,26446,1,2,0:0:0:0:
94,127,26540,1,0,0:0:0:0:
128,107,26634,2,0,L|210:105,1,80,2|0,0:0|0:0,0:0:0:0:
409,108,27009,6,0,L|472:174,1,80,6|0,0:0|0:0,0:0:0:0:
436,253,27384,2,0,L|355:255,1,80,2|0,0:0|0:0,0:0:0:0:
156,260,27759,2,0,P|116:180|180:144,1,160,10|2,0:1|0:0,0:0:0:0:
240,141,28321,1,0,0:0:0:0:
443,79,28509,6,0,L|323:80,1,120,6|2,3:2|0:0,0:0:0:0:
363,78,28884,2,0,L|446:78,1,80,2|0,0:0|0:0,0:0:0:0:
243,303,29259,2,0,L|79:302,1,160,10|10,0:1|0:0,0:0:0:0:
162,303,29821,1,0,0:0:0:0:
439,266,30009,6,0,P|468:173|429:146,1,160,6|0,0:0|0:0,0:0:0:0:
349,147,30571,1,0,3:0:0:0:
173,80,30759,1,2,0:0:0:0:
254,79,30946,1,0,0:0:0:0:
439,97,31134,1,2,0:0:0:0:
359,98,31321,1,0,0:0:0:0:
187,155,31509,6,0,L|181:69,1,80,2|0,3:2|0:0,0:0:0:0:
262,51,31884,2,0,L|343:50,1,80,2|0,0:0|3:0,0:0:0:0:
157,136,32259,1,2,0:0:0:0:
123,156,32352,1,0,0:0:0:0:
113,195,32446,1,2,0:0:0:0:
123,233,32540,1,0,0:0:0:0:
157,253,32634,1,2,3:2:0:0:
236,253,32821,1,2,0:0:0:0:
421,160,33009,6,0,L|336:163,1,80,4|0,0:0|0:0,0:0:0:0:
235,163,33384,2,0,L|155:166,1,80
331,118,33759,1,2,0:0:0:0:
365,138,33852,1,0,0:0:0:0:
375,176,33946,1,0,0:0:0:0:
365,215,34040,1,0,0:0:0:0:
331,236,34134,2,0,L|250:237,1,80,2|2,0:0|0:0,0:0:0:0:
66,295,34509,6,0,L|41:219,1,80,2|0,0:0|0:0,0:0:0:0:
122,216,34884,2,0,L|203:216,1,80,0|0,0:0|0:0,0:0:0:0:
282,215,35259,2,0,L|198:216,1,80,2|0,0:0|0:0,0:0:0:0:
282,215,35634,1,2,0:0:0:0:
99,216,35821,1,2,0:0:0:0:
256,192,36009,12,0,36759,0:0:0:0:
120,192,37509,6,0,P|77:123|120:67,1,160,2|0,0:0|0:0,0:0:0:0:
278,69,38259,1,0,0:0:0:0:
198,67,38446,2,0,L|118:67,2,80,2|0|0,0:0|0:0|0:0,0:0:0:0:
378,213,39009,6,0,L|215:213,1,160,2|0,0:0|0:0,0:0:0:0:
138,214,39571,1,2,0:0:0:0:
323,107,39759,2,0,B|404:105|404:105|324:108,1,160,2|0,0:0|0:0,0:0:0:0:
245,106,40321,1,0,0:0:0:0:
63,146,40509,6,0,L|145:144,1,80,2|0,0:0|0:0,0:0:0:0:
263,144,40884,2,0,L|344:142,1,80,0|2,0:0|0:0,0:0:0:0:
143,225,41259,2,0,B|59:226|59:226|142:226,1,160,2|0,0:0|0:0,0:0:0:0:
327,200,42009,6,0,L|301:105,1,80,2|0,0:0|0:0,0:0:0:0:
185,121,42384,2,0,L|104:119,1,80,0|2,0:0|0:0,0:0:0:0:
289,122,42759,2,0,L|369:122,1,80,2|0,0:0|0:0,0:0:0:0:
248,123,43134,2,0,L|234:224,1,80,0|0,0:0|0:0,0:0:0:0:
421,210,43509,6,0,L|432:128,1,80,2|0,0:0|0:0,0:0:0:0:
311,129,43884,2,0,L|278:202,1,80,0|0,0:0|0:0,0:0:0:0:
288,240,44165,1,0,0:0:0:0:
322,260,44259,2,0,L|404:259,1,80,0|2,0:0|0:0,0:0:0:0:
217,260,44634,2,0,L|138:259,1,80,2|0,0:0|0:0,0:0:0:0:
322,260,45009,6,0,L|484:256,1,160,2|0,0:0|0:0,0:0:0:0:
401,257,45571,1,2,0:0:0:0:
216,257,45759,2,0,L|136:255,1,80,2|0,0:0|0:0,0:0:0:0:
216,258,46134,2,0,L|258:179,1,80,0|0,0:0|0:0,0:0:0:0:
95,255,46509,6,0,P|52:195|115:143,1,160,2|2,0:0|0:0,0:0:0:0:
183,147,47071,1,0,0:0:0:0:
222,150,47165,1,0,0:0:0:0:
345,155,47259,2,0,P|424:186|465:259,1,160,2|2,0:0|0:0,0:0:0:0:
382,251,47821,1,0,0:0:0:0:
123,119,48009,5,2,0:0:0:0:
89,139,48102,1,0,0:0:0:0:
79,178,48196,1,0,0:0:0:0:
89,216,48290,1,0,0:0:0:0:
123,236,48384,2,0,L|203:233,1,80,0|0,0:0|0:0,0:0:0:0:
387,234,48759,1,8,0:3:0:0:
307,234,48946,2,0,L|223:233,2,80,2|2|0,0:0|0:0|0:0,0:0:0:0:
121,232,49509,6,0,B|41:233|41:233|123:232,1,160,2|0,0:0|0:0,0:0:0:0:
200,231,50071,1,2,0:0:0:0:
383,184,50259,2,0,L|284:182,1,80,8|0,0:3|0:0,0:0:0:0:
200,151,50634,2,0,L|118:151,1,80
287,226,51009,6,0,B|367:227|367:227|282:227,1,160,2|0,0:0|0:0,0:0:0:0:
208,224,51571,1,2,0:0:0:0:
393,147,51759,2,0,L|410:225,1,80,8|0,0:3|0:0,0:0:0:0:
330,225,52134,2,0,L|240:223,1,80,0|2,0:0|0:0,0:0:0:0:
431,220,52509,6,0,P|484:170|439:112,1,160,2|0,0:0|0:0,0:0:0:0:
342,118,53071,1,2,0:0:0:0:
77,136,53259,2,0,L|63:244,1,80,8|0,0:3|0:0,0:0:0:0:
179,215,53634,2,0,L|271:215,1,80,0|0,0:0|0:0,0:0:0:0:
443,213,54009,6,0,L|282:210,1,160,2|0,0:0|0:0,0:0:0:0:
203,210,54571,1,0,0:0:0:0:
387,211,54759,2,0,L|402:125,1,80,8|2,0:3|0:0,0:0:0:0:
280,127,55134,2,0,L|197:128,1,80,2|0,0:0|0:0,0:0:0:0:
384,130,55509,6,0,P|442:169|392:244,1,160,2|2,0:0|0:0,0:0:0:0:
330,240,56071,1,0,0:0:0:0:
124,242,56259,2,0,P|91:176|151:133,1,160,8|2,0:3|0:0,0:0:0:0:
230,134,56821,1,0,0:0:0:0:
431,209,57009,6,0,B|490:156|490:156|410:148,1,160,2|0,0:0|0:0,0:0:0:0:
329,148,57571,1,0,0:0:0:0:
31,265,57759,2,0,P|28:199|106:154,2,160,2|6|2,0:0|0:0|0:0,0:0:0:0:
191,263,58884,5,2,0:0:0:0:
151,264,58977,1,0,0:0:0:0:
110,265,59071,1,2,0:0:0:0:
295,266,59259,2,0,P|393:169|345:115,1,240,2|0,0:0|0:0,0:0:0:0:
61,287,60009,6,0,P|18:225|116:125,1,240,6|2,3:2|0:0,0:0:0:0:
300,125,60759,2,0,L|57:127,1,240,10|2,0:1|0:0,0:0:0:0:
247,108,61509,6,0,P|334:173|254:227,1,240,2|2,3:2|0:0,0:0:0:0:
64,248,62259,2,0,L|303:248,1,240,10|2,0:1|0:0,0:0:0:0:
113,262,63009,6,0,P|54:195|159:86,1,240,2|0,3:2|0:0,0:0:0:0:
311,88,63759,2,0,P|326:177|201:233,1,240,10|2,0:1|0:0,0:0:0:0:
394,222,64509,6,0,P|462:135|385:58,1,240,2|0,3:2|0:0,0:0:0:0:
204,63,65259,2,0,L|364:63,1,160,10|2,0:1|0:0,0:0:0:0:
99,216,66009,6,0,L|348:217,1,240,2|2,3:2|0:0,0:0:0:0:
154,215,66759,2,0,P|62:151|125:70,1,240,10|2,0:1|0:0,0:0:0:0:
311,164,67509,6,0,L|69:165,1,240,2|2,3:2|0:0,0:0:0:0:
261,216,68259,2,0,L|350:214,1,80,10|0,0:1|0:0,0:0:0:0:
260,217,68634,2,0,L|179:217,1,80
366,128,69009,6,0,P|443:184|365:277,1,240,2|2,3:2|0:0,0:0:0:0:
181,280,69759,2,0,L|429:279,1,240,10|2,0:1|0:0,0:0:0:0:
238,176,70509,6,0,P|166:93|252:28,1,240,2|2,3:2|0:0,0:0:0:0:
66,57,71259,1,8,0:1:0:0:
32,79,71352,1,0,0:0:0:0:
22,118,71446,1,0,0:0:0:0:
32,157,71540,1,0,0:0:0:0:
66,179,71634,2,0,L|146:181,1,80,0|0,0:0|0:0,0:0:0:0:
338,181,72009,6,0,L|381:107,1,80,2|0,0:0|0:0,0:0:0:0:
217,146,72571,1,2,0:0:0:0:
297,144,72759,2,0,L|315:222,1,80,2|0,3:2|0:0,0:0:0:0:
235,205,73134,2,0,L|217:283,1,80,0|2,0:0|0:0,0:0:0:0:
339,287,73509,5,2,0:0:0:0:
407,245,73696,1,0,0:0:0:0:
426,168,73884,1,0,0:0:0:0:
406,89,74071,1,2,0:0:0:0:
338,45,74259,2,0,L|173:45,1,160,2|0,0:0|0:0,0:0:0:0:
98,48,74821,1,2,0:0:0:0:
396,54,75009,6,0,P|468:135|397:222,1,240,6|2,1:2|0:0,0:0:0:0:
94,230,75759,2,0,P|64:146|138:128,1,160,10|8,1:0|0:0,0:0:0:0:
192,122,76321,1,2,0:0:0:0:
376,125,76509,6,0,L|455:125,1,80,2|8,1:0|1:0,0:0:0:0:
376,125,76884,1,8,0:1:0:0:
456,125,77071,1,2,0:1:0:0:
197,127,77259,2,0,L|37:126,1,160,10|10,0:1|1:0,0:0:0:0:
383,160,78009,5,6,1:1:0:0:
463,160,78196,1,2,0:0:0:0:
473,198,78290,1,0,0:0:0:0:
463,160,78384,1,0,0:0:0:0:
383,160,78571,1,0,0:0:0:0:
129,160,78759,5,10,1:0:0:0:
49,160,78946,1,0,0:0:0:0:
39,198,79040,1,0,0:0:0:0:
49,160,79134,1,0,0:0:0:0:
129,160,79321,1,2,0:0:0:0:
313,162,79509,6,0,L|219:160,1,80,0|0,1:0|0:0,0:0:0:0:
146,250,79884,2,0,L|66:250,1,80,2|0,0:0|1:0,0:0:0:0:
370,249,80259,1,8,0:1:0:0:
450,138,80446,2,0,B|290:140,1,160,2|2,1:2|1:0,0:0:0:0:
104,146,81009,5,2,1:0:0:0:
77,238,81196,1,0,0:0:0:0:
189,238,81384,1,2,0:0:0:0:
76,332,81571,1,0,0:0:0:0:
397,285,81759,5,10,0:1:0:0:
430,264,81852,1,2,0:0:0:0:
440,225,81946,1,2,0:0:0:0:
430,186,82040,1,2,0:0:0:0:
396,164,82134,1,2,0:0:0:0:
131,168,82321,5,2,1:0:0:0:
50,168,82509,1,2,0:0:0:0:
91,168,82602,1,0,0:0:0:0:
131,168,82696,1,2,0:0:0:0:
315,168,82884,1,2,1:0:0:0:
354,168,82977,1,0,0:0:0:0:
394,167,83071,1,2,0:0:0:0:
217,164,83259,6,0,L|134:165,1,80,10|0,0:1|1:0,0:0:0:0:
313,163,83634,2,0,L|396:164,1,80,10|0,0:1|0:0,0:0:0:0:
124,92,84009,5,0,1:0:0:0:
78,157,84196,1,2,0:0:0:0:
91,236,84384,1,2,0:0:0:0:
171,238,84571,1,0,0:0:0:0:
450,248,84759,6,0,L|478:164,1,80,10|2,0:1|0:0,0:0:0:0:
435,170,85040,1,0,0:0:0:0:
394,168,85134,1,2,0:0:0:0:
475,172,85321,1,2,0:0:0:0:
290,172,85509,5,0,1:0:0:0:
222,215,85696,1,2,0:0:0:0:
261,220,85790,1,0,0:0:0:0:
300,224,85884,1,2,0:0:0:0:
419,227,86071,1,2,0:0:0:0:
152,174,86259,5,8,0:1:0:0:
64,95,86446,1,0,0:0:0:0:
104,94,86540,1,0,0:0:0:0:
144,93,86634,1,0,0:0:0:0:
104,94,86727,1,0,0:0:0:0:
64,95,86821,1,0,0:0:0:0:
338,295,87009,5,0,1:0:0:0:
438,269,87196,1,2,0:0:0:0:
338,295,87384,1,2,0:0:0:0:
438,269,87571,1,2,0:0:0:0:
174,89,87759,1,10,0:1:0:0:
74,119,87946,1,0,0:0:0:0:
174,89,88134,1,2,0:0:0:0:
74,119,88321,1,0,0:0:0:0:
346,85,88509,6,0,L|427:86,1,80,0|2,1:0|0:1,0:0:0:0:
286,86,88884,1,2,1:0:0:0:
425,85,89071,1,2,1:0:0:0:
240,88,89259,2,0,L|160:89,1,80,10|2,0:1|0:0,0:0:0:0:
344,91,89634,2,0,L|427:90,1,80,10|0,1:0|0:0,0:0:0:0:
161,82,90009,6,0,L|155:197,1,80,6|0,1:0|0:0,0:0:0:0:
237,163,90384,1,0,0:0:0:0:
317,163,90571,1,0,0:0:0:0:
121,149,90759,2,0,B|42:150|42:150|124:151,1,160,8|0,0:1|0:0,0:0:0:0:
202,148,91321,1,0,0:0:0:0:
386,149,91509,6,0,L|467:149,3,80,0|0|0|0,1:0|0:0|0:0|0:0,0:0:0:0:
200,145,92259,1,8,0:1:0:0:
81,145,92446,1,2,1:0:0:0:
162,143,92634,1,0,0:0:0:0:
81,145,92821,1,2,1:0:0:0:
265,145,93009,5,2,1:0:0:0:
344,141,93196,1,0,0:0:0:0:
378,161,93290,1,0,0:0:0:0:
388,199,93384,1,2,0:0:0:0:
378,237,93477,1,0,0:0:0:0:
344,258,93571,1,0,0:0:0:0:
81,257,93759,5,10,0:1:0:0:
47,237,93853,1,2,0:0:0:0:
37,199,93947,1,2,0:0:0:0:
47,161,94040,1,2,0:0:0:0:
81,140,94134,2,0,L|162:139,1,80,2|0,0:0|1:0,0:0:0:0:
441,134,94509,6,0,L|455:212,1,80,10|2,0:1|0:0,0:0:0:0:
271,214,94884,2,0,L|188:212,1,80,0|2,1:0|0:0,0:0:0:0:
455,212,95259,2,0,L|476:135,1,80,10|0,0:1|1:0,0:0:0:0:
436,127,95540,1,0,1:0:0:0:
396,134,95634,2,0,L|476:134,1,80,10|0,0:1|0:0,0:0:0:0:
291,132,96009,6,0,L|312:210,1,80,0|2,1:0|0:0,0:0:0:0:
392,209,96384,1,0,0:0:0:0:
121,233,96571,2,0,L|142:155,1,80,10|0,0:1|0:0,0:0:0:0:
222,156,96946,1,0,1:0:0:0:
482,171,97134,2,0,L|468:66,1,80,8|0,0:1|1:0,0:0:0:0:
287,101,97509,6,0,L|207:101,1,80,0|2,1:0|0:0,0:0:0:0:
126,101,97884,1,0,0:0:0:0:
390,194,98071,2,0,L|472:192,2,80,10|0|0,0:1|0:0|1:0,0:0:0:0:
109,190,98634,2,0,L|86:111,1,80,8|0,0:1|1:0,0:0:0:0:
271,108,99009,6,0,L|294:188,1,80,0|2,1:0|0:0,0:0:0:0:
172,186,99384,1,0,0:0:0:0:
430,192,99571,2,0,L|453:112,1,80,8|2,0:1|0:0,0:0:0:0:
332,108,99946,1,2,1:0:0:0:
73,118,100134,2,0,L|46:199,1,80,8|0,0:1|1:0,0:0:0:0:
232,195,100509,6,0,L|313:195,1,80,2|2,1:0|0:0,0:0:0:0:
191,193,100884,1,0,1:0:0:0:
459,117,101071,2,0,L|477:198,1,80,10|2,0:1|0:0,0:0:0:0:
396,196,101446,1,0,1:0:0:0:
55,119,101634,1,6,0:0:0:0:
256,192,101821,12,8,103509,3:2:0:0:
352,193,103884,6,0,L|249:69,1,160,2|2,0:0|0:0,0:0:0:0:
409,69,104634,1,0,0:0:0:0:
249,74,105009,6,0,L|408:74,1,160,0|2,0:0|0:0,0:0:0:0:
329,75,105571,1,0,0:0:0:0:
169,312,105759,1,2,0:0:0:0:
159,274,105852,1,0,0:0:0:0:
169,312,105946,1,2,0:0:0:0:
248,194,106134,1,2,0:0:0:0:
282,193,106227,1,0,0:0:0:0:
292,150,106321,1,0,0:0:0:0:
282,193,106415,1,0,0:0:0:0:
248,194,106509,6,0,L|89:190,1,160,8|2,0:0|0:0,0:0:0:0:
247,194,107259,2,0,P|283:186|360:70,1,160,0|2,0:0|0:0,0:0:0:0:
198,94,108009,1,2,0:0:0:0:
414,123,108384,1,0,0:0:0:0:
95,123,108759,6,0,L|334:123,1,240,2|0,0:0|0:0,0:0:0:0:
254,123,109509,2,0,P|156:191|232:351,1,320,10|2,0:0|0:0,0:0:0:0:
386,303,110634,2,0,L|480:302,1,80,0|0,0:0|0:0,0:0:0:0:
386,184,111009,6,0,L|227:183,2,160,2|0|2,0:0|0:0|0:0,0:0:0:0:
126,184,112134,1,0,0:0:0:0:
421,97,112509,6,0,L|258:97,1,160,2|0,0:0|0:0,0:0:0:0:
182,97,113071,2,0,L|103:94,1,80,0|0,0:0|0:0,0:0:0:0:
208,97,113446,2,0,L|291:97,2,80,2|2|0,0:0|0:0|0:0,0:0:0:0:
384,98,114009,6,0,B|466:99|466:99|382:98,1,160,2|0,0:0|0:0,0:0:0:0:
308,98,114571,1,2,0:0:0:0:
148,98,114759,2,0,L|307:99,1,160,2|0,0:0|0:0,0:0:0:0:
389,101,115321,1,0,0:0:0:0:
229,279,115509,5,2,0:0:0:0:
157,245,115696,1,0,0:0:0:0:
137,167,115884,1,0,0:0:0:0:
157,89,116071,1,0,0:0:0:0:
238,93,116259,2,0,B|317:93|317:93|156:93,1,240,2|2,0:0|0:0,0:0:0:0:
317,94,117009,6,0,P|413:149|344:215,1,240,2|2,0:0|0:0,0:0:0:0:
63,215,117759,1,2,0:0:0:0:
176,101,118134,1,0,0:0:0:0:
463,232,118509,6,0,L|384:229,1,80,2|0,0:0|0:0,0:0:0:0:
263,228,118884,2,0,L|183:225,2,80,0|0|0,0:0|0:0|0:0,0:0:0:0:
383,228,119446,1,2,0:0:0:0:
198,132,119634,2,0,L|119:131,1,80,2|0,0:0|0:0,0:0:0:0:
410,226,120009,6,0,P|462:169|410:130,1,160,2|2,0:0|0:0,0:0:0:0:
130,229,120759,2,0,P|75:210|54:118,1,160,2|2,0:0|0:0,0:0:0:0:
326,117,121509,6,0,L|245:117,1,80,2|0,0:0|0:0,0:0:0:0:
85,121,121884,2,0,L|166:121,1,80,2|0,0:0|0:0,0:0:0:0:
428,122,122259,2,0,P|453:203|399:243,1,160,2|6,0:0|0:0,0:0:0:0:
81,116,123009,5,2,0:0:0:0:
240,113,123384,1,2,0:0:0:0:
279,115,123477,1,0,0:0:0:0:
319,116,123571,1,0,0:0:0:0:
126,106,123759,2,0,P|77:182|176:260,1,240,2|0,0:0|0:0,0:0:0:0:
438,283,124509,6,0,P|481:209|379:120,1,240,6|2,1:2|0:0,0:0:0:0:
199,118,125259,2,0,L|414:225,1,240,10|2,0:1|0:0,0:0:0:0:
226,226,126009,6,0,P|154:123|226:86,1,240,2|2,1:0|0:0,0:0:0:0:
412,228,126759,2,0,L|197:121,1,240,10|2,0:1|0:0,0:0:0:0:
390,133,127509,6,0,P|461:204|375:293,1,240,2|0,1:0|0:0,0:0:0:0:
201,296,128259,2,0,P|186:207|311:151,1,240,10|2,0:1|0:0,0:0:0:0:
119,226,129009,6,0,P|52:139|126:58,1,240,2|0,1:2|1:0,0:0:0:0:
308,63,129759,2,0,L|148:63,1,160,10|2,0:1|0:0,0:0:0:0:
413,216,130509,6,0,L|164:217,1,240,2|2,1:0|0:0,0:0:0:0:
358,215,131259,2,0,P|450:151|387:70,1,240,10|2,0:1|0:0,0:0:0:0:
198,75,132009,6,0,L|440:76,1,240,2|2,1:0|0:0,0:0:0:0:
253,87,132759,2,0,L|155:85,1,80,10|0,0:1|0:0,0:0:0:0:
278,195,133134,2,0,L|359:195,1,80,0|0,0:0|0:0,0:0:0:0:
174,134,133509,6,0,P|93:204|176:311,1,240,2|2,1:0|0:0,0:0:0:0:
331,280,134259,2,0,L|83:279,1,240,10|2,0:1|0:0,0:0:0:0:
276,177,135009,6,0,P|346:83|260:28,1,240,2|2,1:2|0:0,0:0:0:0:
84,30,135759,2,0,L|168:32,1,80,10|0,0:1|0:0,0:0:0:0:
254,111,136134,2,0,L|348:110,1,80,0|0,0:0|0:0,0:0:0:0:
51,128,136509,6,0,P|37:238|142:311,1,240,2|2,0:0|0:0,0:0:0:0:
316,310,137259,2,0,L|328:217,1,80,2|0,0:0|0:0,0:0:0:0:
246,222,137634,2,0,L|157:221,1,80,0|2,0:0|0:0,0:0:0:0:
340,309,138009,5,2,0:0:0:0:
408,268,138196,1,0,0:0:0:0:
428,191,138384,1,0,0:0:0:0:
408,269,138571,1,2,0:0:0:0:
340,313,138759,1,2,0:0:0:0:
244,311,138946,2,0,L|85:312,1,160,0|2,0:0|0:0,0:0:0:0:
270,67,139509,6,0,L|349:68,2,80,2|0|0,0:0|0:0|0:0,0:0:0:0:
150,63,140071,1,2,0:0:0:0:
317,90,140259,2,0,L|331:177,1,80,2|0,0:0|0:0,0:0:0:0:
209,173,140634,2,0,L|201:88,1,80,0|2,0:0|0:0,0:0:0:0:
386,124,141009,5,2,0:0:0:0:
454,166,141196,1,0,0:0:0:0:
474,243,141384,1,0,0:0:0:0:
457,165,141571,1,2,0:0:0:0:
389,123,141759,1,2,0:0:0:0:
285,119,141946,2,0,L|206:120,2,80,0|0|0,0:0|0:0|0:0,0:0:0:0:
165,124,142509,6,0,L|86:122,1,80,2|0,0:0|0:0,0:0:0:0:
165,124,142884,1,0,0:0:0:0:
404,122,143446,2,0,L|484:122,2,80,2|0|0,0:0|0:0|0:0,0:0:0:0:
283,120,144009,6,0,L|266:208,1,80,2|0,0:0|0:0,0:0:0:0:
347,203,144384,2,0,L|359:286,1,80,0|2,0:0|0:0,0:0:0:0:
258,267,144759,1,2,0:0:0:0:
190,226,144946,1,0,0:0:0:0:
170,149,145134,1,0,0:0:0:0:
190,227,145321,1,0,0:0:0:0:
258,271,145509,1,0,0:0:0:0:
439,80,146852,1,0,0:0:0:0:
