osu file format v14

[General]
AudioFilename: Marigold.mp3
AudioLeadIn: 0
PreviewTime: 74727
Countdown: 0
SampleSet: Soft
StackLeniency: 0.7
Mode: 2
LetterboxInBreaks: 0
WidescreenStoryboard: 0

[Editor]
DistanceSpacing: 2
BeatDivisor: 4
GridSize: 16
TimelineZoom: 3.599998

[Metadata]
Title:Marigold (feat. Guriri)
TitleUnicode:Marigold (feat. 구리리)
Artist:M2U
ArtistUnicode:M2U
Creator:Hareimu
Version:Deif's Overdose
Source:Deemo
Tags:nicode グリリ rayark inc magnolia myosotis squar square musiq square-musiq narae hans alice alternate story symphonic boss piano violin dnb drum'n'bass drum and bass diversity deif
BeatmapID:1270304
BeatmapSetID:596327

[Difficulty]
HPDrainRate:6
CircleSize:4.6
OverallDifficulty:8.8
ApproachRate:8.8
SliderMultiplier:2.1
SliderTickRate:2

[Events]
//Background and Video events
0,0,"BG3.jpg",0,0
//Break Periods
//Storyboard Layer 0 (Background)
//Storyboard Layer 1 (Fail)
//Storyboard Layer 2 (Pass)
//Storyboard Layer 3 (Foreground)
//Storyboard Sound Samples

[TimingPoints]
1509,375,4,2,1,45,1,0
1509,-133.333333333333,4,2,1,45,0,0
15759,500,4,2,1,45,1,0
16009,545.454545454546,4,2,1,45,1,0
16281,750,4,2,1,45,1,0
16656,714.285714285714,4,2,1,45,1,0
17013,600,4,2,1,45,1,0
17163,-118.15,4,2,1,45,0,0
18009,375,4,2,1,70,1,0
30009,-100,4,2,1,60,0,0
33009,-100,4,2,1,45,0,0
37509,-133.333333333333,4,2,1,45,0,0
46884,-133.333333333333,4,2,1,35,0,0
47071,-133.333333333333,4,2,1,40,0,0
47259,-133.333333333333,4,2,1,45,0,0
47634,-133.333333333333,4,2,1,35,0,0
47727,-133.333333333333,4,2,1,45,0,0
47821,-133.333333333333,4,2,1,40,0,0
47915,-133.333333333333,4,2,1,45,0,0
48009,-133.333333333333,4,2,1,50,0,0
57384,-133.333333333333,4,2,1,40,0,0
57571,-133.333333333333,4,2,1,45,0,0
57759,-133.333333333333,4,2,1,50,0,0
58884,-133.333333333333,4,2,1,40,0,0
58977,-133.333333333333,4,2,1,50,0,0
59071,-133.333333333333,4,2,1,45,0,0
59165,-133.333333333333,4,2,1,50,0,0
59259,-133.333333333333,4,2,1,60,0,0
60009,-100,4,2,1,70,0,0
72009,-100,4,2,1,55,0,0
75009,-100,4,2,1,70,0,0
78009,-80,4,2,1,80,0,1
79977,-80,4,2,1,50,0,1
80071,-80,4,2,1,65,0,1
80165,-80,4,2,1,80,0,1
89634,-100,4,2,1,80,0,0
90009,-80,4,2,1,80,0,1
101634,-100,4,2,1,55,0,0
112509,-100,4,2,1,60,0,0
121884,-100,4,2,1,40,0,0
122071,-100,4,2,1,50,0,0
122259,-100,4,2,1,60,0,0
123384,-100,4,2,1,50,0,0
123477,-100,4,2,1,60,0,0
123571,-100,4,2,1,55,0,0
123665,-100,4,2,1,60,0,0
124509,-100,4,2,1,70,0,0
136509,-133.333333333333,4,2,1,50,0,0
139509,-133.333333333333,4,2,1,40,0,0
142509,-133.333333333333,4,2,1,30,0,0

[Colours]
Combo1 : 170,85,0
Combo2 : 255,185,0
Combo3 : 0,170,85
Combo4 : 191,191,191

[HitObjects]
256,192,1415,5,0,0:0:0:0:
288,192,1462,1,0,0:0:0:0:
320,192,1509,6,0,P|391:224|442:283,1,157.500006008148,6|0,0:0|0:0,0:0:0:0:
320,192,2071,1,0,0:0:0:0:
192,192,2259,2,0,P|120:224|69:283,1,157.500006008148,2|0,0:0|0:0,0:0:0:0:
192,192,2821,1,2,0:0:0:0:
370,67,3009,6,0,P|377:142|320:192,1,157.500006008148,2|0,0:0|0:0,0:0:0:0:
208,192,3571,1,2,0:0:0:0:
370,316,3759,2,0,P|377:241|320:192,1,157.500006008148,2|0,0:0|0:0,0:0:0:0:
192,192,4321,1,0,0:0:0:0:
352,192,4509,6,0,L|336:272,1,78.7500030040742,2|0,0:0|0:0,0:0:0:0:
192,192,4884,2,0,L|176:112,1,78.7500030040742,0|2,0:0|0:0,0:0:0:0:
320,112,5259,2,0,L|400:112,1,78.7500030040742,2|0,0:0|0:0,0:0:0:0:
256,192,5634,2,0,L|336:192,1,78.7500030040742,2|0,0:0|0:0,0:0:0:0:
176,192,6009,6,0,L|96:192,3,78.7500030040742,2|0|0|0,0:0|0:0|0:0|0:0,0:0:0:0:
256,128,6759,2,0,L|272:208,1,78.7500030040742,2|0,0:0|0:0,0:0:0:0:
128,208,7134,1,2,0:0:0:0:
272,240,7321,1,0,0:0:0:0:
128,272,7509,6,0,L|208:256,1,78.7500030040742,0|0,0:0|0:0,0:0:0:0:
352,208,7884,2,0,L|208:144,2,157.500006008148,2|2|2,0:0|0:0|0:0,0:0:0:0:
256,192,8821,1,0,0:0:0:0:
416,240,9009,6,0,L|496:272,1,78.7500030040742,2|0,0:0|0:0,0:0:0:0:
352,272,9384,2,0,L|384:352,1,78.7500030040742,0|0,0:0|0:0,0:0:0:0:
224,224,9759,2,0,L|144:192,1,78.7500030040742,2|0,0:0|0:0,0:0:0:0:
288,192,10134,2,0,L|256:112,1,78.7500030040742,2|0,0:0|0:0,0:0:0:0:
416,192,10509,6,0,L|448:112,2,78.7500030040742,2|0|0,0:0|0:0|0:0,0:0:0:0:
304,192,11071,1,2,0:0:0:0:
96,192,11259,2,0,L|64:272,2,78.7500030040742,2|0|0,0:0|0:0|0:0,0:0:0:0:
208,192,11821,1,2,0:0:0:0:
384,192,12009,6,0,L|400:112,2,78.7500030040742,2|0|0,0:0|0:0|0:0,0:0:0:0:
288,192,12571,1,2,0:0:0:0:
128,192,12759,2,0,L|112:272,2,78.7500030040742,2|0|0,0:0|0:0|0:0,0:0:0:0:
224,192,13321,1,2,0:0:0:0:
352,192,13509,5,2,0:0:0:0:
368,112,13696,1,0,0:0:0:0:
304,64,13884,1,0,0:0:0:0:
400,32,14071,1,2,0:0:0:0:
256,192,14259,5,2,0:0:0:0:
240,112,14446,1,0,0:0:0:0:
304,64,14634,1,0,0:0:0:0:
208,32,14821,1,2,0:0:0:0:
352,192,15009,5,2,0:0:0:0:
368,272,15196,1,0,0:0:0:0:
304,320,15384,1,0,0:0:0:0:
400,352,15571,1,2,0:0:0:0:
256,192,15759,5,2,0:0:0:0:
416,192,16009,1,0,0:0:0:0:
240,112,16281,1,2,0:0:0:0:
448,112,16656,1,2,0:0:0:0:
205,243,17014,5,0,0:0:0:0:
240,240,17064,1,0,0:0:0:0:
272,240,17114,1,0,0:0:0:0:
304,240,17163,2,0,B|561:89|304:-146|46:89|304:240,1,639.450005366478
336,240,19368,1,0,0:0:0:0:
304,240,19415,1,0,0:0:0:0:
80,176,19509,6,0,P|112:128|160:112,1,105,6|0,0:2|0:0,0:0:0:0:
320,96,19884,1,0,0:0:0:0:
371,103,19977,1,0,0:0:0:0:
407,140,20071,1,0,0:0:0:0:
416,191,20165,1,2,0:0:0:0:
192,192,20259,2,0,L|144:224,1,52.5,10|0,0:1|0:0,0:0:0:0:
320,192,20446,2,0,L|368:224,1,52.5,0|0,0:0|0:0,0:0:0:0:
192,96,20634,1,10,0:0:0:0:
140,103,20727,1,0,0:0:0:0:
104,140,20821,1,0,0:0:0:0:
95,191,20915,1,0,0:0:0:0:
304,288,21009,6,0,P|400:272|448:224,1,157.5,6|0,0:2|0:0,0:0:0:0:
368,192,21384,2,0,L|480:192,1,105,2|0,0:0|0:0,0:0:0:0:
208,288,21759,2,0,P|112:272|64:224,1,157.5,10|2,0:1|0:0,0:0:0:0:
144,192,22134,2,0,L|32:192,1,105,2|0,0:0|0:0,0:0:0:0:
96,192,22415,1,0,0:0:0:0:
256,192,22509,6,0,P|352:176|400:128,1,157.5,6|2,0:2|0:0,0:0:0:0:
320,96,22884,2,0,L|432:96,1,105,2|0,0:0|0:0,0:0:0:0:
368,96,23165,1,0,0:0:0:0:
144,192,23259,1,10,0:1:0:0:
368,192,23634,2,0,L|480:192,1,105,8|0,0:0|0:0,0:0:0:0:
144,192,24009,6,0,P|80:176|32:96,1,157.5,6|0,0:2|0:0,0:0:0:0:
208,96,24384,2,0,L|272:96,1,52.5,2|0,0:0|0:0,0:0:0:0:
192,112,24571,2,0,L|144:144,1,52.5,0|0,0:0|0:0,0:0:0:0:
315,192,24759,2,0,L|379:192,1,52.5,10|0,0:1|0:0,0:0:0:0:
304,208,24946,2,0,L|256:240,1,52.5
432,96,25134,1,10,0:0:0:0:
469,141,25227,1,0,0:0:0:0:
446,196,25321,1,0,0:0:0:0:
387,202,25415,1,0,0:0:0:0:
192,192,25509,6,0,L|80:192,1,105,6|0,0:0|0:0,0:0:0:0:
144,224,25790,1,0,0:0:0:0:
304,224,25884,2,0,L|368:224,1,52.5,2|0,0:0|0:0,0:0:0:0:
208,224,26071,2,0,L|144:224,1,52.5,2|0,0:0|0:0,0:0:0:0:
464,64,26259,2,0,L|496:112,1,52.5,10|0,0:1|0:0,0:0:0:0:
256,64,26446,2,0,L|224:112,1,52.5,2|0,0:0|0:0,0:0:0:0:
304,64,26634,2,0,L|336:112,1,52.5,2|0,0:0|0:0,0:0:0:0:
274,107,26821,2,0,L|304:64,1,52.5,2|0,0:0|0:0,0:0:0:0:
480,192,27009,6,0,L|480:304,1,105,6|2,0:0|0:0,0:0:0:0:
336,192,27384,2,0,P|336:256|368:288,1,105,0|0,0:0|0:0,0:0:0:0:
48,192,27759,1,10,0:1:0:0:
44,243,27852,1,0,0:0:0:0:
67,290,27946,1,0,0:0:0:0:
110,319,28040,1,0,0:0:0:0:
192,192,28134,1,2,0:0:0:0:
195,140,28227,1,0,0:0:0:0:
172,93,28321,1,0,0:0:0:0:
129,64,28415,1,0,0:0:0:0:
304,64,28509,6,0,L|464:64,1,157.5,6|2,0:2|0:0,0:0:0:0:
384,128,28884,2,0,P|336:128|288:160,1,105,2|0,0:0|0:0,0:0:0:0:
256,208,29165,1,0,0:0:0:0:
448,160,29259,5,8,0:1:0:0:
450,197,29305,1,0,0:0:0:0:
443,234,29352,1,0,0:0:0:0:
428,269,29399,1,0,0:0:0:0:
405,298,29446,1,0,0:0:0:0:
376,322,29493,1,0,0:0:0:0:
341,338,29540,1,0,0:0:0:0:
304,346,29587,1,0,0:0:0:0:
256,352,29634,1,8,0:0:0:0:
230,314,29680,1,0,0:0:0:0:
214,272,29727,1,0,0:0:0:0:
210,226,29774,1,0,0:0:0:0:
216,181,29821,1,0,0:0:0:0:
231,138,29868,1,0,0:0:0:0:
258,99,29915,1,0,0:0:0:0:
448,192,30009,6,0,L|352:128,2,105,6|0|0,3:2|0:0|0:0,0:0:0:70:drum-hitnormal.wav
320,192,30571,1,2,3:0:0:0:
64,192,30759,2,0,L|160:256,2,105,2|0|0,0:0|0:0|0:0,0:0:0:0:
192,192,31321,1,2,3:0:0:0:
448,192,31509,6,0,L|352:128,2,105,2|0|2,3:2|0:0|0:0,0:0:0:0:
320,192,32071,1,2,3:0:0:0:
64,192,32259,2,0,L|48:256,1,52.5,2|0,0:0|0:0,0:0:0:0:
144,192,32446,2,0,L|160:128,1,52.5,2|0,0:0|0:0,0:0:0:0:
352,192,32634,2,0,L|464:192,1,105,2|2,0:0|0:0,0:0:0:0:
400,192,32915,1,0,0:0:0:0:
208,192,33009,6,0,P|176:144|176:96,1,105,4|0,0:0|0:0,0:0:0:0:
224,80,33290,1,0,0:0:0:0:
272,64,33384,1,2,0:0:0:0:
128,64,33571,1,2,0:0:0:0:
304,192,33759,2,0,P|336:144|336:96,1,105,2|0,0:0|0:0,0:0:0:0:
288,80,34040,1,0,0:0:0:0:
240,64,34134,1,2,0:0:0:0:
384,64,34321,1,2,0:0:0:0:
176,192,34509,6,0,P|192:320|256:352,1,210,6|0,0:0|0:0,0:0:0:0:
336,192,35071,1,2,0:0:0:0:
160,112,35259,1,2,0:0:0:0:
352,112,35446,1,0,0:0:0:0:
176,32,35634,1,2,0:0:0:0:
416,32,35821,1,2,0:0:0:0:
256,192,36009,12,0,36759,0:0:0:0:
192,192,37509,6,0,P|128:192|64:128,2,157.500006008148,10|0|10,0:0|0:0|0:0,0:0:0:0:
304,192,38446,1,0,0:0:0:0:
160,176,38634,2,0,L|144:256,1,78.7500030040742,2|0,0:0|0:0,0:0:0:0:
352,288,39009,6,0,P|432:256|448:192,1,157.500006008148,10|0,0:0|0:0,0:0:0:0:
288,192,39571,1,0,0:0:0:0:
448,191,39759,2,0,P|424:119|352:96,1,157.500006008148,10|0,0:0|0:0,0:0:0:0:
112,96,40509,6,0,P|64:160|64:240,1,157.500006008148,10|0,0:0|0:0,0:0:0:0:
192,288,41071,1,2,0:0:0:0:
399,288,41259,2,0,P|447:226|416:160,1,157.500006008148,10|2,0:0|0:0,0:0:0:0:
176,128,42009,6,0,L|192:208,1,78.7500030040742,10|0,0:0|0:0,0:0:0:0:
336,128,42384,2,0,L|320:208,1,78.7500030040742,2|2,0:0|0:0,0:0:0:0:
176,64,42759,1,10,0:0:0:0:
320,64,42946,1,0,0:0:0:0:
144,192,43134,1,2,0:0:0:0:
288,192,43321,1,2,0:0:0:0:
112,64,43509,6,0,L|64:128,1,78.7500030040742,10|0,0:0|0:0,0:0:0:0:
224,192,43884,2,0,L|144:192,2,78.7500030040742,2|2|10,0:0|0:0|0:0,0:0:0:0:
368,240,44446,1,2,0:0:0:0:
224,288,44634,2,0,L|144:288,1,78.7500030040742,2|2,0:0|0:0,0:0:0:0:
336,288,45009,6,0,P|400:272|432:192,1,157.500006008148,10|0,0:0|0:0,0:0:0:0:
288,192,45571,1,2,0:0:0:0:
432,192,45759,2,0,L|448:112,1,78.7500030040742,10|0,0:0|0:0,0:0:0:0:
288,192,46134,2,0,L|304:112,1,78.7500030040742,2|0,0:0|0:0,0:0:0:0:
48,192,46509,6,0,P|64:272|128:304,1,157.500006008148,10|4,0:0|0:3,0:0:0:0:
200,304,46977,1,2,0:0:0:0:
272,304,47071,1,2,0:0:0:0:
344,304,47165,1,2,0:0:0:0:
128,192,47259,2,0,P|61:155|49:80,1,157.500006008148,4|4,0:3|0:3,0:0:0:0:
80,80,47696,1,0,0:0:0:0:
48,136,47759,1,0,0:0:0:0:
80,192,47821,1,0,0:0:0:0:
128,192,47884,1,2,0:0:0:0:
368,192,48009,6,0,L|448:192,1,78.7500030040742,12|0,0:3|0:0,0:0:0:0:
320,144,48384,2,0,L|368:80,1,78.7500030040742,2|0,0:0|0:0,0:0:0:0:
192,144,48759,1,8,0:3:0:0:
64,192,48946,2,0,L|144:192,2,78.7500030040742,2|2|0,0:0|0:0|0:0,0:0:0:0:
240,192,49509,6,0,L|320:192,2,78.7500030040742,12|0|0,0:3|0:0|0:0,0:0:0:0:
416,192,50071,1,2,0:0:0:0:
256,224,50259,2,0,L|256:304,1,78.7500030040742,8|0,0:3|0:0,0:0:0:0:
96,192,50634,2,0,L|96:272,1,78.7500030040742,2|0,0:0|0:0,0:0:0:0:
416,192,51009,6,0,L|448:112,1,78.7500030040742,12|0,0:3|0:0,0:0:0:0:
256,192,51384,1,2,0:0:0:0:
416,192,51571,1,2,0:0:0:0:
256,192,51759,2,0,L|224:272,2,78.7500030040742,8|0|0,0:3|0:0|0:0,0:0:0:0:
368,192,52321,1,2,0:0:0:0:
176,192,52509,6,0,L|144:272,1,78.7500030040742,12|0,0:3|0:0,0:0:0:0:
272,192,52884,1,0,0:0:0:0:
464,192,53071,1,2,0:0:0:0:
272,192,53259,2,0,L|256:112,1,78.7500030040742,8|0,0:3|0:0,0:0:0:0:
400,192,53634,2,0,L|416:112,1,78.7500030040742,2|0,0:0|0:0,0:0:0:0:
144,192,54009,6,0,L|128:272,1,78.7500030040742,12|0,0:3|0:0,0:0:0:0:
256,192,54384,2,0,L|272:272,1,78.7500030040742,0|2,0:0|0:0,0:0:0:0:
128,192,54759,1,8,0:3:0:0:
384,192,54946,1,2,0:0:0:0:
256,288,55134,1,2,0:0:0:0:
128,192,55321,1,2,0:0:0:0:
208,192,55415,1,0,0:0:0:0:
288,192,55509,5,12,0:3:0:0:
128,192,55696,1,0,0:0:0:0:
288,192,55884,2,0,L|368:192,1,78.7500030040742,2|0,0:0|0:0,0:0:0:0:
208,192,56259,1,8,0:3:0:0:
480,192,56634,1,2,0:0:0:0:
208,192,57009,6,0,P|144:208|112:288,1,157.500006008148,10|4,0:0|0:3,0:0:0:0:
192,288,57477,1,2,0:0:0:0:
272,288,57571,1,2,0:0:0:0:
352,288,57665,1,2,0:0:0:0:
112,192,57759,2,0,P|64:144|64:96,1,118.125004506111,4|0,0:3|0:0,0:0:0:0:
400,192,58134,2,0,P|448:144|448:96,1,118.125004506111,4|0,0:3|0:0,0:0:0:0:
112,192,58509,5,4,0:3:0:0:
336,80,58884,1,4,0:3:0:0:
256,80,58977,1,2,0:0:0:0:
336,80,59071,1,2,0:0:0:0:
256,80,59165,1,2,0:0:0:0:
64,112,59259,1,4,0:3:0:0:
47,153,59352,1,0,0:0:0:0:
44,199,59446,1,0,0:0:0:0:
55,242,59540,1,0,0:0:0:0:
77,281,59634,1,0,0:0:0:0:
109,312,59727,1,0,0:0:0:0:
150,332,59821,1,0,0:0:0:0:
194,341,59915,1,0,0:0:0:0:
400,192,60009,6,0,P|448:176|464:128,1,105,6|0,0:2|0:0,0:0:0:0:
336,112,60384,1,0,0:0:0:0:
480,112,60571,1,2,0:0:0:0:
224,192,60759,1,8,0:1:0:0:
205,145,60852,1,0,0:0:0:0:
206,95,60946,1,2,0:0:0:0:
227,49,61040,1,0,0:0:0:0:
265,15,61134,1,0,0:0:0:0:
313,0,61227,1,0,0:0:0:0:
363,4,61321,1,2,0:0:0:0:
112,192,61509,6,0,P|64:176|48:128,1,105,2|0,0:2|0:0,0:0:0:0:
176,112,61884,1,2,0:0:0:0:
32,112,62071,1,2,0:0:0:0:
288,192,62259,1,8,0:1:0:0:
307,145,62352,1,0,0:0:0:0:
306,95,62446,1,0,0:0:0:0:
285,49,62540,1,0,0:0:0:0:
247,15,62634,1,0,0:0:0:0:
199,0,62727,1,0,0:0:0:0:
149,4,62821,1,2,0:0:0:0:
400,192,63009,6,0,P|448:208|400:320,1,210,2|0,0:2|0:0,0:0:0:0:
48,192,63759,2,0,P|96:208|48:320,1,210,8|0,0:1|0:0,0:0:0:0:
192,192,64321,1,2,0:0:0:0:
368,192,64509,6,0,P|448:160|464:48,1,210,2|0,0:2|0:0,0:0:0:0:
320,48,65071,1,2,0:0:0:0:
144,48,65259,2,0,L|96:144,1,105,8|2,0:1|0:0,0:0:0:0:
256,192,65634,2,0,L|208:288,1,105,2|0,0:0|0:0,0:0:0:0:
464,192,66009,6,0,P|464:256|352:336,1,210,2|0,0:2|0:0,0:0:0:0:
464,192,66571,1,2,0:0:0:0:
208,272,66759,2,0,P|151:188|185:92,1,210,8|0,0:1|0:0,0:0:0:0:
304,96,67321,1,2,0:0:0:0:
48,192,67509,6,0,P|48:256|68:292,1,105,2|0,0:2|0:0,0:0:0:0:
108,324,67790,1,0,0:0:0:0:
156,336,67884,1,0,0:0:0:0:
104,264,67977,1,0,0:0:0:0:
48,192,68071,1,2,0:0:0:0:
304,112,68259,2,0,P|361:196|327:292,1,210,8|0,0:1|0:0,0:0:0:0:
208,288,68821,1,2,0:0:0:0:
464,288,69009,6,0,P|480:192|416:96,1,210,2|0,0:2|0:0,0:0:0:0:
304,128,69571,1,2,0:0:0:0:
48,288,69759,1,8,0:1:0:0:
32,176,69946,1,2,0:0:0:0:
91,87,70134,1,0,0:0:0:0:
208,128,70321,1,2,0:0:0:0:
464,96,70509,6,0,P|480:192|416:288,1,210,2|0,0:2|0:0,0:0:0:0:
320,240,71071,1,2,0:0:0:0:
64,96,71259,1,8,0:1:0:0:
47,145,71352,1,0,0:0:0:0:
49,197,71446,1,2,0:0:0:0:
69,245,71540,1,0,0:0:0:0:
105,283,71634,1,2,0:0:0:0:
256,240,71821,1,0,0:0:0:0:
416,272,72009,6,0,L|432:160,2,105,2|0|0,0:0|0:0|0:0,0:0:0:0:
272,192,72571,1,2,0:0:0:0:
448,272,72759,2,0,L|464:160,2,105,2|0|0,0:0|0:0|0:0,0:0:0:0:
304,192,73321,1,2,0:0:0:0:
128,272,73509,6,0,L|112:160,2,105,2|0|0,0:0|0:0|0:0,0:0:0:0:
256,192,74071,1,0,0:0:0:0:
96,272,74259,2,0,L|80:160,1,105,2|0,0:0|0:0,0:0:0:0:
128,128,74540,1,8,0:0:0:0:
192,128,74634,1,8,0:0:0:0:
32,128,74821,1,2,0:0:0:0:
320,128,75009,6,0,P|400:144|448:256,1,210,4|0,1:2|0:0,0:0:0:0:
160,192,75571,1,2,0:0:0:0:
448,130,75759,2,0,P|416:226|320:256,1,210,8|8,1:1|0:0,0:0:0:0:
32,192,76321,1,2,0:0:0:0:
320,192,76509,6,0,L|432:192,1,105,0|8,1:0|0:1,0:0:0:0:
176,112,76884,2,0,L|288:112,1,105,0|8,0:0|0:1,0:0:0:0:
32,272,77259,2,0,L|144:272,1,105,8|0,0:1|0:0,0:0:0:0:
432,272,77634,1,8,1:0:0:0:
464,259,77680,1,0,0:0:0:0:
487,233,77727,1,0,0:0:0:0:
496,200,77774,1,0,0:0:0:0:
489,166,77821,1,0,0:0:0:0:
468,139,77868,1,0,0:0:0:0:
437,124,77915,1,0,0:0:0:0:
144,192,78009,6,0,P|96:144|96:80,1,131.25,4|2,1:1|0:0,0:0:0:0:
176,48,78290,1,0,0:0:0:0:
256,80,78384,1,2,0:0:0:0:
96,192,78571,1,0,0:0:0:0:
404,192,78759,2,0,L|420:256,1,65.625,10|0,0:1|0:0,0:0:0:0:
256,96,78946,2,0,L|392:96,1,131.25,2|2,0:3|0:3,0:0:0:0:
108,192,79321,2,0,L|92:256,1,65.625,2|0,2:3|0:0,0:0:0:0:
256,144,79509,6,0,P|384:160|464:272,1,262.5,0|2,1:0|0:0,0:0:0:0:
440,304,79977,1,0,1:0:0:0:
416,304,80024,1,0,1:0:0:0:
384,304,80071,1,0,1:0:0:0:
344,304,80118,1,0,1:0:0:0:
296,304,80165,1,0,1:0:0:0:
144,192,80259,1,8,0:1:0:0:
480,208,80446,2,0,P|480:96|368:0,1,262.5,2|2,1:2|1:2,0:0:0:0:
320,0,80868,1,2,0:0:0:0:
272,0,80915,1,2,0:0:0:0:
80,208,81009,5,0,1:0:0:0:
224,144,81196,1,2,0:0:0:0:
48,144,81384,1,2,0:0:0:0:
192,80,81571,1,0,0:0:0:0:
448,96,81759,2,0,L|416:160,1,65.625,10|2,0:1|0:0,0:0:0:0:
256,96,81946,2,0,L|224:160,1,65.625,2|2,0:0|0:0,0:0:0:0:
384,160,82134,2,0,L|352:224,1,65.625,2|0,0:0|0:0,0:0:0:0:
96,192,82321,5,0,1:0:0:0:
55,264,82414,1,0,0:0:0:0:
83,343,82508,1,2,0:0:0:0:
161,372,82602,1,0,0:0:0:0:
352,368,82696,2,0,L|416:352,1,65.625,2|0,0:0|0:0,0:0:0:0:
161,12,82884,5,0,1:0:0:0:
83,41,82978,1,0,0:0:0:0:
55,120,83072,1,2,0:0:0:0:
96,192,83165,1,0,0:0:0:0:
352,192,83259,1,10,0:1:0:0:
208,160,83446,2,0,L|160:112,1,65.625
352,192,83634,2,0,L|496:192,1,131.25,10|0,0:1|0:0,0:0:0:0:
160,192,84009,5,0,1:0:0:0:
304,144,84196,2,0,L|368:128,2,65.625,2|0|2,0:0|0:0|0:0,0:0:0:0:
160,192,84571,1,0,0:0:0:0:
448,112,84759,2,0,L|432:176,1,65.625,8|0,0:1|0:0,0:0:0:0:
160,192,84946,2,0,L|176:128,1,65.625,2|0,0:0|0:0,0:0:0:0:
384,192,85134,2,0,L|464:192,1,65.625,2|0,0:0|0:0,0:0:0:0:
224,96,85321,2,0,L|144:96,1,65.625,2|0,0:0|0:0,0:0:0:0:
384,192,85509,5,0,1:0:0:0:
256,192,85696,1,2,0:0:0:0:
160,192,85790,1,0,0:0:0:0:
80,192,85884,1,2,0:0:0:0:
160,192,85977,1,0,0:0:0:0:
96,192,86071,1,2,0:0:0:0:
416,192,86259,2,0,L|496:192,1,65.625,8|0,0:1|0:0,0:0:0:0:
392,128,86446,2,0,L|472:128,1,65.625,2|0,0:0|0:0,0:0:0:0:
368,256,86634,2,0,L|288:256,1,65.625,2|0,0:0|0:0,0:0:0:0:
392,192,86821,1,2,0:0:0:0:
48,192,87009,5,0,1:0:0:0:
192,80,87196,2,0,L|256:96,1,65.625,2|0,0:0|0:0,0:0:0:0:
176,160,87384,2,0,L|112:144,1,65.625,2|0,0:0|0:0,0:0:0:0:
192,80,87571,1,2,0:0:0:0:
448,192,87759,2,0,L|384:208,1,65.625,10|0,0:1|0:0,0:0:0:0:
160,208,87946,2,0,L|96:192,1,65.625,2|0,0:0|0:0,0:0:0:0:
336,208,88134,2,0,P|400:192|400:112,1,131.25,2|2,0:0|0:3,0:0:0:0:
96,96,88509,5,0,1:0:0:0:
416,96,88696,2,0,L|448:160,1,65.625,2|0,0:1|0:0,0:0:0:0:
160,96,88884,2,0,L|96:112,1,65.625,0|0,1:0|0:0,0:0:0:0:
352,96,89071,2,0,L|416:112,1,65.625,2|0,1:0|0:0,0:0:0:0:
128,192,89259,2,0,L|144:256,1,65.625,10|0,0:1|0:0,0:0:0:0:
384,192,89446,2,0,L|368:256,1,65.625,2|0,0:0|0:0,0:0:0:0:
176,192,89634,1,10,1:0:0:0:
162,240,89680,1,0,0:0:0:0:
192,282,89727,1,0,0:0:0:0:
242,286,89774,1,0,0:0:0:0:
279,252,89821,1,2,0:3:0:0:
276,201,89868,1,0,0:0:0:0:
235,170,89915,1,0,0:0:0:0:
48,144,90009,6,0,P|48:272|160:304,1,262.5,4|0,1:0|0:0,0:0:0:0:
464,144,90759,2,0,P|448:272|368:304,1,196.875,10|0,0:1|0:0,0:0:0:0:
320,304,91134,1,0,0:0:0:0:
277,304,91180,1,0,0:0:0:0:
240,296,91227,1,0,0:0:0:0:
212,268,91274,1,0,0:0:0:0:
196,228,91321,1,2,0:3:0:0:
216,188,91368,1,0,0:0:0:0:
254,177,91415,1,0,0:0:0:0:
416,16,91509,5,0,1:0:0:0:
441,51,91555,1,0,0:0:0:0:
460,91,91602,1,0,0:0:0:0:
474,134,91649,1,0,0:0:0:0:
482,179,91696,1,0,0:0:0:0:
482,223,91743,1,0,0:0:0:0:
475,268,91790,1,0,0:0:0:0:
461,311,91837,1,0,0:0:0:0:
432,352,91884,1,2,0:3:0:0:
405,315,91930,1,0,0:0:0:0:
374,282,91977,1,0,0:0:0:0:
337,257,92024,1,0,0:0:0:0:
298,236,92071,1,0,0:0:0:0:
256,221,92118,1,0,0:0:0:0:
211,213,92165,1,0,0:0:0:0:
48,352,92259,5,8,0:1:0:0:
382,67,92446,2,0,P|448:192|400:304,1,262.5,2|2,1:0|1:0,0:0:0:0:
80,192,93009,6,0,P|32:144|32:80,1,131.25,2|2,1:0|0:0,0:0:0:0:
208,48,93384,2,0,L|224:112,1,65.625,2|0,0:0|0:0,0:0:0:0:
304,336,93571,2,0,L|288:272,1,65.625
112,48,93759,2,0,L|96:112,1,65.625,10|0,0:1|0:0,0:0:0:0:
176,336,93946,2,0,L|192:272,1,65.625,2|0,0:0|0:0,0:0:0:0:
272,48,94134,2,0,L|256:112,1,65.625,2|0,0:0|0:0,0:0:0:0:
160,192,94321,1,0,1:0:0:0:
256,192,94415,1,0,1:0:0:0:
400,336,94509,5,0,0:0:0:0:
112,336,94696,1,2,1:0:0:0:
448,336,94884,2,0,L|320:304,1,131.25,0|2,1:0|0:0,0:0:0:0:
64,336,95259,2,0,L|192:304,1,131.25,10|2,0:1|0:0,0:0:0:0:
448,336,95634,2,0,L|456:264,1,65.625,8|2,0:1|0:0,0:0:0:0:
256,192,95821,2,0,L|264:120,1,65.625,4|2,0:3|0:0,0:0:0:0:
64,336,96009,5,0,1:0:0:0:
192,256,96196,1,2,0:0:0:0:
64,192,96384,1,0,0:0:0:0:
368,192,96571,2,0,L|432:176,1,65.625,8|0,0:1|0:0,0:0:0:0:
352,144,96759,2,0,L|288:160,1,65.625,0|0,0:0|0:0,0:0:0:0:
128,208,96946,2,0,L|192:192,1,65.625,0|0,1:0|0:0,0:0:0:0:
368,192,97134,1,8,0:1:0:0:
224,192,97321,1,0,1:0:0:0:
368,192,97509,5,0,1:0:0:0:
96,64,97696,2,0,P|112:128|160:176,1,131.25,2|0,0:0|0:0,0:0:0:0:
432,192,98071,2,0,L|304:160,1,131.25,8|0,0:1|0:0,0:0:0:0:
464,128,98446,1,0,1:0:0:0:
112,112,98634,1,8,0:1:0:0:
69,182,98727,1,0,0:0:0:0:
77,264,98821,1,0,1:0:0:0:
132,325,98915,1,0,0:0:0:0:
336,192,99009,5,0,1:0:0:0:
176,192,99196,2,0,P|160:112|176:64,1,131.25,2|0,0:0|0:0,0:0:0:0:
464,192,99571,1,8,0:1:0:0:
304,192,99759,1,0,0:0:0:0:
464,192,99946,1,0,1:0:0:0:
176,192,100134,1,8,0:1:0:0:
170,271,100227,1,0,0:0:0:0:
207,342,100321,1,0,1:0:0:0:
274,383,100415,1,0,0:0:0:0:
464,192,100509,6,0,L|320:192,2,131.25,0|2|0,1:0|0:0|1:0,0:0:0:0:
128,96,101071,1,10,0:1:0:0:
384,96,101259,1,2,0:0:0:0:
96,192,101446,1,4,3:0:0:0:
256,192,101540,1,2,3:0:0:0:
416,192,101634,2,0,P|400:256|368:272,1,105,6|2,0:0|0:0,0:0:0:0:
96,192,102009,6,0,L|96:304,1,105,2|0,0:0|0:0,0:0:0:0:
256,192,102384,2,0,L|144:192,1,105,0|2,0:0|0:0,0:0:0:0:
320,144,102759,2,0,L|320:32,1,105,2|0,0:0|0:0,0:0:0:0:
160,144,103134,2,0,L|272:144,1,105,2|2,0:0|0:0,0:0:0:0:
368,144,103415,2,0,L|400:144,1,26.25,0|0,0:0|0:0,0:0:0:0:
416,192,103509,5,8,3:2:0:0:
176,192,103884,2,0,P|112:208|32:320,2,210,2|2|2,0:0|0:0|0:0,0:0:0:0:
449,331,105009,6,0,P|428:232|336:192,1,210,2|0,0:0|0:0,0:0:0:0:
224,192,105571,2,0,L|176:160,1,52.5
256,160,105759,2,0,L|304:128,1,52.5,2|0,0:0|0:0,0:0:0:0:
224,80,105946,2,0,L|267:109,1,52.5
336,160,106134,2,0,L|288:128,1,52.5,2|0,0:0|0:0,0:0:0:0:
224,80,106321,2,0,L|267:109,1,52.5
368,192,106509,5,8,0:0:0:0:
128,192,106884,1,2,0:0:0:0:
432,192,107259,2,0,P|384:192|432:96,1,210,2|2,0:0|0:0,0:0:0:0:
128,160,108009,2,0,L|352:160,1,210,2|0,0:0|0:0,0:0:0:0:
48,64,108759,6,0,P|32:160|112:224,1,210,2|0,0:0|0:0,0:0:0:0:
392,160,109509,2,0,L|168:160,1,210,2|0,0:0|0:0,0:0:0:0:
464,64,110259,2,0,P|480:160|400:224,1,210,2|0,0:0|0:0,0:0:0:0:
128,224,111009,6,0,P|64:192|32:64,1,210,2|0,0:0|0:0,0:0:0:0:
384,224,111759,2,0,P|448:192|480:64,1,210,2|0,0:0|0:0,0:0:0:0:
160,256,112509,6,0,P|112:160|256:48,1,315,2|2,0:0|0:3,0:0:0:0:
368,48,113259,1,0,0:0:0:0:
208,192,113446,2,0,L|320:192,2,105,2|2|0,0:0|0:0|0:0,0:0:0:0:
400,192,114009,6,0,P|400:256|272:320,1,210,2|0,0:0|0:0,0:0:0:0:
128,192,114571,1,2,0:0:0:0:
288,192,114759,2,0,P|336:160|336:112,1,105,2|0,0:0|0:0,0:0:0:0:
224,192,115134,2,0,P|176:160|176:112,1,105,0|0,0:0|0:0,0:0:0:0:
400,80,115509,6,0,P|448:176|400:256,1,210,2|0,0:0|0:0,0:0:0:0:
272,192,116071,1,0,0:0:0:0:
112,80,116259,2,0,P|64:176|112:256,1,210,2|0,0:0|0:0,0:0:0:0:
240,192,116821,1,2,0:0:0:0:
432,64,117009,6,0,P|480:160|432:240,1,210,2|0,0:0|0:0,0:0:0:0:
288,192,117571,1,2,0:0:0:0:
432,192,117759,1,10,0:0:0:0:
144,192,118134,2,0,P|144:256|176:288,1,105,8|0,0:0|0:0,0:0:0:0:
368,192,118509,6,0,P|368:256|336:288,1,105,2|0,0:0|0:0,0:0:0:0:
208,144,118884,2,0,L|112:96,2,105,2|0|2,0:3|0:0|0:3,0:0:0:0:
304,144,119446,1,2,0:0:0:0:
176,224,119634,1,2,0:3:0:0:
336,224,119821,1,0,0:0:0:0:
144,304,120009,6,0,P|112:256|112:208,1,105,2|0,0:0|0:0,0:0:0:0:
272,192,120384,1,2,0:0:0:0:
128,176,120571,1,0,0:0:0:0:
288,66,120759,2,0,P|286:117|256:160,1,105,2|0,0:0|0:0,0:0:0:0:
79,66,121134,2,0,P|81:117|112:160,1,105,2|0,0:0|0:0,0:0:0:0:
272,224,121509,6,0,P|368:192|400:96,1,210,2|4,0:0|0:3,0:0:0:0:
320,96,121977,1,0,0:0:0:0:
240,96,122071,1,0,0:0:0:0:
160,96,122165,1,0,0:0:0:0:
400,192,122259,2,0,P|448:240|448:336,1,157.5,4|0,0:3|0:0,0:0:0:0:
112,192,122634,2,0,P|64:240|64:336,1,157.5,4|0,0:3|0:0,0:0:0:0:
400,192,123009,5,4,0:3:0:0:
176,304,123384,1,4,0:3:0:0:
256,304,123477,1,2,0:0:0:0:
176,304,123571,1,2,0:0:0:0:
256,304,123665,1,2,0:0:0:0:
448,272,123759,1,4,0:3:0:0:
465,231,123852,1,0,0:0:0:0:
468,185,123946,1,0,0:0:0:0:
457,142,124040,1,0,0:0:0:0:
435,103,124134,1,0,0:0:0:0:
403,72,124227,1,0,0:0:0:0:
362,52,124321,1,0,0:0:0:0:
318,43,124415,1,0,0:0:0:0:
112,192,124509,6,0,L|160:288,1,105,4|0,1:2|0:0,0:0:0:0:
288,288,124884,1,0,0:0:0:0:
448,192,125071,1,2,0:0:0:0:
160,96,125259,1,8,0:1:0:0:
98,111,125352,1,0,0:0:0:0:
48,151,125446,1,0,0:0:0:0:
21,208,125540,1,0,0:0:0:0:
21,271,125634,1,0,0:0:0:0:
48,329,125727,1,0,0:0:0:0:
98,368,125821,1,2,0:0:0:0:
400,192,126009,6,0,L|352:96,1,105,0|0,1:0|0:0,0:0:0:0:
224,96,126384,1,0,0:0:0:0:
64,192,126571,1,2,0:0:0:0:
352,288,126759,1,8,0:1:0:0:
414,273,126852,1,0,0:0:0:0:
464,233,126946,1,0,0:0:0:0:
491,176,127040,1,0,0:0:0:0:
491,113,127134,1,0,0:0:0:0:
464,55,127227,1,0,0:0:0:0:
414,16,127321,1,2,0:0:0:0:
112,192,127509,6,0,P|64:208|128:304,1,210,0|2,1:0|0:0,0:0:0:0:
240,272,128071,1,0,0:0:0:0:
400,192,128259,2,0,L|336:96,1,105,8|2,0:1|0:0,0:0:0:0:
144,192,128634,2,0,L|208:96,1,105,0|2,0:1|0:0,0:0:0:0:
464,192,129009,6,0,P|464:256|336:304,1,210,0|2,1:0|0:0,0:0:0:0:
240,256,129571,1,0,1:0:0:0:
384,192,129759,2,0,L|288:144,1,105,10|0,0:1|0:0,0:0:0:0:
128,192,130134,2,0,L|224:144,1,105,2|0,0:0|0:0,0:0:0:0:
480,112,130509,6,0,L|384:64,2,105,2|0|0,1:0|0:0|0:0,0:0:0:0:
352,192,131071,1,2,0:0:0:0:
160,272,131259,2,0,L|256:320,2,105,10|0|0,0:1|0:0|0:0,0:0:0:0:
288,192,131821,1,2,0:0:0:0:
32,272,132009,6,0,L|128:320,2,105,0|0|0,1:0|0:0|0:0,0:0:0:0:
160,192,132571,1,2,0:0:0:0:
352,112,132759,2,0,L|256:64,2,105,10|0|2,0:1|0:0|0:0,0:0:0:0:
224,192,133321,1,2,0:0:0:0:
480,192,133509,6,0,L|496:80,1,105,2|2,1:0|0:0,0:0:0:0:
384,64,133884,1,0,0:0:0:0:
224,192,134071,1,2,0:0:0:0:
416,192,134259,2,0,L|400:304,1,105,8|0,0:1|0:0,0:0:0:0:
288,320,134634,1,0,0:0:0:0:
128,192,134821,1,2,0:0:0:0:
288,192,135009,5,0,1:0:0:0:
302,142,135102,1,0,0:0:0:0:
286,93,135196,1,0,0:0:0:0:
244,63,135290,1,0,0:0:0:0:
192,63,135384,1,0,0:0:0:0:
32,192,135571,1,2,0:0:0:0:
192,320,135759,1,8,0:1:0:0:
244,320,135853,1,0,0:0:0:0:
286,290,135947,1,2,0:0:0:0:
302,241,136041,1,0,0:0:0:0:
288,192,136134,1,2,0:0:0:0:
128,192,136321,1,0,0:0:0:0:
288,128,136509,6,0,L|368:128,2,78.7500030040742,2|0|0,0:0|0:0|0:0,0:0:0:0:
160,192,137071,1,2,0:0:0:0:
320,256,137259,2,0,L|400:256,2,78.7500030040742,2|0|0,0:0|0:0|0:0,0:0:0:0:
192,192,137821,1,2,0:0:0:0:
352,128,138009,6,0,L|432:128,2,78.7500030040742,2|0|0,0:0|0:0|0:0,0:0:0:0:
224,192,138571,1,2,0:0:0:0:
384,256,138759,2,0,L|304:256,2,78.7500030040742,2|0|0,0:0|0:0|0:0,0:0:0:0:
256,192,139321,1,2,0:0:0:0:
112,256,139509,6,0,L|112:336,1,78.7500030040742,2|0,0:0|0:0,0:0:0:0:
240,192,139884,1,0,0:0:0:0:
112,128,140071,1,2,0:0:0:0:
256,256,140259,2,0,L|256:336,1,78.7500030040742,2|0,0:0|0:0,0:0:0:0:
384,192,140634,1,0,0:0:0:0:
256,128,140821,1,2,0:0:0:0:
400,256,141009,6,0,L|400:336,1,78.7500030040742,2|0,0:0|0:0,0:0:0:0:
272,128,141384,1,0,0:0:0:0:
144,256,141571,1,2,0:0:0:0:
288,128,141759,1,2,0:0:0:0:
256,192,141946,12,0,144196,0:0:0:0:
