osu file format v14

[General]
AudioFilename: audio.mp3
AudioLeadIn: 0
PreviewTime: -1
Countdown: 1
SampleSet: None
StackLeniency: 0.7
Mode: 0
LetterboxInBreaks: 0
WidescreenStoryboard: 1

[Editor]
Bookmarks: 98255,103598
DistanceSpacing: 0.4
BeatDivisor: 8
GridSize: 4
TimelineZoom: 1.8

[Metadata]
Title:Marigold ( VIP Remix )
TitleUnicode:Marigold ( VIP Remix )
Artist:M2U
ArtistUnicode:M2U
Creator:Inversal
Version:Shine Out!
Source:
Tags:
BeatmapID:2558936
BeatmapSetID:684513

[Difficulty]
HPDrainRate:6
CircleSize:4.2
OverallDifficulty:8.5
ApproachRate:9.3
SliderMultiplier:2
SliderTickRate:1

[Events]
//Background and Video events
0,0,"bg.jpg",0,0
//Break Periods
//Storyboard Layer 0 (Background)
//Storyboard Layer 1 (Fail)
//Storyboard Layer 2 (Pass)
//Storyboard Layer 3 (Foreground)
//Storyboard Layer 4 (Overlay)
//Storyboard Sound Samples

[TimingPoints]
755,375,4,1,0,100,1,0
85880,-133.333333333333,4,1,0,100,0,0
86255,-50,4,1,0,100,0,1
87005,-100,4,1,0,100,0,1
87567,-50,4,1,0,100,0,1
88505,-100,4,1,0,100,0,1
88880,-50,4,1,0,100,0,1
89255,-33.3333333333333,4,1,0,100,0,1
89630,-100,4,1,0,100,0,1
90567,-50,4,1,0,100,0,1
90942,-100,4,1,0,100,0,1
91130,-50,4,1,0,100,0,1
92255,-33.3333333333333,4,1,0,100,0,1
92630,-50,4,1,0,100,0,1
93005,-66.6666666666667,4,1,0,100,0,1
94130,-50,4,1,0,100,0,1
95255,-400,4,1,0,100,0,1
96192,-50,4,1,0,100,0,1
96567,-400,4,1,0,100,0,1
97505,-50,4,1,0,100,0,1
98255,-33.3333333333333,4,1,0,100,0,1
98630,-50,4,1,0,100,0,1
99005,-100,4,1,0,100,0,1
99567,-50,4,1,0,100,0,1
101255,-33.3333333333333,4,1,0,100,0,1
101630,-50,4,1,0,100,0,1
102005,-100,4,1,0,100,0,1
103505,-50,4,1,0,100,0,1
104255,-33.3333333333333,4,1,0,100,0,1
104630,-50,4,1,0,100,0,1
107255,-33.3333333333333,4,1,0,100,0,1
107630,-50,4,1,0,100,0,1
108567,-100,4,1,0,20,0,1
110255,-66.6666666666667,4,1,0,100,0,0

[HitObjects]
56,154,85880,6,0,P|119:152|162:192,1,112.500004291535
277,341,86255,6,0,P|235:252|301:173,1,200
417,288,86630,2,0,P|348:283|321:254,1,100
186,149,86817,2,0,P|145:121|96:125,1,100
121,209,87005,6,0,L|107:308,1,100
242,362,87286,1,0,0:0:0:0:
289,333,87380,1,0,0:0:0:0:
344,354,87473,1,0,0:0:0:0:
364,343,87567,6,0,P|464:355|389:249,1,300
180,189,87942,2,0,P|200:209|283:211,1,100
363,131,88130,2,0,P|343:111|260:109,1,100
92,163,88317,5,0,0:0:0:0:
78,167,88411,1,0,0:0:0:0:
65,173,88505,2,0,L|76:107,1,50
188,238,88692,2,0,L|177:172,1,50
28,296,88880,6,0,P|70:287|139:326,1,100
297,214,89067,2,0,P|342:233|390:224,1,100
338,136,89255,6,0,B|278:97|219:161|219:161|152:236|66:176,1,300.000011444092
121,69,89536,1,0,0:0:0:0:
121,69,89630,6,0,P|135:88|140:129,1,50
15,313,89817,1,0,0:0:0:0:
68,277,89911,1,0,0:0:0:0:
113,287,90005,1,0,0:0:0:0:
242,351,90192,5,0,0:0:0:0:
288,310,90285,1,0,0:0:0:0:
352,335,90379,1,0,0:0:0:0:
389,317,90473,1,0,0:0:0:0:
408,326,90567,2,0,B|416:273|416:273|393:213,1,100
262,124,90755,5,0,0:0:0:0:
260,139,90848,1,0,0:0:0:0:
258,151,90942,2,0,L|250:217,1,50
113,287,91130,2,0,B|100:252|100:252|109:189,1,100
44,58,91317,1,0,0:0:0:0:
44,58,91411,1,0,0:0:0:0:
44,58,91505,6,0,B|143:51|143:51|231:99|231:99|352:91,1,300
492,209,91880,2,0,B|437:170|437:170|196:189,1,300
52,301,92255,6,0,B|9:271|13:205|61:166|153:184|138:277|138:277|127:339|191:369|259:330|219:249,1,450.000017166138
100,121,92630,6,0,P|43:122|-7:159,1,100
74,38,92817,2,0,P|123:38|166:64,1,100
251,188,93005,6,0,P|335:179|372:126,2,150.000005722046
370,129,93567,6,0,P|322:184|250:187,1,150.000005722046
100,121,93942,1,0,0:0:0:0:
232,44,94130,2,0,L|349:54,1,100
465,110,94317,1,0,0:0:0:0:
465,110,94505,5,0,0:0:0:0:
473,143,94598,1,0,0:0:0:0:
425,195,94692,1,0,0:0:0:0:
432,233,94786,1,0,0:0:0:0:
479,291,94880,2,0,P|379:275|289:354,1,200
137,143,95255,6,0,P|152:185|148:224,1,75
37,101,96005,1,0,0:0:0:0:
182,36,96192,6,0,P|231:33|283:69,1,100
321,129,96380,2,0,P|363:153|412:150,1,100
466,70,96567,6,0,L|460:37,2,25
512,191,97130,1,0,0:0:0:0:
367,257,97317,1,0,0:0:0:0:
367,257,97411,1,0,0:0:0:0:
367,257,97505,6,0,P|268:245|195:313,1,200
2,138,97880,2,0,P|75:201|171:188,1,200
419,49,98255,6,0,B|491:106|491:106|444:312,1,300.000011444092
296,244,98630,6,0,P|281:189|298:144,1,100
190,62,98817,2,0,P|205:117|188:162,1,100
67,322,99005,6,0,B|34:306|34:306|-49:324,2,100
155,241,99567,6,0,B|188:257|188:257|271:239,1,100
306,307,99755,2,0,B|443:276|443:276|506:325,1,200
416,363,100130,1,0,0:0:0:0:
499,199,100317,1,0,0:0:0:0:
499,199,100411,1,0,0:0:0:0:
499,199,100505,1,0,0:0:0:0:
422,121,100598,1,0,0:0:0:0:
373,134,100692,1,0,0:0:0:0:
324,119,100786,1,0,0:0:0:0:
294,78,100880,6,0,P|243:49|185:55,1,100
27,118,101067,2,0,P|78:147|136:141,1,100
352,328,101255,6,0,B|300:273|304:190|304:190|269:269|181:295,1,300.000011444092
11,209,101630,6,0,B|-11:240|-11:240|10:315,1,100
70,345,101817,2,0,B|92:314|92:314|71:239,1,100
170,92,102005,6,0,L|160:166,1,50
215,270,102192,1,0,0:0:0:0:
287,220,102380,2,0,L|280:170,1,50
366,40,102567,2,0,L|359:90,1,50
420,183,102755,5,0,0:0:0:0:
425,207,102848,1,0,0:0:0:0:
431,231,102942,1,0,0:0:0:0:
393,340,103036,1,0,0:0:0:0:
375,322,103130,1,0,0:0:0:0:
354,308,103223,1,0,0:0:0:0:
330,300,103317,1,0,0:0:0:0:
304,298,103411,1,0,0:0:0:0:
274,307,103505,6,0,B|242:309|205:345|205:345|256:130,1,300
407,25,103880,2,0,B|409:57|445:94|445:94|230:43,1,300
80,149,104255,6,0,B|78:117|42:80|42:80|257:131,1,300
405,230,104630,1,0,0:0:0:0:
453,214,104817,5,0,0:0:0:0:
429,221,104911,1,0,0:0:0:0:
405,230,105005,2,0,P|351:231|306:205,1,100
189,117,105192,5,0,0:0:0:0:
199,76,105286,1,0,0:0:0:0:
115,165,105380,5,0,0:0:0:0:
125,206,105474,1,0,0:0:0:0:
213,257,105567,5,0,0:0:0:0:
242,253,105661,1,0,0:0:0:0:
313,177,105755,5,0,0:0:0:0:
342,179,105848,1,0,0:0:0:0:
371,181,105942,2,0,B|389:212|389:212|373:286,1,100
465,364,106130,2,0,B|447:333|447:333|463:259,1,100
505,68,106317,1,0,0:0:0:0:
505,68,106411,1,0,0:0:0:0:
505,68,106505,6,0,B|399:54|399:54|303:98|303:98|204:86,1,300
59,204,106880,2,0,B|15:142|15:142|247:173,1,300
479,293,107255,6,0,B|412:242|346:307|346:307|280:369|201:314,1,300.000011444092
329,175,107630,6,0,L|435:186,1,100
443,170,107817,2,0,L|343:159,1,100
146,37,108005,2,0,P|174:86|159:144,1,100
123,198,108192,2,0,P|119:247|145:288,1,100
365,339,108380,1,0,0:0:0:0:
305,269,108567,2,0,L|310:228,28,25
