osu file format v14

[General]
AudioFilename: audio.mp3
AudioLeadIn: 0
PreviewTime: -1
Countdown: 1
SampleSet: Soft
StackLeniency: 0.7
Mode: 3
LetterboxInBreaks: 0
SpecialStyle: 0
WidescreenStoryboard: 0

[Editor]
DistanceSpacing: 0.5
BeatDivisor: 4
GridSize: 4
TimelineZoom: 1

[Metadata]
Title:Marigold & Magnolia (feat. Guriri )
TitleUnicode:Marigold & Magnolia (feat. グリリ)
Artist:M2U
ArtistUnicode:M2U
Creator:SoldatRacer
Version:Easy
Source:
Tags:deemo electronic rayark
BeatmapID:1708861
BeatmapSetID:814809

[Difficulty]
HPDrainRate:6
CircleSize:4
OverallDifficulty:6
ApproachRate:5
SliderMultiplier:1.6
SliderTickRate:1

[Events]
//Background and Video events
0,0,"moy_pyazdyuk.jpg",0,0
//Break Periods
//Storyboard Layer 0 (Background)
//Storyboard Layer 1 (Fail)
//Storyboard Layer 2 (Pass)
//Storyboard Layer 3 (Foreground)
//Storyboard Sound Samples

[TimingPoints]
1512,375,4,2,4,50,1,0
15762,526.315789473684,4,2,4,15,1,0
16025,535.714285714286,4,2,4,15,1,0
16292,750,4,2,4,15,1,0
16667,714.285714285714,4,2,4,15,1,0
19512,375,4,2,1,80,1,0
152824,375,4,2,1,100,1,0

[HitObjects]
192,192,1512,5,0,0:0:0:0:
320,192,1887,128,0,2262:0:0:0:0:
64,192,2262,128,0,2637:0:0:0:0:
448,192,2637,128,0,3012:0:0:0:0:
192,192,3012,128,0,3387:0:0:0:0:
320,192,3387,128,0,3762:0:0:0:0:
64,192,3762,128,0,4137:0:0:0:0:
448,192,4137,128,0,4512:0:0:0:0:
192,192,4512,128,0,5262:0:0:0:0:
320,192,5262,128,0,5637:0:0:0:0:
448,192,5637,128,0,6012:0:0:0:0:
64,192,6012,128,0,6762:0:0:0:0:
320,192,6762,128,0,7137:0:0:0:0:
192,192,7137,128,0,7512:0:0:0:0:
448,192,7512,1,0,0:0:0:0:
320,192,7699,1,0,0:0:0:0:
64,192,7887,128,0,8262:0:0:0:0:
448,192,8262,128,0,8637:0:0:0:0:
192,192,8637,128,0,9012:0:0:0:0:
64,192,9012,128,0,9762:0:0:0:0:
320,192,9762,128,0,10137:0:0:0:0:
448,192,10137,128,0,10512:0:0:0:0:
64,192,10512,128,0,11074:0:0:0:0:
192,192,11074,1,0,0:0:0:0:
320,192,11262,128,0,11824:0:0:0:0:
448,192,11824,1,0,0:0:0:0:
192,192,12012,128,0,12574:0:0:0:0:
64,192,12574,1,0,0:0:0:0:
448,192,12762,128,0,13512:0:0:0:0:
64,192,13512,128,0,14074:0:0:0:0:
320,192,14074,1,0,0:0:0:0:
192,192,14262,128,0,14824:0:0:0:0:
448,192,14824,1,0,0:0:0:0:
320,192,15012,128,0,15574:0:0:0:0:
64,192,15574,1,0,0:0:0:0:
192,192,15762,1,0,0:0:0:0:
320,192,16025,1,0,0:0:0:0:
448,192,16292,1,0,0:0:0:0:
64,192,16667,1,0,0:0:0:0:
192,192,17024,128,0,17202:0:0:0:0:
320,192,17202,1,0,0:0:0:0:
320,192,19512,1,0,0:0:0:0:
448,192,20262,1,0,0:0:0:0:
64,192,21012,1,0,0:0:0:0:
320,192,21762,1,0,0:0:0:0:
192,192,22512,1,0,0:0:0:0:
448,192,23262,1,0,0:0:0:0:
320,192,23637,1,0,0:0:0:0:
64,192,24012,1,0,0:0:0:0:
192,192,24762,1,0,0:0:0:0:
448,192,25512,1,0,0:0:0:0:
320,192,26262,1,0,0:0:0:0:
64,192,27012,1,0,0:0:0:0:
192,192,27762,1,0,0:0:0:0:
448,192,28512,1,0,0:0:0:0:
320,192,29262,1,0,0:0:0:0:
192,192,29637,1,0,0:0:0:0:
64,192,30012,1,0,0:0:0:0:
192,192,30574,1,0,0:0:0:0:
448,192,30762,1,0,0:0:0:0:
320,192,31512,1,0,0:0:0:0:
192,192,32074,1,0,0:0:0:0:
64,192,32262,1,0,0:0:0:0:
448,192,32637,1,0,0:0:0:0:
320,192,33012,128,0,33762:0:0:0:0:
448,192,33762,128,0,34512:0:0:0:0:
64,192,34512,128,0,37137:0:0:0:0:
320,192,37137,128,0,37512:0:0:0:0:
192,192,37512,1,0,0:0:0:0:
448,192,37887,1,0,0:0:0:0:
64,192,38262,1,0,0:0:0:0:
192,192,38637,1,0,0:0:0:0:
448,192,39012,1,0,0:0:0:0:
320,192,39387,1,0,0:0:0:0:
192,192,39762,1,0,0:0:0:0:
320,192,40137,1,0,0:0:0:0:
64,192,40512,1,0,0:0:0:0:
448,192,41262,1,0,0:0:0:0:
192,192,42012,128,0,42762:0:0:0:0:
320,192,42762,128,0,43512:0:0:0:0:
64,192,43512,1,0,0:0:0:0:
192,192,43887,1,0,0:0:0:0:
448,192,44262,1,0,0:0:0:0:
320,192,44637,1,0,0:0:0:0:
192,192,45012,1,0,0:0:0:0:
64,192,45387,1,0,0:0:0:0:
320,192,45762,1,0,0:0:0:0:
448,192,46137,1,0,0:0:0:0:
64,192,46512,1,0,0:0:0:0:
192,192,46887,128,0,47262:0:0:0:0:
320,192,47262,128,0,47637:0:0:0:0:
448,192,47637,128,0,48012:0:0:0:0:
64,192,48012,1,0,0:0:0:0:
192,192,48762,1,0,0:0:0:0:
320,192,49137,1,0,0:0:0:0:
448,192,49512,1,0,0:0:0:0:
64,192,50262,1,0,0:0:0:0:
192,192,51012,1,0,0:0:0:0:
320,192,51387,1,0,0:0:0:0:
448,192,51762,1,0,0:0:0:0:
64,192,52137,1,0,0:0:0:0:
192,192,52512,1,0,0:0:0:0:
448,192,52887,1,0,0:0:0:0:
320,192,53262,128,0,53637:0:0:0:0:
64,192,53637,128,0,54012:0:0:0:0:
192,192,54012,1,0,0:0:0:0:
448,192,54762,1,0,0:0:0:0:
192,192,55512,1,0,0:0:0:0:
320,192,55887,1,0,0:0:0:0:
448,192,56262,1,0,0:0:0:0:
64,192,56637,1,0,0:0:0:0:
192,192,57012,128,0,57762:0:0:0:0:
320,192,57762,128,0,58137:0:0:0:0:
64,192,58137,128,0,58512:0:0:0:0:
448,192,58512,1,0,0:0:0:0:
320,192,58887,128,0,59262:0:0:0:0:
192,192,59262,128,0,60012:0:0:0:0:
448,192,60012,1,0,0:0:0:0:
64,192,60762,1,0,0:0:0:0:
320,192,61512,1,0,0:0:0:0:
192,192,62262,1,0,0:0:0:0:
448,192,63012,1,0,0:0:0:0:
64,192,63762,1,0,0:0:0:0:
192,192,64512,1,0,0:0:0:0:
448,192,65074,1,0,0:0:0:0:
320,192,65262,1,0,0:0:0:0:
192,192,66012,1,0,0:0:0:0:
64,192,66762,1,0,0:0:0:0:
448,192,67512,1,0,0:0:0:0:
192,192,68262,1,0,0:0:0:0:
320,192,69012,1,0,0:0:0:0:
64,192,69762,1,0,0:0:0:0:
192,192,70512,1,0,0:0:0:0:
320,192,71074,1,0,0:0:0:0:
448,192,71262,1,0,0:0:0:0:
192,192,72012,1,0,0:0:0:0:
64,192,72762,1,0,0:0:0:0:
320,192,73512,1,0,0:0:0:0:
192,192,74262,1,0,0:0:0:0:
448,192,75012,1,0,0:0:0:0:
64,192,75762,1,0,0:0:0:0:
320,192,76512,128,0,77262:0:0:0:0:
192,192,77262,128,0,77637:0:0:0:0:
448,192,77637,128,0,78012:0:0:0:0:
64,192,77637,1,0,0:0:0:0:
320,192,78012,1,0,0:0:0:0:
192,192,78762,1,0,0:0:0:0:
64,192,79512,1,0,0:0:0:0:
320,192,80074,128,0,80262:0:0:0:0:
448,192,80262,1,0,0:0:0:0:
192,192,80449,1,0,0:0:0:0:
64,192,80824,1,0,0:0:0:0:
320,192,81012,1,0,0:0:0:0:
448,192,81762,1,0,0:0:0:0:
192,192,82324,1,0,0:0:0:0:
64,192,82887,1,0,0:0:0:0:
320,192,83262,1,0,0:0:0:0:
448,192,83449,128,0,83637:0:0:0:0:
192,192,83637,1,0,0:0:0:0:
64,192,84012,1,0,0:0:0:0:
192,192,84199,128,0,84762:0:0:0:0:
448,192,84762,1,0,0:0:0:0:
320,192,84949,128,0,85512:0:0:0:0:
64,192,85512,1,0,0:0:0:0:
192,192,85699,128,0,86262:0:0:0:0:
448,192,86262,1,0,0:0:0:0:
64,192,86449,128,0,87012:0:0:0:0:
320,192,87012,1,0,0:0:0:0:
448,192,87199,128,0,87762:0:0:0:0:
192,192,87762,1,0,0:0:0:0:
320,192,87949,128,0,88324:0:0:0:0:
64,192,88512,1,0,0:0:0:0:
192,192,88887,1,0,0:0:0:0:
320,192,89074,128,0,89262:0:0:0:0:
448,192,89262,1,0,0:0:0:0:
64,192,89637,1,0,0:0:0:0:
192,192,90012,1,0,0:0:0:0:
448,192,90762,1,0,0:0:0:0:
320,192,91512,1,0,0:0:0:0:
64,192,92262,1,0,0:0:0:0:
192,192,92449,128,0,93012:0:0:0:0:
448,192,93012,1,0,0:0:0:0:
320,192,93762,1,0,0:0:0:0:
192,192,94324,128,0,94512:0:0:0:0:
64,192,94512,1,0,0:0:0:0:
320,192,94887,1,0,0:0:0:0:
448,192,95262,1,0,0:0:0:0:
192,192,95637,1,0,0:0:0:0:
64,192,96012,128,0,96574:0:0:0:0:
320,192,96574,1,0,0:0:0:0:
192,192,96949,1,0,0:0:0:0:
448,192,97137,1,0,0:0:0:0:
64,192,97324,1,0,0:0:0:0:
320,192,97512,128,0,98074:0:0:0:0:
64,192,98074,1,0,0:0:0:0:
192,192,98449,1,0,0:0:0:0:
448,192,98637,1,0,0:0:0:0:
320,192,98824,1,0,0:0:0:0:
64,192,99012,128,0,99574:0:0:0:0:
192,192,99574,1,0,0:0:0:0:
448,192,99949,1,0,0:0:0:0:
320,192,100137,1,0,0:0:0:0:
192,192,100324,1,0,0:0:0:0:
64,192,100512,1,0,0:0:0:0:
448,192,100887,1,0,0:0:0:0:
320,192,101074,1,0,0:0:0:0:
192,192,101262,1,0,0:0:0:0:
64,192,101449,1,0,0:0:0:0:
448,192,101637,1,0,0:0:0:0:
320,192,101824,1,0,0:0:0:0:
192,192,102012,128,0,103512:0:0:0:0:
448,192,103512,128,0,103887:0:0:0:0:
64,192,103887,128,0,104262:0:0:0:0:
320,192,104262,128,0,104637:0:0:0:0:
192,192,104637,128,0,105012:0:0:0:0:
448,192,105012,128,0,105387:0:0:0:0:
320,192,105387,128,0,105762:0:0:0:0:
64,192,105762,128,0,106512:0:0:0:0:
192,192,106512,128,0,107262:0:0:0:0:
448,192,107262,128,0,107637:0:0:0:0:
320,192,107637,128,0,108012:0:0:0:0:
64,192,108012,128,0,108387:0:0:0:0:
448,192,108387,128,0,108762:0:0:0:0:
192,192,108762,128,0,110262:0:0:0:0:
320,192,110262,128,0,110637:0:0:0:0:
64,192,110637,128,0,111012:0:0:0:0:
448,192,111012,128,0,111387:0:0:0:0:
192,192,111387,128,0,111762:0:0:0:0:
64,192,111762,128,0,112137:0:0:0:0:
320,192,112137,128,0,112512:0:0:0:0:
448,192,112512,1,0,0:0:0:0:
192,192,113262,1,0,0:0:0:0:
64,192,114012,1,0,0:0:0:0:
320,192,114762,1,0,0:0:0:0:
192,192,115512,1,0,0:0:0:0:
448,192,116262,1,0,0:0:0:0:
320,192,117012,1,0,0:0:0:0:
64,192,117762,1,0,0:0:0:0:
192,192,118137,128,0,118512:0:0:0:0:
448,192,118512,1,0,0:0:0:0:
320,192,119262,1,0,0:0:0:0:
64,192,120012,1,0,0:0:0:0:
448,192,120762,1,0,0:0:0:0:
192,192,121512,1,0,0:0:0:0:
64,192,121699,128,0,122262:0:0:0:0:
320,192,122262,1,0,0:0:0:0:
448,192,122637,1,0,0:0:0:0:
192,192,123012,1,0,0:0:0:0:
320,192,123387,128,0,123762:0:0:0:0:
448,192,123762,1,0,0:0:0:0:
64,192,124512,1,0,0:0:0:0:
192,192,125262,1,0,0:0:0:0:
320,192,126012,1,0,0:0:0:0:
448,192,126762,1,0,0:0:0:0:
192,192,127512,1,0,0:0:0:0:
64,192,128262,1,0,0:0:0:0:
320,192,129012,1,0,0:0:0:0:
192,192,129574,1,0,0:0:0:0:
448,192,129762,1,0,0:0:0:0:
320,192,130512,1,0,0:0:0:0:
64,192,131262,1,0,0:0:0:0:
192,192,132012,1,0,0:0:0:0:
448,192,132762,1,0,0:0:0:0:
320,192,133512,1,0,0:0:0:0:
192,192,134262,1,0,0:0:0:0:
64,192,135012,1,0,0:0:0:0:
192,192,135574,1,0,0:0:0:0:
320,192,135762,1,0,0:0:0:0:
448,192,136512,1,0,0:0:0:0:
192,192,137262,1,0,0:0:0:0:
320,192,138012,1,0,0:0:0:0:
64,192,138762,1,0,0:0:0:0:
320,192,139512,1,0,0:0:0:0:
192,192,140262,1,0,0:0:0:0:
448,192,141012,1,0,0:0:0:0:
320,192,141762,128,0,151512:0:0:0:0:
192,192,151512,128,0,152824:0:0:0:0:
448,192,152824,1,0,0:0:0:0:
64,192,153199,128,0,153574:0:0:0:0:
320,192,153574,1,0,0:0:0:0:
192,192,153949,1,0,0:0:0:0:
448,192,154324,1,0,0:0:0:0:
64,192,154886,128,0,155074:0:0:0:0:
320,192,155074,1,0,0:0:0:0:
192,192,155824,1,0,0:0:0:0:
448,192,156199,128,0,156574:0:0:0:0:
320,192,156574,1,0,0:0:0:0:
64,192,156949,1,0,0:0:0:0:
192,192,157324,1,0,0:0:0:0:
448,192,157886,128,0,158074:0:0:0:0:
320,192,158074,1,0,0:0:0:0:
64,192,158824,1,0,0:0:0:0:
320,192,159199,1,0,0:0:0:0:
192,192,159574,1,0,0:0:0:0:
448,192,160324,1,0,0:0:0:0:
320,192,160699,1,0,0:0:0:0:
192,192,161074,1,0,0:0:0:0:
64,192,161824,1,0,0:0:0:0:
320,192,162574,1,0,0:0:0:0:
192,192,163324,1,0,0:0:0:0:
448,192,164074,128,0,164449:0:0:0:0:
192,192,164449,128,0,164824:0:0:0:0:
320,192,164824,1,0,0:0:0:0:
64,192,165386,1,0,0:0:0:0:
448,192,165949,1,0,0:0:0:0:
192,192,166511,1,0,0:0:0:0:
320,192,167074,1,0,0:0:0:0:
448,192,167636,1,0,0:0:0:0:
64,192,167824,1,0,0:0:0:0:
192,192,168574,1,0,0:0:0:0:
448,192,169324,1,0,0:0:0:0:
320,192,169886,128,0,170824:0:0:0:0:
64,192,170824,1,0,0:0:0:0:
192,192,171386,1,0,0:0:0:0:
448,192,171949,1,0,0:0:0:0:
320,192,172511,1,0,0:0:0:0:
64,192,173074,128,0,176824:0:0:0:0:
320,192,176824,128,0,178324:0:0:0:0:
448,192,178324,1,0,0:0:0:0:
192,192,179074,1,0,0:0:0:0:
64,192,179824,1,0,0:0:0:0:
320,192,180574,1,0,0:0:0:0:
192,192,181324,1,0,0:0:0:0:
448,192,182074,1,0,0:0:0:0:
320,192,182824,1,0,0:0:0:0:
64,192,183574,1,0,0:0:0:0:
192,192,184324,1,0,0:0:0:0:
448,192,185074,1,0,0:0:0:0:
64,192,185449,1,0,0:0:0:0:
320,192,185824,1,0,0:0:0:0:
192,192,186574,1,0,0:0:0:0:
448,192,187324,1,0,0:0:0:0:
320,192,188074,1,0,0:0:0:0:
64,192,188824,1,0,0:0:0:0:
192,192,189574,1,0,0:0:0:0:
448,192,190324,1,0,0:0:0:0:
320,192,191074,1,0,0:0:0:0:
64,192,191824,1,0,0:0:0:0:
192,192,192199,1,0,0:0:0:0:
320,192,192574,1,0,0:0:0:0:
448,192,193324,1,0,0:0:0:0:
320,192,194074,1,0,0:0:0:0:
192,192,195199,1,0,0:0:0:0:
64,192,195574,1,0,0:0:0:0:
320,192,196324,1,0,0:0:0:0:
448,192,197074,1,0,0:0:0:0:
192,192,198199,1,0,0:0:0:0:
448,192,198574,1,0,0:0:0:0:
320,192,199324,1,0,0:0:0:0:
64,192,200074,1,0,0:0:0:0:
448,192,201199,1,0,0:0:0:0:
320,192,201574,1,0,0:0:0:0:
64,192,202324,1,0,0:0:0:0:
320,192,202886,1,0,0:0:0:0:
192,192,203824,1,0,0:0:0:0:
448,192,204386,1,0,0:0:0:0:
320,192,204949,1,0,0:0:0:0:
64,192,205324,1,0,0:0:0:0:
448,192,205886,1,0,0:0:0:0:
192,192,206449,1,0,0:0:0:0:
320,192,206824,1,0,0:0:0:0:
64,192,207386,1,0,0:0:0:0:
448,192,207949,1,0,0:0:0:0:
192,192,208324,1,0,0:0:0:0:
64,192,208886,1,0,0:0:0:0:
320,192,209449,1,0,0:0:0:0:
448,192,209824,1,0,0:0:0:0:
192,192,210386,1,0,0:0:0:0:
64,192,210949,1,0,0:0:0:0:
320,192,211324,1,0,0:0:0:0:
192,192,211886,1,0,0:0:0:0:
448,192,212449,1,0,0:0:0:0:
320,192,212824,1,0,0:0:0:0:
64,192,213386,1,0,0:0:0:0:
320,192,214324,1,0,0:0:0:0:
448,192,214886,1,0,0:0:0:0:
64,192,215449,1,0,0:0:0:0:
192,192,215824,128,0,217324:0:0:0:0:
320,192,216574,1,0,0:0:0:0:
448,192,217324,1,0,0:0:0:0:
320,192,217886,1,0,0:0:0:0:
64,192,218449,1,0,0:0:0:0:
448,192,218449,128,0,219574:0:0:0:0:
192,192,219574,128,0,219949:0:0:0:0:
320,192,219949,128,0,220324:0:0:0:0:
64,192,220324,1,0,0:0:0:0:
192,192,220699,128,0,221074:0:0:0:0:
448,192,221449,128,0,221824:0:0:0:0:
320,192,222199,128,0,222574:0:0:0:0:
64,192,222574,128,0,223324:0:0:0:0:
192,192,223699,128,0,224074:0:0:0:0:
448,192,224449,128,0,224824:0:0:0:0:
64,192,224824,1,0,0:0:0:0:
192,192,225199,128,0,225574:0:0:0:0:
320,192,225574,128,0,226324:0:0:0:0:
448,192,226324,1,0,0:0:0:0:
192,192,226699,1,0,0:0:0:0:
64,192,227074,1,0,0:0:0:0:
320,192,227449,1,0,0:0:0:0:
448,192,227824,1,0,0:0:0:0:
192,192,228199,1,0,0:0:0:0:
64,192,228574,1,0,0:0:0:0:
320,192,228949,1,0,0:0:0:0:
448,192,229324,128,0,229886:0:0:0:0:
192,192,229886,1,0,0:0:0:0:
320,192,230449,1,0,0:0:0:0:
64,192,230824,1,0,0:0:0:0:
448,192,231386,1,0,0:0:0:0:
192,192,231761,128,0,232324:0:0:0:0:
64,192,232324,1,0,0:0:0:0:
448,192,233074,1,0,0:0:0:0:
320,192,233824,1,0,0:0:0:0:
192,192,234574,1,0,0:0:0:0:
64,192,235324,1,0,0:0:0:0:
320,192,236074,1,0,0:0:0:0:
192,192,236824,1,0,0:0:0:0:
448,192,237574,1,0,0:0:0:0:
320,192,238324,1,0,0:0:0:0:
192,192,239074,1,0,0:0:0:0:
64,192,239824,1,0,0:0:0:0:
320,192,240574,1,0,0:0:0:0:
192,192,241324,1,0,0:0:0:0:
448,192,242074,1,0,0:0:0:0:
320,192,242824,1,0,0:0:0:0:
192,192,243386,1,0,0:0:0:0:
64,192,243761,1,0,0:0:0:0:
448,192,244324,1,0,0:0:0:0:
192,192,245074,1,0,0:0:0:0:
320,192,245824,1,0,0:0:0:0:
448,192,246574,1,0,0:0:0:0:
64,192,247324,1,0,0:0:0:0:
320,192,248074,1,0,0:0:0:0:
192,192,248824,1,0,0:0:0:0:
448,192,249574,1,0,0:0:0:0:
64,192,250324,1,0,0:0:0:0:
192,192,251074,1,0,0:0:0:0:
320,192,251824,1,0,0:0:0:0:
448,192,252574,1,0,0:0:0:0:
192,192,252855,1,0,0:0:0:0:
64,192,253136,1,0,0:0:0:0:
320,192,253324,1,0,0:0:0:0:
192,192,253886,1,0,0:0:0:0:
448,192,254449,1,0,0:0:0:0:
320,192,255011,1,0,0:0:0:0:
192,192,255574,128,0,256324:0:0:0:0:
64,192,255574,1,0,0:0:0:0:
448,192,256324,1,0,0:0:0:0:
320,192,257074,1,0,0:0:0:0:
192,192,258199,1,0,0:0:0:0:
448,192,258574,1,0,0:0:0:0:
320,192,259324,1,0,0:0:0:0:
64,192,260074,1,0,0:0:0:0:
448,192,260824,1,0,0:0:0:0:
320,192,261199,1,0,0:0:0:0:
192,192,261386,128,0,261574:0:0:0:0:
64,192,261574,1,0,0:0:0:0:
448,192,261949,1,0,0:0:0:0:
320,192,262324,1,0,0:0:0:0:
192,192,263074,1,0,0:0:0:0:
448,192,264199,1,0,0:0:0:0:
64,192,264574,1,0,0:0:0:0:
320,192,265324,1,0,0:0:0:0:
448,192,265699,128,0,266074:0:0:0:0:
192,192,266074,1,0,0:0:0:0:
320,192,266449,1,0,0:0:0:0:
64,192,266636,128,0,266824:0:0:0:0:
448,192,266824,1,0,0:0:0:0:
320,192,267011,1,0,0:0:0:0:
192,192,267199,1,0,0:0:0:0:
64,192,267386,1,0,0:0:0:0:
320,192,267574,1,0,0:0:0:0:
448,192,267761,1,0,0:0:0:0:
64,192,267949,128,0,268324:0:0:0:0:
192,192,268324,1,0,0:0:0:0:
320,192,268886,1,0,0:0:0:0:
448,192,269449,1,0,0:0:0:0:
64,192,269824,1,0,0:0:0:0:
320,192,270386,1,0,0:0:0:0:
192,192,270949,1,0,0:0:0:0:
448,192,271324,1,0,0:0:0:0:
320,192,271886,1,0,0:0:0:0:
192,192,272449,1,0,0:0:0:0:
64,192,272824,1,0,0:0:0:0:
320,192,273386,1,0,0:0:0:0:
448,192,273949,1,0,0:0:0:0:
192,192,274324,1,0,0:0:0:0:
64,192,274886,1,0,0:0:0:0:
320,192,275449,1,0,0:0:0:0:
192,192,275824,1,0,0:0:0:0:
448,192,276386,1,0,0:0:0:0:
320,192,276949,1,0,0:0:0:0:
64,192,277324,1,0,0:0:0:0:
192,192,277886,1,0,0:0:0:0:
448,192,278449,1,0,0:0:0:0:
320,192,278824,1,0,0:0:0:0:
64,192,279386,128,0,280324:0:0:0:0:
192,192,280324,1,0,0:0:0:0:
320,192,280886,1,0,0:0:0:0:
448,192,281449,1,0,0:0:0:0:
192,192,281824,128,0,283324:0:0:0:0:
64,192,282574,1,0,0:0:0:0:
448,192,283324,1,0,0:0:0:0:
320,192,283886,1,0,0:0:0:0:
64,192,284449,128,0,286324:0:0:0:0:
320,192,286324,128,0,286886:0:0:0:0:
448,192,286886,1,0,0:0:0:0:
192,192,287449,1,0,0:0:0:0:
64,192,287824,128,0,289324:0:0:0:0:
192,192,289324,1,0,0:0:0:0:
320,192,289886,1,0,0:0:0:0:
448,192,290449,128,0,296824:0:0:0:0:
