osu file format v14

[General]
AudioFilename: maremaris.mp3
AudioLeadIn: 0
PreviewTime: 75356
Countdown: 0
SampleSet: Soft
StackLeniency: 0.7
Mode: 3
LetterboxInBreaks: 0
SpecialStyle: 0
WidescreenStoryboard: 1

[Editor]
Bookmarks: 37223,49925,62628,75330,100736,113438
DistanceSpacing: 0.8
BeatDivisor: 4
GridSize: 32
TimelineZoom: 2.4

[Metadata]
Title:Mare Maris
TitleUnicode:Mare Maris
Artist:M2U
ArtistUnicode:M2U
Creator:Raveille
Version:LNpai's MASTER
Source:maimai MiLK
Tags:lenpai FAMoss lenfried- video game instrumental sega マイマイ ミルク プラス orchestral ongeki o.n.g.e.k.i.
BeatmapID:2416459
BeatmapSetID:917906

[Difficulty]
HPDrainRate:8
CircleSize:4
OverallDifficulty:7.5
ApproachRate:5
SliderMultiplier:1.4
SliderTickRate:1

[Events]
//Background and Video events
0,0,"cropped-1920-1080-767027.jpg",0,0
//Break Periods
//Storyboard Layer 0 (Background)
//Storyboard Layer 1 (Fail)
//Storyboard Layer 2 (Pass)
//Storyboard Layer 3 (Foreground)
//Storyboard Layer 4 (Overlay)
//Storyboard Sound Samples
Sample,24939,0,"Cymatics - Big Clap 2.wav",70
Sample,28115,0,"Cymatics - Big Clap 2.wav",70
Sample,31291,0,"Cymatics - Big Clap 2.wav",70
Sample,34467,0,"Cymatics - Big Clap 2.wav",70
Sample,73371,0,"Cymatics - Big Clap 2.wav",70

[TimingPoints]
724,396.982929734021,4,2,1,70,1,0
37246,-100,4,2,1,70,0,1
49552,-100,4,2,1,70,0,0
49949,-100,4,2,1,70,0,1
62653,-100,4,2,1,70,0,0
100763,-100,4,2,1,70,0,1
113070,-100,4,2,1,70,0,0
113467,-100,4,2,1,70,0,1
125376,-100,4,2,1,70,0,0

[HitObjects]
192,192,327,128,0,724:0:0:0:0:
64,192,724,1,2,0:0:0:0:
320,192,724,128,0,1815:0:0:0:0:
448,192,724,1,0,0:0:0:0:
192,192,922,1,0,0:0:0:0:
192,192,1021,1,0,0:0:0:0:
64,192,1120,1,0,0:0:0:70:Cymatics - Big Clap 2.wav
448,192,1120,1,0,0:0:0:0:
64,192,1319,1,8,0:0:0:0:
192,192,1319,1,0,0:0:0:0:
448,192,1319,1,0,0:0:0:0:
192,192,1517,1,0,0:0:0:70:Cymatics - Big Clap 2.wav
64,192,1716,1,0,0:0:0:0:
448,192,1716,128,0,1815:0:0:0:0:
64,192,1914,1,8,0:0:0:0:
192,192,1914,1,0,0:0:0:70:Cymatics - Big Clap 2.wav
448,192,1914,1,0,0:0:0:0:
320,192,1981,1,0,0:0:0:0:
192,192,2047,1,0,0:0:0:0:
64,192,2113,128,0,2311:0:0:0:0:
320,192,2113,1,0,0:0:0:0:
320,192,2212,1,0,0:0:0:0:
192,192,2311,1,2,0:0:0:0:
448,192,2311,128,0,2411:0:0:0:0:
320,192,2411,128,0,2510:0:0:0:0:
192,192,2510,128,0,2808:0:0:0:0:
448,192,2510,1,0,0:0:0:0:
320,192,2609,1,0,0:0:0:0:
64,192,2708,128,0,2808:0:0:0:70:Cymatics - Big Clap 2.wav
448,192,2708,1,0,0:0:0:0:
64,192,2907,1,8,0:0:0:0:
192,192,2907,1,0,0:0:0:0:
448,192,2907,128,0,3105:0:0:0:0:
64,192,3105,128,0,3403:0:0:0:70:Cymatics - Big Clap 2.wav
192,192,3105,1,0,0:0:0:0:
320,192,3304,128,0,3403:0:0:0:0:
64,192,3502,1,8,0:0:0:0:
320,192,3502,128,0,3701:0:0:0:70:Cymatics - Big Clap 2.wav
448,192,3502,1,0,0:0:0:0:
64,192,3701,1,0,0:0:0:0:
192,192,3701,128,0,3800:0:0:0:0:
320,192,3800,128,0,3899:0:0:0:0:
64,192,3899,1,2,0:0:0:0:
448,192,3899,128,0,4098:0:0:0:0:
64,192,4098,128,0,4396:0:0:0:0:
320,192,4098,1,0,0:0:0:0:
320,192,4197,1,0,0:0:0:0:
192,192,4296,128,0,4396:0:0:0:70:Cymatics - Big Clap 2.wav
448,192,4296,1,0,0:0:0:0:
64,192,4495,1,8,0:0:0:0:
192,192,4495,1,0,0:0:0:0:
448,192,4495,128,0,4561:0:0:0:0:
320,192,4561,128,0,4693:0:0:0:0:
64,192,4693,1,0,0:0:0:70:Cymatics - Big Clap 2.wav
192,192,4693,128,0,4991:0:0:0:0:
320,192,4892,128,0,4991:0:0:0:0:
448,192,4892,1,0,0:0:0:0:
64,192,5090,1,8,0:0:0:0:
320,192,5090,1,0,0:0:0:70:Cymatics - Big Clap 2.wav
448,192,5090,128,0,5190:0:0:0:0:
192,192,5190,128,0,5289:0:0:0:0:
320,192,5289,1,0,0:0:0:0:
64,192,5338,1,0,0:0:0:0:
192,192,5388,1,0,0:0:0:0:
320,192,5487,1,2,0:0:0:0:
448,192,5487,1,0,0:0:0:0:
64,192,5587,128,0,6579:0:0:0:0:
320,192,5686,1,0,0:0:0:0:
192,192,5884,1,0,0:0:0:70:Cymatics - Big Clap 2.wav
192,192,6083,1,8,0:0:0:0:
320,192,6083,1,0,0:0:0:0:
448,192,6083,1,0,0:0:0:0:
320,192,6281,1,0,0:0:0:70:Cymatics - Big Clap 2.wav
192,192,6480,1,0,0:0:0:0:
320,192,6579,1,0,0:0:0:0:
64,192,6678,1,8,0:0:0:0:
192,192,6678,1,0,0:0:0:70:Cymatics - Big Clap 2.wav
448,192,6678,128,0,7075:0:0:0:0:
64,192,6877,1,0,0:0:0:0:
192,192,6976,1,0,0:0:0:0:
320,192,7075,128,2,8068:0:0:0:0:
192,192,7274,1,0,0:0:0:0:
192,192,7373,1,0,0:0:0:0:
64,192,7472,1,0,0:0:0:70:Cymatics - Big Clap 2.wav
448,192,7472,1,0,0:0:0:0:
64,192,7671,1,8,0:0:0:0:
192,192,7671,1,0,0:0:0:0:
448,192,7671,1,0,0:0:0:0:
192,192,7869,1,0,0:0:0:70:Cymatics - Big Clap 2.wav
64,192,8068,1,0,0:0:0:0:
448,192,8068,128,0,8167:0:0:0:0:
64,192,8266,1,8,0:0:0:0:
192,192,8266,1,0,0:0:0:70:Cymatics - Big Clap 2.wav
448,192,8266,1,0,0:0:0:0:
320,192,8332,1,0,0:0:0:0:
192,192,8399,1,0,0:0:0:0:
64,192,8465,128,0,8663:0:0:0:0:
320,192,8465,1,0,0:0:0:0:
320,192,8564,1,0,0:0:0:0:
192,192,8663,1,2,0:0:0:0:
448,192,8663,128,0,8762:0:0:0:0:
320,192,8762,128,0,8862:0:0:0:0:
192,192,8862,128,0,9159:0:0:0:0:
448,192,8862,1,0,0:0:0:0:
320,192,8961,1,0,0:0:0:0:
64,192,9060,128,0,9159:0:0:0:70:Cymatics - Big Clap 2.wav
448,192,9060,1,0,0:0:0:0:
64,192,9259,1,8,0:0:0:0:
192,192,9259,1,0,0:0:0:0:
448,192,9259,128,0,9457:0:0:0:0:
64,192,9457,128,0,9755:0:0:0:70:Cymatics - Big Clap 2.wav
192,192,9457,1,0,0:0:0:0:
320,192,9656,128,0,9755:0:0:0:0:
64,192,9854,1,8,0:0:0:0:
320,192,9854,128,0,10053:0:0:0:70:Cymatics - Big Clap 2.wav
448,192,9854,1,0,0:0:0:0:
192,192,10053,1,0,0:0:0:0:
448,192,10053,128,0,10747:0:0:0:0:
64,192,10251,1,2,0:0:0:0:
192,192,10251,1,0,0:0:0:0:
64,192,10450,1,0,0:0:0:0:
192,192,10499,1,0,0:0:0:0:
320,192,10549,128,0,10747:0:0:0:0:
64,192,10648,128,0,10747:0:0:0:70:Cymatics - Big Clap 2.wav
192,192,10648,128,0,10747:0:0:0:0:
64,192,10847,1,2,0:0:0:0:
320,192,10847,1,0,0:0:0:0:
448,192,10847,1,0,0:0:0:0:
192,192,10847,1,0,0:0:0:0:
192,192,11244,128,0,11839:0:0:0:0:
320,192,11442,128,0,11740:0:0:0:0:
64,192,11839,1,2,0:0:0:0:
320,192,11839,128,0,12137:0:0:0:0:
448,192,11839,128,4,11938:0:0:0:0:
448,192,12038,128,0,12335:0:0:0:0:
192,192,12038,1,0,0:0:0:0:
192,192,12137,1,0,0:0:0:0:
320,192,12236,128,0,12335:0:0:0:0:
64,192,12236,1,0,0:0:0:70:Cymatics - Big Clap 2.wav
64,192,12434,128,8,12732:0:0:0:0:
320,192,12434,128,0,12534:0:0:0:0:
448,192,12434,1,0,0:0:0:0:
320,192,12633,128,0,12931:0:0:0:70:Cymatics - Big Clap 2.wav
448,192,12633,1,0,0:0:0:0:
64,192,12831,128,0,12931:0:0:0:0:
192,192,12831,1,0,0:0:0:0:
192,192,13030,128,8,13328:0:0:0:0:
320,192,13030,128,0,13129:0:0:0:70:Cymatics - Big Clap 2.wav
448,192,13030,1,0,0:0:0:0:
64,192,13228,1,0,0:0:0:0:
320,192,13228,128,0,13328:0:0:0:0:
64,192,13427,128,2,13725:0:0:0:0:
192,192,13427,128,0,13526:0:0:0:0:
320,192,13427,1,0,0:0:0:0:
192,192,13625,128,0,13923:0:0:0:0:
320,192,13625,1,0,0:0:0:0:
320,192,13725,1,0,0:0:0:0:
64,192,13824,128,0,13923:0:0:0:0:
448,192,13824,1,0,0:0:0:70:Cymatics - Big Clap 2.wav
64,192,14022,1,8,0:0:0:0:
320,192,14022,128,0,14419:0:0:0:0:
448,192,14022,128,0,14320:0:0:0:0:
192,192,14221,1,0,0:0:0:70:Cymatics - Big Clap 2.wav
64,192,14419,1,0,0:0:0:0:
192,192,14419,1,0,0:0:0:0:
192,192,14519,1,0,0:0:0:0:
64,192,14618,1,8,0:0:0:0:
320,192,14618,1,0,0:0:0:70:Cymatics - Big Clap 2.wav
448,192,14618,1,0,0:0:0:0:
320,192,14717,1,0,0:0:0:0:
64,192,14816,1,0,0:0:0:0:
192,192,14816,1,0,0:0:0:0:
320,192,14916,1,0,0:0:0:0:
64,192,15015,128,2,15313:0:0:0:0:
320,192,15015,1,0,0:0:0:0:
448,192,15015,128,0,15114:0:0:0:0:
192,192,15213,1,0,0:0:0:0:
448,192,15213,128,0,15511:0:0:0:0:
192,192,15313,1,0,0:0:0:0:
64,192,15412,128,0,15511:0:0:0:70:Cymatics - Big Clap 2.wav
320,192,15412,1,0,0:0:0:0:
64,192,15610,1,8,0:0:0:0:
320,192,15610,128,0,15908:0:0:0:0:
448,192,15610,128,0,15908:0:0:0:0:
192,192,15809,1,0,0:0:0:70:Cymatics - Big Clap 2.wav
64,192,16007,1,0,0:0:0:0:
448,192,16007,1,0,0:0:0:0:
320,192,16057,1,0,0:0:0:0:
192,192,16107,1,0,0:0:0:0:
64,192,16206,128,8,16504:0:0:0:0:
320,192,16206,128,0,16305:0:0:0:70:Cymatics - Big Clap 2.wav
448,192,16206,1,0,0:0:0:0:
192,192,16404,1,0,0:0:0:0:
320,192,16404,128,0,16504:0:0:0:0:
64,192,16603,128,2,16702:0:0:0:0:
320,192,16603,1,0,0:0:0:0:
448,192,16603,128,0,16901:0:0:0:0:
64,192,16801,128,0,17099:0:0:0:0:
192,192,16801,1,0,0:0:0:0:
192,192,17000,1,0,0:0:0:70:Cymatics - Big Clap 2.wav
448,192,17000,128,0,17099:0:0:0:0:
64,192,17198,128,8,17496:0:0:0:0:
320,192,17198,128,0,17298:0:0:0:0:
448,192,17198,1,0,0:0:0:0:
192,192,17397,1,0,0:0:0:70:Cymatics - Big Clap 2.wav
320,192,17397,128,0,17695:0:0:0:0:
64,192,17595,128,0,17695:0:0:0:0:
192,192,17595,1,0,0:0:0:0:
64,192,17794,1,8,0:0:0:0:
320,192,17794,128,0,17893:0:0:0:70:Cymatics - Big Clap 2.wav
448,192,17794,128,0,18092:0:0:0:0:
192,192,17992,1,0,0:0:0:0:
320,192,17992,128,0,18092:0:0:0:0:
64,192,18191,128,2,18488:0:0:0:0:
320,192,18191,1,0,0:0:0:0:
448,192,18191,128,0,18290:0:0:0:0:
192,192,18389,1,0,0:0:0:0:
448,192,18389,128,0,18687:0:0:0:0:
192,192,18488,1,0,0:0:0:0:
64,192,18588,128,0,18687:0:0:0:70:Cymatics - Big Clap 2.wav
320,192,18588,1,0,0:0:0:0:
64,192,18786,128,8,18885:0:0:0:0:
320,192,18786,128,0,19084:0:0:0:0:
448,192,18786,1,0,0:0:0:0:
64,192,18985,128,0,19282:0:0:0:70:Cymatics - Big Clap 2.wav
192,192,18985,1,0,0:0:0:0:
320,192,19183,128,0,19282:0:0:0:0:
448,192,19183,1,0,0:0:0:0:
64,192,19382,1,8,0:0:0:0:
192,192,19382,128,0,19481:0:0:0:70:Cymatics - Big Clap 2.wav
320,192,19382,128,0,19679:0:0:0:0:
192,192,19580,128,0,19679:0:0:0:0:
64,192,19779,1,2,0:0:0:0:
320,192,19779,128,0,20076:0:0:0:0:
448,192,19779,128,0,19878:0:0:0:0:
192,192,19977,1,0,0:0:0:0:
448,192,19977,128,0,20275:0:0:0:0:
192,192,20076,1,0,0:0:0:0:
64,192,20176,1,0,0:0:0:70:Cymatics - Big Clap 2.wav
320,192,20176,128,0,20275:0:0:0:0:
64,192,20374,128,8,20771:0:0:0:0:
320,192,20374,128,0,20771:0:0:0:0:
448,192,20374,1,0,0:0:0:0:
192,192,20573,1,0,0:0:0:70:Cymatics - Big Clap 2.wav
192,192,20771,1,0,0:0:0:0:
192,192,20870,1,0,0:0:0:0:
64,192,20970,1,8,0:0:0:0:
320,192,20970,1,0,0:0:0:70:Cymatics - Big Clap 2.wav
448,192,20970,1,0,0:0:0:0:
320,192,21069,1,0,0:0:0:0:
64,192,21168,1,0,0:0:0:0:
192,192,21168,1,0,0:0:0:0:
320,192,21267,1,0,0:0:0:0:
64,192,21367,128,2,21466:0:0:0:0:
320,192,21367,1,0,0:0:0:0:
448,192,21367,128,0,21664:0:0:0:0:
64,192,21565,128,0,21764:0:0:0:0:
320,192,21565,1,0,0:0:0:0:
320,192,21664,1,0,0:0:0:0:
192,192,21764,1,0,0:0:0:70:Cymatics - Big Clap 2.wav
448,192,21764,128,0,21863:0:0:0:0:
64,192,21962,1,8,0:0:0:0:
320,192,21962,128,0,22260:0:0:0:0:
448,192,21962,128,0,22260:0:0:0:0:
192,192,22161,1,0,0:0:0:70:Cymatics - Big Clap 2.wav
64,192,22359,1,0,0:0:0:0:
448,192,22359,1,0,0:0:0:0:
320,192,22409,1,0,0:0:0:0:
192,192,22458,1,0,0:0:0:0:
64,192,22558,128,8,22657:0:0:0:0:
320,192,22558,128,0,22855:0:0:0:70:Cymatics - Big Clap 2.wav
448,192,22558,1,0,0:0:0:0:
64,192,22756,128,0,22855:0:0:0:0:
192,192,22756,1,0,0:0:0:0:
64,192,22955,128,2,23252:0:0:0:0:
320,192,22955,1,0,0:0:0:0:
448,192,22955,128,0,23054:0:0:0:0:
192,192,23153,1,0,0:0:0:0:
448,192,23153,128,0,23252:0:0:0:0:
192,192,23252,1,0,0:0:0:0:
64,192,23352,128,0,23451:0:0:0:70:Cymatics - Big Clap 2.wav
320,192,23352,128,0,23451:0:0:0:0:
448,192,23352,1,0,0:0:0:0:
64,192,23550,1,8,0:0:0:0:
192,192,23550,1,0,0:0:0:0:
320,192,23550,1,0,0:0:0:0:
320,192,23649,1,0,0:0:0:0:
192,192,23749,1,0,0:0:0:70:Cymatics - Big Clap 2.wav
448,192,23749,1,0,0:0:0:0:
192,192,23848,1,0,0:0:0:0:
320,192,23947,1,0,0:0:0:0:
448,192,23947,1,0,0:0:0:0:
192,192,24046,1,0,0:0:0:0:
64,192,24145,1,8,0:0:0:0:
192,192,24145,1,0,0:0:0:70:Cymatics - Big Clap 2.wav
448,192,24145,1,0,0:0:0:0:
320,192,24344,1,0,0:0:0:0:
64,192,24542,1,2,0:0:0:0:
320,192,24542,128,0,25138:0:0:0:0:
448,192,24542,128,0,25237:0:0:0:0:
64,192,24939,1,2,0:0:0:0:
192,192,25138,128,0,25237:0:0:0:0:
320,192,25237,128,0,25535:0:0:0:0:
64,192,25336,1,2,0:0:0:0:
448,192,25336,128,0,25634:0:0:0:70:Cymatics - Big Clap 2.wav
192,192,25436,128,0,25535:0:0:0:0:
64,192,25535,128,0,25634:0:0:0:0:
320,192,25634,128,0,26031:0:0:0:0:
64,192,25733,1,2,0:0:0:0:
448,192,25733,128,0,25833:0:0:0:70:Cymatics - Big Clap 2.wav
192,192,25833,128,0,25932:0:0:0:0:
448,192,25932,128,0,26329:0:0:0:0:
192,192,26031,128,0,26130:0:0:0:0:
64,192,26130,1,2,0:0:0:0:
320,192,26130,128,0,26428:0:0:0:0:
192,192,26230,128,0,26329:0:0:0:0:
64,192,26329,128,0,26428:0:0:0:0:
448,192,26428,128,0,26527:0:0:0:0:
64,192,26527,1,2,0:0:0:0:
320,192,26527,128,0,26726:0:0:0:70:Cymatics - Big Clap 2.wav
448,192,26627,128,0,26924:0:0:0:0:
192,192,26726,128,0,26825:0:0:0:0:
320,192,26825,128,0,27321:0:0:0:0:
64,192,26924,1,2,0:0:0:0:
192,192,26924,128,0,27024:0:0:0:70:Cymatics - Big Clap 2.wav
448,192,27024,128,0,27321:0:0:0:0:
64,192,27123,128,0,27222:0:0:0:0:
64,192,27321,128,2,28215:0:0:0:0:
192,192,27321,1,0,0:0:0:70:Cymatics - Big Clap 2.wav
320,192,27520,128,0,27619:0:0:0:0:
192,192,27619,128,0,28115:0:0:0:0:
320,192,27718,128,2,28016:0:0:0:0:
448,192,27718,1,0,0:0:0:0:
448,192,28115,1,2,0:0:0:0:
192,192,28314,128,0,28512:0:0:0:0:
64,192,28413,128,0,28909:0:0:0:0:
320,192,28512,128,2,28612:0:0:0:0:
448,192,28512,1,0,0:0:0:70:Cymatics - Big Clap 2.wav
192,192,28612,128,0,28711:0:0:0:0:
448,192,28711,128,0,28810:0:0:0:0:
192,192,28810,128,0,29009:0:0:0:0:
320,192,28909,128,2,29009:0:0:0:0:
448,192,28909,1,0,0:0:0:70:Cymatics - Big Clap 2.wav
64,192,29009,128,0,29306:0:0:0:0:
192,192,29108,128,0,29207:0:0:0:0:
320,192,29207,128,0,29306:0:0:0:0:
192,192,29306,128,2,29604:0:0:0:0:
448,192,29306,1,0,0:0:0:0:
64,192,29406,128,0,29505:0:0:0:0:
320,192,29505,128,0,29604:0:0:0:0:
64,192,29604,128,0,30001:0:0:0:0:
192,192,29703,128,2,29902:0:0:0:0:
448,192,29703,1,0,0:0:0:70:Cymatics - Big Clap 2.wav
320,192,29902,128,0,30001:0:0:0:0:
192,192,30001,128,0,30696:0:0:0:0:
64,192,30100,128,2,30398:0:0:0:0:
448,192,30100,1,0,0:0:0:70:Cymatics - Big Clap 2.wav
320,192,30199,128,0,30596:0:0:0:0:
448,192,30299,128,0,30398:0:0:0:0:
64,192,30497,128,2,30795:0:0:0:0:
448,192,30497,1,0,0:0:0:70:Cymatics - Big Clap 2.wav
64,192,30894,1,2,0:0:0:0:
320,192,30894,128,0,31490:0:0:0:0:
448,192,30894,128,0,31688:0:0:0:0:
64,192,31291,1,2,0:0:0:0:
192,192,31490,128,0,31589:0:0:0:0:
320,192,31589,128,0,31887:0:0:0:0:
64,192,31688,1,2,0:0:0:0:
192,192,31688,128,0,31787:0:0:0:70:Cymatics - Big Clap 2.wav
448,192,31787,128,0,32085:0:0:0:0:
192,192,31887,128,0,31986:0:0:0:0:
320,192,31986,128,0,32383:0:0:0:0:
64,192,32085,1,2,0:0:0:0:
192,192,32085,128,0,32184:0:0:0:70:Cymatics - Big Clap 2.wav
448,192,32184,128,0,32681:0:0:0:0:
64,192,32284,128,0,32383:0:0:0:0:
192,192,32383,128,0,32482:0:0:0:0:
64,192,32482,1,2,0:0:0:0:
320,192,32482,128,0,32780:0:0:0:0:
192,192,32681,128,0,32780:0:0:0:0:
448,192,32780,128,0,32978:0:0:0:0:
64,192,32879,1,2,0:0:0:0:
320,192,32879,128,0,33971:0:0:0:70:Cymatics - Big Clap 2.wav
192,192,32978,128,0,33078:0:0:0:0:
448,192,33078,128,0,33177:0:0:0:0:
192,192,33177,128,0,33276:0:0:0:0:
64,192,33276,1,2,0:0:0:0:
448,192,33276,128,0,33574:0:0:0:70:Cymatics - Big Clap 2.wav
192,192,33375,128,0,33475:0:0:0:0:
64,192,33475,128,0,33574:0:0:0:0:
64,192,33673,1,2,0:0:0:0:
448,192,33673,128,0,33971:0:0:0:70:Cymatics - Big Clap 2.wav
64,192,33872,128,0,34467:0:0:0:0:
192,192,33971,128,0,34566:0:0:0:0:
320,192,34070,128,2,34666:0:0:0:0:
448,192,34070,1,0,0:0:0:0:
448,192,34467,1,2,0:0:0:0:
64,192,34666,128,0,34864:0:0:0:0:
192,192,34765,128,0,35162:0:0:0:0:
320,192,34864,128,2,34963:0:0:0:0:
448,192,34864,1,0,0:0:0:70:Cymatics - Big Clap 2.wav
64,192,34963,128,0,35261:0:0:0:0:
448,192,35063,128,0,35162:0:0:0:0:
320,192,35162,128,0,35261:0:0:0:0:
192,192,35261,128,2,35360:0:0:0:0:
448,192,35261,1,0,0:0:0:70:Cymatics - Big Clap 2.wav
64,192,35360,128,0,35559:0:0:0:0:
192,192,35460,128,0,35856:0:0:0:0:
320,192,35559,128,0,35658:0:0:0:0:
64,192,35658,128,2,35856:0:0:0:0:
448,192,35658,1,0,0:0:0:0:
320,192,35757,128,0,35856:0:0:0:0:
64,192,36055,128,2,36154:0:0:0:0:
192,192,36055,128,0,36154:0:0:0:70:Cymatics - Big Clap 2.wav
448,192,36055,1,0,0:0:0:0:
192,192,36253,1,0,0:0:0:0:
64,192,36253,128,0,36750:0:0:0:0:
320,192,36353,128,0,36452:0:0:0:0:
192,192,36452,1,0,0:0:0:70:Cymatics - Big Clap 2.wav
448,192,36452,128,2,36750:0:0:0:0:
320,192,36551,128,0,36750:0:0:0:0:
192,192,36650,128,0,36750:0:0:0:0:
64,192,36849,1,0,0:0:0:100:h_Fill4_007_Reverb.wav
192,192,36849,1,0,0:0:0:0:
320,192,36849,1,0,0:0:0:0:
448,192,36849,1,0,0:0:0:0:
64,192,37246,1,2,0:0:0:0:
320,192,37246,128,4,38338:0:0:0:0:
448,192,37246,1,0,0:0:0:0:
192,192,37345,1,0,0:0:0:0:
64,192,37444,1,0,0:0:0:0:
192,192,37544,1,0,0:0:0:0:
192,192,37643,1,0,0:0:0:70:Cymatics - Big Clap 2.wav
448,192,37643,1,0,0:0:0:0:
64,192,37841,1,2,0:0:0:0:
192,192,37841,1,8,0:0:0:0:
448,192,37841,1,0,0:0:0:0:
64,192,38040,1,0,0:0:0:70:Cymatics - Big Clap 2.wav
192,192,38139,1,0,0:0:0:0:
64,192,38238,1,0,0:0:0:0:
448,192,38238,128,0,38338:0:0:0:0:
192,192,38338,1,0,0:0:0:0:
64,192,38437,1,10,0:0:0:0:
448,192,38437,1,0,0:0:0:70:Cymatics - Big Clap 2.wav
320,192,38503,1,0,0:0:0:0:
192,192,38569,1,0,0:0:0:0:
64,192,38635,128,0,38834:0:0:0:0:
320,192,38635,1,0,0:0:0:0:
320,192,38735,1,0,0:0:0:0:
192,192,38834,1,2,0:0:0:0:
448,192,38834,128,0,38933:0:0:0:0:
320,192,38933,128,0,39032:0:0:0:0:
192,192,39032,128,0,39330:0:0:0:0:
448,192,39032,1,0,0:0:0:0:
448,192,39132,1,0,0:0:0:0:
64,192,39231,128,0,39330:0:0:0:70:Cymatics - Big Clap 2.wav
320,192,39231,1,0,0:0:0:0:
64,192,39429,1,8,0:0:0:0:
192,192,39429,1,2,0:0:0:0:
448,192,39429,128,0,39628:0:0:0:0:
64,192,39628,128,0,39926:0:0:0:70:Cymatics - Big Clap 2.wav
192,192,39628,1,0,0:0:0:0:
192,192,39727,1,0,0:0:0:0:
320,192,39826,128,0,39926:0:0:0:0:
448,192,39826,1,0,0:0:0:0:
192,192,39926,1,0,0:0:0:0:
64,192,40025,1,8,0:0:0:0:
320,192,40025,128,2,40223:0:0:0:0:
448,192,40025,1,0,0:0:0:70:Cymatics - Big Clap 2.wav
448,192,40223,1,0,0:0:0:0:
192,192,40223,128,0,40323:0:0:0:0:
320,192,40323,128,0,40422:0:0:0:0:
64,192,40323,1,0,0:0:0:0:
192,192,40422,1,2,0:0:0:0:
448,192,40422,128,0,40620:0:0:0:0:
320,192,40521,1,0,0:0:0:0:
64,192,40620,128,0,40918:0:0:0:0:
192,192,40620,1,0,0:0:0:0:
320,192,40720,1,0,0:0:0:0:
192,192,40819,128,0,40918:0:0:0:70:Cymatics - Big Clap 2.wav
448,192,40819,1,0,0:0:0:0:
64,192,41017,1,2,0:0:0:0:
192,192,41017,1,8,0:0:0:0:
448,192,41017,128,0,41083:0:0:0:0:
320,192,41083,128,0,41216:0:0:0:0:
64,192,41216,1,0,0:0:0:70:Cymatics - Big Clap 2.wav
192,192,41216,128,0,41513:0:0:0:0:
320,192,41414,128,0,41513:0:0:0:0:
448,192,41414,1,0,0:0:0:0:
64,192,41613,1,2,0:0:0:0:
320,192,41613,1,8,0:0:0:0:
448,192,41613,128,0,41712:0:0:0:70:Cymatics - Big Clap 2.wav
192,192,41712,128,0,41811:0:0:0:0:
320,192,41811,1,0,0:0:0:0:
64,192,41861,1,0,0:0:0:0:
192,192,41910,1,0,0:0:0:0:
320,192,42010,1,2,0:0:0:0:
448,192,42010,1,0,0:0:0:0:
64,192,42109,128,0,43101:0:0:0:0:
320,192,42208,1,0,0:0:0:0:
320,192,42307,1,0,0:0:0:0:
192,192,42407,1,0,0:0:0:70:Cymatics - Big Clap 2.wav
192,192,42605,1,8,0:0:0:0:
320,192,42605,1,2,0:0:0:0:
448,192,42605,1,0,0:0:0:0:
320,192,42804,1,0,0:0:0:70:Cymatics - Big Clap 2.wav
192,192,42903,1,0,0:0:0:0:
320,192,43002,1,0,0:0:0:0:
320,192,43101,1,0,0:0:0:0:
64,192,43201,1,8,0:0:0:0:
192,192,43201,1,2,0:0:0:0:
448,192,43201,128,0,43598:0:0:0:70:Cymatics - Big Clap 2.wav
320,192,43300,1,0,0:0:0:0:
64,192,43399,1,0,0:0:0:0:
192,192,43498,1,0,0:0:0:0:
320,192,43598,128,2,44590:0:0:0:0:
64,192,43598,1,0,0:0:0:0:
192,192,43796,1,0,0:0:0:0:
192,192,43895,1,0,0:0:0:0:
64,192,43995,1,0,0:0:0:70:Cymatics - Big Clap 2.wav
448,192,43995,1,0,0:0:0:0:
64,192,44193,1,2,0:0:0:0:
192,192,44193,1,8,0:0:0:0:
448,192,44193,1,0,0:0:0:0:
64,192,44392,1,0,0:0:0:70:Cymatics - Big Clap 2.wav
192,192,44491,1,0,0:0:0:0:
64,192,44590,1,0,0:0:0:0:
448,192,44590,128,0,44689:0:0:0:0:
192,192,44689,1,0,0:0:0:0:
64,192,44789,1,10,0:0:0:0:
448,192,44789,1,0,0:0:0:70:Cymatics - Big Clap 2.wav
320,192,44855,1,0,0:0:0:0:
192,192,44921,1,0,0:0:0:0:
64,192,44987,128,0,45186:0:0:0:0:
320,192,44987,1,0,0:0:0:0:
320,192,45086,1,0,0:0:0:0:
192,192,45186,1,2,0:0:0:0:
448,192,45186,128,0,45285:0:0:0:0:
320,192,45285,128,0,45384:0:0:0:0:
64,192,45285,1,0,0:0:0:0:
192,192,45384,128,0,45682:0:0:0:0:
448,192,45384,1,0,0:0:0:0:
448,192,45483,1,0,0:0:0:0:
64,192,45583,128,0,45682:0:0:0:70:Cymatics - Big Clap 2.wav
320,192,45583,1,0,0:0:0:0:
64,192,45781,1,8,0:0:0:0:
192,192,45781,1,2,0:0:0:0:
448,192,45781,128,0,45980:0:0:0:0:
320,192,45880,1,0,0:0:0:0:
64,192,45980,128,0,46277:0:0:0:70:Cymatics - Big Clap 2.wav
192,192,45980,1,0,0:0:0:0:
192,192,46079,1,0,0:0:0:0:
320,192,46178,128,0,46277:0:0:0:0:
448,192,46178,1,0,0:0:0:0:
192,192,46277,1,0,0:0:0:0:
64,192,46377,1,8,0:0:0:0:
320,192,46377,128,2,46575:0:0:0:0:
448,192,46377,1,0,0:0:0:70:Cymatics - Big Clap 2.wav
192,192,46575,1,0,0:0:0:0:
448,192,46575,128,0,46972:0:0:0:0:
192,192,46674,1,0,0:0:0:0:
64,192,46774,1,2,0:0:0:0:
320,192,46774,1,0,0:0:0:0:
64,192,46972,1,0,0:0:0:0:
320,192,46972,128,0,47071:0:0:0:0:
192,192,47071,128,0,47270:0:0:0:0:
64,192,47171,128,0,47270:0:0:0:70:Cymatics - Big Clap 2.wav
448,192,47171,1,0,0:0:0:0:
64,192,47369,1,2,0:0:0:0:
192,192,47369,1,8,0:0:0:0:
448,192,47369,128,0,47865:0:0:0:0:
320,192,47468,1,0,0:0:0:0:
192,192,47567,1,0,0:0:0:70:Cymatics - Big Clap 2.wav
192,192,47667,1,0,0:0:0:0:
64,192,47766,1,0,0:0:0:0:
320,192,47766,128,0,47865:0:0:0:0:
192,192,47865,1,0,0:0:0:0:
64,192,47964,128,2,48262:0:0:0:0:
320,192,47964,1,8,0:0:0:0:
448,192,47964,1,0,0:0:0:70:Cymatics - Big Clap 2.wav
320,192,48163,1,0,0:0:0:0:
320,192,48262,1,0,0:0:0:0:
64,192,48361,1,2,0:0:0:0:
192,192,48361,128,0,48560:0:0:0:0:
448,192,48361,1,0,0:0:0:0:
320,192,48560,1,0,0:0:0:0:
320,192,48659,1,0,0:0:0:0:
64,192,48758,1,0,0:0:0:70:Cymatics - Big Clap 2.wav
192,192,48758,1,0,0:0:0:0:
448,192,48758,128,0,48957:0:0:0:0:
64,192,48957,1,2,0:0:0:0:
192,192,48957,1,8,0:0:0:0:
320,192,49056,1,0,0:0:0:0:
192,192,49106,1,0,0:0:0:0:
64,192,49155,128,0,49453:0:0:0:70:Cymatics - Big Clap 2.wav
448,192,49155,1,0,0:0:0:0:
192,192,49255,1,0,0:0:0:0:
320,192,49354,128,0,49453:0:0:0:0:
64,192,49552,1,8,0:0:0:0:
192,192,49552,128,0,49850:0:0:0:100:h_Fill4_007_Reverb.wav
320,192,49552,1,0,0:0:0:0:
448,192,49552,128,0,49652:0:0:0:0:
448,192,49751,1,0,0:0:0:0:
64,192,49850,1,0,0:0:0:0:
64,192,49949,1,2,0:0:0:0:
320,192,49949,128,4,51041:0:0:0:0:
448,192,49949,1,0,0:0:0:0:
192,192,50049,1,0,0:0:0:0:
64,192,50148,1,0,0:0:0:0:
192,192,50247,1,0,0:0:0:0:
192,192,50346,1,0,0:0:0:70:Cymatics - Big Clap 2.wav
448,192,50346,1,0,0:0:0:0:
64,192,50545,1,2,0:0:0:0:
192,192,50545,1,8,0:0:0:0:
448,192,50545,1,0,0:0:0:0:
64,192,50743,1,0,0:0:0:70:Cymatics - Big Clap 2.wav
192,192,50843,1,0,0:0:0:0:
64,192,50942,1,0,0:0:0:0:
448,192,50942,128,0,51041:0:0:0:0:
192,192,51041,1,0,0:0:0:0:
64,192,51140,1,10,0:0:0:0:
448,192,51140,1,0,0:0:0:70:Cymatics - Big Clap 2.wav
320,192,51206,1,0,0:0:0:0:
192,192,51273,1,0,0:0:0:0:
64,192,51339,128,0,51537:0:0:0:0:
320,192,51339,1,0,0:0:0:0:
320,192,51438,1,0,0:0:0:0:
192,192,51537,1,2,0:0:0:0:
448,192,51537,128,0,51637:0:0:0:0:
320,192,51637,128,0,51736:0:0:0:0:
192,192,51736,128,0,52034:0:0:0:0:
448,192,51736,1,0,0:0:0:0:
448,192,51835,1,0,0:0:0:0:
64,192,51934,128,0,52034:0:0:0:70:Cymatics - Big Clap 2.wav
320,192,51934,1,0,0:0:0:0:
64,192,52133,1,8,0:0:0:0:
192,192,52133,1,2,0:0:0:0:
448,192,52133,128,0,52331:0:0:0:0:
320,192,52232,1,0,0:0:0:0:
64,192,52331,128,0,52629:0:0:0:70:Cymatics - Big Clap 2.wav
192,192,52331,1,0,0:0:0:0:
192,192,52431,1,0,0:0:0:0:
320,192,52530,128,0,52629:0:0:0:0:
448,192,52530,1,0,0:0:0:0:
192,192,52629,1,0,0:0:0:0:
64,192,52728,1,8,0:0:0:0:
320,192,52728,128,2,52927:0:0:0:0:
448,192,52728,1,0,0:0:0:70:Cymatics - Big Clap 2.wav
64,192,52927,1,0,0:0:0:0:
192,192,52927,128,0,53026:0:0:0:0:
320,192,53026,128,0,53125:0:0:0:0:
64,192,53125,1,2,0:0:0:0:
448,192,53125,128,0,53324:0:0:0:0:
64,192,53324,128,0,53621:0:0:0:0:
320,192,53324,1,0,0:0:0:0:
320,192,53423,1,0,0:0:0:0:
192,192,53522,128,0,53621:0:0:0:70:Cymatics - Big Clap 2.wav
448,192,53522,1,0,0:0:0:0:
64,192,53721,1,2,0:0:0:0:
192,192,53721,1,8,0:0:0:0:
448,192,53721,128,0,53787:0:0:0:0:
320,192,53787,128,0,53919:0:0:0:0:
64,192,53919,1,0,0:0:0:70:Cymatics - Big Clap 2.wav
192,192,53919,128,0,54217:0:0:0:0:
320,192,54118,128,0,54217:0:0:0:0:
448,192,54118,1,0,0:0:0:0:
64,192,54316,1,2,0:0:0:0:
320,192,54316,1,8,0:0:0:0:
448,192,54316,128,0,54415:0:0:0:70:Cymatics - Big Clap 2.wav
192,192,54415,128,0,54515:0:0:0:0:
320,192,54515,1,0,0:0:0:0:
64,192,54564,1,0,0:0:0:0:
192,192,54614,1,0,0:0:0:0:
320,192,54713,1,2,0:0:0:0:
448,192,54713,1,0,0:0:0:0:
64,192,54812,128,0,55805:0:0:0:0:
320,192,54912,1,0,0:0:0:0:
320,192,55011,1,0,0:0:0:0:
192,192,55110,1,0,0:0:0:70:Cymatics - Big Clap 2.wav
192,192,55309,1,8,0:0:0:0:
320,192,55309,1,2,0:0:0:0:
448,192,55309,1,0,0:0:0:0:
320,192,55507,1,0,0:0:0:70:Cymatics - Big Clap 2.wav
192,192,55606,1,0,0:0:0:0:
320,192,55706,1,0,0:0:0:0:
320,192,55805,1,0,0:0:0:0:
64,192,55904,1,8,0:0:0:0:
192,192,55904,1,2,0:0:0:0:
448,192,55904,128,0,56301:0:0:0:70:Cymatics - Big Clap 2.wav
320,192,56003,1,0,0:0:0:0:
192,192,56103,1,0,0:0:0:0:
192,192,56202,1,0,0:0:0:0:
320,192,56301,128,2,57393:0:0:0:0:
64,192,56301,1,0,0:0:0:0:
192,192,56400,1,0,0:0:0:0:
64,192,56500,1,0,0:0:0:0:
192,192,56599,1,0,0:0:0:0:
192,192,56698,1,0,0:0:0:70:Cymatics - Big Clap 2.wav
448,192,56698,1,0,0:0:0:0:
64,192,56897,1,2,0:0:0:0:
192,192,56897,1,8,0:0:0:0:
448,192,56897,1,0,0:0:0:0:
64,192,57095,1,0,0:0:0:70:Cymatics - Big Clap 2.wav
192,192,57194,1,0,0:0:0:0:
64,192,57294,1,0,0:0:0:0:
448,192,57294,128,0,57393:0:0:0:0:
192,192,57393,1,0,0:0:0:0:
64,192,57492,1,10,0:0:0:0:
448,192,57492,1,0,0:0:0:70:Cymatics - Big Clap 2.wav
320,192,57558,1,0,0:0:0:0:
192,192,57624,1,0,0:0:0:0:
64,192,57691,128,0,57889:0:0:0:0:
320,192,57691,1,0,0:0:0:0:
320,192,57790,1,0,0:0:0:0:
192,192,57889,1,2,0:0:0:0:
448,192,57889,128,0,57988:0:0:0:0:
320,192,57988,128,0,58088:0:0:0:0:
64,192,57988,1,0,0:0:0:0:
192,192,58088,128,0,58385:0:0:0:0:
448,192,58088,1,0,0:0:0:0:
448,192,58187,1,0,0:0:0:0:
64,192,58286,128,0,58385:0:0:0:70:Cymatics - Big Clap 2.wav
320,192,58286,1,0,0:0:0:0:
64,192,58485,1,8,0:0:0:0:
192,192,58485,1,2,0:0:0:0:
448,192,58485,128,0,58683:0:0:0:0:
320,192,58584,1,0,0:0:0:0:
64,192,58683,128,0,58981:0:0:0:70:Cymatics - Big Clap 2.wav
192,192,58683,1,0,0:0:0:0:
192,192,58782,1,0,0:0:0:0:
320,192,58881,128,0,58981:0:0:0:0:
448,192,58881,1,0,0:0:0:0:
192,192,58981,1,0,0:0:0:0:
64,192,59080,1,8,0:0:0:0:
320,192,59080,128,2,59278:0:0:0:0:
448,192,59080,1,0,0:0:0:70:Cymatics - Big Clap 2.wav
192,192,59278,1,0,0:0:0:0:
448,192,59278,128,0,59675:0:0:0:0:
192,192,59378,1,0,0:0:0:0:
64,192,59477,1,2,0:0:0:0:
320,192,59477,1,0,0:0:0:0:
192,192,59576,1,0,0:0:0:0:
64,192,59675,1,0,0:0:0:0:
320,192,59675,128,0,59775:0:0:0:0:
192,192,59775,128,0,59973:0:0:0:0:
64,192,59874,128,0,59973:0:0:0:70:Cymatics - Big Clap 2.wav
448,192,59874,1,0,0:0:0:0:
64,192,60072,1,2,0:0:0:0:
192,192,60072,1,8,0:0:0:0:
448,192,60072,128,0,60569:0:0:0:0:
320,192,60172,1,0,0:0:0:0:
192,192,60271,1,0,0:0:0:70:Cymatics - Big Clap 2.wav
192,192,60370,1,0,0:0:0:0:
64,192,60469,1,0,0:0:0:0:
320,192,60469,128,0,60569:0:0:0:0:
192,192,60569,1,0,0:0:0:0:
64,192,60668,128,2,60966:0:0:0:0:
320,192,60668,1,8,0:0:0:0:
448,192,60668,1,0,0:0:0:70:Cymatics - Big Clap 2.wav
320,192,60866,1,0,0:0:0:0:
320,192,60966,1,0,0:0:0:0:
64,192,61065,1,2,0:0:0:0:
192,192,61065,128,0,61263:0:0:0:0:
448,192,61065,1,0,0:0:0:0:
320,192,61263,1,0,0:0:0:0:
320,192,61363,1,0,0:0:0:0:
64,192,61462,1,0,0:0:0:70:Cymatics - Big Clap 2.wav
192,192,61462,1,0,0:0:0:0:
448,192,61462,128,0,61660:0:0:0:0:
64,192,61660,1,2,0:0:0:0:
192,192,61660,1,8,0:0:0:0:
320,192,61760,1,0,0:0:0:0:
192,192,61809,1,0,0:0:0:0:
64,192,61859,128,0,62157:0:0:0:70:Cymatics - Big Clap 2.wav
448,192,61859,1,0,0:0:0:0:
192,192,61958,1,0,0:0:0:0:
320,192,62057,128,0,62157:0:0:0:0:
448,192,62057,1,0,0:0:0:0:
64,192,62256,1,8,0:0:0:0:
192,192,62256,128,0,62554:0:0:0:100:h_Fill4_007_Reverb.wav
320,192,62256,1,0,0:0:0:0:
448,192,62256,128,0,62355:0:0:0:0:
448,192,62454,1,0,0:0:0:0:
64,192,62653,128,2,63745:0:0:0:0:
192,192,62653,128,4,63943:0:0:0:0:
448,192,62653,128,0,64539:0:0:0:0:
320,192,62653,128,0,63844:0:0:0:0:
64,192,63844,128,0,64142:0:0:0:70:Cymatics - Big Clap 2.wav
320,192,63943,128,0,64042:0:0:0:0:
192,192,64042,128,0,65332:0:0:0:0:
320,192,64142,128,0,64935:0:0:0:0:
64,192,64241,128,0,65729:0:0:0:0:
448,192,64638,128,0,66920:0:0:0:70:Cymatics - Big Clap 2.wav
320,192,65035,128,0,67119:0:0:0:70:Cymatics - Big Clap 2.wav
192,192,65432,128,0,66722:0:0:0:70:Cymatics - Big Clap 2.wav
64,192,65829,128,2,68409:0:0:0:0:
192,192,66821,128,0,68409:0:0:0:0:
448,192,67020,128,0,68409:0:0:0:70:Cymatics - Big Clap 2.wav
320,192,67218,128,0,68409:0:0:0:0:
64,192,68806,1,0,0:0:0:0:
192,192,68806,1,0,0:0:0:0:
320,192,68905,1,0,0:0:0:0:
64,192,69005,1,2,0:0:0:0:
192,192,69005,128,4,69104:0:0:0:0:
448,192,69005,128,0,69699:0:0:0:0:
192,192,69203,128,0,69302:0:0:0:0:
64,192,69402,128,2,69501:0:0:0:0:
320,192,69402,1,0,0:0:0:70:Cymatics - Big Clap 2.wav
64,192,69600,128,0,69699:0:0:0:0:
64,192,69799,1,2,0:0:0:0:
320,192,69799,128,0,70096:0:0:0:70:Cymatics - Big Clap 2.wav
448,192,69799,128,0,69898:0:0:0:0:
192,192,69898,1,0,0:0:0:0:
448,192,69997,128,0,71287:0:0:0:0:
64,192,70196,1,2,0:0:0:0:
320,192,70196,128,0,70295:0:0:0:70:Cymatics - Big Clap 2.wav
320,192,70394,128,0,70890:0:0:0:0:
64,192,70592,1,2,0:0:0:0:
192,192,70592,128,0,70692:0:0:0:0:
192,192,70791,128,0,71386:0:0:0:0:
64,192,70989,1,2,0:0:0:0:
320,192,70989,128,0,71089:0:0:0:70:Cymatics - Big Clap 2.wav
320,192,71188,128,0,71684:0:0:0:0:
64,192,71386,128,2,71684:0:0:0:0:
448,192,71386,128,0,71486:0:0:0:70:Cymatics - Big Clap 2.wav
192,192,71486,128,0,71982:0:0:0:0:
448,192,71585,128,0,72081:0:0:0:0:
64,192,71783,128,2,71883:0:0:0:0:
320,192,71783,128,0,72081:0:0:0:70:Cymatics - Big Clap 2.wav
64,192,71982,128,0,72478:0:0:0:0:
192,192,72081,128,0,72280:0:0:0:0:
320,192,72180,128,2,72280:0:0:0:0:
448,192,72180,128,0,72875:0:0:0:0:
192,192,72379,128,2,72478:0:0:0:0:
320,192,72379,128,0,72677:0:0:0:0:
64,192,72577,128,2,73074:0:0:0:0:
192,192,72577,128,0,72677:0:0:0:70:Cymatics - Big Clap 2.wav
192,192,72776,128,2,73074:0:0:0:0:
320,192,72776,128,0,72875:0:0:0:0:
320,192,72974,1,2,0:0:0:0:
448,192,72974,1,0,0:0:0:70:Cymatics - Big Clap 2.wav
320,192,73074,1,2,0:0:0:0:
448,192,73074,1,0,0:0:0:0:
64,192,73173,1,2,0:0:0:0:
192,192,73173,1,0,0:0:0:0:
448,192,73223,1,2,0:0:0:0:
320,192,73272,1,2,0:0:0:0:
192,192,73322,1,2,0:0:0:0:
64,192,73371,1,2,0:0:0:0:
320,192,73471,1,2,0:0:0:0:
448,192,73471,1,0,0:0:0:0:
320,192,73570,1,2,0:0:0:0:
448,192,73570,1,0,0:0:0:0:
320,192,73669,1,2,0:0:0:0:
448,192,73669,1,0,0:0:0:0:
320,192,73768,128,2,74463:0:0:0:0:
448,192,73768,128,4,74562:0:0:0:0:
64,192,73967,128,0,74066:0:0:0:0:
192,192,73967,128,0,74066:0:0:0:0:
64,192,74165,128,0,74265:0:0:0:70:Cymatics - Big Clap 2.wav
192,192,74165,128,0,74364:0:0:0:0:
64,192,74364,128,0,74562:0:0:0:0:
192,192,74463,128,0,74562:0:0:0:0:
320,192,74562,128,0,74860:0:0:0:70:Cymatics - Big Clap 2.wav
448,192,74662,128,0,74860:0:0:0:0:
64,192,74761,128,0,74860:0:0:0:0:
192,192,74761,128,0,74860:0:0:0:0:
64,192,74959,128,0,75257:0:0:0:100:h_Fill4_007_Reverb.wav
192,192,74959,128,0,75257:0:0:0:0:
320,192,74959,128,0,75257:0:0:0:0:
448,192,74959,128,0,75257:0:0:0:0:
448,192,75356,128,2,75621:0:0:0:0:
192,192,75356,128,4,75489:0:0:0:0:
64,192,75356,128,0,75687:0:0:0:0:
320,192,75356,128,0,75555:0:0:0:0:
64,192,75753,128,2,76018:0:0:0:0:
192,192,75753,128,0,75952:0:0:0:0:
320,192,75753,128,0,75886:0:0:0:0:
448,192,75753,128,0,76084:0:0:0:0:
64,192,76150,1,8,0:0:0:0:
192,192,76150,1,0,0:0:0:0:
320,192,76150,1,0,0:0:0:0:
448,192,76150,1,0,0:0:0:0:
320,192,76250,128,0,76448:0:0:0:0:
64,192,76349,128,0,76448:0:0:0:0:
192,192,76448,128,0,76547:0:0:0:0:
320,192,76547,1,2,0:0:0:0:
448,192,76547,1,0,0:0:0:0:
64,192,76646,128,0,76845:0:0:0:0:
320,192,76746,128,0,76845:0:0:0:0:
192,192,76845,128,0,76944:0:0:0:0:
64,192,76944,1,0,0:0:0:0:
320,192,77043,128,0,77440:0:0:0:0:
448,192,77143,128,0,77639:0:0:0:0:
192,192,77242,128,0,77341:0:0:0:0:
64,192,77341,1,0,0:0:0:0:
192,192,77440,128,0,77639:0:0:0:0:
320,192,77540,128,0,77639:0:0:0:0:
64,192,77639,1,0,0:0:0:0:
64,192,77738,128,8,77986:0:0:0:0:
192,192,77738,128,0,77937:0:0:0:0:
320,192,77738,128,0,77887:0:0:0:0:
448,192,77738,128,0,77837:0:0:0:0:
320,192,77937,1,2,0:0:0:0:
448,192,77937,1,0,0:0:0:0:
64,192,78135,128,8,78234:0:0:0:0:
192,192,78135,128,0,78284:0:0:0:0:
320,192,78135,128,0,78334:0:0:0:0:
448,192,78135,128,0,78383:0:0:0:0:
64,192,78532,128,2,78664:0:0:0:0:
192,192,78532,128,0,78797:0:0:0:0:
320,192,78532,128,0,78731:0:0:0:0:
448,192,78532,128,0,78863:0:0:0:0:
64,192,78929,1,8,0:0:0:0:
192,192,78929,1,0,0:0:0:0:
320,192,78929,1,0,0:0:0:0:
448,192,78929,1,0,0:0:0:0:
192,192,79028,1,0,0:0:0:0:
320,192,79128,1,0,0:0:0:0:
64,192,79177,1,0,0:0:0:0:
192,192,79227,1,2,0:0:0:0:
320,192,79276,1,2,0:0:0:0:
64,192,79326,1,8,0:0:0:0:
192,192,79326,1,0,0:0:0:0:
448,192,79326,1,0,0:0:0:0:
320,192,79425,1,0,0:0:0:0:
320,192,79525,1,2,0:0:0:0:
448,192,79525,1,0,0:0:0:0:
192,192,79624,1,0,0:0:0:0:
320,192,79723,1,0,0:0:0:0:
64,192,79822,1,2,0:0:0:0:
192,192,79822,1,0,0:0:0:0:
64,192,79922,1,8,0:0:0:0:
192,192,79922,1,0,0:0:0:0:
320,192,79922,128,0,80219:0:0:0:0:
448,192,79922,128,0,80219:0:0:0:0:
64,192,80219,128,0,80418:0:0:0:0:
320,192,80319,128,2,80418:0:0:0:0:
448,192,80319,128,0,80368:0:0:0:0:
192,192,80418,128,0,80517:0:0:0:0:
64,192,80517,1,8,0:0:0:0:
320,192,80517,128,0,80815:0:0:0:0:
448,192,80517,1,0,0:0:0:0:
192,192,80616,128,0,80815:0:0:0:0:
64,192,80716,128,0,80815:0:0:0:0:
448,192,80815,128,0,80914:0:0:0:0:
64,192,80914,128,2,81113:0:0:0:0:
192,192,80914,128,0,81063:0:0:0:0:
320,192,80914,128,0,81013:0:0:0:0:
448,192,81013,128,0,81212:0:0:0:0:
320,192,81113,128,0,81212:0:0:0:0:
192,192,81212,128,0,81311:0:0:0:0:
64,192,81311,128,2,81410:0:0:0:0:
320,192,81311,128,0,81460:0:0:0:0:
448,192,81311,128,0,81510:0:0:0:0:
448,192,81708,128,2,81973:0:0:0:0:
320,192,81708,128,0,81907:0:0:0:0:
64,192,81708,128,0,81840:0:0:0:0:
192,192,81708,128,0,82039:0:0:0:0:
64,192,82105,128,2,82370:0:0:0:0:
192,192,82105,128,0,82303:0:0:0:0:
320,192,82105,128,0,82436:0:0:0:0:
448,192,82105,128,0,82237:0:0:0:0:
64,192,82502,1,8,0:0:0:0:
192,192,82502,1,0,0:0:0:0:
320,192,82502,1,0,0:0:0:0:
448,192,82502,1,0,0:0:0:0:
320,192,82601,128,0,82800:0:0:0:0:
192,192,82700,128,0,82800:0:0:0:0:
64,192,82800,1,2,0:0:0:0:
448,192,82800,128,0,82998:0:0:0:0:
192,192,82899,128,0,82998:0:0:0:0:
320,192,82998,128,0,83197:0:0:0:0:
64,192,83097,128,2,83197:0:0:0:0:
192,192,83097,1,0,0:0:0:0:
448,192,83197,128,0,83296:0:0:0:0:
320,192,83296,1,0,0:0:0:0:
64,192,83296,128,0,83395:0:0:0:0:
448,192,83395,1,2,0:0:0:0:
192,192,83395,128,0,83594:0:0:0:0:
320,192,83494,128,0,83693:0:0:0:0:
64,192,83594,128,0,83693:0:0:0:0:
448,192,83693,1,2,0:0:0:0:
192,192,83693,128,0,83891:0:0:0:0:
320,192,83792,128,0,83891:0:0:0:0:
64,192,83891,128,0,83991:0:0:0:0:
320,192,83991,1,2,0:0:0:0:
448,192,83991,1,0,0:0:0:0:
192,192,84040,1,2,0:0:0:0:
64,192,84090,128,8,84189:0:0:0:0:
320,192,84090,128,0,84288:0:0:0:0:
448,192,84090,128,0,84388:0:0:0:0:
192,192,84189,1,2,0:0:0:0:
192,192,84288,1,2,0:0:0:0:
320,192,84388,1,2,0:0:0:0:
64,192,84487,128,8,84785:0:0:0:0:
448,192,84487,128,0,84586:0:0:0:0:
192,192,84487,128,0,84685:0:0:0:0:
320,192,84586,1,2,0:0:0:0:
320,192,84685,1,2,0:0:0:0:
192,192,84785,1,2,0:0:0:0:
64,192,84884,128,2,85082:0:0:0:0:
192,192,84884,128,0,85033:0:0:0:0:
320,192,84884,128,0,84983:0:0:0:0:
448,192,84983,128,0,85182:0:0:0:0:
320,192,85082,128,0,85182:0:0:0:0:
192,192,85182,1,0,0:0:0:0:
64,192,85281,128,8,85479:0:0:0:0:
192,192,85281,128,0,85479:0:0:0:0:
320,192,85281,1,0,0:0:0:0:
448,192,85281,1,0,0:0:0:0:
320,192,85479,128,0,85579:0:0:0:0:
64,192,85579,1,2,0:0:0:0:
192,192,85579,1,0,0:0:0:0:
320,192,85628,1,2,0:0:0:0:
64,192,85678,128,8,85777:0:0:0:0:
192,192,85678,128,0,85777:0:0:0:0:
448,192,85678,1,0,0:0:0:0:
64,192,85876,1,2,0:0:0:0:
192,192,85876,1,0,0:0:0:0:
192,192,85976,1,8,0:0:0:0:
320,192,85976,128,0,86075:0:0:0:0:
448,192,85976,128,0,86075:0:0:0:0:
320,192,86174,1,2,0:0:0:0:
64,192,86174,1,0,0:0:0:0:
64,192,86273,128,8,86472:0:0:0:0:
192,192,86273,128,0,86439:0:0:0:0:
320,192,86273,128,0,86406:0:0:0:0:
448,192,86273,128,0,86373:0:0:0:0:
320,192,86472,1,0,0:0:0:0:
192,192,86571,1,0,0:0:0:0:
192,192,86670,128,2,86770:0:0:0:0:
320,192,86670,128,0,86819:0:0:0:0:
64,192,86670,128,0,86720:0:0:0:0:
64,192,86869,128,0,87117:0:0:0:0:
320,192,86869,128,8,87018:0:0:0:0:
448,192,86869,128,0,86968:0:0:0:0:
192,192,86869,128,0,87067:0:0:0:0:
448,192,87067,128,0,87200:0:0:0:0:
320,192,87133,128,0,87200:0:0:0:0:
192,192,87200,128,0,87464:0:0:0:0:
320,192,87266,128,2,87597:0:0:0:0:
448,192,87266,128,0,87398:0:0:0:0:
64,192,87266,128,0,87530:0:0:0:0:
192,192,87663,128,2,87994:0:0:0:0:
64,192,87663,128,0,87795:0:0:0:0:
320,192,87663,128,0,87861:0:0:0:0:
448,192,87663,128,0,87927:0:0:0:0:
64,192,88060,128,2,88391:0:0:0:0:
192,192,88060,128,4,88192:0:0:0:0:
320,192,88060,128,0,88258:0:0:0:0:
448,192,88060,128,0,88324:0:0:0:0:
320,192,88457,128,2,88589:0:0:0:0:
64,192,88457,128,0,88721:0:0:0:0:
192,192,88457,128,0,88655:0:0:0:0:
448,192,88457,128,0,88788:0:0:0:0:
64,192,88854,1,8,0:0:0:0:
192,192,88854,1,0,0:0:0:0:
320,192,88854,1,0,0:0:0:0:
448,192,88854,1,0,0:0:0:0:
192,192,88953,128,0,89151:0:0:0:0:
320,192,89052,128,0,89251:0:0:0:0:
448,192,89151,128,0,89251:0:0:0:0:
64,192,89251,1,2,0:0:0:0:
192,192,89251,1,0,0:0:0:0:
448,192,89350,128,0,89747:0:0:0:0:
192,192,89449,128,0,89548:0:0:0:0:
64,192,89548,128,0,89648:0:0:0:0:
320,192,89648,128,0,90144:0:0:0:0:
192,192,89747,128,0,89846:0:0:0:0:
448,192,89846,128,0,90045:0:0:0:0:
192,192,89945,128,0,90243:0:0:0:0:
64,192,90045,128,0,90144:0:0:0:0:
448,192,90144,128,0,90342:0:0:0:0:
320,192,90243,128,0,90342:0:0:0:0:
192,192,90342,128,0,90442:0:0:0:0:
64,192,90442,128,8,90739:0:0:0:0:
320,192,90442,128,0,90541:0:0:0:0:
448,192,90442,128,0,90591:0:0:0:0:
192,192,90541,128,0,90739:0:0:0:0:
320,192,90640,128,2,90739:0:0:0:0:
448,192,90739,1,0,0:0:0:0:
64,192,90839,128,8,90987:0:0:0:0:
192,192,90839,128,0,90938:0:0:0:0:
448,192,90839,128,0,91136:0:0:0:0:
320,192,90938,128,0,91136:0:0:0:0:
192,192,91037,128,0,91136:0:0:0:0:
64,192,91136,1,0,0:0:0:0:
64,192,91236,128,2,91368:0:0:0:0:
192,192,91236,128,0,91434:0:0:0:0:
320,192,91236,128,0,91500:0:0:0:0:
448,192,91236,128,0,91566:0:0:0:0:
64,192,91633,128,8,91765:0:0:0:0:
320,192,91633,1,0,0:0:0:0:
448,192,91633,1,0,0:0:0:0:
192,192,91699,128,0,91831:0:0:0:0:
320,192,91765,128,0,91897:0:0:0:0:
448,192,91831,128,0,91963:0:0:0:0:
64,192,91881,1,0,0:0:0:0:
192,192,91930,1,2,0:0:0:0:
320,192,91980,1,2,0:0:0:0:
64,192,92030,128,8,92228:0:0:0:0:
192,192,92030,128,0,92228:0:0:0:0:
448,192,92030,1,0,0:0:0:0:
320,192,92228,1,2,0:0:0:0:
448,192,92228,1,0,0:0:0:0:
192,192,92327,128,0,92427:0:0:0:0:
320,192,92327,128,0,92427:0:0:0:0:
64,192,92526,1,2,0:0:0:0:
192,192,92526,1,0,0:0:0:0:
192,192,92625,1,8,0:0:0:0:
320,192,92625,128,0,92824:0:0:0:0:
448,192,92625,128,0,92824:0:0:0:0:
64,192,92923,128,0,93022:0:0:0:0:
192,192,93022,128,2,93072:0:0:0:0:
320,192,93022,128,0,93121:0:0:0:0:
448,192,93022,128,0,93171:0:0:0:0:
64,192,93221,1,8,0:0:0:0:
192,192,93221,1,0,0:0:0:0:
320,192,93221,1,0,0:0:0:0:
448,192,93221,1,0,0:0:0:0:
192,192,93320,128,0,93518:0:0:0:0:
448,192,93419,128,0,93518:0:0:0:0:
320,192,93518,128,0,93618:0:0:0:0:
64,192,93618,128,2,93766:0:0:0:0:
192,192,93618,128,0,93717:0:0:0:0:
448,192,93618,128,0,93915:0:0:0:0:
320,192,93717,128,0,93915:0:0:0:0:
192,192,93816,128,0,94014:0:0:0:0:
64,192,93915,1,0,0:0:0:0:
64,192,94014,128,2,94213:0:0:0:0:
320,192,94014,128,0,94114:0:0:0:0:
448,192,94014,128,0,94163:0:0:0:0:
192,192,94114,128,0,94213:0:0:0:0:
320,192,94213,128,0,94312:0:0:0:0:
64,192,94312,128,0,94660:0:0:0:0:
192,192,94312,128,0,94610:0:0:0:0:
320,192,94411,128,2,94560:0:0:0:0:
448,192,94411,128,0,94511:0:0:0:0:
64,192,94808,1,2,0:0:0:0:
192,192,94808,1,0,0:0:0:0:
320,192,94808,128,0,94908:0:0:0:0:
448,192,94808,128,0,94957:0:0:0:0:
192,192,94908,1,2,0:0:0:0:
320,192,95007,128,2,95106:0:0:0:0:
192,192,95106,128,2,95205:0:0:0:0:
64,192,95205,1,8,0:0:0:0:
320,192,95205,1,0,0:0:0:0:
448,192,95205,1,0,0:0:0:0:
192,192,95305,1,0,0:0:0:0:
64,192,95404,1,8,0:0:0:0:
192,192,95404,1,0,0:0:0:0:
320,192,95404,1,0,0:0:0:0:
448,192,95404,1,0,0:0:0:0:
320,192,95503,1,2,0:0:0:0:
448,192,95503,1,0,0:0:0:0:
64,192,95702,1,8,0:0:0:0:
192,192,95702,1,0,0:0:0:0:
320,192,95702,1,0,0:0:0:0:
448,192,95702,1,0,0:0:0:0:
320,192,95801,128,2,95900:0:0:0:0:
192,192,95900,1,0,0:0:0:0:
64,192,95999,1,8,0:0:0:0:
192,192,95999,1,0,0:0:0:0:
320,192,95999,1,0,0:0:0:0:
448,192,95999,1,0,0:0:0:0:
320,192,96099,128,2,96198:0:0:0:0:
192,192,96198,128,0,96297:0:0:0:0:
320,192,96297,1,0,0:0:0:0:
64,192,96297,1,0,0:0:0:0:
448,192,96297,1,8,0:0:0:0:
320,192,96396,1,2,0:0:0:0:
448,192,96396,1,0,0:0:0:0:
64,192,96496,1,8,0:0:0:0:
192,192,96496,1,0,0:0:0:0:
192,192,96595,1,8,0:0:0:0:
64,192,96595,1,0,0:0:0:0:
448,192,96694,1,2,0:0:0:0:
320,192,96694,1,0,0:0:0:0:
192,192,96744,1,0,0:0:0:0:
64,192,96793,128,8,96893:0:0:0:0:
320,192,96793,128,0,96893:0:0:0:0:
448,192,96793,128,0,96992:0:0:0:0:
192,192,96893,128,2,96992:0:0:0:0:
320,192,96992,128,2,97091:0:0:0:0:
64,192,97091,1,2,0:0:0:0:
192,192,97091,128,0,97190:0:0:0:0:
64,192,97190,128,8,97290:0:0:0:0:
320,192,97190,128,0,97290:0:0:0:0:
448,192,97190,128,0,97389:0:0:0:0:
192,192,97290,1,2,0:0:0:0:
320,192,97389,1,2,0:0:0:0:
64,192,97488,1,2,0:0:0:0:
192,192,97488,1,0,0:0:0:0:
64,192,97587,128,2,97835:0:0:0:0:
192,192,97587,128,0,97786:0:0:0:0:
320,192,97587,128,0,97736:0:0:0:0:
448,192,97587,128,0,97687:0:0:0:0:
448,192,97786,128,0,97918:0:0:0:0:
320,192,97852,128,0,97918:0:0:0:0:
192,192,97918,128,0,97984:0:0:0:0:
64,192,97984,1,8,0:0:0:0:
320,192,97984,1,0,0:0:0:0:
448,192,97984,1,0,0:0:0:0:
192,192,98084,1,0,0:0:0:0:
320,192,98183,1,0,0:0:0:0:
64,192,98282,1,2,0:0:0:0:
192,192,98282,1,0,0:0:0:0:
320,192,98332,1,2,0:0:0:0:
64,192,98381,128,8,98481:0:0:0:0:
192,192,98381,128,0,98481:0:0:0:0:
448,192,98381,1,0,0:0:0:0:
64,192,98580,128,2,98828:0:0:0:0:
192,192,98580,128,0,98778:0:0:0:0:
320,192,98580,128,0,98729:0:0:0:0:
448,192,98580,128,0,98679:0:0:0:0:
320,192,98878,1,2,0:0:0:0:
448,192,98878,1,0,0:0:0:0:
64,192,98977,128,8,99076:0:0:0:0:
192,192,98977,128,0,99126:0:0:0:0:
320,192,98977,128,0,99175:0:0:0:0:
448,192,98977,128,0,99225:0:0:0:0:
320,192,99374,128,0,99572:0:0:0:0:
192,192,99572,128,0,99622:0:0:0:0:
64,192,99572,128,0,99622:0:0:0:0:
320,192,99622,128,0,99671:0:0:0:0:
448,192,99671,128,0,99721:0:0:0:0:
192,192,99721,128,0,99771:0:0:0:0:
64,192,99771,128,0,99820:0:0:0:0:
320,192,99820,128,0,99870:0:0:0:0:
192,192,99870,128,0,99920:0:0:0:0:
448,192,99920,128,0,99969:0:0:0:0:
320,192,99969,128,0,100465:0:0:0:0:
64,192,100168,128,0,100465:0:0:0:0:
192,192,100366,128,0,100664:0:0:0:100:h_Fill4_007_Reverb.wav
448,192,100366,128,0,100664:0:0:0:0:
64,192,100565,128,0,100664:0:0:0:0:
320,192,100565,128,0,100664:0:0:0:0:
64,192,100763,1,2,0:0:0:0:
448,192,100763,128,0,101259:0:0:0:0:
320,192,100763,128,4,100962:0:0:0:0:
192,192,100862,1,0,0:0:0:0:
64,192,100962,1,0,0:0:0:0:
320,192,101061,1,0,0:0:0:0:
64,192,101160,1,0,0:0:0:70:Cymatics - Big Clap 2.wav
192,192,101259,1,0,0:0:0:0:
64,192,101359,128,2,101458:0:0:0:0:
320,192,101359,128,8,101557:0:0:0:0:
448,192,101359,128,0,101756:0:0:0:0:
64,192,101557,1,0,0:0:0:70:Cymatics - Big Clap 2.wav
192,192,101557,1,0,0:0:0:0:
320,192,101656,1,0,0:0:0:0:
64,192,101756,1,0,0:0:0:0:
192,192,101756,128,0,101855:0:0:0:0:
320,192,101855,1,0,0:0:0:0:
64,192,101954,128,2,102153:0:0:0:0:
192,192,101954,128,8,102153:0:0:0:0:
448,192,101954,128,0,102053:0:0:0:70:Cymatics - Big Clap 2.wav
320,192,102153,1,0,0:0:0:0:
448,192,102153,128,0,102252:0:0:0:0:
192,192,102252,1,0,0:0:0:0:
64,192,102351,128,2,102550:0:0:0:0:
320,192,102351,128,0,102550:0:0:0:0:
448,192,102351,128,0,102450:0:0:0:0:
192,192,102550,128,0,102748:0:0:0:0:
448,192,102550,1,0,0:0:0:0:
64,192,102649,1,0,0:0:0:0:
320,192,102748,1,0,0:0:0:70:Cymatics - Big Clap 2.wav
448,192,102748,1,0,0:0:0:0:
192,192,102847,1,0,0:0:0:0:
64,192,102947,128,8,103344:0:0:0:0:
320,192,102947,128,2,103145:0:0:0:0:
448,192,102947,128,0,103145:0:0:0:0:
192,192,103244,1,0,0:0:0:0:
320,192,103294,1,0,0:0:0:0:
448,192,103344,128,0,103443:0:0:0:0:
320,192,103443,1,0,0:0:0:0:
64,192,103542,128,8,103840:0:0:0:0:
192,192,103542,128,2,103741:0:0:0:0:
448,192,103542,128,0,103641:0:0:0:70:Cymatics - Big Clap 2.wav
320,192,103741,1,0,0:0:0:0:
448,192,103741,1,0,0:0:0:0:
192,192,103840,1,0,0:0:0:0:
64,192,103939,128,2,104038:0:0:0:0:
320,192,103939,128,0,104038:0:0:0:0:
448,192,103939,128,0,104138:0:0:0:0:
64,192,104138,1,0,0:0:0:0:
192,192,104138,128,0,104237:0:0:0:0:
320,192,104237,1,0,0:0:0:0:
192,192,104336,1,0,0:0:0:70:Cymatics - Big Clap 2.wav
448,192,104336,128,0,104435:0:0:0:0:
320,192,104435,1,0,0:0:0:0:
64,192,104535,128,2,104634:0:0:0:0:
192,192,104535,128,8,104733:0:0:0:0:
448,192,104535,128,0,104634:0:0:0:0:
320,192,104634,128,0,104733:0:0:0:0:
64,192,104733,1,0,0:0:0:70:Cymatics - Big Clap 2.wav
448,192,104733,128,0,104932:0:0:0:0:
64,192,104932,1,0,0:0:0:0:
192,192,104932,128,0,105031:0:0:0:0:
448,192,105031,1,0,0:0:0:0:
320,192,105080,1,0,0:0:0:0:
64,192,105130,128,10,105428:0:0:0:0:
192,192,105130,128,0,105329:0:0:0:70:Cymatics - Big Clap 2.wav
320,192,105329,1,0,0:0:0:0:
448,192,105329,128,0,105428:0:0:0:0:
192,192,105428,1,0,0:0:0:0:
320,192,105477,1,0,0:0:0:0:
64,192,105527,128,2,106619:0:0:0:0:
448,192,105527,1,0,0:0:0:0:
320,192,105725,1,0,0:0:0:0:
448,192,105725,1,0,0:0:0:0:
192,192,105825,1,0,0:0:0:0:
448,192,105924,1,0,0:0:0:70:Cymatics - Big Clap 2.wav
320,192,106023,1,0,0:0:0:0:
192,192,106122,128,8,106519:0:0:0:0:
448,192,106122,128,2,106321:0:0:0:0:
320,192,106519,1,0,0:0:0:0:
448,192,106519,1,0,0:0:0:0:
192,192,106619,1,0,0:0:0:0:
64,192,106718,128,8,106916:0:0:0:0:
320,192,106718,128,2,107115:0:0:0:0:
448,192,106718,128,0,107016:0:0:0:70:Cymatics - Big Clap 2.wav
192,192,106916,1,0,0:0:0:0:
64,192,107115,128,2,107313:0:0:0:0:
192,192,107115,128,0,107611:0:0:0:0:
448,192,107115,128,0,107214:0:0:0:0:
320,192,107313,1,0,0:0:0:0:
448,192,107313,1,0,0:0:0:0:
64,192,107413,1,0,0:0:0:0:
448,192,107512,1,0,0:0:0:70:Cymatics - Big Clap 2.wav
320,192,107611,1,0,0:0:0:0:
64,192,107710,128,2,108008:0:0:0:0:
192,192,107710,128,8,108107:0:0:0:0:
448,192,107710,128,0,107909:0:0:0:0:
64,192,108107,1,0,0:0:0:0:
448,192,108107,128,0,108207:0:0:0:0:
192,192,108207,1,0,0:0:0:0:
64,192,108306,128,2,108405:0:0:0:0:
320,192,108306,128,8,108504:0:0:0:0:
448,192,108306,128,0,108504:0:0:0:70:Cymatics - Big Clap 2.wav
64,192,108504,1,0,0:0:0:0:
192,192,108504,128,0,108604:0:0:0:0:
448,192,108604,1,0,0:0:0:0:
64,192,108703,128,2,108802:0:0:0:0:
192,192,108703,128,0,108802:0:0:0:0:
320,192,108703,128,0,108901:0:0:0:0:
192,192,108901,128,0,109100:0:0:0:0:
448,192,108901,1,0,0:0:0:0:
64,192,109001,1,0,0:0:0:0:
320,192,109100,1,0,0:0:0:70:Cymatics - Big Clap 2.wav
448,192,109149,1,0,0:0:0:0:
192,192,109199,1,0,0:0:0:0:
64,192,109199,128,0,109298:0:0:0:0:
192,192,109298,128,8,109497:0:0:0:0:
320,192,109298,128,2,109596:0:0:0:0:
448,192,109298,128,0,109596:0:0:0:0:
64,192,109596,1,0,0:0:0:0:
192,192,109646,1,0,0:0:0:0:
320,192,109695,128,0,109795:0:0:0:0:
448,192,109695,1,0,0:0:0:0:
64,192,109795,1,0,0:0:0:0:
192,192,109894,128,8,110092:0:0:0:0:
320,192,109894,128,2,109993:0:0:0:0:
448,192,109894,128,0,109993:0:0:0:70:Cymatics - Big Clap 2.wav
320,192,110092,1,0,0:0:0:0:
448,192,110092,128,0,110192:0:0:0:0:
192,192,110192,1,0,0:0:0:0:
64,192,110291,128,2,110390:0:0:0:0:
320,192,110291,128,0,110390:0:0:0:0:
448,192,110291,128,0,110489:0:0:0:0:
64,192,110489,128,0,110589:0:0:0:0:
320,192,110489,1,0,0:0:0:0:
192,192,110589,1,0,0:0:0:0:
320,192,110638,1,0,0:0:0:0:
64,192,110688,1,0,0:0:0:70:Cymatics - Big Clap 2.wav
448,192,110688,128,0,110787:0:0:0:0:
192,192,110787,1,0,0:0:0:0:
64,192,110886,128,2,111085:0:0:0:0:
320,192,110886,128,8,111283:0:0:0:0:
448,192,110886,128,0,111382:0:0:0:0:
192,192,111283,128,0,111382:0:0:0:0:
64,192,111283,128,0,111382:0:0:0:0:
320,192,111382,128,0,111482:0:0:0:0:
64,192,111482,128,2,111779:0:0:0:0:
192,192,111482,128,8,111779:0:0:0:0:
448,192,111482,128,0,111779:0:0:0:70:Cymatics - Big Clap 2.wav
320,192,111680,1,0,0:0:0:0:
64,192,111879,128,2,111978:0:0:0:0:
192,192,111879,128,0,111978:0:0:0:0:
320,192,111879,128,0,111978:0:0:0:0:
448,192,111879,128,0,111978:0:0:0:0:
192,192,112077,1,0,0:0:0:0:
320,192,112276,128,0,112375:0:0:0:70:Cymatics - Big Clap 2.wav
64,192,112375,128,0,112425:0:0:0:0:
192,192,112425,128,0,112474:0:0:0:0:
320,192,112474,128,10,112524:0:0:0:0:
448,192,112524,128,0,112573:0:0:0:0:
64,192,112573,128,0,112623:0:0:0:0:
192,192,112623,128,0,112673:0:0:0:0:
320,192,112673,128,0,112970:0:0:0:70:Cymatics - Big Clap 2.wav
64,192,112871,128,0,112970:0:0:0:0:
192,192,112871,128,0,112970:0:0:0:0:
192,192,113070,128,8,113367:0:0:0:0:
320,192,113070,128,0,113367:0:0:0:100:h_Fill4_007_Reverb.wav
448,192,113070,128,0,113367:0:0:0:0:
64,192,113467,128,2,113665:0:0:0:0:
448,192,113467,128,4,113665:0:0:0:0:
320,192,113566,128,0,113665:0:0:0:0:
192,192,113665,1,0,0:0:0:0:
192,192,113764,128,0,113963:0:0:0:0:
64,192,113864,128,2,113963:0:0:0:0:
448,192,113864,128,0,113963:0:0:0:70:Cymatics - Big Clap 2.wav
320,192,113963,1,0,0:0:0:0:
320,192,114062,128,8,114261:0:0:0:0:
448,192,114062,128,0,114261:0:0:0:0:
64,192,114261,128,2,114360:0:0:0:0:
192,192,114261,128,0,114360:0:0:0:70:Cymatics - Big Clap 2.wav
320,192,114360,128,0,114459:0:0:0:0:
192,192,114459,1,0,0:0:0:0:
192,192,114558,128,0,114658:0:0:0:0:
320,192,114658,1,10,0:0:0:0:
448,192,114658,1,0,0:0:0:70:Cymatics - Big Clap 2.wav
64,192,114757,128,0,114856:0:0:0:0:
320,192,114806,128,0,114906:0:0:0:0:
448,192,114856,128,0,114955:0:0:0:0:
192,192,114955,128,0,115055:0:0:0:0:
64,192,115055,128,2,115253:0:0:0:0:
320,192,115055,128,0,115253:0:0:0:0:
448,192,115154,128,0,115253:0:0:0:0:
192,192,115253,1,0,0:0:0:0:
192,192,115352,128,0,115551:0:0:0:0:
320,192,115452,128,2,115650:0:0:0:0:
448,192,115452,128,0,115551:0:0:0:70:Cymatics - Big Clap 2.wav
64,192,115551,128,0,115650:0:0:0:0:
192,192,115650,128,8,115849:0:0:0:0:
448,192,115650,128,0,115849:0:0:0:0:
64,192,115849,128,2,116047:0:0:0:0:
320,192,115849,1,0,0:0:0:70:Cymatics - Big Clap 2.wav
448,192,115948,128,0,116047:0:0:0:0:
320,192,115997,128,0,116097:0:0:0:0:
192,192,116047,1,0,0:0:0:0:
192,192,116146,128,0,116246:0:0:0:0:
64,192,116246,128,8,116444:0:0:0:0:
320,192,116246,128,2,116345:0:0:0:0:
448,192,116246,128,0,116345:0:0:0:70:Cymatics - Big Clap 2.wav
192,192,116345,128,0,116444:0:0:0:0:
320,192,116444,1,0,0:0:0:0:
320,192,116543,128,0,116643:0:0:0:0:
64,192,116643,128,2,116841:0:0:0:0:
192,192,116643,128,0,116841:0:0:0:0:
448,192,116841,1,0,0:0:0:0:
448,192,116940,128,0,117139:0:0:0:0:
64,192,117039,128,2,117238:0:0:0:0:
320,192,117039,128,0,117139:0:0:0:70:Cymatics - Big Clap 2.wav
192,192,117238,128,8,117536:0:0:0:0:
448,192,117238,1,0,0:0:0:0:
320,192,117288,1,0,0:0:0:0:
64,192,117337,128,0,117536:0:0:0:0:
320,192,117436,128,2,117635:0:0:0:0:
448,192,117436,128,0,117635:0:0:0:70:Cymatics - Big Clap 2.wav
192,192,117635,1,0,0:0:0:0:
192,192,117734,128,0,117833:0:0:0:0:
320,192,117784,128,0,117883:0:0:0:0:
64,192,117833,128,10,118032:0:0:0:0:
448,192,117833,128,0,118032:0:0:0:70:Cymatics - Big Clap 2.wav
192,192,117933,1,0,0:0:0:0:
320,192,118032,1,0,0:0:0:0:
320,192,118131,128,0,118230:0:0:0:0:
192,192,118181,128,0,118280:0:0:0:0:
64,192,118230,128,2,118429:0:0:0:0:
448,192,118230,128,0,118429:0:0:0:0:
320,192,118330,128,0,118429:0:0:0:0:
192,192,118429,1,0,0:0:0:0:
192,192,118528,128,0,118627:0:0:0:0:
64,192,118627,128,2,118727:0:0:0:0:
448,192,118627,128,0,118925:0:0:0:70:Cymatics - Big Clap 2.wav
320,192,118727,128,0,118826:0:0:0:0:
64,192,118826,128,8,119223:0:0:0:0:
192,192,118826,128,0,118925:0:0:0:0:
192,192,119024,128,2,119124:0:0:0:0:
448,192,119024,128,0,119223:0:0:0:70:Cymatics - Big Clap 2.wav
320,192,119124,128,0,119223:0:0:0:0:
192,192,119223,1,0,0:0:0:0:
192,192,119322,128,0,119421:0:0:0:0:
64,192,119421,128,8,119620:0:0:0:0:
320,192,119421,128,2,119521:0:0:0:0:
448,192,119421,128,0,119719:0:0:0:70:Cymatics - Big Clap 2.wav
192,192,119521,128,0,119719:0:0:0:0:
320,192,119620,128,0,119719:0:0:0:0:
64,192,119719,128,0,120017:0:0:0:0:
192,192,119818,128,2,120017:0:0:0:0:
448,192,119818,128,0,120017:0:0:0:0:
320,192,120017,1,0,0:0:0:0:
320,192,120116,128,0,120315:0:0:0:0:
64,192,120215,128,2,120315:0:0:0:0:
448,192,120215,128,0,120513:0:0:0:70:Cymatics - Big Clap 2.wav
192,192,120315,128,0,120811:0:0:0:0:
64,192,120414,128,8,120612:0:0:0:0:
320,192,120414,128,0,120513:0:0:0:0:
320,192,120612,128,2,120712:0:0:0:0:
448,192,120612,128,0,120811:0:0:0:70:Cymatics - Big Clap 2.wav
64,192,120712,128,0,120811:0:0:0:0:
320,192,120811,1,0,0:0:0:0:
320,192,120910,128,0,121009:0:0:0:0:
64,192,121009,128,8,121208:0:0:0:0:
192,192,121009,128,2,121109:0:0:0:0:
448,192,121009,1,0,0:0:0:70:Cymatics - Big Clap 2.wav
320,192,121109,128,0,121307:0:0:0:0:
448,192,121158,128,0,121307:0:0:0:0:
192,192,121208,1,0,0:0:0:0:
192,192,121307,128,0,121406:0:0:0:0:
64,192,121406,128,2,121605:0:0:0:0:
448,192,121406,128,0,121605:0:0:0:0:
320,192,121506,128,0,121605:0:0:0:0:
192,192,121605,1,0,0:0:0:0:
192,192,121704,128,0,121903:0:0:0:0:
320,192,121803,128,2,122200:0:0:0:0:
448,192,121803,128,0,121903:0:0:0:70:Cymatics - Big Clap 2.wav
64,192,121903,128,0,122101:0:0:0:0:
192,192,122002,128,8,122101:0:0:0:0:
448,192,122002,128,0,122200:0:0:0:0:
192,192,122200,128,2,122498:0:0:0:0:
64,192,122200,1,0,0:0:0:70:Cymatics - Big Clap 2.wav
448,192,122300,128,0,122399:0:0:0:0:
64,192,122349,128,0,122448:0:0:0:0:
320,192,122399,1,0,0:0:0:0:
320,192,122498,128,0,122796:0:0:0:0:
64,192,122597,128,2,122796:0:0:0:0:
192,192,122597,128,8,122697:0:0:0:0:
448,192,122597,128,0,122796:0:0:0:70:Cymatics - Big Clap 2.wav
192,192,122796,1,0,0:0:0:0:
192,192,122895,128,0,123193:0:0:0:0:
320,192,122994,128,2,123093:0:0:0:0:
448,192,122994,128,0,123193:0:0:0:0:
64,192,123093,128,0,123193:0:0:0:0:
320,192,123193,1,0,0:0:0:0:
320,192,123292,128,0,123490:0:0:0:0:
192,192,123342,128,0,123590:0:0:0:0:
64,192,123391,128,2,123490:0:0:0:0:
448,192,123391,128,0,123590:0:0:0:70:Cymatics - Big Clap 2.wav
64,192,123590,1,8,0:0:0:0:
320,192,123590,1,0,0:0:0:0:
320,192,123689,128,0,123887:0:0:0:0:
192,192,123788,128,2,123987:0:0:0:0:
448,192,123788,128,0,123887:0:0:0:70:Cymatics - Big Clap 2.wav
64,192,123887,128,0,124086:0:0:0:0:
320,192,123987,128,0,124086:0:0:0:0:
448,192,123987,128,0,124086:0:0:0:0:
192,192,124086,1,0,0:0:0:0:
64,192,124185,128,2,124483:0:0:0:0:
192,192,124185,128,8,124284:0:0:0:0:
448,192,124185,128,0,124483:0:0:0:70:Cymatics - Big Clap 2.wav
320,192,124284,128,0,124384:0:0:0:0:
192,192,124384,128,0,124483:0:0:0:0:
320,192,124483,1,0,0:0:0:0:
64,192,124582,1,2,0:0:0:0:
192,192,124582,1,0,0:0:0:0:
320,192,124582,1,0,0:0:0:0:
448,192,124582,1,0,0:0:0:0:
192,192,124681,1,0,0:0:0:0:
320,192,124781,1,0,0:0:0:0:
64,192,124880,1,0,0:0:0:0:
64,192,124979,1,2,0:0:0:0:
192,192,124979,1,0,0:0:0:70:Cymatics - Big Clap 2.wav
320,192,124979,1,0,0:0:0:0:
448,192,124979,1,0,0:0:0:0:
320,192,125078,1,0,0:0:0:0:
64,192,125178,1,0,0:0:0:0:
192,192,125277,1,0,0:0:0:0:
64,192,125376,128,8,125773:0:0:0:0:
192,192,125376,128,4,125773:0:0:0:0:
320,192,125376,128,0,125773:0:0:0:0:
448,192,125376,128,0,125773:0:0:0:0:
