osu file format v14

[General]
AudioFilename: maremaris.mp3
AudioLeadIn: 0
PreviewTime: 75356
Countdown: 0
SampleSet: Soft
StackLeniency: 0.7
Mode: 3
LetterboxInBreaks: 0
SpecialStyle: 0
WidescreenStoryboard: 1

[Editor]
Bookmarks: 37223,49925,62628,75330,100736,113438
DistanceSpacing: 0.8
BeatDivisor: 4
GridSize: 32
TimelineZoom: 1.8

[Metadata]
Title:Mare Maris
TitleUnicode:Mare Maris
Artist:M2U
ArtistUnicode:M2U
Creator:Raveille
Version:EXPERT
Source:maimai MiLK
Tags:lenpai FAMoss lenfried- video game instrumental sega マイマイ ミルク プラス orchestral ongeki o.n.g.e.k.i.
BeatmapID:1916801
BeatmapSetID:917906

[Difficulty]
HPDrainRate:7.5
CircleSize:4
OverallDifficulty:7.5
ApproachRate:5
SliderMultiplier:1.4
SliderTickRate:1

[Events]
//Background and Video events
0,0,"cropped-1920-1080-767027.jpg",0,0
//Break Periods
//Storyboard Layer 0 (Background)
//Storyboard Layer 1 (Fail)
//Storyboard Layer 2 (Pass)
//Storyboard Layer 3 (Foreground)
//Storyboard Layer 4 (Overlay)
//Storyboard Sound Samples
Sample,24939,0,"Cymatics - Big Clap 2.wav",70
Sample,27321,0,"Cymatics - Big Clap 2.wav",70
Sample,28115,0,"Cymatics - Big Clap 2.wav",70
Sample,31291,0,"Cymatics - Big Clap 2.wav",70
Sample,34467,0,"Cymatics - Big Clap 2.wav",70
Sample,38437,0,"Cymatics - Big Clap 2.wav",70
Sample,44789,0,"Cymatics - Big Clap 2.wav",70
Sample,51140,0,"Cymatics - Big Clap 2.wav",70
Sample,57492,0,"Cymatics - Big Clap 2.wav",70

[TimingPoints]
724,396.982929734021,4,2,1,70,1,0
37246,-100,4,2,1,70,0,1
49552,-100,4,2,1,70,0,0
49949,-100,4,2,1,70,0,1
62653,-100,4,2,1,70,0,0
100763,-100,4,2,1,70,0,1
113070,-100,4,2,1,70,0,0
113467,-100,4,2,1,70,0,1
125376,-100,4,2,1,70,0,0

[HitObjects]
448,192,327,128,0,724:0:0:0:0:
64,192,724,128,2,1319:0:0:0:0:
192,192,724,1,0,0:0:0:0:
320,192,922,1,0,0:0:0:0:
448,192,1021,1,0,0:0:0:0:
192,192,1120,1,0,0:0:0:70:Cymatics - Big Clap 2.wav
320,192,1319,1,8,0:0:0:0:
448,192,1319,128,0,1914:0:0:0:0:
192,192,1716,1,0,0:0:0:0:
64,192,1914,1,8,0:0:0:0:
192,192,1914,1,0,0:0:0:70:Cymatics - Big Clap 2.wav
320,192,1981,1,0,0:0:0:0:
192,192,2047,1,0,0:0:0:0:
64,192,2113,1,0,0:0:0:0:
64,192,2311,128,2,2907:0:0:0:0:
192,192,2311,1,0,0:0:0:0:
320,192,2411,1,0,0:0:0:0:
448,192,2510,1,0,0:0:0:0:
320,192,2708,1,0,0:0:0:70:Cymatics - Big Clap 2.wav
192,192,2808,1,0,0:0:0:0:
320,192,2907,1,8,0:0:0:0:
448,192,2907,128,0,3502:0:0:0:0:
64,192,3105,1,0,0:0:0:70:Cymatics - Big Clap 2.wav
192,192,3205,1,0,0:0:0:0:
320,192,3304,1,0,0:0:0:0:
64,192,3502,128,8,3899:0:0:0:0:
192,192,3502,1,0,0:0:0:70:Cymatics - Big Clap 2.wav
320,192,3701,1,0,0:0:0:0:
448,192,3800,1,0,0:0:0:0:
192,192,3899,128,2,4495:0:0:0:0:
320,192,3899,1,0,0:0:0:0:
448,192,4098,1,0,0:0:0:0:
320,192,4197,1,0,0:0:0:0:
64,192,4296,1,0,0:0:0:70:Cymatics - Big Clap 2.wav
320,192,4495,128,8,5090:0:0:0:0:
448,192,4495,1,0,0:0:0:0:
64,192,4693,1,0,0:0:0:70:Cymatics - Big Clap 2.wav
192,192,4892,1,0,0:0:0:0:
64,192,5090,1,8,0:0:0:0:
448,192,5090,1,0,0:0:0:70:Cymatics - Big Clap 2.wav
192,192,5190,1,0,0:0:0:0:
320,192,5289,1,0,0:0:0:0:
64,192,5338,1,0,0:0:0:0:
192,192,5388,1,0,0:0:0:0:
320,192,5487,128,2,6083:0:0:0:0:
448,192,5487,1,0,0:0:0:0:
192,192,5686,1,0,0:0:0:0:
64,192,5884,1,0,0:0:0:70:Cymatics - Big Clap 2.wav
64,192,6083,1,8,0:0:0:0:
192,192,6083,128,0,6678:0:0:0:0:
448,192,6281,1,0,0:0:0:70:Cymatics - Big Clap 2.wav
320,192,6480,1,0,0:0:0:0:
64,192,6678,1,8,0:0:0:0:
448,192,6678,128,0,7075:0:0:0:70:Cymatics - Big Clap 2.wav
320,192,6877,128,0,7075:0:0:0:0:
64,192,7075,128,2,7671:0:0:0:0:
192,192,7075,1,0,0:0:0:0:
320,192,7274,1,0,0:0:0:0:
448,192,7373,1,0,0:0:0:0:
192,192,7472,1,0,0:0:0:70:Cymatics - Big Clap 2.wav
320,192,7671,1,8,0:0:0:0:
448,192,7671,128,0,8266:0:0:0:0:
192,192,8068,1,0,0:0:0:0:
192,192,8266,1,8,0:0:0:0:
320,192,8266,1,0,0:0:0:70:Cymatics - Big Clap 2.wav
64,192,8332,1,0,0:0:0:0:
192,192,8399,1,0,0:0:0:0:
320,192,8465,1,0,0:0:0:0:
64,192,8663,128,2,9259:0:0:0:0:
192,192,8663,1,0,0:0:0:0:
320,192,8762,1,0,0:0:0:0:
448,192,8862,1,0,0:0:0:0:
320,192,9060,1,0,0:0:0:70:Cymatics - Big Clap 2.wav
192,192,9159,1,0,0:0:0:0:
320,192,9259,1,8,0:0:0:0:
448,192,9259,128,0,9854:0:0:0:0:
64,192,9457,1,0,0:0:0:70:Cymatics - Big Clap 2.wav
192,192,9556,1,0,0:0:0:0:
320,192,9656,1,0,0:0:0:0:
64,192,9854,128,8,10251:0:0:0:0:
192,192,9854,1,0,0:0:0:70:Cymatics - Big Clap 2.wav
320,192,10053,1,0,0:0:0:0:
192,192,10251,128,2,10847:0:0:0:0:
448,192,10251,1,0,0:0:0:0:
320,192,10450,1,0,0:0:0:0:
448,192,10549,1,0,0:0:0:0:
320,192,10648,1,0,0:0:0:70:Cymatics - Big Clap 2.wav
64,192,10847,128,2,11839:0:0:0:0:
448,192,10847,128,0,11839:0:0:0:0:
192,192,11442,128,0,11740:0:0:0:0:
192,192,11839,128,2,12236:0:0:0:0:
320,192,11839,1,4,0:0:0:0:
448,192,12038,128,0,12236:0:0:0:0:
320,192,12236,128,0,12434:0:0:0:70:Cymatics - Big Clap 2.wav
192,192,12434,128,8,12633:0:0:0:0:
448,192,12434,128,0,12831:0:0:0:0:
64,192,12633,128,0,12831:0:0:0:70:Cymatics - Big Clap 2.wav
192,192,12831,128,0,13030:0:0:0:0:
64,192,13030,128,8,13427:0:0:0:0:
320,192,13030,128,0,13228:0:0:0:70:Cymatics - Big Clap 2.wav
192,192,13228,128,0,13427:0:0:0:0:
320,192,13427,1,2,0:0:0:0:
448,192,13427,128,0,13824:0:0:0:0:
192,192,13625,128,0,13824:0:0:0:0:
320,192,13824,128,0,14022:0:0:0:70:Cymatics - Big Clap 2.wav
192,192,14022,128,0,14419:0:0:0:0:
64,192,14022,128,8,14419:0:0:0:0:
448,192,14419,1,0,0:0:0:0:
320,192,14519,1,0,0:0:0:0:
64,192,14618,1,8,0:0:0:0:
192,192,14618,1,0,0:0:0:70:Cymatics - Big Clap 2.wav
448,192,14717,1,0,0:0:0:0:
192,192,14816,1,0,0:0:0:0:
320,192,14916,1,0,0:0:0:0:
64,192,15015,128,2,15412:0:0:0:0:
448,192,15015,128,0,15213:0:0:0:0:
192,192,15213,128,0,15412:0:0:0:0:
448,192,15412,128,0,15610:0:0:0:70:Cymatics - Big Clap 2.wav
64,192,15610,128,8,15809:0:0:0:0:
320,192,15610,128,0,16007:0:0:0:0:
448,192,16007,1,0,0:0:0:0:
192,192,16057,1,0,0:0:0:0:
64,192,16107,1,0,0:0:0:0:
320,192,16206,1,8,0:0:0:0:
448,192,16206,128,0,16603:0:0:0:70:Cymatics - Big Clap 2.wav
64,192,16404,128,0,16603:0:0:0:0:
192,192,16603,128,2,17000:0:0:0:0:
320,192,16603,1,0,0:0:0:0:
448,192,16801,128,0,17000:0:0:0:0:
320,192,17000,128,0,17198:0:0:0:70:Cymatics - Big Clap 2.wav
64,192,17198,128,8,17794:0:0:0:0:
448,192,17198,128,0,17397:0:0:0:0:
320,192,17397,128,0,17595:0:0:0:70:Cymatics - Big Clap 2.wav
192,192,17595,128,0,17794:0:0:0:0:
320,192,17794,128,8,17992:0:0:0:0:
448,192,17794,128,0,18191:0:0:0:70:Cymatics - Big Clap 2.wav
64,192,17992,128,0,18191:0:0:0:0:
192,192,18191,1,2,0:0:0:0:
320,192,18191,128,0,18588:0:0:0:0:
64,192,18389,128,0,18588:0:0:0:0:
192,192,18588,128,0,18786:0:0:0:70:Cymatics - Big Clap 2.wav
64,192,18786,128,8,19183:0:0:0:0:
320,192,18786,128,0,18985:0:0:0:0:
448,192,18985,128,0,19183:0:0:0:70:Cymatics - Big Clap 2.wav
320,192,19183,128,0,19382:0:0:0:0:
192,192,19382,128,8,19580:0:0:0:0:
448,192,19382,128,0,19779:0:0:0:70:Cymatics - Big Clap 2.wav
320,192,19580,128,0,19779:0:0:0:0:
64,192,19779,128,2,20176:0:0:0:0:
192,192,19779,1,0,0:0:0:0:
320,192,19977,128,0,20176:0:0:0:0:
192,192,20176,128,0,20374:0:0:0:70:Cymatics - Big Clap 2.wav
320,192,20374,128,8,20771:0:0:0:0:
448,192,20374,128,0,20771:0:0:0:0:
64,192,20771,1,0,0:0:0:0:
192,192,20870,1,0,0:0:0:0:
320,192,20970,1,8,0:0:0:0:
448,192,20970,1,0,0:0:0:70:Cymatics - Big Clap 2.wav
64,192,21069,1,0,0:0:0:0:
320,192,21168,1,0,0:0:0:0:
192,192,21267,1,0,0:0:0:0:
64,192,21367,128,2,21565:0:0:0:0:
448,192,21367,128,0,21764:0:0:0:0:
320,192,21565,128,0,21764:0:0:0:0:
64,192,21764,128,0,21962:0:0:0:70:Cymatics - Big Clap 2.wav
192,192,21962,128,8,22359:0:0:0:0:
448,192,21962,128,0,22161:0:0:0:0:
64,192,22359,1,0,0:0:0:0:
320,192,22409,1,0,0:0:0:0:
448,192,22458,1,0,0:0:0:0:
64,192,22558,128,8,22955:0:0:0:0:
192,192,22558,1,0,0:0:0:70:Cymatics - Big Clap 2.wav
448,192,22756,1,0,0:0:0:0:
192,192,22955,128,2,23153:0:0:0:0:
320,192,22955,128,0,23352:0:0:0:0:
64,192,23153,128,0,23352:0:0:0:0:
192,192,23352,128,0,23550:0:0:0:70:Cymatics - Big Clap 2.wav
320,192,23550,1,8,0:0:0:0:
448,192,23550,128,0,24145:0:0:0:0:
64,192,23649,1,0,0:0:0:0:
192,192,23749,1,0,0:0:0:70:Cymatics - Big Clap 2.wav
320,192,23848,1,0,0:0:0:0:
192,192,23947,1,0,0:0:0:0:
64,192,24046,1,0,0:0:0:0:
192,192,24145,128,8,24542:0:0:0:0:
320,192,24145,1,0,0:0:0:70:Cymatics - Big Clap 2.wav
448,192,24344,1,0,0:0:0:0:
64,192,24542,128,2,25336:0:0:0:0:
320,192,24542,1,0,0:0:0:0:
448,192,24542,1,0,0:0:0:0:
320,192,24939,1,2,0:0:0:0:
192,192,25138,128,0,25237:0:0:0:0:
320,192,25237,128,0,25336:0:0:0:0:
192,192,25336,1,2,0:0:0:0:
448,192,25336,128,0,25733:0:0:0:70:Cymatics - Big Clap 2.wav
64,192,25535,128,0,25634:0:0:0:0:
192,192,25634,128,0,25733:0:0:0:0:
64,192,25733,1,2,0:0:0:0:
320,192,25733,128,0,26130:0:0:0:70:Cymatics - Big Clap 2.wav
192,192,25932,128,0,26031:0:0:0:0:
64,192,26031,128,0,26130:0:0:0:0:
192,192,26130,128,2,26527:0:0:0:0:
448,192,26130,1,0,0:0:0:0:
448,192,26329,128,0,26428:0:0:0:0:
320,192,26428,128,0,26527:0:0:0:0:
64,192,26527,128,2,26924:0:0:0:0:
448,192,26527,1,0,0:0:0:70:Cymatics - Big Clap 2.wav
192,192,26726,128,0,26825:0:0:0:0:
320,192,26825,128,0,26924:0:0:0:0:
448,192,26924,128,2,27024:0:0:0:0:
192,192,26924,1,0,0:0:0:70:Cymatics - Big Clap 2.wav
320,192,27024,128,0,27123:0:0:0:0:
192,192,27123,128,0,27321:0:0:0:0:
448,192,27321,128,2,27520:0:0:0:0:
64,192,27520,128,0,27619:0:0:0:0:
320,192,27619,128,0,27718:0:0:0:0:
64,192,27718,1,2,0:0:0:0:
192,192,27718,1,0,0:0:0:0:
448,192,27718,128,0,28512:0:0:0:0:
192,192,28115,1,2,0:0:0:0:
320,192,28314,128,0,28413:0:0:0:0:
192,192,28413,128,0,28512:0:0:0:0:
64,192,28512,128,2,28909:0:0:0:0:
320,192,28512,1,0,0:0:0:70:Cymatics - Big Clap 2.wav
448,192,28711,128,0,28810:0:0:0:0:
320,192,28810,128,0,28909:0:0:0:0:
192,192,28909,128,2,29306:0:0:0:0:
448,192,28909,1,0,0:0:0:70:Cymatics - Big Clap 2.wav
320,192,29108,128,0,29207:0:0:0:0:
448,192,29207,128,0,29306:0:0:0:0:
64,192,29306,1,2,0:0:0:0:
320,192,29306,128,0,29703:0:0:0:0:
64,192,29505,128,0,29604:0:0:0:0:
192,192,29604,128,0,29703:0:0:0:0:
64,192,29703,1,2,0:0:0:0:
448,192,29703,128,0,30100:0:0:0:70:Cymatics - Big Clap 2.wav
320,192,29902,128,0,30001:0:0:0:0:
192,192,30001,128,0,30100:0:0:0:0:
320,192,30100,1,0,0:0:0:70:Cymatics - Big Clap 2.wav
64,192,30100,128,2,30199:0:0:0:0:
192,192,30199,128,0,30299:0:0:0:0:
320,192,30299,128,0,30497:0:0:0:0:
64,192,30497,128,2,30696:0:0:0:0:
192,192,30497,1,0,0:0:0:70:Cymatics - Big Clap 2.wav
448,192,30696,1,0,0:0:0:0:
64,192,30894,128,2,31688:0:0:0:0:
192,192,30894,1,0,0:0:0:0:
320,192,30894,1,0,0:0:0:0:
320,192,31291,1,2,0:0:0:0:
192,192,31490,128,0,31589:0:0:0:0:
320,192,31589,128,0,31688:0:0:0:0:
192,192,31688,1,2,0:0:0:0:
448,192,31688,128,0,32085:0:0:0:70:Cymatics - Big Clap 2.wav
64,192,31887,128,0,31986:0:0:0:0:
192,192,31986,128,0,32085:0:0:0:0:
64,192,32085,1,2,0:0:0:0:
320,192,32085,128,0,32482:0:0:0:70:Cymatics - Big Clap 2.wav
192,192,32284,128,0,32383:0:0:0:0:
64,192,32383,128,0,32482:0:0:0:0:
192,192,32482,128,2,32879:0:0:0:0:
448,192,32482,1,0,0:0:0:0:
448,192,32681,128,0,32780:0:0:0:0:
320,192,32780,128,0,32879:0:0:0:0:
64,192,32879,128,2,33276:0:0:0:0:
448,192,32879,1,0,0:0:0:70:Cymatics - Big Clap 2.wav
192,192,33078,128,0,33177:0:0:0:0:
320,192,33177,128,0,33276:0:0:0:0:
448,192,33276,128,2,33375:0:0:0:0:
192,192,33276,1,0,0:0:0:70:Cymatics - Big Clap 2.wav
320,192,33375,128,0,33475:0:0:0:0:
192,192,33475,128,0,33673:0:0:0:0:
448,192,33673,128,2,33872:0:0:0:0:
320,192,33673,1,0,0:0:0:70:Cymatics - Big Clap 2.wav
64,192,33872,128,0,33971:0:0:0:0:
320,192,33971,128,0,34070:0:0:0:0:
64,192,34070,1,2,0:0:0:0:
192,192,34070,1,0,0:0:0:0:
448,192,34070,128,0,34864:0:0:0:0:
192,192,34467,1,2,0:0:0:0:
320,192,34666,128,0,34765:0:0:0:0:
192,192,34765,128,0,34864:0:0:0:0:
64,192,34864,128,2,35261:0:0:0:0:
320,192,34864,1,0,0:0:0:70:Cymatics - Big Clap 2.wav
448,192,35063,128,0,35162:0:0:0:0:
320,192,35162,128,0,35261:0:0:0:0:
192,192,35261,128,2,35658:0:0:0:0:
448,192,35261,1,0,0:0:0:70:Cymatics - Big Clap 2.wav
320,192,35460,128,0,35559:0:0:0:0:
448,192,35559,128,0,35658:0:0:0:0:
64,192,35658,1,2,0:0:0:0:
320,192,35658,128,0,35856:0:0:0:0:
64,192,36055,1,2,0:0:0:0:
448,192,36055,1,0,0:0:0:70:Cymatics - Big Clap 2.wav
192,192,36253,1,0,0:0:0:0:
320,192,36353,1,0,0:0:0:0:
448,192,36452,1,0,0:0:0:70:Cymatics - Big Clap 2.wav
64,192,36452,128,2,36750:0:0:0:0:
192,192,36551,128,0,36750:0:0:0:0:
320,192,36650,128,0,36750:0:0:0:0:
64,192,36849,1,0,0:0:0:100:h_Fill4_007_Reverb.wav
192,192,36849,1,0,0:0:0:0:
448,192,36849,128,0,37147:0:0:0:0:
64,192,37246,128,2,37841:0:0:0:0:
448,192,37246,1,4,0:0:0:0:
320,192,37444,1,0,0:0:0:0:
192,192,37544,1,0,0:0:0:0:
320,192,37643,1,0,0:0:0:70:Cymatics - Big Clap 2.wav
320,192,37841,1,2,0:0:0:0:
448,192,37841,128,8,38437:0:0:0:0:
192,192,38040,1,0,0:0:0:70:Cymatics - Big Clap 2.wav
320,192,38139,1,0,0:0:0:0:
64,192,38238,128,0,38437:0:0:0:0:
192,192,38437,1,10,0:0:0:0:
320,192,38503,1,0,0:0:0:0:
448,192,38569,1,0,0:0:0:0:
192,192,38635,1,0,0:0:0:0:
64,192,38834,1,2,0:0:0:0:
448,192,38834,128,0,39429:0:0:0:0:
192,192,38933,1,0,0:0:0:0:
320,192,39032,1,0,0:0:0:0:
64,192,39132,1,0,0:0:0:0:
192,192,39231,1,0,0:0:0:70:Cymatics - Big Clap 2.wav
64,192,39429,128,8,40025:0:0:0:0:
192,192,39429,1,2,0:0:0:0:
448,192,39628,1,0,0:0:0:70:Cymatics - Big Clap 2.wav
320,192,39727,1,0,0:0:0:0:
192,192,39826,1,0,0:0:0:0:
320,192,39926,1,0,0:0:0:0:
192,192,40025,1,10,0:0:0:0:
448,192,40025,1,0,0:0:0:70:Cymatics - Big Clap 2.wav
64,192,40223,1,0,0:0:0:0:
448,192,40323,1,0,0:0:0:0:
192,192,40422,128,2,41017:0:0:0:0:
320,192,40422,1,0,0:0:0:0:
64,192,40620,1,0,0:0:0:0:
320,192,40720,1,0,0:0:0:0:
448,192,40819,1,0,0:0:0:70:Cymatics - Big Clap 2.wav
64,192,41017,1,2,0:0:0:0:
320,192,41017,128,8,41613:0:0:0:0:
192,192,41216,1,0,0:0:0:70:Cymatics - Big Clap 2.wav
64,192,41414,1,0,0:0:0:0:
192,192,41613,1,10,0:0:0:0:
448,192,41613,128,0,41811:0:0:0:70:Cymatics - Big Clap 2.wav
64,192,41811,128,0,42010:0:0:0:0:
192,192,41910,1,0,0:0:0:0:
448,192,42010,1,2,0:0:0:0:
320,192,42010,128,0,42605:0:0:0:0:
192,192,42208,1,0,0:0:0:0:
448,192,42307,1,0,0:0:0:0:
64,192,42407,1,0,0:0:0:70:Cymatics - Big Clap 2.wav
448,192,42605,1,8,0:0:0:0:
192,192,42605,128,2,43201:0:0:0:0:
448,192,42804,1,0,0:0:0:70:Cymatics - Big Clap 2.wav
64,192,42903,1,0,0:0:0:0:
320,192,43002,1,0,0:0:0:0:
448,192,43101,1,0,0:0:0:0:
64,192,43201,1,10,0:0:0:0:
320,192,43201,1,0,0:0:0:70:Cymatics - Big Clap 2.wav
192,192,43399,1,0,0:0:0:0:
320,192,43498,1,0,0:0:0:0:
64,192,43598,1,2,0:0:0:0:
448,192,43598,128,0,44193:0:0:0:0:
320,192,43796,1,0,0:0:0:0:
192,192,43895,1,0,0:0:0:0:
320,192,43995,1,0,0:0:0:70:Cymatics - Big Clap 2.wav
64,192,44193,128,2,44789:0:0:0:0:
192,192,44193,1,8,0:0:0:0:
320,192,44392,1,0,0:0:0:70:Cymatics - Big Clap 2.wav
192,192,44491,1,0,0:0:0:0:
448,192,44590,128,0,44789:0:0:0:0:
320,192,44789,1,10,0:0:0:0:
192,192,44855,1,0,0:0:0:0:
64,192,44921,1,0,0:0:0:0:
320,192,44987,1,0,0:0:0:0:
192,192,45086,1,0,0:0:0:0:
64,192,45186,128,2,45781:0:0:0:0:
448,192,45186,1,0,0:0:0:0:
320,192,45285,1,0,0:0:0:0:
192,192,45384,1,0,0:0:0:0:
448,192,45483,1,0,0:0:0:0:
320,192,45583,1,0,0:0:0:70:Cymatics - Big Clap 2.wav
192,192,45781,1,2,0:0:0:0:
448,192,45781,128,8,46377:0:0:0:0:
64,192,45980,1,0,0:0:0:70:Cymatics - Big Clap 2.wav
192,192,46079,1,0,0:0:0:0:
320,192,46178,1,0,0:0:0:0:
64,192,46277,1,0,0:0:0:0:
320,192,46377,1,10,0:0:0:0:
192,192,46377,1,0,0:0:0:70:Cymatics - Big Clap 2.wav
448,192,46575,1,0,0:0:0:0:
64,192,46674,1,0,0:0:0:0:
192,192,46774,1,2,0:0:0:0:
320,192,46774,128,0,47369:0:0:0:0:
448,192,46972,1,0,0:0:0:0:
192,192,47071,1,0,0:0:0:0:
64,192,47171,1,0,0:0:0:70:Cymatics - Big Clap 2.wav
64,192,47369,1,2,0:0:0:0:
192,192,47369,128,8,47964:0:0:0:0:
320,192,47567,1,0,0:0:0:70:Cymatics - Big Clap 2.wav
448,192,47667,1,0,0:0:0:0:
64,192,47766,1,0,0:0:0:0:
448,192,47865,1,0,0:0:0:0:
64,192,47964,128,10,48361:0:0:0:0:
320,192,47964,1,0,0:0:0:70:Cymatics - Big Clap 2.wav
192,192,48163,1,0,0:0:0:0:
448,192,48262,1,0,0:0:0:0:
192,192,48361,128,2,48560:0:0:0:0:
320,192,48361,1,0,0:0:0:0:
448,192,48560,1,0,0:0:0:0:
320,192,48659,1,0,0:0:0:0:
64,192,48758,128,0,48957:0:0:0:70:Cymatics - Big Clap 2.wav
192,192,48758,1,0,0:0:0:0:
448,192,48957,1,10,0:0:0:0:
320,192,48957,1,0,0:0:0:0:
64,192,49056,1,0,0:0:0:0:
192,192,49106,1,0,0:0:0:0:
448,192,49155,128,0,49354:0:0:0:70:Cymatics - Big Clap 2.wav
320,192,49155,1,0,0:0:0:0:
64,192,49354,128,0,49552:0:0:0:0:
448,192,49552,1,8,0:0:0:0:
192,192,49552,1,0,0:0:0:100:h_Fill4_007_Reverb.wav
320,192,49552,1,0,0:0:0:0:
320,192,49751,1,0,0:0:0:0:
64,192,49949,1,2,0:0:0:0:
448,192,49949,128,4,50545:0:0:0:0:
192,192,50148,1,0,0:0:0:0:
320,192,50247,1,0,0:0:0:0:
192,192,50346,1,0,0:0:0:70:Cymatics - Big Clap 2.wav
64,192,50545,128,2,51140:0:0:0:0:
320,192,50545,1,8,0:0:0:0:
192,192,50743,1,0,0:0:0:70:Cymatics - Big Clap 2.wav
320,192,50843,1,0,0:0:0:0:
448,192,50942,128,0,51140:0:0:0:0:
320,192,51140,1,10,0:0:0:0:
192,192,51206,1,0,0:0:0:0:
64,192,51273,1,0,0:0:0:0:
320,192,51339,1,0,0:0:0:0:
64,192,51537,128,2,52133:0:0:0:0:
448,192,51537,1,0,0:0:0:0:
320,192,51637,1,0,0:0:0:0:
192,192,51736,1,0,0:0:0:0:
320,192,51934,1,0,0:0:0:70:Cymatics - Big Clap 2.wav
192,192,52133,1,8,0:0:0:0:
448,192,52133,128,2,52728:0:0:0:0:
64,192,52331,1,0,0:0:0:70:Cymatics - Big Clap 2.wav
192,192,52431,1,0,0:0:0:0:
320,192,52530,1,0,0:0:0:0:
192,192,52629,1,0,0:0:0:0:
64,192,52728,1,10,0:0:0:0:
320,192,52728,1,0,0:0:0:70:Cymatics - Big Clap 2.wav
448,192,52927,1,0,0:0:0:0:
64,192,53026,1,0,0:0:0:0:
192,192,53125,1,2,0:0:0:0:
320,192,53125,128,0,53721:0:0:0:0:
448,192,53324,1,0,0:0:0:0:
192,192,53423,1,0,0:0:0:0:
64,192,53522,1,0,0:0:0:70:Cymatics - Big Clap 2.wav
448,192,53721,1,2,0:0:0:0:
192,192,53721,128,8,54316:0:0:0:0:
320,192,53919,1,0,0:0:0:70:Cymatics - Big Clap 2.wav
448,192,54118,1,0,0:0:0:0:
64,192,54316,128,10,54515:0:0:0:0:
320,192,54316,1,0,0:0:0:70:Cymatics - Big Clap 2.wav
448,192,54515,128,0,54713:0:0:0:0:
320,192,54614,1,0,0:0:0:0:
192,192,54713,128,2,55309:0:0:0:0:
64,192,54713,1,0,0:0:0:0:
320,192,54912,1,0,0:0:0:0:
64,192,55011,1,0,0:0:0:0:
448,192,55110,1,0,0:0:0:70:Cymatics - Big Clap 2.wav
64,192,55309,1,8,0:0:0:0:
320,192,55309,128,2,55904:0:0:0:0:
192,192,55507,1,0,0:0:0:70:Cymatics - Big Clap 2.wav
448,192,55606,1,0,0:0:0:0:
64,192,55706,1,0,0:0:0:0:
192,192,55805,1,0,0:0:0:0:
64,192,55904,1,10,0:0:0:0:
448,192,55904,1,0,0:0:0:70:Cymatics - Big Clap 2.wav
320,192,56103,1,0,0:0:0:0:
192,192,56202,1,0,0:0:0:0:
64,192,56301,128,2,56897:0:0:0:0:
448,192,56301,1,0,0:0:0:0:
320,192,56500,1,0,0:0:0:0:
192,192,56599,1,0,0:0:0:0:
320,192,56698,1,0,0:0:0:70:Cymatics - Big Clap 2.wav
192,192,56897,1,2,0:0:0:0:
448,192,56897,128,8,57492:0:0:0:0:
320,192,57095,1,0,0:0:0:70:Cymatics - Big Clap 2.wav
192,192,57194,1,0,0:0:0:0:
64,192,57294,128,0,57492:0:0:0:0:
192,192,57492,1,10,0:0:0:0:
320,192,57558,1,0,0:0:0:0:
448,192,57624,1,0,0:0:0:0:
192,192,57691,1,0,0:0:0:0:
320,192,57790,1,0,0:0:0:0:
64,192,57889,1,2,0:0:0:0:
448,192,57889,128,0,58485:0:0:0:0:
192,192,57988,1,0,0:0:0:0:
320,192,58088,1,0,0:0:0:0:
192,192,58286,1,0,0:0:0:70:Cymatics - Big Clap 2.wav
64,192,58485,128,8,59080:0:0:0:0:
320,192,58485,1,2,0:0:0:0:
448,192,58683,1,0,0:0:0:70:Cymatics - Big Clap 2.wav
320,192,58782,1,0,0:0:0:0:
192,192,58881,1,0,0:0:0:0:
448,192,58981,1,0,0:0:0:0:
320,192,59080,1,10,0:0:0:0:
192,192,59080,1,0,0:0:0:70:Cymatics - Big Clap 2.wav
64,192,59278,1,0,0:0:0:0:
448,192,59378,1,0,0:0:0:0:
192,192,59477,128,2,60072:0:0:0:0:
320,192,59477,1,0,0:0:0:0:
64,192,59675,1,0,0:0:0:0:
320,192,59775,1,0,0:0:0:0:
448,192,59874,1,0,0:0:0:70:Cymatics - Big Clap 2.wav
64,192,60072,1,2,0:0:0:0:
320,192,60072,128,8,60668:0:0:0:0:
192,192,60271,1,0,0:0:0:70:Cymatics - Big Clap 2.wav
448,192,60370,1,0,0:0:0:0:
64,192,60469,1,0,0:0:0:0:
192,192,60569,1,0,0:0:0:0:
64,192,60668,1,10,0:0:0:0:
448,192,60668,128,0,61065:0:0:0:70:Cymatics - Big Clap 2.wav
192,192,60866,1,0,0:0:0:0:
320,192,60966,1,0,0:0:0:0:
64,192,61065,128,2,61263:0:0:0:0:
192,192,61065,1,0,0:0:0:0:
448,192,61263,1,0,0:0:0:0:
64,192,61462,128,0,61561:0:0:0:70:Cymatics - Big Clap 2.wav
192,192,61561,128,0,61660:0:0:0:0:
320,192,61660,128,10,61760:0:0:0:0:
64,192,61660,1,0,0:0:0:0:
448,192,61760,128,0,61859:0:0:0:0:
64,192,61859,128,0,62256:0:0:0:70:Cymatics - Big Clap 2.wav
192,192,61859,1,0,0:0:0:0:
320,192,62057,1,0,0:0:0:0:
448,192,62256,128,0,62653:0:0:0:0:
192,192,62256,1,0,0:0:0:100:h_Fill4_007_Reverb.wav
320,192,62256,128,8,62653:0:0:0:0:
64,192,62653,128,2,63844:0:0:0:0:
192,192,62653,1,4,0:0:0:0:
448,192,62851,1,0,0:0:0:0:
320,192,62951,1,0,0:0:0:0:
192,192,63050,1,0,0:0:0:70:Cymatics - Big Clap 2.wav
192,192,63248,1,0,0:0:0:0:
448,192,63447,1,0,0:0:0:70:Cymatics - Big Clap 2.wav
320,192,63546,1,0,0:0:0:0:
192,192,63645,1,0,0:0:0:0:
448,192,63844,128,0,63943:0:0:0:70:Cymatics - Big Clap 2.wav
320,192,63943,128,0,64042:0:0:0:0:
192,192,64042,128,0,64142:0:0:0:0:
64,192,64142,128,0,64241:0:0:0:0:
192,192,64241,128,0,64638:0:0:0:0:
64,192,64439,1,0,0:0:0:0:
320,192,64539,1,0,0:0:0:0:
448,192,64638,128,0,65035:0:0:0:70:Cymatics - Big Clap 2.wav
64,192,64836,1,0,0:0:0:0:
320,192,65035,128,0,65432:0:0:0:70:Cymatics - Big Clap 2.wav
192,192,65134,1,0,0:0:0:0:
64,192,65233,1,0,0:0:0:0:
64,192,65432,128,0,65829:0:0:0:70:Cymatics - Big Clap 2.wav
448,192,65630,1,0,0:0:0:0:
320,192,65729,1,0,0:0:0:0:
192,192,65829,1,2,0:0:0:0:
448,192,65829,128,0,66821:0:0:0:0:
192,192,66027,1,0,0:0:0:0:
320,192,66126,1,0,0:0:0:0:
192,192,66226,1,0,0:0:0:0:
64,192,66226,1,0,0:0:0:70:Cymatics - Big Clap 2.wav
320,192,66424,1,0,0:0:0:0:
64,192,66623,1,0,0:0:0:0:
192,192,66623,1,0,0:0:0:70:Cymatics - Big Clap 2.wav
320,192,66722,1,0,0:0:0:0:
64,192,66821,128,0,67020:0:0:0:0:
320,192,67020,1,0,0:0:0:70:Cymatics - Big Clap 2.wav
448,192,67020,128,0,67218:0:0:0:0:
192,192,67119,1,0,0:0:0:0:
64,192,67218,128,0,68211:0:0:0:0:
192,192,67317,1,0,0:0:0:0:
320,192,67417,1,0,0:0:0:0:
448,192,67417,1,0,0:0:0:0:
192,192,67516,1,0,0:0:0:0:
448,192,67615,1,0,0:0:0:0:
320,192,67814,1,0,0:0:0:0:
192,192,67814,1,0,0:0:0:70:Cymatics - Big Clap 2.wav
448,192,68012,1,0,0:0:0:0:
192,192,68111,1,0,0:0:0:0:
448,192,68211,1,0,0:0:0:0:
320,192,68211,1,0,0:0:0:70:Cymatics - Big Clap 2.wav
192,192,68310,1,0,0:0:0:0:
64,192,68409,1,0,0:0:0:0:
448,192,68608,1,0,0:0:0:0:
320,192,68608,1,0,0:0:0:70:Cymatics - Big Clap 2.wav
64,192,68806,1,0,0:0:0:0:
192,192,68905,1,0,0:0:0:0:
320,192,69005,1,2,0:0:0:0:
448,192,69005,128,4,69402:0:0:0:0:
64,192,69203,128,0,69402:0:0:0:0:
192,192,69402,1,2,0:0:0:0:
320,192,69402,128,0,69799:0:0:0:70:Cymatics - Big Clap 2.wav
448,192,69600,128,0,69799:0:0:0:0:
64,192,69799,128,2,70196:0:0:0:0:
192,192,69799,1,0,0:0:0:70:Cymatics - Big Clap 2.wav
448,192,69898,1,0,0:0:0:0:
320,192,69997,128,0,70196:0:0:0:0:
192,192,70196,128,2,70592:0:0:0:0:
448,192,70196,1,0,0:0:0:70:Cymatics - Big Clap 2.wav
64,192,70394,128,0,70592:0:0:0:0:
320,192,70592,128,2,70989:0:0:0:0:
448,192,70592,1,0,0:0:0:0:
448,192,70791,128,0,70989:0:0:0:0:
192,192,70989,128,2,71386:0:0:0:0:
64,192,70989,1,0,0:0:0:70:Cymatics - Big Clap 2.wav
64,192,71188,128,0,71386:0:0:0:0:
320,192,71386,1,2,0:0:0:0:
448,192,71386,128,0,71783:0:0:0:70:Cymatics - Big Clap 2.wav
64,192,71486,1,0,0:0:0:0:
320,192,71585,128,0,71783:0:0:0:0:
64,192,71783,128,2,72180:0:0:0:0:
192,192,71783,1,0,0:0:0:70:Cymatics - Big Clap 2.wav
192,192,71982,128,0,72180:0:0:0:0:
320,192,72180,1,2,0:0:0:0:
448,192,72180,1,0,0:0:0:0:
192,192,72280,1,0,0:0:0:0:
64,192,72379,1,2,0:0:0:0:
448,192,72379,1,0,0:0:0:0:
320,192,72478,1,0,0:0:0:0:
64,192,72577,1,2,0:0:0:0:
192,192,72577,1,0,0:0:0:70:Cymatics - Big Clap 2.wav
448,192,72677,1,0,0:0:0:0:
192,192,72776,1,2,0:0:0:0:
320,192,72776,1,0,0:0:0:0:
64,192,72875,1,0,0:0:0:0:
320,192,72974,1,2,0:0:0:0:
448,192,72974,1,0,0:0:0:70:Cymatics - Big Clap 2.wav
64,192,73074,1,2,0:0:0:0:
192,192,73074,1,0,0:0:0:0:
448,192,73173,1,2,0:0:0:0:
320,192,73223,1,2,0:0:0:0:
192,192,73272,1,2,0:0:0:0:
64,192,73322,1,2,0:0:0:0:
320,192,73371,1,2,0:0:0:0:
448,192,73371,1,0,0:0:0:70:Cymatics - Big Clap 2.wav
64,192,73471,1,2,0:0:0:0:
192,192,73471,1,0,0:0:0:0:
320,192,73570,1,2,0:0:0:0:
448,192,73570,1,0,0:0:0:0:
64,192,73669,1,2,0:0:0:0:
192,192,73669,1,0,0:0:0:0:
320,192,73768,1,2,0:0:0:0:
448,192,73768,128,4,74959:0:0:0:0:
64,192,73967,128,0,74066:0:0:0:0:
192,192,74165,128,0,74265:0:0:0:70:Cymatics - Big Clap 2.wav
320,192,74364,128,0,74959:0:0:0:0:
64,192,74959,1,0,0:0:0:100:h_Fill4_007_Reverb.wav
192,192,74959,1,0,0:0:0:0:
64,192,75356,1,2,0:0:0:0:
320,192,75356,128,0,75555:0:0:0:0:
192,192,75356,128,4,75456:0:0:0:0:
64,192,75753,1,2,0:0:0:0:
320,192,75753,128,0,75952:0:0:0:0:
192,192,75753,128,0,75853:0:0:0:0:
64,192,76150,1,8,0:0:0:0:
320,192,76150,1,0,0:0:0:0:
192,192,76250,128,0,76349:0:0:0:0:
320,192,76349,128,0,76448:0:0:0:0:
448,192,76448,128,0,76547:0:0:0:0:
64,192,76547,1,2,0:0:0:0:
192,192,76547,1,0,0:0:0:0:
320,192,76646,128,0,76746:0:0:0:0:
448,192,76746,128,0,76845:0:0:0:0:
192,192,76845,128,0,77043:0:0:0:0:
448,192,76944,1,0,0:0:0:0:
320,192,77043,128,0,77143:0:0:0:0:
64,192,77143,128,0,77242:0:0:0:0:
448,192,77242,128,0,77440:0:0:0:0:
64,192,77341,1,0,0:0:0:0:
192,192,77440,128,0,77540:0:0:0:0:
448,192,77540,128,0,77639:0:0:0:0:
320,192,77639,128,0,77738:0:0:0:0:
64,192,77738,1,8,0:0:0:0:
192,192,77738,128,0,77937:0:0:0:0:
448,192,77738,128,0,77837:0:0:0:0:
320,192,77937,1,0,0:0:0:0:
64,192,77937,1,2,0:0:0:0:
64,192,78135,1,8,0:0:0:0:
192,192,78135,128,0,78334:0:0:0:0:
448,192,78135,128,0,78234:0:0:0:0:
192,192,78532,1,2,0:0:0:0:
448,192,78532,128,0,78731:0:0:0:0:
320,192,78532,128,0,78631:0:0:0:0:
192,192,78929,1,0,0:0:0:0:
64,192,78929,128,8,79028:0:0:0:0:
448,192,79028,128,0,79128:0:0:0:0:
320,192,79128,128,0,79227:0:0:0:0:
64,192,79227,1,2,0:0:0:0:
192,192,79276,1,2,0:0:0:0:
320,192,79326,1,8,0:0:0:0:
448,192,79326,128,0,79525:0:0:0:0:
192,192,79425,1,0,0:0:0:0:
64,192,79525,1,2,0:0:0:0:
448,192,79624,1,0,0:0:0:0:
320,192,79624,128,0,79822:0:0:0:0:
192,192,79723,1,0,0:0:0:0:
64,192,79822,1,2,0:0:0:0:
192,192,79922,128,8,80219:0:0:0:0:
320,192,79922,1,0,0:0:0:0:
448,192,80219,128,0,80319:0:0:0:0:
64,192,80319,1,2,0:0:0:0:
320,192,80319,128,0,80418:0:0:0:0:
192,192,80418,128,0,80517:0:0:0:0:
64,192,80517,128,8,80716:0:0:0:0:
448,192,80517,1,0,0:0:0:0:
320,192,80616,128,0,80716:0:0:0:0:
448,192,80716,128,0,80815:0:0:0:0:
192,192,80815,128,0,80914:0:0:0:0:
64,192,80914,1,2,0:0:0:0:
448,192,80914,128,0,81113:0:0:0:0:
320,192,80914,128,0,81013:0:0:0:0:
64,192,81311,1,2,0:0:0:0:
448,192,81311,128,0,81510:0:0:0:0:
320,192,81311,128,0,81410:0:0:0:0:
64,192,81708,1,2,0:0:0:0:
320,192,81708,128,0,81907:0:0:0:0:
192,192,81708,128,0,81807:0:0:0:0:
64,192,82105,1,2,0:0:0:0:
320,192,82105,128,0,82303:0:0:0:0:
192,192,82105,128,0,82204:0:0:0:0:
64,192,82403,1,0,0:0:0:0:
192,192,82502,1,8,0:0:0:0:
448,192,82502,1,0,0:0:0:0:
320,192,82601,128,0,82700:0:0:0:0:
64,192,82700,128,0,82800:0:0:0:0:
320,192,82800,128,2,82899:0:0:0:0:
448,192,82800,1,0,0:0:0:0:
64,192,82899,1,0,0:0:0:0:
192,192,82998,128,0,83097:0:0:0:0:
64,192,83097,1,2,0:0:0:0:
448,192,83097,128,0,83197:0:0:0:0:
192,192,83197,128,0,83296:0:0:0:0:
320,192,83296,128,0,83395:0:0:0:0:
64,192,83395,128,2,83494:0:0:0:0:
192,192,83395,1,0,0:0:0:0:
320,192,83494,128,0,83594:0:0:0:0:
64,192,83594,128,0,83693:0:0:0:0:
192,192,83693,128,2,83792:0:0:0:0:
448,192,83693,1,0,0:0:0:0:
320,192,83792,128,0,83891:0:0:0:0:
448,192,83891,128,0,83991:0:0:0:0:
64,192,83991,128,2,84090:0:0:0:0:
192,192,84090,1,8,0:0:0:0:
448,192,84090,128,0,84288:0:0:0:0:
320,192,84090,128,0,84189:0:0:0:0:
64,192,84189,1,2,0:0:0:0:
320,192,84288,1,2,0:0:0:0:
64,192,84388,1,2,0:0:0:0:
192,192,84487,1,8,0:0:0:0:
448,192,84487,128,0,84685:0:0:0:0:
320,192,84487,128,0,84586:0:0:0:0:
64,192,84586,1,2,0:0:0:0:
320,192,84685,1,2,0:0:0:0:
192,192,84785,1,2,0:0:0:0:
320,192,84884,1,2,0:0:0:0:
448,192,84884,128,0,85082:0:0:0:0:
64,192,84884,128,0,84983:0:0:0:0:
192,192,84983,1,0,0:0:0:0:
64,192,85082,1,0,0:0:0:0:
320,192,85182,1,0,0:0:0:0:
192,192,85281,1,8,0:0:0:0:
64,192,85281,1,0,0:0:0:0:
448,192,85281,128,0,85479:0:0:0:0:
64,192,85479,128,0,85579:0:0:0:0:
192,192,85579,1,2,0:0:0:0:
320,192,85628,1,2,0:0:0:0:
64,192,85678,1,8,0:0:0:0:
448,192,85678,128,0,85876:0:0:0:0:
192,192,85876,1,2,0:0:0:0:
64,192,85976,128,8,86174:0:0:0:0:
320,192,85976,1,0,0:0:0:0:
448,192,86174,1,2,0:0:0:0:
64,192,86273,1,8,0:0:0:0:
192,192,86273,128,0,86373:0:0:0:0:
320,192,86373,128,0,86571:0:0:0:0:
64,192,86571,128,0,86670:0:0:0:0:
192,192,86670,128,2,86869:0:0:0:0:
448,192,86670,1,0,0:0:0:0:
64,192,86869,1,8,0:0:0:0:
448,192,86869,128,0,87167:0:0:0:0:
320,192,86968,1,0,0:0:0:0:
192,192,87018,1,0,0:0:0:0:
64,192,87067,1,0,0:0:0:0:
192,192,87133,1,0,0:0:0:0:
320,192,87200,1,0,0:0:0:0:
64,192,87266,1,2,0:0:0:0:
192,192,87266,128,0,87464:0:0:0:0:
448,192,87266,128,0,87365:0:0:0:0:
64,192,87663,1,2,0:0:0:0:
192,192,87663,128,0,87861:0:0:0:0:
448,192,87663,128,0,87762:0:0:0:0:
192,192,88060,1,2,0:0:0:0:
448,192,88060,128,0,88258:0:0:0:0:
320,192,88060,128,4,88159:0:0:0:0:
192,192,88457,1,2,0:0:0:0:
448,192,88457,128,0,88655:0:0:0:0:
320,192,88457,128,0,88556:0:0:0:0:
64,192,88754,1,0,0:0:0:0:
192,192,88804,1,0,0:0:0:0:
320,192,88854,1,8,0:0:0:0:
448,192,88854,1,0,0:0:0:0:
64,192,88953,128,0,89052:0:0:0:0:
192,192,89052,128,0,89151:0:0:0:0:
320,192,89151,128,0,89350:0:0:0:0:
64,192,89251,1,2,0:0:0:0:
192,192,89251,1,0,0:0:0:0:
448,192,89350,128,0,89449:0:0:0:0:
320,192,89449,128,0,89648:0:0:0:0:
192,192,89548,128,0,89648:0:0:0:0:
64,192,89648,128,0,89846:0:0:0:0:
448,192,89747,128,0,89846:0:0:0:0:
320,192,89846,128,0,90045:0:0:0:0:
192,192,89945,128,0,90045:0:0:0:0:
64,192,90045,128,0,90243:0:0:0:0:
320,192,90144,128,0,90243:0:0:0:0:
192,192,90243,128,0,90342:0:0:0:0:
448,192,90342,128,0,90442:0:0:0:0:
64,192,90442,1,8,0:0:0:0:
320,192,90442,128,0,90640:0:0:0:0:
192,192,90442,128,0,90541:0:0:0:0:
192,192,90640,1,2,0:0:0:0:
64,192,90640,128,0,90739:0:0:0:0:
448,192,90739,128,0,90839:0:0:0:0:
64,192,90839,1,8,0:0:0:0:
320,192,90839,128,0,91037:0:0:0:0:
192,192,90839,128,0,90938:0:0:0:0:
448,192,90938,128,0,91037:0:0:0:0:
64,192,91037,128,0,91236:0:0:0:0:
192,192,91236,1,2,0:0:0:0:
448,192,91236,128,0,91434:0:0:0:0:
320,192,91236,128,0,91335:0:0:0:0:
64,192,91633,1,8,0:0:0:0:
448,192,91633,1,0,0:0:0:0:
192,192,91699,1,0,0:0:0:0:
320,192,91765,1,0,0:0:0:0:
448,192,91831,1,0,0:0:0:0:
64,192,91881,1,0,0:0:0:0:
192,192,91930,1,2,0:0:0:0:
320,192,91980,1,2,0:0:0:0:
64,192,92030,128,8,92228:0:0:0:0:
448,192,92030,1,0,0:0:0:0:
192,192,92228,1,2,0:0:0:0:
320,192,92327,1,0,0:0:0:0:
448,192,92327,128,0,92526:0:0:0:0:
192,192,92526,1,2,0:0:0:0:
64,192,92625,128,8,92824:0:0:0:0:
320,192,92625,1,0,0:0:0:0:
448,192,92923,128,0,93022:0:0:0:0:
64,192,93022,1,2,0:0:0:0:
320,192,93022,128,0,93221:0:0:0:0:
192,192,93121,128,0,93221:0:0:0:0:
64,192,93221,1,8,0:0:0:0:
448,192,93221,128,0,93320:0:0:0:0:
320,192,93320,128,0,93419:0:0:0:0:
192,192,93419,128,0,93518:0:0:0:0:
64,192,93518,128,0,93618:0:0:0:0:
448,192,93618,1,2,0:0:0:0:
320,192,93618,128,0,93816:0:0:0:0:
192,192,93618,128,0,93717:0:0:0:0:
64,192,93717,128,0,93816:0:0:0:0:
192,192,93816,128,0,93915:0:0:0:0:
448,192,93915,128,0,94014:0:0:0:0:
64,192,94014,1,2,0:0:0:0:
192,192,94014,128,0,94213:0:0:0:0:
320,192,94014,128,0,94114:0:0:0:0:
448,192,94114,128,0,94213:0:0:0:0:
320,192,94213,128,0,94312:0:0:0:0:
64,192,94312,1,0,0:0:0:0:
192,192,94411,1,2,0:0:0:0:
448,192,94411,128,0,94610:0:0:0:0:
320,192,94411,128,0,94511:0:0:0:0:
192,192,94808,1,2,0:0:0:0:
448,192,94808,128,0,95007:0:0:0:0:
320,192,94808,128,0,94908:0:0:0:0:
64,192,94908,1,2,0:0:0:0:
320,192,95007,1,2,0:0:0:0:
192,192,95106,1,2,0:0:0:0:
448,192,95205,128,8,95305:0:0:0:0:
320,192,95205,1,0,0:0:0:0:
192,192,95305,128,0,95404:0:0:0:0:
64,192,95404,128,8,95503:0:0:0:0:
192,192,95503,128,2,95602:0:0:0:0:
320,192,95503,1,0,0:0:0:0:
448,192,95602,128,0,95702:0:0:0:0:
64,192,95702,128,8,95801:0:0:0:0:
320,192,95801,128,2,95900:0:0:0:0:
448,192,95801,1,0,0:0:0:0:
192,192,95900,128,0,95999:0:0:0:0:
64,192,95999,1,8,0:0:0:0:
448,192,95999,1,0,0:0:0:0:
320,192,96099,128,2,96198:0:0:0:0:
192,192,96198,128,0,96297:0:0:0:0:
448,192,96297,128,8,96396:0:0:0:0:
320,192,96297,1,0,0:0:0:0:
64,192,96396,1,2,0:0:0:0:
192,192,96396,1,0,0:0:0:0:
320,192,96496,128,8,96595:0:0:0:0:
448,192,96496,1,0,0:0:0:0:
192,192,96595,128,8,96694:0:0:0:0:
64,192,96595,1,0,0:0:0:0:
448,192,96694,128,2,96793:0:0:0:0:
320,192,96744,1,0,0:0:0:0:
192,192,96793,1,8,0:0:0:0:
64,192,96793,1,0,0:0:0:0:
320,192,96893,1,2,0:0:0:0:
448,192,96893,1,0,0:0:0:0:
192,192,96992,1,2,0:0:0:0:
64,192,97091,1,2,0:0:0:0:
320,192,97141,1,0,0:0:0:0:
64,192,97190,1,8,0:0:0:0:
192,192,97190,1,0,0:0:0:0:
448,192,97190,1,0,0:0:0:0:
320,192,97290,1,2,0:0:0:0:
192,192,97389,1,2,0:0:0:0:
320,192,97488,1,2,0:0:0:0:
64,192,97587,1,2,0:0:0:0:
192,192,97587,128,0,97786:0:0:0:0:
448,192,97587,128,0,97687:0:0:0:0:
448,192,97786,128,0,97852:0:0:0:0:
320,192,97852,128,0,97918:0:0:0:0:
192,192,97918,128,0,97984:0:0:0:0:
64,192,97984,1,8,0:0:0:0:
448,192,97984,1,0,0:0:0:0:
192,192,98084,128,0,98183:0:0:0:0:
320,192,98183,128,0,98282:0:0:0:0:
64,192,98282,1,2,0:0:0:0:
192,192,98332,1,2,0:0:0:0:
320,192,98381,1,8,0:0:0:0:
448,192,98381,128,0,98580:0:0:0:0:
64,192,98580,128,2,98778:0:0:0:0:
192,192,98580,1,0,0:0:0:0:
448,192,98679,128,0,98778:0:0:0:0:
192,192,98878,128,2,98977:0:0:0:0:
320,192,98977,1,8,0:0:0:0:
448,192,98977,128,0,99175:0:0:0:0:
64,192,99076,128,0,99175:0:0:0:0:
192,192,99275,1,0,0:0:0:0:
320,192,99374,128,0,99572:0:0:0:0:
64,192,99572,1,0,0:0:0:0:
192,192,99622,1,0,0:0:0:0:
320,192,99671,1,0,0:0:0:0:
448,192,99721,1,0,0:0:0:0:
64,192,99771,1,0,0:0:0:0:
192,192,99820,1,0,0:0:0:0:
320,192,99870,1,0,0:0:0:0:
448,192,99920,1,0,0:0:0:0:
64,192,99969,128,0,100763:0:0:0:0:
192,192,100168,128,0,100366:0:0:0:0:
320,192,100366,1,0,0:0:0:100:h_Fill4_007_Reverb.wav
448,192,100565,1,0,0:0:0:0:
192,192,100763,1,2,0:0:0:0:
448,192,100763,128,4,101359:0:0:0:0:
320,192,100962,1,0,0:0:0:0:
192,192,101061,1,0,0:0:0:0:
64,192,101160,1,0,0:0:0:70:Cymatics - Big Clap 2.wav
192,192,101259,1,0,0:0:0:0:
64,192,101359,128,2,101954:0:0:0:0:
320,192,101359,1,8,0:0:0:0:
192,192,101557,1,0,0:0:0:70:Cymatics - Big Clap 2.wav
320,192,101656,1,0,0:0:0:0:
448,192,101756,128,0,101855:0:0:0:0:
192,192,101855,1,0,0:0:0:0:
320,192,101954,1,10,0:0:0:0:
448,192,101954,1,0,0:0:0:70:Cymatics - Big Clap 2.wav
192,192,102020,1,0,0:0:0:0:
64,192,102086,1,0,0:0:0:0:
320,192,102153,128,0,102351:0:0:0:0:
64,192,102351,128,2,102947:0:0:0:0:
448,192,102351,1,0,0:0:0:0:
192,192,102550,1,0,0:0:0:0:
320,192,102649,1,0,0:0:0:0:
448,192,102748,1,0,0:0:0:70:Cymatics - Big Clap 2.wav
320,192,102847,1,0,0:0:0:0:
192,192,102947,128,8,103145:0:0:0:0:
448,192,102947,128,2,103542:0:0:0:0:
64,192,103145,1,0,0:0:0:70:Cymatics - Big Clap 2.wav
192,192,103244,1,0,0:0:0:0:
320,192,103344,1,0,0:0:0:0:
192,192,103443,1,0,0:0:0:0:
64,192,103542,128,10,103741:0:0:0:0:
320,192,103542,1,0,0:0:0:70:Cymatics - Big Clap 2.wav
192,192,103741,1,0,0:0:0:0:
448,192,103840,1,0,0:0:0:0:
192,192,103939,1,2,0:0:0:0:
320,192,103939,128,0,104535:0:0:0:0:
448,192,104138,1,0,0:0:0:0:
192,192,104237,1,0,0:0:0:0:
64,192,104336,1,0,0:0:0:70:Cymatics - Big Clap 2.wav
448,192,104435,1,0,0:0:0:0:
64,192,104535,1,2,0:0:0:0:
192,192,104535,128,8,105130:0:0:0:0:
320,192,104733,1,0,0:0:0:70:Cymatics - Big Clap 2.wav
64,192,104832,1,0,0:0:0:0:
448,192,104932,1,0,0:0:0:0:
320,192,105031,1,0,0:0:0:0:
64,192,105130,128,10,105329:0:0:0:0:
448,192,105130,1,0,0:0:0:70:Cymatics - Big Clap 2.wav
320,192,105329,128,0,105527:0:0:0:0:
192,192,105527,128,2,106122:0:0:0:0:
448,192,105527,1,0,0:0:0:0:
64,192,105725,1,0,0:0:0:0:
320,192,105825,1,0,0:0:0:0:
448,192,105924,1,0,0:0:0:70:Cymatics - Big Clap 2.wav
64,192,106023,1,0,0:0:0:0:
320,192,106122,128,8,106718:0:0:0:0:
448,192,106122,1,2,0:0:0:0:
192,192,106519,1,0,0:0:0:0:
64,192,106619,1,0,0:0:0:0:
192,192,106718,1,10,0:0:0:0:
448,192,106718,1,0,0:0:0:70:Cymatics - Big Clap 2.wav
64,192,106916,1,0,0:0:0:0:
64,192,107115,128,2,107710:0:0:0:0:
448,192,107115,1,0,0:0:0:0:
192,192,107313,1,0,0:0:0:0:
320,192,107413,1,0,0:0:0:0:
448,192,107512,1,0,0:0:0:70:Cymatics - Big Clap 2.wav
320,192,107611,1,0,0:0:0:0:
192,192,107710,1,2,0:0:0:0:
448,192,107710,128,8,108306:0:0:0:0:
320,192,107909,1,0,0:0:0:70:Cymatics - Big Clap 2.wav
192,192,108008,1,0,0:0:0:0:
64,192,108107,128,0,108207:0:0:0:0:
320,192,108207,1,0,0:0:0:0:
192,192,108306,1,10,0:0:0:0:
64,192,108306,1,0,0:0:0:70:Cymatics - Big Clap 2.wav
320,192,108372,1,0,0:0:0:0:
448,192,108438,1,0,0:0:0:0:
192,192,108504,128,0,108703:0:0:0:0:
64,192,108703,1,2,0:0:0:0:
448,192,108703,128,0,109298:0:0:0:0:
320,192,108901,1,0,0:0:0:0:
192,192,109001,1,0,0:0:0:0:
64,192,109100,1,0,0:0:0:70:Cymatics - Big Clap 2.wav
320,192,109199,1,0,0:0:0:0:
64,192,109298,128,8,109894:0:0:0:0:
192,192,109298,128,2,109497:0:0:0:0:
448,192,109497,1,0,0:0:0:70:Cymatics - Big Clap 2.wav
320,192,109596,1,0,0:0:0:0:
192,192,109695,1,0,0:0:0:0:
320,192,109894,1,10,0:0:0:0:
448,192,109894,1,0,0:0:0:70:Cymatics - Big Clap 2.wav
64,192,110092,128,0,110291:0:0:0:0:
192,192,110291,128,2,110886:0:0:0:0:
320,192,110291,1,0,0:0:0:0:
64,192,110489,1,0,0:0:0:0:
320,192,110589,1,0,0:0:0:0:
448,192,110688,1,0,0:0:0:70:Cymatics - Big Clap 2.wav
64,192,110787,1,0,0:0:0:0:
320,192,110886,128,2,111482:0:0:0:0:
448,192,110886,1,8,0:0:0:0:
192,192,111283,1,0,0:0:0:0:
64,192,111382,1,0,0:0:0:0:
192,192,111482,1,10,0:0:0:0:
448,192,111482,128,0,111879:0:0:0:70:Cymatics - Big Clap 2.wav
64,192,111680,1,0,0:0:0:0:
192,192,111879,1,2,0:0:0:0:
320,192,111879,128,0,112077:0:0:0:0:
64,192,112077,1,0,0:0:0:0:
320,192,112276,128,0,112375:0:0:0:70:Cymatics - Big Clap 2.wav
192,192,112375,1,0,0:0:0:0:
64,192,112425,1,0,0:0:0:0:
448,192,112474,1,10,0:0:0:0:
320,192,112524,1,0,0:0:0:0:
192,192,112573,1,0,0:0:0:0:
64,192,112623,1,0,0:0:0:0:
448,192,112673,128,0,113070:0:0:0:70:Cymatics - Big Clap 2.wav
64,192,112871,1,0,0:0:0:0:
192,192,113070,128,8,113467:0:0:0:0:
320,192,113070,1,0,0:0:0:100:h_Fill4_007_Reverb.wav
320,192,113467,128,2,113665:0:0:0:0:
448,192,113467,1,4,0:0:0:0:
64,192,113467,1,0,0:0:0:0:
192,192,113566,1,0,0:0:0:0:
64,192,113665,128,0,113764:0:0:0:0:
448,192,113764,128,0,113864:0:0:0:0:
320,192,113864,1,0,0:0:0:70:Cymatics - Big Clap 2.wav
192,192,113864,128,2,113963:0:0:0:0:
64,192,113963,128,0,114062:0:0:0:0:
448,192,114062,128,8,114261:0:0:0:0:
320,192,114062,128,0,114261:0:0:0:0:
64,192,114261,1,2,0:0:0:0:
192,192,114261,1,0,0:0:0:70:Cymatics - Big Clap 2.wav
320,192,114360,128,0,114459:0:0:0:0:
448,192,114459,128,0,114558:0:0:0:0:
192,192,114558,128,0,114658:0:0:0:0:
64,192,114658,128,10,114856:0:0:0:0:
320,192,114658,1,0,0:0:0:70:Cymatics - Big Clap 2.wav
448,192,114757,1,0,0:0:0:0:
320,192,114806,1,0,0:0:0:0:
192,192,114856,128,0,114955:0:0:0:0:
448,192,114955,128,0,115055:0:0:0:0:
64,192,115055,128,2,115253:0:0:0:0:
192,192,115055,1,0,0:0:0:0:
320,192,115154,1,0,0:0:0:0:
192,192,115253,128,0,115352:0:0:0:0:
448,192,115352,128,0,115452:0:0:0:0:
192,192,115452,1,0,0:0:0:70:Cymatics - Big Clap 2.wav
64,192,115452,128,2,115551:0:0:0:0:
320,192,115551,128,0,115650:0:0:0:0:
448,192,115650,128,8,115849:0:0:0:0:
192,192,115650,128,0,115849:0:0:0:0:
64,192,115849,1,2,0:0:0:0:
320,192,115849,1,0,0:0:0:70:Cymatics - Big Clap 2.wav
448,192,115948,1,0,0:0:0:0:
320,192,115997,1,0,0:0:0:0:
192,192,116047,128,0,116146:0:0:0:0:
64,192,116146,128,0,116246:0:0:0:0:
320,192,116246,1,10,0:0:0:0:
448,192,116246,128,0,116444:0:0:0:70:Cymatics - Big Clap 2.wav
192,192,116345,128,0,116444:0:0:0:0:
64,192,116444,128,0,116543:0:0:0:0:
320,192,116543,128,0,116643:0:0:0:0:
64,192,116643,1,2,0:0:0:0:
192,192,116643,128,0,116841:0:0:0:0:
448,192,116841,128,0,116940:0:0:0:0:
64,192,116940,128,0,117039:0:0:0:0:
192,192,117039,1,0,0:0:0:70:Cymatics - Big Clap 2.wav
320,192,117039,128,2,117139:0:0:0:0:
448,192,117139,128,0,117238:0:0:0:0:
64,192,117238,128,8,117436:0:0:0:0:
192,192,117238,128,0,117436:0:0:0:0:
320,192,117436,1,2,0:0:0:0:
448,192,117436,1,0,0:0:0:70:Cymatics - Big Clap 2.wav
192,192,117536,128,0,117635:0:0:0:0:
64,192,117635,128,0,117734:0:0:0:0:
192,192,117734,1,0,0:0:0:0:
320,192,117784,1,0,0:0:0:0:
64,192,117833,1,10,0:0:0:0:
448,192,117833,128,0,118032:0:0:0:70:Cymatics - Big Clap 2.wav
320,192,118032,128,0,118131:0:0:0:0:
64,192,118131,1,0,0:0:0:0:
192,192,118181,1,0,0:0:0:0:
448,192,118230,128,2,118429:0:0:0:0:
320,192,118230,1,0,0:0:0:0:
192,192,118330,1,0,0:0:0:0:
64,192,118429,128,0,118528:0:0:0:0:
192,192,118528,128,0,118627:0:0:0:0:
320,192,118627,1,0,0:0:0:70:Cymatics - Big Clap 2.wav
448,192,118627,128,2,118727:0:0:0:0:
192,192,118727,128,0,118826:0:0:0:0:
64,192,118826,128,8,119024:0:0:0:0:
320,192,118826,128,0,119024:0:0:0:0:
192,192,119024,1,2,0:0:0:0:
448,192,119024,1,0,0:0:0:70:Cymatics - Big Clap 2.wav
64,192,119124,1,0,0:0:0:0:
320,192,119223,128,0,119322:0:0:0:0:
448,192,119322,128,0,119421:0:0:0:0:
64,192,119421,128,10,119620:0:0:0:0:
192,192,119421,1,0,0:0:0:70:Cymatics - Big Clap 2.wav
320,192,119521,128,0,119620:0:0:0:0:
448,192,119620,128,0,119818:0:0:0:0:
320,192,119719,128,0,119818:0:0:0:0:
64,192,119818,1,2,0:0:0:0:
192,192,119818,128,0,120017:0:0:0:0:
448,192,119918,1,0,0:0:0:0:
320,192,120017,128,0,120116:0:0:0:0:
64,192,120116,128,0,120215:0:0:0:0:
320,192,120215,1,0,0:0:0:70:Cymatics - Big Clap 2.wav
192,192,120215,128,2,120315:0:0:0:0:
448,192,120315,128,0,120414:0:0:0:0:
64,192,120414,128,8,120612:0:0:0:0:
192,192,120414,128,0,120612:0:0:0:0:
320,192,120612,1,2,0:0:0:0:
448,192,120612,1,0,0:0:0:70:Cymatics - Big Clap 2.wav
192,192,120712,128,0,120811:0:0:0:0:
64,192,120811,128,0,120910:0:0:0:0:
320,192,120910,128,0,121009:0:0:0:0:
64,192,121009,1,10,0:0:0:0:
448,192,121009,128,0,121208:0:0:0:70:Cymatics - Big Clap 2.wav
320,192,121109,1,0,0:0:0:0:
192,192,121158,1,0,0:0:0:0:
64,192,121208,128,0,121307:0:0:0:0:
320,192,121307,128,0,121406:0:0:0:0:
64,192,121406,1,2,0:0:0:0:
448,192,121406,128,0,121605:0:0:0:0:
192,192,121506,1,0,0:0:0:0:
320,192,121605,128,0,121704:0:0:0:0:
64,192,121704,128,0,121803:0:0:0:0:
320,192,121803,1,0,0:0:0:70:Cymatics - Big Clap 2.wav
448,192,121803,128,2,121903:0:0:0:0:
192,192,121903,128,0,122002:0:0:0:0:
64,192,122002,128,8,122200:0:0:0:0:
320,192,122002,128,0,122200:0:0:0:0:
192,192,122200,1,2,0:0:0:0:
448,192,122200,1,0,0:0:0:70:Cymatics - Big Clap 2.wav
320,192,122300,1,0,0:0:0:0:
192,192,122349,1,0,0:0:0:0:
64,192,122399,128,0,122498:0:0:0:0:
448,192,122498,128,0,122597:0:0:0:0:
64,192,122597,128,10,122796:0:0:0:0:
192,192,122597,1,0,0:0:0:70:Cymatics - Big Clap 2.wav
448,192,122796,128,0,122895:0:0:0:0:
192,192,122895,128,0,122994:0:0:0:0:
320,192,122994,1,2,0:0:0:0:
448,192,122994,128,0,123193:0:0:0:0:
64,192,123093,1,0,0:0:0:0:
192,192,123193,1,0,0:0:0:0:
320,192,123292,1,0,0:0:0:0:
192,192,123342,1,0,0:0:0:0:
64,192,123391,1,2,0:0:0:0:
448,192,123391,1,0,0:0:0:70:Cymatics - Big Clap 2.wav
320,192,123490,128,0,123590:0:0:0:0:
192,192,123590,128,8,123788:0:0:0:0:
64,192,123590,128,0,123788:0:0:0:0:
448,192,123788,1,2,0:0:0:0:
320,192,123788,1,0,0:0:0:70:Cymatics - Big Clap 2.wav
64,192,123887,128,0,123987:0:0:0:0:
448,192,123987,128,0,124185:0:0:0:0:
192,192,124086,128,0,124185:0:0:0:0:
320,192,124185,1,10,0:0:0:0:
64,192,124185,128,0,124384:0:0:0:70:Cymatics - Big Clap 2.wav
448,192,124284,128,0,124384:0:0:0:0:
192,192,124384,128,0,124483:0:0:0:0:
320,192,124483,128,0,124582:0:0:0:0:
448,192,124582,1,2,0:0:0:0:
192,192,124582,1,0,0:0:0:0:
64,192,124582,128,0,124781:0:0:0:0:
320,192,124781,1,0,0:0:0:0:
192,192,124979,1,0,0:0:0:70:Cymatics - Big Clap 2.wav
64,192,124979,128,0,125178:0:0:0:0:
448,192,124979,128,2,125178:0:0:0:0:
320,192,125178,1,0,0:0:0:0:
448,192,125376,128,8,125773:0:0:0:0:
320,192,125376,128,4,125773:0:0:0:0:
192,192,125376,128,0,125773:0:0:0:0:
64,192,125376,128,0,125773:0:0:0:0:
