osu file format v14

[General]
AudioFilename: audio.mp3
AudioLeadIn: 0
PreviewTime: 76177
Countdown: 0
SampleSet: Normal
StackLeniency: 0.7
Mode: 1
LetterboxInBreaks: 0
WidescreenStoryboard: 1

[Editor]
Bookmarks: 11863,24570,37277,49983,62690,73809,88104,100811,113517,126224
DistanceSpacing: 2.9
BeatDivisor: 4
GridSize: 32
TimelineZoom: 4.099998

[Metadata]
Title:Mare Maris
TitleUnicode:Mare Maris
Artist:M2U
ArtistUnicode:M2U
Creator:Quorum
Version:Oni
Source:maimai MiLK
Tags:video game ALL PERFECT COLLECTiON shin dong whi 申東輝 classical electronic instrumental bor lego man ReX sphazer infinity poly RedEye chaos star light dusk -dusk _dusk_
BeatmapID:2541819
BeatmapSetID:1222016

[Difficulty]
HPDrainRate:5
CircleSize:5
OverallDifficulty:5.5
ApproachRate:5
SliderMultiplier:1.4
SliderTickRate:1

[Events]
//Background and Video events
0,0,"image.jpeg",0,90
//Break Periods
//Storyboard Layer 0 (Background)
//Storyboard Layer 1 (Fail)
//Storyboard Layer 2 (Pass)
//Storyboard Layer 3 (Foreground)
//Storyboard Layer 4 (Overlay)
//Storyboard Sound Samples

[TimingPoints]
1022,400,4,1,0,100,1,0
1022,-111.111111111111,4,1,0,100,0,0
11857,-105.263157894737,4,1,0,100,0,0
25022,-105.263157894737,4,1,0,100,0,0
25422,-104.377051661422,4,1,0,100,0,0
25622,-103.939623551471,4,1,0,100,0,0
25722,-103.722281516793,4,1,0,100,0,0
25822,-103.505846527741,4,1,0,100,0,0
26022,-103.075675068365,4,1,0,100,0,0
26122,-102.861927406223,4,1,0,100,0,0
26222,-102.648959036906,4,1,0,100,0,0
26422,-102.225866006424,4,1,0,100,0,0
26522,-102.015624713081,4,1,0,100,0,0
26622,-101.806246424056,4,1,0,100,0,0
26822,-101.390057690943,4,1,0,100,0,0
26922,-101.183236770798,4,1,0,100,0,0
27022,-100.977155938012,4,1,0,100,0,0
27222,-100.567704692992,4,1,0,100,0,0
27422,-100.161560597243,4,1,0,100,0,0
27622,-99.7586837440232,4,1,0,100,0,0
27822,-99.3589361439989,4,1,0,100,0,0
28022,-98.9624773870739,4,1,0,100,0,0
28122,-98.7654320987654,4,1,0,100,0,0
28222,-98.5691699293062,4,1,0,100,0,0
28622,-97.7917641732049,4,1,0,100,0,0
28822,-97.4076891681676,4,1,0,100,0,0
28922,-97.2167807829645,4,1,0,100,0,0
29022,-97.026619252992,4,1,0,100,0,0
29222,-96.6485192963601,4,1,0,100,0,0
29322,-96.4604791770764,4,1,0,100,0,0
29422,-96.2732620269373,4,1,0,100,0,0
29622,-95.9009994802166,4,1,0,100,0,0
29722,-95.7159457022583,4,1,0,100,0,0
29822,-95.5316047207898,4,1,0,100,0,0
30022,-95.1650447370875,4,1,0,100,0,0
30122,-94.9827273910239,4,1,0,100,0,0
30222,-94.8011971495176,4,1,0,100,0,0
30422,-94.4402103750126,4,1,0,100,0,0
30522,-94.2607459606914,4,1,0,100,0,0
30722,-93.903855598407,4,1,0,100,0,0
30822,-93.726421946979,4,1,0,100,0,0
31022,-93.3734714762719,4,1,0,100,0,0
31422,-92.6756574411139,4,1,0,100,0,0
31822,-91.9881114564754,4,1,0,100,0,0
32022,-91.6481919186457,4,1,0,100,0,0
32122,-91.4791724794057,4,1,0,100,0,0
32222,-91.3107753106621,4,1,0,100,0,0
32422,-90.9757513232423,4,1,0,100,0,0
32522,-90.8092007882239,4,1,0,100,0,0
32622,-90.643258951475,4,1,0,100,0,0
32822,-90.3131880736016,4,1,0,100,0,0
32922,-90.1490524433098,4,1,0,100,0,0
33022,-89.9855123325145,4,1,0,100,0,0
33222,-89.6601253627873,4,1,0,100,0,0
33322,-89.498352782817,4,1,0,100,0,0
33422,-89.3371629197171,4,1,0,100,0,0
33622,-89.0165187953929,4,1,0,100,0,0
33722,-88.8570583159988,4,1,0,100,0,0
33922,-88.5398451438109,4,1,0,100,0,0
34022,-88.3820082513443,4,1,0,100,0,0
34222,-88.068171810435,4,1,0,100,0,0
34422,-88.068171810435,4,1,0,100,0,0
34522,-88.068171810435,4,1,0,100,0,0
34622,-87.4471382049551,4,1,0,100,0,0
35022,-86.8347265965216,4,1,0,100,0,0
35222,-86.5317636471408,4,1,0,100,0,0
35322,-86.3810735612584,4,1,0,100,0,0
35422,-86.2309073992155,4,1,0,100,0,0
35622,-85.9320621116945,4,1,0,100,0,0
35722,-85.7834516859022,4,1,0,100,0,0
35822,-85.6353543847871,4,1,0,100,0,0
36022,-85.3406885628116,4,1,0,100,0,0
36122,-85.1941147905503,4,1,0,100,0,0
36222,-85.0480436398522,4,1,0,100,0,0
36622,-84.4686625485378,4,1,0,100,0,0
36922,-84.0393337697776,4,1,0,100,0,0
37022,-83.897192380457,4,1,0,100,0,0
37122,-83.7554608560478,4,1,0,100,0,0
37222,-83.6142773050784,4,1,0,100,0,0
37422,-83.3333333333333,4,1,0,100,0,0
37822,-100,4,1,0,100,0,1
63422,-105.263157894737,4,1,0,100,0,0
63622,-104.644324405777,4,1,0,100,0,0
63822,-104.03283276202,4,1,0,100,0,0
64022,-103.428339158073,4,1,0,100,0,0
64222,-102.830829916779,4,1,0,100,0,0
64322,-102.534656713969,4,1,0,100,0,0
64422,-102.24028921733,4,1,0,100,0,0
64622,-101.656389205718,4,1,0,100,0,0
65022,-100.508472361678,4,1,0,100,0,0
65222,-99.9441312306421,4,1,0,100,0,0
65422,-99.3860921090424,4,1,0,100,0,0
65622,-98.8342500210023,4,1,0,100,0,0
65822,-98.2885989156802,4,1,0,100,0,0
65922,-98.0179784576087,4,1,0,100,0,0
66022,-97.7488441199183,4,1,0,100,0,0
66222,-97.2149851066643,4,1,0,100,0,0
66622,-96.1646646786225,4,1,0,100,0,0
66822,-95.6479238183416,4,1,0,100,0,0
67022,-95.1367972006949,4,1,0,100,0,0
67222,-94.6310147472973,4,1,0,100,0,0
67322,-94.3801348692127,4,1,0,100,0,0
67522,-93.88234476789,4,1,0,100,0,0
67622,-93.6355013385195,4,1,0,100,0,0
67822,-93.1455147174571,4,1,0,100,0,0
68222,-92.1808514560887,4,1,0,100,0,0
68422,-91.7059320899232,4,1,0,100,0,0
68622,-91.235881247377,4,1,0,100,0,0
68822,-90.7706244474338,4,1,0,100,0,0
68922,-90.3101702798261,4,1,0,100,0,0
69122,-90.0816500075669,4,1,0,100,0,0
69222,-89.8542833087582,4,1,0,100,0,0
69422,-89.4029758674547,4,1,0,100,0,0
69822,-88.5139046492814,4,1,0,100,0,0
70022,-88.495575221239,4,1,0,100,0,0
70122,-88.2076124933734,4,1,0,100,0,0
70222,-87.9215177364078,4,1,0,100,0,0
70422,-87.3548599002757,4,1,0,100,0,0
70522,-87.0742612837358,4,1,0,100,0,0
70722,-86.5184375116259,4,1,0,100,0,0
70822,-86.2431781646072,4,1,0,100,0,0
71022,-85.6978806914105,4,1,0,100,0,0
71422,-84.6277142223644,4,1,0,100,0,0
71622,-84.102591705466,4,1,0,100,0,0
71722,-83.8425370080958,4,1,0,100,0,0
71822,-83.5840157271684,4,1,0,100,0,0
72022,-83.0717266209163,4,1,0,100,0,0
72122,-82.8179297505193,4,1,0,100,0,0
72322,-82.3149600854758,4,1,0,100,0,0
72422,-82.0657592929214,4,1,0,100,0,0
72622,-81.5718570567406,4,1,0,100,0,0
73022,-80.6016753864246,4,1,0,100,0,0
73222,-80.1251875930955,4,1,0,100,0,0
73422,-79.6543003365394,4,1,0,100,0,0
73622,-79.1889154523707,4,1,0,100,0,0
73822,-78.7289370570021,4,1,0,100,0,0
73922,-78.5009459363985,4,1,0,100,0,0
74022,-78.2742714817868,4,1,0,100,0,0
74122,-78.0489023202378,4,1,0,100,0,0
74222,-77.8248272094274,4,1,0,100,0,0
74322,-77.6020350357668,4,1,0,100,0,0
74422,-77.380514812565,4,1,0,100,0,0
74522,-77.1602556782232,4,1,0,100,0,0
74622,-76.9412468944589,4,1,0,100,0,0
76222,-83.3333333333333,4,1,0,100,0,1
76622,-83.3333333333333,4,1,0,100,0,1
77022,-111.111111111111,4,1,0,100,0,1
77122,-109.596847994652,4,1,0,100,0,1
77222,-108.123303815671,4,1,0,100,0,1
77322,-106.688744124117,4,1,0,100,0,1
77522,-103.931089530398,4,1,0,100,0,1
77622,-102.605039343902,4,1,0,100,0,1
77722,-101.312298198566,4,1,0,100,0,1
77922,-98.8223342428282,4,1,0,100,0,1
78022,-97.6226921995564,4,1,0,100,0,1
78122,-96.4517336234601,4,1,0,100,0,1
78322,-94.1922916796181,4,1,0,100,0,1
78422,-93.1018077578012,4,1,0,100,0,1
78522,-92.0362843847558,4,1,0,100,0,1
78622,-90.9947914581369,4,1,0,100,0,1
79022,-95.2380952380952,4,1,0,100,0,1
79422,-100,4,1,0,100,0,1
79822,-111.111111111111,4,1,0,100,0,1
79922,-108.715149999728,4,1,0,100,0,1
80022,-106.420452308206,4,1,0,100,0,1
80122,-104.220513932198,4,1,0,100,0,1
80222,-102.109688269333,4,1,0,100,0,1
80322,-100.082668284003,4,1,0,100,0,1
80422,-98.1346564501947,4,1,0,100,0,1
80522,-96.2609364456419,4,1,0,100,0,1
80722,-92.7203406174433,4,1,0,100,0,1
80822,-91.0459080782303,4,1,0,100,0,1
81222,-90.9090909090909,4,1,0,100,0,1
81322,-91.8324241923338,4,1,0,100,0,1
81422,-92.7747059041823,4,1,0,100,0,1
81522,-93.7365253744774,4,1,0,100,0,1
81622,-94.7184966280215,4,1,0,100,0,1
81722,-95.7212596917775,4,1,0,100,0,1
81822,-96.745388389199,4,1,0,100,0,1
82222,-101.071254223515,4,1,0,100,0,1
82622,-105.802080280502,4,1,0,100,0,1
83022,-110.997400440882,4,1,0,100,0,1
83322,-111.111111111111,4,1,0,100,0,1
83422,-110.135433542627,4,1,0,100,0,1
83522,-109.176622664849,4,1,0,100,0,1
83622,-108.234479175686,4,1,0,100,0,1
83722,-107.308341935885,4,1,0,100,0,1
83922,-105.502927178715,4,1,0,100,0,1
84022,-104.622865955092,4,1,0,100,0,1
84122,-103.757365475982,4,1,0,100,0,1
84322,-102.068520639276,4,1,0,100,0,1
84422,-101.244497361568,4,1,0,100,0,1
84522,-100.433773467607,4,1,0,100,0,1
84622,-99.6359303106449,4,1,0,100,0,1
84722,-98.8505656229365,4,1,0,100,0,1
84822,-98.0775813283824,4,1,0,100,0,1
84922,-97.3164975792521,4,1,0,100,0,1
85022,-96.5672281729094,4,1,0,100,0,1
85422,-93.6819049653283,4,1,0,100,0,1
85822,-90.9640000873254,4,1,0,100,0,1
86022,-92.1016396854913,4,1,0,100,0,1
86122,-92.7097674375484,4,1,0,100,0,1
86222,-93.3259792461687,4,1,0,100,0,1
86422,-94.583219045277,4,1,0,100,0,1
86522,-95.2246730936973,4,1,0,100,0,1
86622,-95.8747951874688,4,1,0,100,0,1
86822,-97.2022282638807,4,1,0,100,0,1
86922,-97.8797293038206,4,1,0,100,0,1
87122,-99.2636621541406,4,1,0,100,0,1
87222,-99.970308818281,4,1,0,100,0,1
87322,-100.687190072243,4,1,0,100,0,1
87522,-102.152141313186,4,1,0,100,0,1
87622,-102.900772784804,4,1,0,100,0,1
87822,-104.431334830879,4,1,0,100,0,1
88022,-106.008228358685,4,1,0,100,0,1
88122,-106.81455497852,4,1,0,100,0,1
88222,-107.633357730228,4,1,0,100,0,1
88622,-111.03794943998,4,1,0,100,0,1
89822,-111.111111111111,4,1,0,100,0,1
89922,-110.095298490373,4,1,0,100,0,1
90022,-109.097772332587,4,1,0,100,0,1
90122,-108.118277070384,4,1,0,100,0,1
90322,-106.211007283951,4,1,0,100,0,1
90422,-105.282330361213,4,1,0,100,0,1
90522,-104.369861741244,4,1,0,100,0,1
90722,-102.591460286846,4,1,0,100,0,1
90822,-101.724743017868,4,1,0,100,0,1
90922,-100.872649288999,4,1,0,100,0,1
91122,-99.2104829764732,4,1,0,100,0,1
91222,-98.3997252679671,4,1,0,100,0,1
91322,-97.6022065906866,4,1,0,100,0,1
91422,-96.8174178407392,4,1,0,100,0,1
91622,-95.2851933479501,4,1,0,100,0,1
91722,-94.5371696516778,4,1,0,100,0,1
91822,-93.8007110093895,4,1,0,100,0,1
92022,-92.361773678557,4,1,0,100,0,1
92222,-90.9663169921442,4,1,0,100,0,1
92622,-90.9090909090909,4,1,0,100,0,1
92722,-92.5784486629358,4,1,0,100,0,1
92822,-94.3101729554262,4,1,0,100,0,1
93022,-97.9757235752125,4,1,0,100,0,1
93222,-101.937630480167,4,1,0,100,0,1
93322,-104.041275254719,4,1,0,100,0,1
93522,-108.52013265501,4,1,0,100,0,1
93622,-110.907411165936,4,1,0,100,0,1
93922,-111.111111111111,4,1,0,100,0,1
94022,-109.385135216435,4,1,0,100,0,1
94122,-107.711960982419,4,1,0,100,0,1
94222,-106.089089373692,4,1,0,100,0,1
94422,-102.985975369874,4,1,0,100,0,1
94522,-101.501511865019,4,1,0,100,0,1
94722,-98.657371826809,4,1,0,100,0,1
94822,-97.2941523295625,4,1,0,100,0,1
94922,-95.9681846274323,4,1,0,100,0,1
95122,-93.421797547491,4,1,0,100,0,1
95222,-92.1986142548277,4,1,0,100,0,1
95322,-91.0069647630133,4,1,0,100,0,1
95922,-90.9090909090909,4,1,0,100,0,1
96022,-92.0980770842486,4,1,0,100,0,1
96122,-93.3185765557606,4,1,0,100,0,1
96222,-94.5719484469395,4,1,0,100,0,1
96322,-95.8593551541179,4,1,0,100,0,1
96422,-97.182296495412,4,1,0,100,0,1
96522,-98.5422642844403,4,1,0,100,0,1
96722,-101.379676010831,4,1,0,100,0,1
96822,-102.860657752762,4,1,0,100,0,1
96922,-104.385441153751,4,1,0,100,0,1
97122,-107.57476984378,4,1,0,100,0,1
97222,-109.243651578298,4,1,0,100,0,1
97322,-110.965253450187,4,1,0,100,0,1
97522,-111.111111111111,4,1,0,100,0,1
97622,-108.927122308819,4,1,0,100,0,1
97722,-106.827334978474,4,1,0,100,0,1
97822,-104.806971759761,4,1,0,100,0,1
97922,-102.86160998992,4,1,0,100,0,1
98022,-100.9870474013,4,1,0,100,0,1
98122,-99.1796848267976,4,1,0,100,0,1
98622,-90.9090909090909,4,1,0,100,0,1
98822,-92.7747059041823,4,1,0,100,0,1
98922,-93.7365253744774,4,1,0,100,0,1
99022,-94.7184966280215,4,1,0,100,0,1
99222,-96.745388389199,4,1,0,100,0,1
99322,-97.7917641732049,4,1,0,100,0,1
99422,-98.8610221636526,4,1,0,100,0,1
99622,-101.071254223515,4,1,0,100,0,1
99722,-102.213849772216,4,1,0,100,0,1
99922,-104.578334924667,4,1,0,100,0,1
100022,-105.802080280502,4,1,0,100,0,1
100122,-107.054804566102,4,1,0,100,0,1
100422,-100,4,1,0,100,0,0
101822,-100,4,1,0,100,0,1
114622,-100,4,1,0,100,0,1
114822,-98.0392156862745,4,1,0,100,0,1
114922,-96.1538461538461,4,1,0,100,0,1
115022,-94.3396226415094,4,1,0,100,0,1
115122,-92.4050445761935,4,1,0,100,0,1
115222,-91.0224552397076,4,1,0,100,0,1
115622,-90.9090909090909,4,1,0,100,0,1
115722,-92.2882123957835,4,1,0,100,0,1
115822,-94.3396226415094,4,1,0,100,0,1
116022,-96.1538461538461,4,1,0,100,0,1
116122,-98.2503576313018,4,1,0,100,0,1
116222,-99.8631874332165,4,1,0,100,0,1
116422,-100,4,1,0,100,0,1
116522,-97.6095423088561,4,1,0,100,0,1
116622,-96.1538461538461,4,1,0,100,0,1
116722,-94.3396226415094,4,1,0,100,0,1
116822,-92.5925925925926,4,1,0,100,0,1
117222,-90.9090909090909,4,1,0,100,0,1
117322,-92.2882123957835,4,1,0,100,0,1
117422,-94.3396226415094,4,1,0,100,0,1
117622,-96.1538461538461,4,1,0,100,0,1
117722,-98.2503576313018,4,1,0,100,0,1
117822,-99.8631874332165,4,1,0,100,0,1
118022,-100,4,1,0,100,0,1
118122,-97.6095423088561,4,1,0,100,0,1
118222,-96.1538461538461,4,1,0,100,0,1
118322,-94.3396226415094,4,1,0,100,0,1
118422,-92.5925925925926,4,1,0,100,0,1
118622,-90.9090909090909,4,1,0,100,0,1
118822,-93.000935589412,4,1,0,100,0,1
118922,-94.0833785717579,4,1,0,100,0,1
119022,-96.1538461538461,4,1,0,100,0,1
119222,-98.0392156862745,4,1,0,100,0,1
119322,-100,4,1,0,100,0,1
119422,-99.8970061866216,4,1,0,100,0,1
119622,-100,4,1,0,100,0,1
119722,-97.6095423088561,4,1,0,100,0,1
119822,-96.1538461538461,4,1,0,100,0,1
119922,-94.3396226415094,4,1,0,100,0,1
120022,-92.5925925925926,4,1,0,100,0,1
120422,-90.9090909090909,4,1,0,100,0,1
120522,-92.2882123957835,4,1,0,100,0,1
120622,-94.3396226415094,4,1,0,100,0,1
120822,-96.1538461538461,4,1,0,100,0,1
121022,-98.0392156862745,4,1,0,100,0,1
121222,-100,4,1,0,100,0,1
121322,-97.6095423088561,4,1,0,100,0,1
121422,-96.1538461538461,4,1,0,100,0,1
121522,-94.3396226415094,4,1,0,100,0,1
121622,-92.5925925925926,4,1,0,100,0,1
122022,-90.9090909090909,4,1,0,100,0,1
122122,-92.2882123957835,4,1,0,100,0,1
122222,-94.3396226415094,4,1,0,100,0,1
122422,-96.1538461538461,4,1,0,100,0,1
122522,-98.2503576313018,4,1,0,100,0,1
122622,-99.8631874332165,4,1,0,100,0,1
122822,-100,4,1,0,100,0,1
122922,-97.6095423088561,4,1,0,100,0,1
123022,-96.1538461538461,4,1,0,100,0,1
123122,-94.3396226415094,4,1,0,100,0,1
123222,-92.5925925925926,4,1,0,100,0,1
123422,-90.9090909090909,4,1,0,100,0,1
123622,-90.9090909090909,4,1,0,100,0,1
123722,-92.5925925925926,4,1,0,100,0,1
123822,-94.3396226415094,4,1,0,100,0,1
124022,-96.1538461538461,4,1,0,100,0,1
124122,-98.0392156862745,4,1,0,100,0,1
124222,-99.8970061866216,4,1,0,100,0,1
124422,-98.0392156862745,4,1,0,100,0,1
124522,-96.1538461538461,4,1,0,100,0,1
124622,-94.3396226415094,4,1,0,100,0,1
124722,-92.5925925925926,4,1,0,100,0,1
124822,-91.0780821506086,4,1,0,100,0,1
125222,-90.9090909090909,4,1,0,100,0,1
125322,-92.2882123957835,4,1,0,100,0,1
125422,-94.3396226415094,4,1,0,100,0,1
125622,-96.1538461538461,4,1,0,100,0,1
125822,-98.0392156862745,4,1,0,100,0,0
126222,-76.9230769230769,4,1,0,100,0,0
126622,-71.4285714285714,4,1,0,100,0,0

[HitObjects]
256,192,1022,5,8,0:0:0:0:
256,192,1222,1,8,0:0:0:0:
256,192,1322,1,0,0:0:0:0:
256,192,1422,1,8,0:0:0:0:
256,192,1622,1,8,0:0:0:0:
256,192,2022,1,0,0:0:0:0:
256,192,2222,1,8,0:0:0:0:
256,192,2422,1,0,0:0:0:0:
256,192,2522,1,0,0:0:0:0:
256,192,2622,1,8,0:0:0:0:
256,192,2822,1,8,0:0:0:0:
256,192,3022,1,0,0:0:0:0:
256,192,3222,1,8,0:0:0:0:
256,192,3622,1,0,0:0:0:0:
256,192,3822,1,8,0:0:0:0:
256,192,4022,1,0,0:0:0:0:
256,192,4222,1,8,0:0:0:0:
256,192,4422,1,0,0:0:0:0:
256,192,4522,1,0,0:0:0:0:
256,192,4622,1,8,0:0:0:0:
256,192,4822,1,8,0:0:0:0:
256,192,5222,1,0,0:0:0:0:
256,192,5422,1,8,0:0:0:0:
256,192,5622,1,0,0:0:0:0:
280,202,5722,1,0,0:0:0:0:
256,192,5822,1,0,0:0:0:0:
256,192,6022,1,8,0:0:0:0:
256,192,6222,1,0,0:0:0:0:
256,192,6422,1,8,0:0:0:0:
256,192,6822,1,8,0:0:0:0:
253,181,6922,1,0,0:0:0:0:
256,192,7022,1,8,0:0:0:0:
256,192,7422,1,0,0:0:0:0:
256,192,7622,1,8,0:0:0:0:
256,192,7722,1,8,0:0:0:0:
256,192,7822,1,0,0:0:0:0:
256,192,8022,1,8,0:0:0:0:
256,192,8422,1,0,0:0:0:0:
256,192,8622,1,8,0:0:0:0:
256,192,8822,1,0,0:0:0:0:
256,192,8922,1,8,0:0:0:0:
256,192,9022,1,8,0:0:0:0:
256,192,9222,1,8,0:0:0:0:
256,192,9422,1,0,0:0:0:0:
256,192,9622,1,8,0:0:0:0:
256,192,10022,1,8,0:0:0:0:
256,192,10222,1,8,0:0:0:0:
256,192,10422,1,0,0:0:0:0:
256,192,10622,1,8,0:0:0:0:
256,192,10822,1,0,0:0:0:0:
256,192,10922,1,8,0:0:0:0:
256,192,11022,1,0,0:0:0:0:
256,192,11222,1,4,0:0:0:0:
256,192,12222,1,0,0:0:0:0:
256,192,12322,1,0,0:0:0:0:
256,192,12422,1,8,0:0:0:0:
256,192,12622,1,0,0:0:0:0:
256,192,12822,1,8,0:0:0:0:
256,192,13222,1,0,0:0:0:0:
256,192,13322,1,0,0:0:0:0:
256,192,13422,1,8,0:0:0:0:
256,192,13622,1,0,0:0:0:0:
256,192,13822,1,8,0:0:0:0:
256,192,14022,1,8,0:0:0:0:
256,192,14122,1,8,0:0:0:0:
256,192,14222,1,0,0:0:0:0:
256,192,14422,1,0,0:0:0:0:
256,192,14822,1,8,0:0:0:0:
256,192,14922,1,0,0:0:0:0:
256,192,15022,1,8,0:0:0:0:
256,192,15222,1,0,0:0:0:0:
256,192,15322,1,0,0:0:0:0:
256,192,15422,1,8,0:0:0:0:
256,192,15622,1,8,0:0:0:0:
256,192,15822,1,0,0:0:0:0:
256,192,16022,1,8,0:0:0:0:
256,192,16422,1,0,0:0:0:0:
256,192,16522,1,8,0:0:0:0:
256,192,16622,1,8,0:0:0:0:
256,192,16822,1,8,0:0:0:0:
256,192,17022,1,0,0:0:0:0:
256,192,17222,1,8,0:0:0:0:
256,192,17322,1,8,0:0:0:0:
256,192,17422,1,8,0:0:0:0:
256,192,17622,1,0,0:0:0:0:
256,192,18022,1,0,0:0:0:0:
256,192,18222,1,8,0:0:0:0:
256,192,18422,1,0,0:0:0:0:
256,192,18622,1,0,0:0:0:0:
256,192,18822,1,8,0:0:0:0:
256,192,18922,1,8,0:0:0:0:
256,192,19022,1,0,0:0:0:0:
256,192,19222,1,8,0:0:0:0:
256,192,19622,1,0,0:0:0:0:
256,192,19822,1,8,0:0:0:0:
256,192,20022,1,0,0:0:0:0:
256,192,20222,1,8,0:0:0:0:
256,192,20422,1,8,0:0:0:0:
256,192,20522,1,0,0:0:0:0:
256,192,20622,1,8,0:0:0:0:
256,192,20822,1,0,0:0:0:0:
256,192,21222,1,0,0:0:0:0:
256,192,21322,1,0,0:0:0:0:
256,192,21422,1,8,0:0:0:0:
256,192,21622,1,0,0:0:0:0:
256,192,21722,1,8,0:0:0:0:
256,192,21822,1,8,0:0:0:0:
256,192,22022,1,0,0:0:0:0:
256,192,22222,1,0,0:0:0:0:
256,192,22422,1,8,0:0:0:0:
256,192,22822,1,8,0:0:0:0:
256,192,22922,1,0,0:0:0:0:
256,192,23022,1,8,0:0:0:0:
256,192,23222,1,0,0:0:0:0:
256,192,23422,1,8,0:0:0:0:
256,192,23522,1,8,0:0:0:0:
256,192,23622,1,8,0:0:0:0:
256,192,23822,1,0,0:0:0:0:
256,192,24022,1,0,0:0:0:0:
256,192,24322,1,0,0:0:0:0:
256,192,24422,1,8,0:0:0:0:
256,192,24522,1,0,0:0:0:0:
256,192,24622,1,8,0:0:0:0:
256,192,25022,1,8,0:0:0:0:
256,192,25422,1,8,0:0:0:0:
256,192,25622,1,0,0:0:0:0:
256,192,25722,1,8,0:0:0:0:
256,192,25822,1,8,0:0:0:0:
256,192,26022,1,0,0:0:0:0:
256,192,26122,1,8,0:0:0:0:
256,192,26222,1,0,0:0:0:0:
256,192,26422,1,8,0:0:0:0:
256,192,26522,1,8,0:0:0:0:
256,192,26622,1,8,0:0:0:0:
256,192,26822,1,0,0:0:0:0:
256,192,26922,1,8,0:0:0:0:
256,192,27022,1,8,0:0:0:0:
256,192,27222,1,0,0:0:0:0:
256,192,27422,1,8,0:0:0:0:
256,192,27622,1,0,0:0:0:0:
256,192,27822,1,8,0:0:0:0:
256,192,28022,1,0,0:0:0:0:
256,192,28122,1,0,0:0:0:0:
256,192,28222,1,8,0:0:0:0:
256,192,28622,1,0,0:0:0:0:
256,192,28822,1,8,0:0:0:0:
256,192,28922,1,8,0:0:0:0:
256,192,29022,1,8,0:0:0:0:
256,192,29222,1,0,0:0:0:0:
256,192,29322,1,0,0:0:0:0:
256,192,29422,1,8,0:0:0:0:
256,192,29622,1,0,0:0:0:0:
256,192,29722,1,8,0:0:0:0:
256,192,29822,1,8,0:0:0:0:
256,192,30022,1,8,0:0:0:0:
256,192,30122,1,0,0:0:0:0:
256,192,30222,1,0,0:0:0:0:
256,192,30422,1,8,0:0:0:0:
256,192,30522,1,0,0:0:0:0:
256,192,30722,1,0,0:0:0:0:
256,192,30822,1,8,0:0:0:0:
256,192,31022,1,0,0:0:0:0:
256,192,31422,1,8,0:0:0:0:
256,192,31822,1,0,0:0:0:0:
256,192,32022,1,8,0:0:0:0:
256,192,32122,1,8,0:0:0:0:
256,192,32222,1,0,0:0:0:0:
256,192,32422,1,8,0:0:0:0:
256,192,32522,1,0,0:0:0:0:
256,192,32622,1,8,0:0:0:0:
256,192,32822,1,0,0:0:0:0:
256,192,32922,1,0,0:0:0:0:
256,192,33022,1,8,0:0:0:0:
256,192,33222,1,0,0:0:0:0:
256,192,33322,1,8,0:0:0:0:
256,192,33422,1,8,0:0:0:0:
256,192,33622,1,0,0:0:0:0:
256,192,33722,1,8,0:0:0:0:
256,192,33922,1,8,0:0:0:0:
256,192,34022,1,0,0:0:0:0:
256,192,34222,1,8,0:0:0:0:
263,184,34422,1,0,0:0:0:0:
265,197,34522,1,0,0:0:0:0:
256,192,34622,1,8,0:0:0:0:
256,192,35022,1,0,0:0:0:0:
256,192,35222,1,8,0:0:0:0:
256,192,35322,1,0,0:0:0:0:
256,192,35422,1,8,0:0:0:0:
256,192,35622,1,0,0:0:0:0:
256,192,35722,1,0,0:0:0:0:
256,192,35822,1,8,0:0:0:0:
256,192,36022,1,0,0:0:0:0:
256,192,36122,1,8,0:0:0:0:
256,192,36222,1,8,0:0:0:0:
256,192,36622,1,0,0:0:0:0:
256,192,36922,1,0,0:0:0:0:
256,192,37022,1,8,0:0:0:0:
256,192,37122,1,0,0:0:0:0:
256,192,37222,1,8,0:0:0:0:
256,192,37422,1,12,0:0:0:0:
256,192,37822,5,0,0:0:0:0:
256,192,38022,1,8,0:0:0:0:
256,192,38122,1,0,0:0:0:0:
256,192,38222,1,8,0:0:0:0:
256,192,38422,1,12,0:0:0:0:
256,192,38822,1,0,0:0:0:0:
256,192,39022,1,8,0:0:0:0:
256,192,39122,1,0,0:0:0:0:
256,192,39222,1,8,0:0:0:0:
256,192,39422,1,8,0:0:0:0:
256,192,39622,1,0,0:0:0:0:
256,192,39722,1,0,0:0:0:0:
256,192,39822,1,8,0:0:0:0:
256,192,40022,1,12,0:0:0:0:
256,192,40422,1,0,0:0:0:0:
256,192,40622,1,8,0:0:0:0:
256,192,40822,1,0,0:0:0:0:
256,192,40922,1,0,0:0:0:0:
256,192,41022,1,8,0:0:0:0:
256,192,41222,1,8,0:0:0:0:
256,192,41322,1,8,0:0:0:0:
256,192,41422,1,0,0:0:0:0:
256,192,41622,1,12,0:0:0:0:
256,192,41822,1,0,0:0:0:0:
256,192,42022,1,0,0:0:0:0:
256,192,42222,1,8,0:0:0:0:
256,192,42422,1,0,0:0:0:0:
256,192,42522,1,0,0:0:0:0:
256,192,42622,1,0,0:0:0:0:
253,182,42822,1,8,0:0:0:0:
256,192,42922,1,8,0:0:0:0:
256,192,43022,1,0,0:0:0:0:
256,192,43222,1,12,0:0:0:0:
256,192,43622,1,8,0:0:0:0:
256,192,43722,1,0,0:0:0:0:
256,192,43822,1,8,0:0:0:0:
256,192,44022,1,0,0:0:0:0:
256,192,44222,1,8,0:0:0:0:
256,192,44422,1,8,0:0:0:0:
256,192,44522,1,0,0:0:0:0:
256,192,44622,1,8,0:0:0:0:
256,192,44822,1,12,0:0:0:0:
256,192,45222,1,0,0:0:0:0:
256,192,45422,1,8,0:0:0:0:
256,192,45622,1,0,0:0:0:0:
256,192,45722,1,0,0:0:0:0:
256,192,45822,1,8,0:0:0:0:
256,192,46022,1,0,0:0:0:0:
256,224,46122,1,0,0:0:0:0:
256,192,46222,1,0,0:0:0:0:
256,192,46422,1,12,0:0:0:0:
256,192,46622,1,8,0:0:0:0:
256,192,46822,1,0,0:0:0:0:
256,192,46922,1,0,0:0:0:0:
256,192,47022,1,8,0:0:0:0:
256,192,47222,1,0,0:0:0:0:
256,192,47422,1,8,0:0:0:0:
256,192,47622,1,0,0:0:0:0:
256,192,47722,1,0,0:0:0:0:
256,192,47822,1,0,0:0:0:0:
256,192,48022,5,12,0:0:0:0:
256,192,48422,1,0,0:0:0:0:
256,192,48522,1,0,0:0:0:0:
256,192,48622,1,8,0:0:0:0:
256,192,48822,1,0,0:0:0:0:
256,192,49022,1,8,0:0:0:0:
256,192,49422,1,0,0:0:0:0:
256,192,49622,1,8,0:0:0:0:
256,192,49722,1,8,0:0:0:0:
256,192,49922,1,0,0:0:0:0:
256,192,50022,1,0,0:0:0:0:
256,192,50122,1,0,0:0:0:0:
256,192,50222,1,12,0:0:0:0:
256,192,50622,5,0,0:0:0:0:
256,192,50822,1,8,0:0:0:0:
256,192,50922,1,0,0:0:0:0:
256,192,51022,1,8,0:0:0:0:
256,192,51222,1,12,0:0:0:0:
256,192,51622,1,0,0:0:0:0:
256,192,51822,1,8,0:0:0:0:
256,192,51922,1,8,0:0:0:0:
256,192,52022,1,0,0:0:0:0:
256,192,52222,1,8,0:0:0:0:
256,192,52422,1,0,0:0:0:0:
256,192,52522,1,0,0:0:0:0:
256,192,52622,1,8,0:0:0:0:
256,192,52822,1,12,0:0:0:0:
256,192,53222,1,0,0:0:0:0:
256,192,53422,1,8,0:0:0:0:
256,192,53622,1,0,0:0:0:0:
256,192,53722,1,0,0:0:0:0:
256,192,53822,1,8,0:0:0:0:
256,192,54022,1,8,0:0:0:0:
256,192,54122,1,0,0:0:0:0:
256,192,54222,1,8,0:0:0:0:
256,192,54422,1,12,0:0:0:0:
256,192,54622,1,0,0:0:0:0:
256,192,54822,1,0,0:0:0:0:
256,192,55022,1,8,0:0:0:0:
256,192,55222,1,0,0:0:0:0:
256,192,55322,1,0,0:0:0:0:
256,192,55422,1,8,0:0:0:0:
258,186,55622,1,0,0:0:0:0:
250,196,55722,1,8,0:0:0:0:
256,192,55822,1,0,0:0:0:0:
256,192,56022,1,12,0:0:0:0:
256,192,56422,1,0,0:0:0:0:
256,192,56522,1,0,0:0:0:0:
256,192,56622,1,8,0:0:0:0:
256,192,56822,1,0,0:0:0:0:
256,192,57022,1,8,0:0:0:0:
256,192,57222,1,8,0:0:0:0:
256,192,57322,1,8,0:0:0:0:
256,192,57422,1,0,0:0:0:0:
256,192,57622,1,12,0:0:0:0:
256,192,58022,1,0,0:0:0:0:
256,192,58222,1,8,0:0:0:0:
256,192,58422,1,0,0:0:0:0:
256,192,58522,1,0,0:0:0:0:
256,192,58622,1,8,0:0:0:0:
256,192,58822,1,8,0:0:0:0:
256,224,58922,1,8,0:0:0:0:
256,192,59022,1,0,0:0:0:0:
256,192,59222,1,12,0:0:0:0:
256,192,59422,1,0,0:0:0:0:
256,192,59622,1,0,0:0:0:0:
256,192,59722,1,0,0:0:0:0:
256,192,59822,1,8,0:0:0:0:
256,192,60022,1,0,0:0:0:0:
256,192,60222,5,8,0:0:0:0:
256,192,60422,1,0,0:0:0:0:
256,192,60522,1,0,0:0:0:0:
256,192,60622,1,0,0:0:0:0:
256,192,60822,5,12,0:0:0:0:
256,192,61222,1,8,0:0:0:0:
256,192,61322,1,8,0:0:0:0:
256,192,61422,5,0,0:0:0:0:
256,192,61622,1,0,0:0:0:0:
256,192,61822,1,8,0:0:0:0:
256,192,62222,1,0,0:0:0:0:
256,192,62322,1,0,0:0:0:0:
256,192,62422,1,8,0:0:0:0:
256,192,62522,1,0,0:0:0:0:
256,192,62622,1,8,0:0:0:0:
256,192,62822,1,0,0:0:0:0:
256,192,63022,1,12,0:0:0:0:
256,192,63422,1,0,0:0:0:0:
256,192,63622,1,0,0:0:0:0:
256,192,63822,1,8,0:0:0:0:
256,192,64022,1,8,0:0:0:0:
256,192,64222,1,0,0:0:0:0:
256,192,64322,1,0,0:0:0:0:
256,192,64422,1,8,0:0:0:0:
256,192,64622,1,0,0:0:0:0:
256,192,65022,1,8,0:0:0:0:
256,192,65222,1,0,0:0:0:0:
256,192,65422,1,8,0:0:0:0:
256,192,65622,1,0,0:0:0:0:
256,192,65822,1,0,0:0:0:0:
256,192,65922,1,8,0:0:0:0:
256,192,66022,1,0,0:0:0:0:
256,192,66222,1,8,0:0:0:0:
256,192,66622,1,0,0:0:0:0:
256,192,66822,1,8,0:0:0:0:
256,192,67022,1,8,0:0:0:0:
256,192,67222,1,0,0:0:0:0:
256,192,67322,1,8,0:0:0:0:
256,192,67522,1,8,0:0:0:0:
256,192,67622,1,8,0:0:0:0:
256,192,67822,1,0,0:0:0:0:
256,192,68222,1,0,0:0:0:0:
256,192,68422,1,8,0:0:0:0:
256,192,68622,1,8,0:0:0:0:
256,192,68822,1,0,0:0:0:0:
256,192,68922,1,0,0:0:0:0:
256,192,69122,1,8,0:0:0:0:
256,192,69222,1,8,0:0:0:0:
256,192,69422,1,8,0:0:0:0:
256,192,69822,1,8,0:0:0:0:
256,192,70022,1,0,0:0:0:0:
256,192,70122,1,0,0:0:0:0:
256,192,70222,1,8,0:0:0:0:
256,192,70422,1,8,0:0:0:0:
256,192,70522,1,0,0:0:0:0:
256,192,70722,1,0,0:0:0:0:
256,192,70822,1,8,0:0:0:0:
256,192,71022,1,8,0:0:0:0:
256,192,71422,1,0,0:0:0:0:
256,192,71622,1,8,0:0:0:0:
256,192,71722,1,0,0:0:0:0:
256,192,71822,1,8,0:0:0:0:
256,192,72022,1,0,0:0:0:0:
256,192,72122,1,0,0:0:0:0:
256,192,72322,1,8,0:0:0:0:
256,192,72422,1,8,0:0:0:0:
256,192,72622,1,0,0:0:0:0:
256,192,73022,1,0,0:0:0:0:
256,192,73222,1,0,0:0:0:0:
256,192,73422,1,8,0:0:0:0:
256,192,73622,1,8,0:0:0:0:
256,192,73822,1,0,0:0:0:0:
256,192,73922,1,0,0:0:0:0:
256,192,74022,1,8,0:0:0:0:
256,192,74122,1,8,0:0:0:0:
256,192,74222,1,0,0:0:0:0:
256,192,74322,1,0,0:0:0:0:
256,192,74422,1,8,0:0:0:0:
256,192,74522,1,8,0:0:0:0:
256,192,74622,12,0,75822,0:0:0:0:
256,192,76222,5,4,0:0:0:0:
256,192,76622,1,4,0:0:0:0:
256,192,77022,1,8,0:0:0:0:
256,192,77122,1,0,0:0:0:0:
256,192,77222,1,0,0:0:0:0:
256,192,77322,1,8,0:0:0:0:
256,192,77522,1,0,0:0:0:0:
256,192,77622,1,8,0:0:0:0:
256,192,77722,1,8,0:0:0:0:
256,192,77922,1,0,0:0:0:0:
256,192,78022,1,0,0:0:0:0:
256,192,78122,1,8,0:0:0:0:
256,192,78322,1,0,0:0:0:0:
256,192,78422,1,8,0:0:0:0:
256,192,78522,1,0,0:0:0:0:
256,192,78622,1,8,0:0:0:0:
256,192,79022,1,8,0:0:0:0:
256,192,79422,1,8,0:0:0:0:
256,192,79822,1,8,0:0:0:0:
256,192,79922,1,0,0:0:0:0:
256,192,80022,1,8,0:0:0:0:
256,192,80122,1,0,0:0:0:0:
256,192,80222,1,8,0:0:0:0:
256,192,80322,1,0,0:0:0:0:
256,192,80422,1,0,0:0:0:0:
256,192,80522,1,8,0:0:0:0:
256,192,80722,1,0,0:0:0:0:
256,192,80822,1,8,0:0:0:0:
256,192,81222,1,0,0:0:0:0:
256,192,81322,1,0,0:0:0:0:
256,192,81422,1,8,0:0:0:0:
256,192,81522,1,8,0:0:0:0:
256,192,81622,1,0,0:0:0:0:
256,192,81722,1,0,0:0:0:0:
256,192,81822,1,8,0:0:0:0:
256,192,82222,1,8,0:0:0:0:
256,192,82622,1,4,0:0:0:0:
256,192,83022,1,4,0:0:0:0:
256,192,83322,1,0,0:0:0:0:
256,192,83422,1,0,0:0:0:0:
256,192,83522,1,8,0:0:0:0:
256,192,83622,1,8,0:0:0:0:
256,192,83722,1,0,0:0:0:0:
256,192,83922,1,8,0:0:0:0:
256,192,84022,1,0,0:0:0:0:
267,182,84122,1,0,0:0:0:0:
256,192,84322,1,8,0:0:0:0:
256,192,84422,1,0,0:0:0:0:
256,192,84522,1,0,0:0:0:0:
256,192,84622,1,8,0:0:0:0:
256,192,84722,1,8,0:0:0:0:
256,192,84822,1,0,0:0:0:0:
256,192,84922,1,0,0:0:0:0:
256,192,85022,1,8,0:0:0:0:
256,192,85422,1,8,0:0:0:0:
256,192,85822,1,0,0:0:0:0:
256,192,86022,1,8,0:0:0:0:
256,192,86122,1,8,0:0:0:0:
256,192,86222,1,8,0:0:0:0:
256,192,86422,1,8,0:0:0:0:
256,192,86522,1,0,0:0:0:0:
256,192,86622,1,8,0:0:0:0:
256,192,86822,1,0,0:0:0:0:
256,192,86922,1,8,0:0:0:0:
256,192,87122,1,8,0:0:0:0:
256,192,87222,1,0,0:0:0:0:
256,192,87322,1,0,0:0:0:0:
256,192,87522,1,8,0:0:0:0:
256,192,87622,1,0,0:0:0:0:
256,192,87822,1,8,0:0:0:0:
256,192,88022,1,0,0:0:0:0:
256,192,88122,1,0,0:0:0:0:
256,192,88222,1,0,0:0:0:0:
256,192,88622,1,8,0:0:0:0:
256,192,89022,1,4,0:0:0:0:
256,192,89422,1,4,0:0:0:0:
256,192,89822,1,8,0:0:0:0:
256,192,89922,1,0,0:0:0:0:
256,192,90022,1,0,0:0:0:0:
256,192,90122,1,8,0:0:0:0:
256,192,90322,1,8,0:0:0:0:
256,192,90422,1,8,0:0:0:0:
256,192,90522,1,0,0:0:0:0:
256,192,90722,1,8,0:0:0:0:
256,192,90822,1,0,0:0:0:0:
256,192,90922,1,8,0:0:0:0:
256,192,91122,1,8,0:0:0:0:
256,192,91222,1,8,0:0:0:0:
256,192,91322,1,0,0:0:0:0:
256,192,91422,1,8,0:0:0:0:
256,192,91622,1,0,0:0:0:0:
256,192,91722,1,0,0:0:0:0:
256,192,91822,1,8,0:0:0:0:
256,192,92022,1,0,0:0:0:0:
256,192,92222,1,8,0:0:0:0:
256,192,92622,1,8,0:0:0:0:
256,192,92722,1,0,0:0:0:0:
256,192,92822,1,8,0:0:0:0:
256,192,93022,1,8,0:0:0:0:
256,192,93222,1,8,0:0:0:0:
256,192,93322,1,0,0:0:0:0:
256,192,93522,1,0,0:0:0:0:
256,192,93622,1,8,0:0:0:0:
256,192,93922,1,0,0:0:0:0:
256,192,94022,1,0,0:0:0:0:
256,192,94122,1,0,0:0:0:0:
256,192,94222,1,8,0:0:0:0:
256,192,94422,1,0,0:0:0:0:
256,192,94522,1,8,0:0:0:0:
256,192,94722,1,0,0:0:0:0:
256,192,94822,1,8,0:0:0:0:
256,192,94922,1,8,0:0:0:0:
256,192,95122,1,0,0:0:0:0:
256,192,95222,1,0,0:0:0:0:
256,192,95322,1,8,0:0:0:0:
256,192,95922,1,0,0:0:0:0:
256,192,96022,1,8,0:0:0:0:
256,192,96122,1,0,0:0:0:0:
256,192,96222,1,8,0:0:0:0:
256,192,96322,1,8,0:0:0:0:
256,192,96422,1,0,0:0:0:0:
256,192,96522,1,8,0:0:0:0:
256,192,96722,1,8,0:0:0:0:
256,192,96822,1,0,0:0:0:0:
256,192,96922,1,8,0:0:0:0:
256,192,97122,1,0,0:0:0:0:
256,192,97222,1,0,0:0:0:0:
256,192,97322,1,8,0:0:0:0:
256,192,97522,1,8,0:0:0:0:
256,192,97622,1,8,0:0:0:0:
256,192,97722,1,0,0:0:0:0:
256,192,97822,1,0,0:0:0:0:
256,192,97922,1,8,0:0:0:0:
256,192,98022,1,0,0:0:0:0:
256,192,98122,1,8,0:0:0:0:
256,192,98622,1,8,0:0:0:0:
256,192,98822,1,8,0:0:0:0:
256,192,98922,1,0,0:0:0:0:
256,192,99022,1,8,0:0:0:0:
256,192,99222,1,0,0:0:0:0:
256,192,99322,1,0,0:0:0:0:
256,192,99422,1,8,0:0:0:0:
256,192,99622,1,0,0:0:0:0:
256,192,99722,1,8,0:0:0:0:
256,192,99922,1,8,0:0:0:0:
256,192,100022,1,0,0:0:0:0:
256,192,100122,1,0,0:0:0:0:
256,192,100422,1,0,0:0:0:0:
244,194,100722,1,0,0:0:0:0:
243,200,100822,1,0,0:0:0:0:
255,181,100922,1,0,0:0:0:0:
242,202,101022,1,8,0:0:0:0:
261,190,101222,1,0,0:0:0:0:
256,192,101422,1,12,0:0:0:0:
256,192,101822,5,0,0:0:0:0:
256,192,102022,1,8,0:0:0:0:
256,192,102122,1,0,0:0:0:0:
256,192,102222,1,0,0:0:0:0:
256,192,102422,1,12,0:0:0:0:
256,192,102822,1,0,0:0:0:0:
256,192,103022,1,8,0:0:0:0:
256,192,103122,1,0,0:0:0:0:
256,192,103222,1,8,0:0:0:0:
256,192,103422,1,8,0:0:0:0:
256,192,103622,1,0,0:0:0:0:
256,192,103722,1,0,0:0:0:0:
256,192,103822,1,8,0:0:0:0:
256,192,104022,1,12,0:0:0:0:
256,192,104422,1,0,0:0:0:0:
256,192,104622,1,8,0:0:0:0:
256,192,104822,1,0,0:0:0:0:
256,192,104922,1,0,0:0:0:0:
256,192,105022,1,8,0:0:0:0:
256,192,105222,1,8,0:0:0:0:
256,192,105322,1,8,0:0:0:0:
256,192,105422,1,0,0:0:0:0:
256,192,105622,1,12,0:0:0:0:
256,192,105822,1,0,0:0:0:0:
256,192,105922,1,0,0:0:0:0:
256,192,106022,1,8,0:0:0:0:
256,192,106222,1,8,0:0:0:0:
256,192,106422,1,0,0:0:0:0:
256,192,106522,1,8,0:0:0:0:
256,192,106622,1,0,0:0:0:0:
257,201,106822,1,8,0:0:0:0:
256,192,106922,1,8,0:0:0:0:
256,192,107022,1,0,0:0:0:0:
256,192,107222,1,12,0:0:0:0:
256,192,107622,1,8,0:0:0:0:
256,192,107722,1,0,0:0:0:0:
256,192,107822,1,8,0:0:0:0:
256,192,108022,1,0,0:0:0:0:
256,192,108222,1,8,0:0:0:0:
256,192,108422,1,0,0:0:0:0:
256,192,108522,1,0,0:0:0:0:
256,192,108622,1,0,0:0:0:0:
256,192,108822,1,12,0:0:0:0:
256,192,109222,1,0,0:0:0:0:
256,192,109422,1,8,0:0:0:0:
256,192,109622,1,0,0:0:0:0:
256,192,109722,1,0,0:0:0:0:
256,192,109822,1,8,0:0:0:0:
256,192,110022,1,8,0:0:0:0:
256,192,110122,1,0,0:0:0:0:
256,192,110222,1,8,0:0:0:0:
256,192,110422,1,12,0:0:0:0:
256,192,110622,1,0,0:0:0:0:
256,192,110822,1,0,0:0:0:0:
256,192,110922,1,0,0:0:0:0:
256,192,111022,1,8,0:0:0:0:
256,192,111222,1,0,0:0:0:0:
256,192,111422,1,8,0:0:0:0:
256,192,111622,1,0,0:0:0:0:
256,192,111722,1,0,0:0:0:0:
256,192,111822,1,0,0:0:0:0:
256,192,112022,5,12,0:0:0:0:
256,192,112422,1,0,0:0:0:0:
256,192,112522,1,0,0:0:0:0:
256,192,112622,1,8,0:0:0:0:
256,192,112822,1,8,0:0:0:0:
256,192,113022,1,0,0:0:0:0:
256,192,113222,1,8,0:0:0:0:
256,192,113422,1,0,0:0:0:0:
256,192,113522,1,0,0:0:0:0:
256,192,113622,1,0,0:0:0:0:
256,192,113722,1,0,0:0:0:0:
256,192,113822,1,8,0:0:0:0:
250,188,114022,1,0,0:0:0:0:
256,192,114222,1,8,0:0:0:0:
256,192,114622,5,0,0:0:0:0:
256,192,114822,1,8,0:0:0:0:
256,192,114922,1,8,0:0:0:0:
256,192,115022,1,0,0:0:0:0:
256,192,115122,1,0,0:0:0:0:
256,192,115222,1,12,0:0:0:0:
256,192,115622,1,0,0:0:0:0:
256,192,115722,1,0,0:0:0:0:
256,192,115822,1,8,0:0:0:0:
256,192,116022,1,8,0:0:0:0:
256,192,116122,1,0,0:0:0:0:
256,192,116222,1,8,0:0:0:0:
256,192,116422,1,0,0:0:0:0:
256,192,116522,1,8,0:0:0:0:
256,192,116622,1,0,0:0:0:0:
256,192,116722,1,0,0:0:0:0:
256,192,116822,1,12,0:0:0:0:
256,192,117222,1,0,0:0:0:0:
251,193,117322,1,0,0:0:0:0:
256,192,117422,1,8,0:0:0:0:
251,193,117622,1,8,0:0:0:0:
251,193,117722,1,0,0:0:0:0:
256,192,117822,1,8,0:0:0:0:
256,192,118022,1,8,0:0:0:0:
256,192,118122,1,8,0:0:0:0:
256,192,118222,1,0,0:0:0:0:
256,192,118322,1,0,0:0:0:0:
256,192,118422,1,12,0:0:0:0:
256,192,118622,1,0,0:0:0:0:
256,192,118822,1,0,0:0:0:0:
256,192,118922,1,0,0:0:0:0:
256,192,119022,1,8,0:0:0:0:
256,192,119222,1,8,0:0:0:0:
256,192,119322,1,0,0:0:0:0:
256,192,119422,1,0,0:0:0:0:
256,192,119622,1,8,0:0:0:0:
256,192,119722,1,0,0:0:0:0:
256,192,119822,1,0,0:0:0:0:
256,192,119922,1,0,0:0:0:0:
256,192,120022,1,12,0:0:0:0:
256,192,120422,1,8,0:0:0:0:
256,192,120522,1,0,0:0:0:0:
256,192,120622,1,8,0:0:0:0:
256,192,120822,1,0,0:0:0:0:
256,192,121022,1,8,0:0:0:0:
256,192,121222,1,8,0:0:0:0:
256,192,121322,1,8,0:0:0:0:
256,192,121422,1,0,0:0:0:0:
256,192,121522,1,0,0:0:0:0:
256,192,121622,1,12,0:0:0:0:
256,192,122022,1,8,0:0:0:0:
256,192,122122,1,0,0:0:0:0:
256,192,122222,1,8,0:0:0:0:
256,192,122422,1,0,0:0:0:0:
256,192,122522,1,0,0:0:0:0:
256,192,122622,1,8,0:0:0:0:
256,192,122822,1,8,0:0:0:0:
256,224,122922,1,8,0:0:0:0:
256,192,123022,1,0,0:0:0:0:
256,192,123122,1,0,0:0:0:0:
256,192,123222,1,12,0:0:0:0:
256,192,123422,1,0,0:0:0:0:
256,192,123622,1,0,0:0:0:0:
256,192,123722,1,0,0:0:0:0:
256,192,123822,1,8,0:0:0:0:
256,192,124022,1,8,0:0:0:0:
256,192,124122,1,8,0:0:0:0:
256,192,124222,5,0,0:0:0:0:
256,192,124422,1,8,0:0:0:0:
256,192,124522,1,8,0:0:0:0:
256,192,124622,1,0,0:0:0:0:
256,192,124722,1,0,0:0:0:0:
256,192,124822,5,12,0:0:0:0:
256,192,125222,1,0,0:0:0:0:
256,192,125322,1,0,0:0:0:0:
256,192,125422,5,8,0:0:0:0:
256,192,125622,1,0,0:0:0:0:
256,192,125822,1,8,0:0:0:0:
256,192,126222,1,4,0:0:0:0:
256,192,126622,1,12,0:0:0:0:
