osu file format v14

[General]
AudioFilename: audio.mp3
AudioLeadIn: 0
PreviewTime: 76177
Countdown: 0
SampleSet: Normal
StackLeniency: 0.7
Mode: 1
LetterboxInBreaks: 0
WidescreenStoryboard: 1

[Editor]
Bookmarks: 11863,24570,37277,49983,62690,73809,88104,100811,113517,126224
DistanceSpacing: 3.8
BeatDivisor: 2
GridSize: 32
TimelineZoom: 3.599998

[Metadata]
Title:Mare Maris
TitleUnicode:Mare Maris
Artist:M2U
ArtistUnicode:M2U
Creator:Quorum
Version:Kantan
Source:maimai MiLK
Tags:video game ALL PERFECT COLLECTiON shin dong whi 申東輝 classical electronic instrumental bor lego man ReX sphazer infinity poly RedEye chaos star light dusk -dusk _dusk_
BeatmapID:2541817
BeatmapSetID:1222016

[Difficulty]
HPDrainRate:8
CircleSize:5
OverallDifficulty:3
ApproachRate:5
SliderMultiplier:1.4
SliderTickRate:1

[Events]
//Background and Video events
0,0,"image.jpeg",0,90
//Break Periods
//Storyboard Layer 0 (Background)
//Storyboard Layer 1 (Fail)
//Storyboard Layer 2 (Pass)
//Storyboard Layer 3 (Foreground)
//Storyboard Layer 4 (Overlay)
//Storyboard Sound Samples

[TimingPoints]
1022,400,4,1,0,100,1,0
37822,-100,4,1,0,100,0,1
63422,-100,4,1,0,100,0,0
76222,-100,4,1,0,100,0,1
100422,-100,4,1,0,100,0,0
101822,-100,4,1,0,100,0,1
125822,-100,4,1,0,100,0,0

[HitObjects]
256,192,1022,5,0,0:0:0:0:
256,192,1622,1,8,0:0:0:0:
256,192,2622,1,0,0:0:0:0:
256,192,3222,1,8,0:0:0:0:
256,192,4222,1,0,0:0:0:0:
256,192,4822,1,8,0:0:0:0:
256,192,5822,1,0,0:0:0:0:
256,192,7022,1,8,0:0:0:0:
256,192,7422,1,0,0:0:0:0:
256,192,8022,1,8,0:0:0:0:
256,192,9022,1,0,0:0:0:0:
256,192,9622,1,8,0:0:0:0:
256,192,10622,1,8,0:0:0:0:
256,192,11222,1,4,0:0:0:0:
256,192,12222,1,0,0:0:0:0:
256,192,12822,1,8,0:0:0:0:
256,192,13822,1,0,0:0:0:0:
256,192,14422,1,0,0:0:0:0:
256,192,15422,1,8,0:0:0:0:
256,192,16622,1,8,0:0:0:0:
256,192,17022,1,0,0:0:0:0:
256,192,17622,1,0,0:0:0:0:
256,192,18622,1,0,0:0:0:0:
256,192,19222,1,8,0:0:0:0:
256,192,20222,1,8,0:0:0:0:
256,192,20822,1,0,0:0:0:0:
256,192,21822,1,0,0:0:0:0:
256,192,23022,1,8,0:0:0:0:
256,192,23422,1,0,0:0:0:0:
256,192,24022,1,0,0:0:0:0:
256,192,25022,1,0,0:0:0:0:
256,192,25822,1,8,0:0:0:0:
256,192,26222,1,0,0:0:0:0:
256,192,26622,1,8,0:0:0:0:
256,192,27822,1,0,0:0:0:0:
256,192,28222,1,8,0:0:0:0:
256,192,29022,1,0,0:0:0:0:
288,192,29422,1,0,0:0:0:0:
256,192,29822,1,8,0:0:0:0:
256,192,31022,1,0,0:0:0:0:
256,192,31422,1,8,0:0:0:0:
256,192,32222,1,0,0:0:0:0:
256,192,32622,1,8,0:0:0:0:
256,192,33022,1,8,0:0:0:0:
256,192,34222,1,0,0:0:0:0:
256,192,34622,1,8,0:0:0:0:
256,192,35422,1,8,0:0:0:0:
256,192,35822,1,0,0:0:0:0:
256,192,36222,1,8,0:0:0:0:
256,192,36622,1,0,0:0:0:0:
256,192,37422,1,12,0:0:0:0:
256,192,37822,1,0,0:0:0:0:
256,192,38422,1,12,0:0:0:0:
252,174,39022,1,0,0:0:0:0:
256,192,39422,1,8,0:0:0:0:
256,192,40022,1,12,0:0:0:0:
252,174,40622,1,0,0:0:0:0:
256,192,41022,1,0,0:0:0:0:
256,192,41622,1,12,0:0:0:0:
248,188,42222,1,8,0:0:0:0:
256,192,42622,1,0,0:0:0:0:
247,182,43222,1,12,0:0:0:0:
256,192,44222,1,0,0:0:0:0:
256,192,44822,1,12,0:0:0:0:
252,152,45422,1,0,0:0:0:0:
256,192,45822,1,8,0:0:0:0:
256,192,46422,1,12,0:0:0:0:
262,191,47022,1,0,0:0:0:0:
256,192,47422,1,0,0:0:0:0:
256,192,48022,1,12,0:0:0:0:
257,177,48622,1,8,0:0:0:0:
256,192,49022,1,0,0:0:0:0:
224,160,50222,1,12,0:0:0:0:
256,192,50622,1,0,0:0:0:0:
256,192,51222,1,12,0:0:0:0:
263,195,51822,1,0,0:0:0:0:
256,192,52222,1,8,0:0:0:0:
256,192,52822,1,12,0:0:0:0:
263,194,53422,1,0,0:0:0:0:
256,192,53822,1,0,0:0:0:0:
256,192,54422,1,12,0:0:0:0:
259,201,55022,1,8,0:0:0:0:
256,192,55422,1,0,0:0:0:0:
256,192,56022,1,12,0:0:0:0:
256,192,57022,1,0,0:0:0:0:
256,192,57622,1,12,0:0:0:0:
256,201,58222,1,0,0:0:0:0:
256,192,58622,1,8,0:0:0:0:
256,192,59222,1,12,0:0:0:0:
256,201,59822,1,0,0:0:0:0:
256,192,60222,1,0,0:0:0:0:
256,192,60822,1,12,0:0:0:0:
259,201,61422,1,8,0:0:0:0:
256,192,61822,1,0,0:0:0:0:
248,201,62622,1,0,0:0:0:0:
256,192,63022,1,12,0:0:0:0:
256,192,63422,1,0,0:0:0:0:
256,192,64622,1,0,0:0:0:0:
256,192,65022,1,8,0:0:0:0:
256,192,65822,1,8,0:0:0:0:
260,194,66222,1,8,0:0:0:0:
256,192,66622,1,0,0:0:0:0:
256,192,67822,1,8,0:0:0:0:
254,197,68222,1,0,0:0:0:0:
256,192,69822,1,0,0:0:0:0:
261,200,70422,1,8,0:0:0:0:
255,180,71022,1,8,0:0:0:0:
256,192,71422,1,0,0:0:0:0:
261,200,72022,1,0,0:0:0:0:
255,168,73022,1,0,0:0:0:0:
254,208,73422,1,0,0:0:0:0:
264,174,73822,1,8,0:0:0:0:
275,204,74222,1,8,0:0:0:0:
256,192,74622,1,4,0:0:0:0:
256,192,75822,1,8,0:0:0:0:
256,192,76222,1,0,0:0:0:0:
256,192,76622,1,0,0:0:0:0:
256,192,77022,1,8,0:0:0:0:
256,192,78622,1,8,0:0:0:0:
256,192,79022,1,8,0:0:0:0:
256,192,79422,1,0,0:0:0:0:
256,192,81222,1,0,0:0:0:0:
256,192,81822,1,8,0:0:0:0:
256,192,82222,1,8,0:0:0:0:
256,192,82622,1,0,0:0:0:0:
256,192,83022,1,0,0:0:0:0:
256,192,83422,1,8,0:0:0:0:
256,192,85022,1,8,0:0:0:0:
256,192,85422,1,8,0:0:0:0:
256,192,85822,1,0,0:0:0:0:
256,192,87622,1,0,0:0:0:0:
256,192,88222,1,0,0:0:0:0:
256,192,88622,1,8,0:0:0:0:
256,192,89022,1,0,0:0:0:0:
256,192,89422,1,0,0:0:0:0:
256,192,89822,1,8,0:0:0:0:
256,192,91422,1,8,0:0:0:0:
256,192,91822,1,8,0:0:0:0:
256,192,92222,1,0,0:0:0:0:
256,192,94022,1,0,0:0:0:0:
256,192,94622,1,8,0:0:0:0:
256,192,95022,1,0,0:0:0:0:
256,192,95422,1,8,0:0:0:0:
256,192,95822,1,8,0:0:0:0:
256,192,97822,1,8,0:0:0:0:
256,192,98222,1,0,0:0:0:0:
256,192,98622,1,8,0:0:0:0:
256,192,99622,1,0,0:0:0:0:
256,192,100022,1,8,0:0:0:0:
254,196,100722,2,0,L|361:197,1,105
256,192,101822,1,0,0:0:0:0:
256,192,102422,1,12,0:0:0:0:
269,191,103022,1,0,0:0:0:0:
256,192,103422,1,8,0:0:0:0:
256,192,104022,1,12,0:0:0:0:
256,192,104622,1,0,0:0:0:0:
256,192,105022,1,0,0:0:0:0:
256,192,105622,1,12,0:0:0:0:
256,192,106222,1,8,0:0:0:0:
256,192,106622,1,0,0:0:0:0:
252,180,107222,1,12,0:0:0:0:
256,192,107822,1,8,0:0:0:0:
256,192,108222,1,0,0:0:0:0:
256,192,108822,1,12,0:0:0:0:
269,191,109422,1,0,0:0:0:0:
256,192,109822,1,8,0:0:0:0:
256,192,110422,1,12,0:0:0:0:
256,192,111022,1,0,0:0:0:0:
256,192,111422,1,0,0:0:0:0:
256,192,112022,1,12,0:0:0:0:
254,205,112622,1,8,0:0:0:0:
256,192,113022,1,0,0:0:0:0:
256,192,114222,1,12,0:0:0:0:
256,192,114622,5,0,0:0:0:0:
256,192,115222,1,12,0:0:0:0:
256,192,115822,1,8,0:0:0:0:
256,192,116222,1,0,0:0:0:0:
256,192,116822,1,12,0:0:0:0:
256,192,117422,1,0,0:0:0:0:
256,192,117822,1,8,0:0:0:0:
256,192,118422,1,12,0:0:0:0:
256,192,119022,1,8,0:0:0:0:
256,192,119422,1,0,0:0:0:0:
266,190,120022,1,12,0:0:0:0:
256,192,120622,1,8,0:0:0:0:
256,192,121022,1,0,0:0:0:0:
256,192,121622,1,12,0:0:0:0:
256,192,122222,1,8,0:0:0:0:
256,192,122622,1,0,0:0:0:0:
256,192,123222,1,12,0:0:0:0:
256,192,123822,1,0,0:0:0:0:
256,192,124222,1,0,0:0:0:0:
256,192,124822,1,12,0:0:0:0:
260,200,125422,1,8,0:0:0:0:
256,192,125822,5,0,0:0:0:0:
256,192,126222,5,4,0:0:0:0:
256,192,126622,1,12,0:0:0:0:
