osu file format v14

[General]
AudioFilename: audio.mp3
AudioLeadIn: 0
PreviewTime: 76177
Countdown: 0
SampleSet: Normal
StackLeniency: 0.7
Mode: 1
LetterboxInBreaks: 0
WidescreenStoryboard: 0

[Editor]
Bookmarks: 11863,24570,37277,49983,62690,73809,88104,100811,113517,126224
DistanceSpacing: 2.8
BeatDivisor: 8
GridSize: 32
TimelineZoom: 3.800003

[Metadata]
Title:Mare Maris
TitleUnicode:Mare Maris
Artist:M2U
ArtistUnicode:M2U
Creator:Quorum
Version:Dusk's Inner Oni
Source:maimai MiLK
Tags:video game ALL PERFECT COLLECTiON shin dong whi 申東輝 classical electronic instrumental bor lego man ReX sphazer infinity poly RedEye chaos star light dusk -dusk _dusk_
BeatmapID:2813658
BeatmapSetID:1222016

[Difficulty]
HPDrainRate:6
CircleSize:5
OverallDifficulty:6.3
ApproachRate:9
SliderMultiplier:1.4
SliderTickRate:1

[Events]
//Background and Video events
0,0,"mm.jpg",0,0
//Break Periods
//Storyboard Layer 0 (Background)
//Storyboard Layer 1 (Fail)
//Storyboard Layer 2 (Pass)
//Storyboard Layer 3 (Foreground)
//Storyboard Layer 4 (Overlay)
//Storyboard Sound Samples

[TimingPoints]
1022,400,4,1,0,100,1,0
12222,-100,4,1,0,100,0,0
24822,-99.009900990099,4,1,0,100,0,0
25022,-98.0392156862745,4,1,0,100,0,0
34022,-97.0873786407767,4,1,0,100,0,0
34222,-96.1538461538461,4,1,0,100,0,0
34422,-95.2380952380952,4,1,0,100,0,0
34522,-94.3396226415094,4,1,0,100,0,0
34622,-93.4579439252336,4,1,0,100,0,0
35022,-92.5925925925926,4,1,0,100,0,0
35222,-91.743119266055,4,1,0,100,0,0
35322,-90.9090909090909,4,1,0,100,0,0
35422,-90.0900900900901,4,1,0,100,0,0
35622,-89.2857142857143,4,1,0,100,0,0
35722,-88.4955752212389,4,1,0,100,0,0
35822,-87.719298245614,4,1,0,100,0,0
36022,-86.9565217391304,4,1,0,100,0,0
36122,-86.2068965517241,4,1,0,100,0,0
36222,-85.4700854700855,4,1,0,100,0,0
36622,-84.7457627118644,4,1,0,100,0,0
36922,-84.0336134453781,4,1,0,100,0,0
37022,-83.3333333333333,4,1,0,100,0,0
37122,-82.6446280991736,4,1,0,100,0,0
37222,-81.9672131147541,4,1,0,100,0,0
37422,-81.3008130081301,4,1,0,100,0,0
37822,-90.9090909090909,4,1,0,100,0,0
64022,-112.359550561798,4,1,0,100,0,0
69722,-111.111111111111,4,1,0,100,0,0
69822,-109.89010989011,4,1,0,100,0,0
70022,-108.695652173913,4,1,0,100,0,0
70222,-107.52688172043,4,1,0,100,0,0
70422,-106.382978723404,4,1,0,100,0,0
70622,-105.263157894737,4,1,0,100,0,0
70722,-104.166666666667,4,1,0,100,0,0
70822,-103.092783505155,4,1,0,100,0,0
71022,-102.040816326531,4,1,0,100,0,0
71222,-101.010101010101,4,1,0,100,0,0
71422,-100,4,1,0,100,0,0
71522,-99.009900990099,4,1,0,100,0,0
71622,-98.0392156862745,4,1,0,100,0,0
71822,-97.0873786407767,4,1,0,100,0,0
72022,-96.1538461538461,4,1,0,100,0,0
72122,-95.2380952380952,4,1,0,100,0,0
72222,-94.3396226415094,4,1,0,100,0,0
72322,-93.4579439252336,4,1,0,100,0,0
72422,-92.5925925925926,4,1,0,100,0,0
72622,-91.743119266055,4,1,0,100,0,0
72822,-90.9090909090909,4,1,0,100,0,0
72922,-90.0900900900901,4,1,0,100,0,0
73022,-89.2857142857143,4,1,0,100,0,0
73222,-88.4955752212389,4,1,0,100,0,0
73322,-87.719298245614,4,1,0,100,0,0
73422,-86.9565217391304,4,1,0,100,0,0
73622,-86.2068965517241,4,1,0,100,0,0
73822,-85.4700854700855,4,1,0,100,0,0
73922,-84.7457627118644,4,1,0,100,0,0
74022,-84.0336134453781,4,1,0,100,0,0
74088,-83.3333333333333,4,1,0,100,0,0
74155,-82.6446280991736,4,1,0,100,0,0
74222,-81.9672131147541,4,1,0,100,0,0
74322,-81.3008130081301,4,1,0,100,0,0
74422,-80.6451612903226,4,1,0,100,0,0
74522,-80,4,1,0,100,0,0
74622,-79.3650793650794,4,1,0,100,0,0
74822,-100,4,1,0,100,0,0
75022,-98.0392156862745,4,1,0,100,0,0
75222,-96.1538461538461,4,1,0,100,0,0
75322,-94.3396226415094,4,1,0,100,0,0
75422,-92.5925925925926,4,1,0,100,0,0
75522,-90.9090909090909,4,1,0,100,0,0
75622,-89.2857142857143,4,1,0,100,0,0
75822,-87.719298245614,4,1,0,100,0,0
76222,-66.6666666666667,4,1,0,100,0,1
77022,-100,4,1,0,100,0,1
79422,-66.6666666666667,4,1,0,100,0,1
79822,-100,4,1,0,100,0,1
82622,-66.6666666666667,4,1,0,100,0,1
83222,-100,4,1,0,100,0,1
89022,-66.6666666666667,4,1,0,100,0,1
89722,-100,4,1,0,100,0,1
92222,-66.6666666666667,4,1,0,100,0,1
92622,-100,4,1,0,100,0,1
100155,-100,4,1,0,100,0,0
100622,-99.009900990099,4,1,0,100,0,0
100688,-98.0392156862745,4,1,0,100,0,0
100755,-97.0873786407767,4,1,0,100,0,0
100822,-96.1538461538461,4,1,0,100,0,0
100888,-95.2380952380952,4,1,0,100,0,0
100955,-94.3396226415094,4,1,0,100,0,0
101022,-93.4579439252336,4,1,0,100,0,0
101822,-90.9090909090909,4,1,0,100,0,0
113422,-90.0900900900901,4,1,0,100,0,0
113488,-89.2857142857143,4,1,0,100,0,0
113555,-88.4955752212389,4,1,0,100,0,0
113622,-87.719298245614,4,1,0,100,0,0
113688,-86.9565217391304,4,1,0,100,0,0
113755,-86.2068965517241,4,1,0,100,0,0
113822,-85.4700854700855,4,1,0,100,0,0
114622,-86.9565217391304,4,1,0,100,0,1
125822,-80,4,1,0,100,0,1
126222,-74.0740740740741,4,1,0,100,0,1
126622,-64.5161290322581,4,1,0,100,0,0

[HitObjects]
256,192,1022,5,0,0:0:0:0:
256,192,1422,1,0,0:0:0:0:
256,192,1622,1,8,0:0:0:0:
256,192,2022,1,0,0:0:0:0:
256,192,2222,1,8,0:0:0:0:
256,192,2422,1,8,0:0:0:0:
256,192,2622,1,0,0:0:0:0:
256,192,3022,1,0,0:0:0:0:
256,192,3222,1,8,0:0:0:0:
256,192,3622,1,8,0:0:0:0:
256,192,3822,1,8,0:0:0:0:
256,192,4222,1,0,0:0:0:0:
256,192,4622,1,8,0:0:0:0:
256,192,4822,1,8,0:0:0:0:
256,192,5222,1,0,0:0:0:0:
256,192,5422,1,8,0:0:0:0:
256,192,5622,1,8,0:0:0:0:
256,192,5822,1,0,0:0:0:0:
256,192,6222,1,0,0:0:0:0:
256,192,6422,1,8,0:0:0:0:
256,192,6822,1,8,0:0:0:0:
256,192,7022,1,8,0:0:0:0:
256,192,7422,1,0,0:0:0:0:
256,192,7822,1,0,0:0:0:0:
256,192,8022,1,8,0:0:0:0:
256,192,8422,1,0,0:0:0:0:
256,192,8622,1,8,0:0:0:0:
256,192,8822,1,8,0:0:0:0:
256,192,9022,1,0,0:0:0:0:
256,192,9422,1,0,0:0:0:0:
256,192,9622,1,8,0:0:0:0:
256,192,10022,1,8,0:0:0:0:
256,192,10222,1,8,0:0:0:0:
256,192,10622,1,0,0:0:0:0:
256,192,10822,1,8,0:0:0:0:
256,192,11022,1,8,0:0:0:0:
256,192,11222,1,0,0:0:0:0:
256,192,12222,1,0,0:0:0:0:
256,192,12622,1,0,0:0:0:0:
256,192,12822,1,8,0:0:0:0:
256,192,13222,1,0,0:0:0:0:
256,192,13422,1,8,0:0:0:0:
256,192,13622,1,0,0:0:0:0:
256,192,13822,1,0,0:0:0:0:
256,192,14022,1,8,0:0:0:0:
256,192,14222,1,0,0:0:0:0:
256,192,14422,1,8,0:0:0:0:
256,192,14822,1,0,0:0:0:0:
256,192,14922,1,0,0:0:0:0:
256,192,15022,1,8,0:0:0:0:
256,192,15122,1,0,0:0:0:0:
256,192,15222,1,8,0:0:0:0:
256,192,15322,1,8,0:0:0:0:
256,192,15422,1,0,0:0:0:0:
256,192,15622,1,8,0:0:0:0:
256,192,15822,1,0,0:0:0:0:
256,192,16022,1,8,0:0:0:0:
256,192,16422,1,8,0:0:0:0:
256,192,16522,1,8,0:0:0:0:
256,192,16622,1,0,0:0:0:0:
256,192,16822,1,0,0:0:0:0:
256,192,17022,1,0,0:0:0:0:
256,192,17222,1,8,0:0:0:0:
256,192,17422,1,0,0:0:0:0:
256,192,17622,1,8,0:0:0:0:
256,192,18022,1,0,0:0:0:0:
256,192,18222,1,8,0:0:0:0:
256,192,18422,1,8,0:0:0:0:
256,192,18622,1,0,0:0:0:0:
256,192,18822,1,0,0:0:0:0:
256,192,19022,1,0,0:0:0:0:
256,192,19222,1,8,0:0:0:0:
256,192,19622,1,0,0:0:0:0:
256,192,19822,1,8,0:0:0:0:
256,192,20022,1,8,0:0:0:0:
256,192,20222,1,0,0:0:0:0:
256,192,20422,1,8,0:0:0:0:
256,192,20622,1,0,0:0:0:0:
256,192,20822,1,8,0:0:0:0:
256,192,21222,1,8,0:0:0:0:
256,192,21322,1,0,0:0:0:0:
256,192,21422,1,8,0:0:0:0:
256,192,21522,1,8,0:0:0:0:
256,192,21622,1,0,0:0:0:0:
256,192,21722,1,8,0:0:0:0:
256,192,21822,1,0,0:0:0:0:
256,192,22022,1,0,0:0:0:0:
256,192,22222,1,0,0:0:0:0:
256,192,22422,1,8,0:0:0:0:
256,192,22822,1,8,0:0:0:0:
256,192,22922,1,8,0:0:0:0:
256,192,23022,1,0,0:0:0:0:
256,192,23222,1,0,0:0:0:0:
256,192,23422,1,8,0:0:0:0:
256,192,23822,1,0,0:0:0:0:
256,192,24022,1,8,0:0:0:0:
256,192,24222,1,0,0:0:0:0:
256,192,24322,1,0,0:0:0:0:
256,192,24422,1,0,0:0:0:0:
256,192,24522,1,0,0:0:0:0:
256,192,24622,1,8,0:0:0:0:
256,192,24822,1,8,0:0:0:0:
256,192,25022,1,0,0:0:0:0:
256,192,25422,1,0,0:0:0:0:
256,192,25622,1,8,0:0:0:0:
256,192,25722,1,8,0:0:0:0:
256,192,25822,1,0,0:0:0:0:
256,192,26022,1,0,0:0:0:0:
256,192,26122,1,0,0:0:0:0:
256,192,26222,1,8,0:0:0:0:
256,192,26422,1,8,0:0:0:0:
256,192,26522,1,0,0:0:0:0:
256,192,26622,1,8,0:0:0:0:
256,192,26822,1,0,0:0:0:0:
256,192,26922,1,8,0:0:0:0:
256,192,27022,1,8,0:0:0:0:
256,192,27222,1,0,0:0:0:0:
256,192,27322,1,0,0:0:0:0:
256,192,27422,1,8,0:0:0:0:
256,192,27522,1,8,0:0:0:0:
256,192,27622,1,0,0:0:0:0:
256,192,27822,1,8,0:0:0:0:
256,192,28022,1,0,0:0:0:0:
256,192,28122,1,0,0:0:0:0:
256,192,28222,1,8,0:0:0:0:
256,192,28622,1,8,0:0:0:0:
256,192,28822,1,0,0:0:0:0:
256,192,28922,1,8,0:0:0:0:
256,192,29022,1,0,0:0:0:0:
256,192,29222,1,8,0:0:0:0:
256,192,29322,1,0,0:0:0:0:
256,192,29422,1,8,0:0:0:0:
256,192,29622,1,0,0:0:0:0:
256,192,29722,1,8,0:0:0:0:
256,192,29822,1,8,0:0:0:0:
256,192,30022,1,8,0:0:0:0:
256,192,30122,1,0,0:0:0:0:
256,192,30222,1,0,0:0:0:0:
256,192,30422,1,0,0:0:0:0:
256,192,30522,1,0,0:0:0:0:
256,192,30622,1,8,0:0:0:0:
256,192,30722,1,8,0:0:0:0:
256,192,30822,1,8,0:0:0:0:
256,192,31022,1,0,0:0:0:0:
256,192,31422,1,0,0:0:0:0:
256,192,31822,1,0,0:0:0:0:
256,192,32022,1,8,0:0:0:0:
256,192,32122,1,8,0:0:0:0:
256,192,32222,1,0,0:0:0:0:
256,192,32422,1,8,0:0:0:0:
256,192,32522,1,0,0:0:0:0:
256,192,32622,1,8,0:0:0:0:
256,192,32822,1,0,0:0:0:0:
256,192,32922,1,8,0:0:0:0:
256,192,33022,1,8,0:0:0:0:
256,192,33222,1,0,0:0:0:0:
256,192,33322,1,0,0:0:0:0:
256,192,33422,1,8,0:0:0:0:
256,192,33522,1,0,0:0:0:0:
256,192,33622,1,8,0:0:0:0:
256,192,33722,1,8,0:0:0:0:
256,192,33822,1,8,0:0:0:0:
256,192,34022,1,0,0:0:0:0:
256,192,34222,1,8,0:0:0:0:
256,192,34422,1,0,0:0:0:0:
256,192,34522,1,0,0:0:0:0:
256,192,34622,1,8,0:0:0:0:
256,192,35022,1,8,0:0:0:0:
256,192,35222,1,8,0:0:0:0:
256,192,35322,1,8,0:0:0:0:
256,192,35422,1,0,0:0:0:0:
256,192,35622,1,0,0:0:0:0:
256,192,35722,1,8,0:0:0:0:
256,192,35822,1,0,0:0:0:0:
256,192,36022,1,0,0:0:0:0:
256,192,36122,1,8,0:0:0:0:
256,192,36222,1,8,0:0:0:0:
256,192,36622,1,0,0:0:0:0:
256,192,36922,1,0,0:0:0:0:
256,192,37022,1,8,0:0:0:0:
256,192,37122,1,8,0:0:0:0:
256,192,37222,1,0,0:0:0:0:
256,192,37422,1,8,0:0:0:0:
256,192,37822,1,4,0:0:0:0:
256,192,38022,1,8,0:0:0:0:
256,192,38122,1,0,0:0:0:0:
256,192,38222,1,0,0:0:0:0:
256,192,38422,1,8,0:0:0:0:
256,192,38822,1,8,0:0:0:0:
256,192,39022,1,8,0:0:0:0:
256,192,39088,1,0,0:0:0:0:
256,192,39155,1,0,0:0:0:0:
256,192,39222,1,8,0:0:0:0:
256,192,39422,1,0,0:0:0:0:
256,192,39522,1,8,0:0:0:0:
256,192,39622,1,0,0:0:0:0:
256,192,39822,1,0,0:0:0:0:
256,192,40022,1,8,0:0:0:0:
256,192,40422,1,0,0:0:0:0:
256,192,40622,1,8,0:0:0:0:
256,192,40822,1,0,0:0:0:0:
256,192,40922,1,0,0:0:0:0:
256,192,41022,1,8,0:0:0:0:
256,192,41222,1,8,0:0:0:0:
256,192,41422,1,0,0:0:0:0:
256,192,41622,1,8,0:0:0:0:
256,192,41688,1,8,0:0:0:0:
256,192,41755,1,8,0:0:0:0:
256,192,41822,1,0,0:0:0:0:
256,192,42022,1,0,0:0:0:0:
256,192,42222,1,8,0:0:0:0:
256,192,42322,1,0,0:0:0:0:
256,192,42422,1,8,0:0:0:0:
256,192,42622,1,0,0:0:0:0:
256,192,43022,1,0,0:0:0:0:
256,192,43222,1,8,0:0:0:0:
256,192,43622,1,0,0:0:0:0:
256,192,43822,1,8,0:0:0:0:
256,192,43922,1,0,0:0:0:0:
256,192,44022,1,0,0:0:0:0:
256,192,44222,1,0,0:0:0:0:
256,192,44422,1,8,0:0:0:0:
256,192,44522,1,8,0:0:0:0:
256,192,44622,1,0,0:0:0:0:
256,192,44822,1,8,0:0:0:0:
256,192,45222,1,0,0:0:0:0:
256,192,45422,1,8,0:0:0:0:
256,192,45488,1,8,0:0:0:0:
256,192,45555,1,0,0:0:0:0:
256,192,45622,1,0,0:0:0:0:
256,192,45822,1,0,0:0:0:0:
256,192,45922,1,8,0:0:0:0:
256,192,46022,1,0,0:0:0:0:
256,192,46222,1,0,0:0:0:0:
256,192,46422,1,8,0:0:0:0:
256,192,46822,1,0,0:0:0:0:
256,192,47022,1,8,0:0:0:0:
256,192,47222,1,8,0:0:0:0:
256,192,47422,1,0,0:0:0:0:
256,192,47622,1,0,0:0:0:0:
256,192,47688,1,0,0:0:0:0:
256,192,47755,1,0,0:0:0:0:
256,192,47822,1,8,0:0:0:0:
256,192,48022,1,8,0:0:0:0:
256,192,48422,1,0,0:0:0:0:
256,192,48622,1,8,0:0:0:0:
256,192,48822,1,0,0:0:0:0:
256,192,49022,1,8,0:0:0:0:
256,192,49422,1,0,0:0:0:0:
256,192,49622,1,8,0:0:0:0:
256,192,49688,1,8,0:0:0:0:
256,192,49755,1,8,0:0:0:0:
256,192,49822,1,0,0:0:0:0:
256,192,50022,1,0,0:0:0:0:
256,192,50222,1,8,0:0:0:0:
256,192,50622,1,0,0:0:0:0:
256,192,50822,1,8,0:0:0:0:
256,192,50922,1,8,0:0:0:0:
256,192,51022,1,0,0:0:0:0:
256,192,51222,1,8,0:0:0:0:
256,192,51422,1,0,0:0:0:0:
256,192,51622,1,8,0:0:0:0:
256,192,51822,1,8,0:0:0:0:
256,192,51888,1,8,0:0:0:0:
256,192,51955,1,0,0:0:0:0:
256,192,52022,1,8,0:0:0:0:
256,192,52222,1,0,0:0:0:0:
256,192,52322,1,8,0:0:0:0:
256,192,52422,1,0,0:0:0:0:
256,192,52622,1,0,0:0:0:0:
256,192,52822,1,8,0:0:0:0:
256,192,52922,1,0,0:0:0:0:
256,192,53022,1,0,0:0:0:0:
256,192,53222,1,0,0:0:0:0:
256,192,53422,1,8,0:0:0:0:
256,192,53622,1,0,0:0:0:0:
256,192,53722,1,0,0:0:0:0:
256,192,53822,1,8,0:0:0:0:
256,192,54022,1,0,0:0:0:0:
256,192,54222,1,8,0:0:0:0:
256,192,54422,1,0,0:0:0:0:
256,192,54488,1,8,0:0:0:0:
256,192,54555,1,8,0:0:0:0:
256,192,54622,1,0,0:0:0:0:
256,192,54822,1,0,0:0:0:0:
256,192,55022,1,8,0:0:0:0:
256,192,55122,1,0,0:0:0:0:
256,192,55222,1,8,0:0:0:0:
256,192,55422,1,0,0:0:0:0:
256,192,55822,1,0,0:0:0:0:
256,192,56022,1,8,0:0:0:0:
256,192,56422,1,0,0:0:0:0:
256,192,56622,1,8,0:0:0:0:
256,192,56822,1,8,0:0:0:0:
256,192,57022,1,0,0:0:0:0:
256,192,57222,1,8,0:0:0:0:
256,192,57322,1,0,0:0:0:0:
256,192,57422,1,0,0:0:0:0:
256,192,57622,1,8,0:0:0:0:
256,192,57822,1,0,0:0:0:0:
256,192,58022,1,8,0:0:0:0:
256,192,58222,1,8,0:0:0:0:
256,192,58288,1,0,0:0:0:0:
256,192,58355,1,0,0:0:0:0:
256,192,58422,1,8,0:0:0:0:
256,192,58622,1,0,0:0:0:0:
256,192,58722,1,8,0:0:0:0:
256,192,58822,1,0,0:0:0:0:
256,192,59022,1,0,0:0:0:0:
256,192,59222,1,8,0:0:0:0:
256,192,59422,1,8,0:0:0:0:
256,192,59622,1,0,0:0:0:0:
256,192,59822,1,0,0:0:0:0:
256,192,60022,1,8,0:0:0:0:
256,192,60222,1,0,0:0:0:0:
256,192,60422,1,0,0:0:0:0:
256,192,60488,1,0,0:0:0:0:
256,192,60555,1,0,0:0:0:0:
256,192,60622,1,8,0:0:0:0:
256,192,60822,1,8,0:0:0:0:
256,192,61222,1,0,0:0:0:0:
256,192,61422,1,8,0:0:0:0:
256,192,61622,1,0,0:0:0:0:
256,192,61822,1,8,0:0:0:0:
256,192,62222,1,0,0:0:0:0:
256,192,62322,1,0,0:0:0:0:
256,192,62422,1,8,0:0:0:0:
256,192,62522,1,8,0:0:0:0:
256,192,62622,1,0,0:0:0:0:
256,192,62822,1,0,0:0:0:0:
256,192,63022,1,8,0:0:0:0:
256,192,63422,5,4,0:0:0:0:
256,192,64022,1,8,0:0:0:0:
256,192,64322,1,0,0:0:0:0:
256,192,64422,1,0,0:0:0:0:
256,192,64722,1,0,0:0:0:0:
256,192,64822,1,8,0:0:0:0:
256,192,65022,1,8,0:0:0:0:
256,192,65122,1,0,0:0:0:0:
256,192,65222,1,8,0:0:0:0:
256,192,65422,1,0,0:0:0:0:
256,192,65522,1,8,0:0:0:0:
256,192,65622,1,0,0:0:0:0:
256,192,65822,1,8,0:0:0:0:
256,192,65922,1,8,0:0:0:0:
256,192,66022,1,0,0:0:0:0:
256,192,66422,1,0,0:0:0:0:
256,192,66522,1,0,0:0:0:0:
256,192,66622,1,8,0:0:0:0:
256,192,66822,1,0,0:0:0:0:
256,192,67222,1,0,0:0:0:0:
256,192,67422,1,8,0:0:0:0:
256,192,67522,1,0,0:0:0:0:
256,192,67622,1,8,0:0:0:0:
256,192,68022,1,0,0:0:0:0:
256,192,68222,1,8,0:0:0:0:
256,192,68322,1,8,0:0:0:0:
256,192,68422,1,0,0:0:0:0:
256,192,68622,1,0,0:0:0:0:
256,192,68822,1,8,0:0:0:0:
256,192,69022,1,0,0:0:0:0:
256,192,69122,1,8,0:0:0:0:
256,192,69222,1,8,0:0:0:0:
256,192,69422,1,8,0:0:0:0:
256,192,69622,1,0,0:0:0:0:
256,192,69722,1,0,0:0:0:0:
256,192,69822,1,8,0:0:0:0:
256,192,70022,1,8,0:0:0:0:
256,192,70222,1,0,0:0:0:0:
256,192,70422,1,8,0:0:0:0:
256,192,70622,1,0,0:0:0:0:
256,192,70722,1,0,0:0:0:0:
256,192,70822,1,8,0:0:0:0:
256,192,71022,1,0,0:0:0:0:
256,192,71222,1,8,0:0:0:0:
256,192,71422,1,0,0:0:0:0:
256,192,71522,1,8,0:0:0:0:
256,192,71622,1,8,0:0:0:0:
256,192,71822,1,0,0:0:0:0:
256,192,72022,1,8,0:0:0:0:
256,192,72122,1,8,0:0:0:0:
256,192,72222,1,0,0:0:0:0:
256,192,72322,1,0,0:0:0:0:
256,192,72422,1,8,0:0:0:0:
256,192,72622,1,0,0:0:0:0:
256,192,72822,1,8,0:0:0:0:
256,192,72922,1,0,0:0:0:0:
256,192,73022,1,0,0:0:0:0:
256,192,73222,1,8,0:0:0:0:
256,192,73322,1,8,0:0:0:0:
256,192,73422,1,8,0:0:0:0:
256,192,73622,1,0,0:0:0:0:
256,192,73822,1,8,0:0:0:0:
256,192,73922,1,8,0:0:0:0:
256,192,74022,1,0,0:0:0:0:
256,192,74088,1,0,0:0:0:0:
256,192,74155,1,0,0:0:0:0:
256,192,74222,1,8,0:0:0:0:
256,192,74322,1,8,0:0:0:0:
256,192,74422,1,8,0:0:0:0:
256,192,74522,1,8,0:0:0:0:
256,192,74622,1,0,0:0:0:0:
256,192,74822,1,0,0:0:0:0:
256,192,75022,1,8,0:0:0:0:
256,192,75222,1,0,0:0:0:0:
256,192,75322,1,0,0:0:0:0:
256,192,75422,1,8,0:0:0:0:
256,192,75522,1,0,0:0:0:0:
256,192,75622,1,8,0:0:0:0:
256,192,75822,1,8,0:0:0:0:
256,192,76222,1,4,0:0:0:0:
256,192,76622,5,4,0:0:0:0:
256,192,77022,1,8,0:0:0:0:
256,192,77122,1,0,0:0:0:0:
256,192,77222,1,0,0:0:0:0:
256,192,77322,1,8,0:0:0:0:
256,192,77422,1,0,0:0:0:0:
256,192,77522,1,8,0:0:0:0:
256,192,77622,1,8,0:0:0:0:
256,192,77722,1,0,0:0:0:0:
256,192,77922,1,0,0:0:0:0:
256,192,78022,1,8,0:0:0:0:
256,192,78122,1,8,0:0:0:0:
256,192,78322,1,0,0:0:0:0:
256,192,78422,1,8,0:0:0:0:
256,192,78522,1,0,0:0:0:0:
256,192,78622,1,8,0:0:0:0:
256,192,78822,1,0,0:0:0:0:
256,192,79022,1,8,0:0:0:0:
256,192,79422,1,4,0:0:0:0:
256,192,79822,1,8,0:0:0:0:
256,192,79922,1,0,0:0:0:0:
256,192,80022,1,8,0:0:0:0:
256,192,80122,1,0,0:0:0:0:
256,192,80172,1,0,0:0:0:0:
256,192,80222,1,8,0:0:0:0:
256,192,80322,1,8,0:0:0:0:
256,192,80422,1,0,0:0:0:0:
256,192,80522,1,0,0:0:0:0:
256,192,80722,1,0,0:0:0:0:
256,192,80822,1,8,0:0:0:0:
256,192,81022,1,0,0:0:0:0:
256,192,81122,1,8,0:0:0:0:
256,192,81222,1,0,0:0:0:0:
256,192,81322,1,0,0:0:0:0:
256,192,81422,1,8,0:0:0:0:
256,192,81522,1,8,0:0:0:0:
256,192,81622,1,0,0:0:0:0:
256,192,81722,1,8,0:0:0:0:
256,192,81822,1,0,0:0:0:0:
256,192,81922,1,8,0:0:0:0:
256,192,82022,1,0,0:0:0:0:
256,192,82122,1,0,0:0:0:0:
256,192,82222,1,8,0:0:0:0:
256,192,82622,1,4,0:0:0:0:
256,192,83022,1,4,0:0:0:0:
256,192,83222,1,8,0:0:0:0:
256,192,83322,1,0,0:0:0:0:
256,192,83422,1,8,0:0:0:0:
256,192,83522,1,8,0:0:0:0:
256,192,83622,1,0,0:0:0:0:
256,192,83722,1,0,0:0:0:0:
256,192,83922,1,8,0:0:0:0:
256,192,84022,1,0,0:0:0:0:
256,192,84122,1,8,0:0:0:0:
256,192,84322,1,0,0:0:0:0:
256,192,84422,1,8,0:0:0:0:
256,192,84522,1,8,0:0:0:0:
256,192,84622,1,0,0:0:0:0:
256,192,84722,1,8,0:0:0:0:
256,192,84822,1,0,0:0:0:0:
256,192,84922,1,0,0:0:0:0:
256,192,84972,1,0,0:0:0:0:
256,192,85022,1,8,0:0:0:0:
256,192,85122,1,8,0:0:0:0:
256,192,85222,1,0,0:0:0:0:
256,192,85322,1,0,0:0:0:0:
256,192,85422,1,8,0:0:0:0:
256,192,85522,1,8,0:0:0:0:
256,192,85622,1,8,0:0:0:0:
256,192,85722,1,8,0:0:0:0:
256,192,85822,1,0,0:0:0:0:
256,192,86022,1,0,0:0:0:0:
256,192,86122,1,0,0:0:0:0:
256,192,86222,1,8,0:0:0:0:
256,192,86422,1,8,0:0:0:0:
256,192,86522,1,0,0:0:0:0:
256,192,86572,1,0,0:0:0:0:
256,192,86622,1,8,0:0:0:0:
256,192,86822,1,0,0:0:0:0:
256,192,86922,1,8,0:0:0:0:
256,192,87122,1,0,0:0:0:0:
256,192,87222,1,8,0:0:0:0:
256,192,87288,1,8,0:0:0:0:
256,192,87355,1,8,0:0:0:0:
256,192,87522,1,8,0:0:0:0:
256,192,87622,1,0,0:0:0:0:
256,192,87822,1,8,0:0:0:0:
256,192,88022,1,0,0:0:0:0:
256,192,88088,1,0,0:0:0:0:
256,192,88155,1,0,0:0:0:0:
256,192,88222,1,8,0:0:0:0:
256,192,88622,1,8,0:0:0:0:
256,192,89022,1,4,0:0:0:0:
256,192,89422,1,12,0:0:0:0:
256,192,89722,1,8,0:0:0:0:
256,192,89772,1,8,0:0:0:0:
256,192,89822,1,0,0:0:0:0:
256,192,89922,1,0,0:0:0:0:
256,192,90022,1,8,0:0:0:0:
256,192,90122,1,8,0:0:0:0:
256,192,90222,1,0,0:0:0:0:
256,192,90322,1,8,0:0:0:0:
256,192,90422,1,0,0:0:0:0:
256,192,90522,1,0,0:0:0:0:
256,192,90722,1,8,0:0:0:0:
256,192,90822,1,0,0:0:0:0:
256,192,90922,1,8,0:0:0:0:
256,192,91122,1,8,0:0:0:0:
256,192,91222,1,8,0:0:0:0:
256,192,91322,1,0,0:0:0:0:
256,192,91422,1,8,0:0:0:0:
256,192,91622,1,0,0:0:0:0:
256,192,91822,1,8,0:0:0:0:
256,192,92222,1,4,0:0:0:0:
256,192,92622,1,8,0:0:0:0:
256,192,92688,1,0,0:0:0:0:
256,192,92755,1,0,0:0:0:0:
256,192,92822,1,8,0:0:0:0:
256,192,92922,1,0,0:0:0:0:
256,192,92972,1,0,0:0:0:0:
256,192,93022,1,8,0:0:0:0:
256,192,93222,1,8,0:0:0:0:
256,192,93322,1,0,0:0:0:0:
256,192,93522,1,0,0:0:0:0:
256,192,93622,1,8,0:0:0:0:
256,192,93822,1,0,0:0:0:0:
256,192,93922,1,8,0:0:0:0:
256,192,94022,1,0,0:0:0:0:
256,192,94122,1,0,0:0:0:0:
256,192,94222,1,8,0:0:0:0:
256,192,94322,1,0,0:0:0:0:
256,192,94422,1,8,0:0:0:0:
256,192,94522,1,8,0:0:0:0:
256,192,94622,1,0,0:0:0:0:
256,192,94722,1,8,0:0:0:0:
256,192,94822,1,8,0:0:0:0:
256,192,94922,1,8,0:0:0:0:
256,192,95022,1,0,0:0:0:0:
256,192,95122,1,8,0:0:0:0:
256,192,95222,1,0,0:0:0:0:
256,192,95322,1,8,0:0:0:0:
256,192,95372,1,8,0:0:0:0:
256,192,95422,1,0,0:0:0:0:
256,192,95822,1,0,0:0:0:0:
256,192,95922,1,0,0:0:0:0:
256,192,96022,1,8,0:0:0:0:
256,192,96122,1,0,0:0:0:0:
256,192,96222,1,8,0:0:0:0:
256,192,96422,1,8,0:0:0:0:
256,192,96522,1,0,0:0:0:0:
256,192,96722,1,8,0:0:0:0:
256,192,96822,1,0,0:0:0:0:
256,192,97022,1,8,0:0:0:0:
256,192,97122,1,0,0:0:0:0:
256,192,97322,1,8,0:0:0:0:
256,192,97422,1,0,0:0:0:0:
256,192,97522,1,8,0:0:0:0:
256,192,97622,1,8,0:0:0:0:
256,192,97722,1,0,0:0:0:0:
256,192,97772,1,0,0:0:0:0:
256,192,97822,1,8,0:0:0:0:
256,192,97922,1,0,0:0:0:0:
256,192,98022,1,8,0:0:0:0:
256,192,98088,1,0,0:0:0:0:
256,192,98155,1,0,0:0:0:0:
256,192,98222,1,8,0:0:0:0:
256,192,98322,1,8,0:0:0:0:
256,192,98422,1,0,0:0:0:0:
256,192,98522,1,0,0:0:0:0:
256,192,98622,1,8,0:0:0:0:
256,192,98822,1,8,0:0:0:0:
256,192,98888,1,8,0:0:0:0:
256,192,98955,1,0,0:0:0:0:
256,192,99022,1,8,0:0:0:0:
256,192,99122,1,0,0:0:0:0:
256,192,99222,1,8,0:0:0:0:
256,192,99322,1,0,0:0:0:0:
256,192,99372,1,0,0:0:0:0:
256,192,99422,1,8,0:0:0:0:
256,192,99622,1,0,0:0:0:0:
256,192,99722,1,8,0:0:0:0:
256,192,99922,1,8,0:0:0:0:
256,192,100022,1,0,0:0:0:0:
256,192,100088,1,0,0:0:0:0:
256,192,100155,1,0,0:0:0:0:
256,192,100422,1,8,0:0:0:0:
256,192,100622,1,0,0:0:0:0:
256,192,100688,1,0,0:0:0:0:
256,192,100755,1,0,0:0:0:0:
256,192,100822,1,8,0:0:0:0:
256,192,100888,1,8,0:0:0:0:
256,192,100955,1,8,0:0:0:0:
256,192,101022,1,0,0:0:0:0:
256,192,101422,1,8,0:0:0:0:
256,192,101822,1,4,0:0:0:0:
256,192,102022,1,8,0:0:0:0:
256,192,102122,1,8,0:0:0:0:
256,192,102222,1,0,0:0:0:0:
256,192,102322,1,0,0:0:0:0:
256,192,102422,1,8,0:0:0:0:
256,192,102722,1,0,0:0:0:0:
256,192,102822,1,8,0:0:0:0:
256,192,102922,1,8,0:0:0:0:
256,192,103022,1,0,0:0:0:0:
256,192,103088,1,8,0:0:0:0:
256,192,103155,1,8,0:0:0:0:
256,192,103222,1,0,0:0:0:0:
256,192,103422,1,0,0:0:0:0:
256,192,103622,1,0,0:0:0:0:
256,192,103722,1,8,0:0:0:0:
256,192,103822,1,0,0:0:0:0:
256,192,103888,1,0,0:0:0:0:
256,192,103955,1,0,0:0:0:0:
256,192,104022,1,8,0:0:0:0:
256,192,104422,1,0,0:0:0:0:
256,192,104522,1,0,0:0:0:0:
256,192,104622,1,8,0:0:0:0:
256,192,104822,1,8,0:0:0:0:
256,192,104922,1,8,0:0:0:0:
256,192,105022,1,0,0:0:0:0:
256,192,105222,1,0,0:0:0:0:
256,192,105322,1,0,0:0:0:0:
256,192,105422,1,8,0:0:0:0:
256,192,105522,1,0,0:0:0:0:
256,192,105622,1,8,0:0:0:0:
256,192,105688,1,8,0:0:0:0:
256,192,105755,1,8,0:0:0:0:
256,192,105822,1,0,0:0:0:0:
256,192,105922,1,0,0:0:0:0:
256,192,106022,1,8,0:0:0:0:
256,192,106088,1,8,0:0:0:0:
256,192,106155,1,0,0:0:0:0:
256,192,106222,1,0,0:0:0:0:
256,192,106422,1,8,0:0:0:0:
256,192,106488,1,0,0:0:0:0:
256,192,106555,1,0,0:0:0:0:
256,192,106622,1,8,0:0:0:0:
256,192,106822,1,8,0:0:0:0:
256,192,106922,1,8,0:0:0:0:
256,192,107022,1,8,0:0:0:0:
256,192,107122,1,8,0:0:0:0:
256,192,107222,1,0,0:0:0:0:
256,192,107622,1,0,0:0:0:0:
256,192,107722,1,0,0:0:0:0:
256,192,107822,1,8,0:0:0:0:
256,192,108022,1,8,0:0:0:0:
256,192,108222,1,0,0:0:0:0:
256,192,108422,1,0,0:0:0:0:
256,192,108522,1,0,0:0:0:0:
256,192,108622,1,0,0:0:0:0:
256,192,108722,1,0,0:0:0:0:
256,192,108822,1,8,0:0:0:0:
256,192,109122,1,0,0:0:0:0:
256,192,109222,1,8,0:0:0:0:
256,192,109322,1,8,0:0:0:0:
256,192,109422,1,0,0:0:0:0:
256,192,109488,1,0,0:0:0:0:
256,192,109555,1,8,0:0:0:0:
256,192,109622,1,0,0:0:0:0:
256,192,109722,1,8,0:0:0:0:
256,192,109822,1,0,0:0:0:0:
256,192,110022,1,8,0:0:0:0:
256,192,110122,1,0,0:0:0:0:
256,192,110222,1,8,0:0:0:0:
256,192,110288,1,8,0:0:0:0:
256,192,110355,1,0,0:0:0:0:
256,192,110422,1,8,0:0:0:0:
256,192,110822,1,0,0:0:0:0:
256,192,110922,1,0,0:0:0:0:
256,192,111022,1,8,0:0:0:0:
256,192,111122,1,0,0:0:0:0:
256,192,111222,1,8,0:0:0:0:
256,192,111322,1,8,0:0:0:0:
256,192,111422,1,0,0:0:0:0:
256,192,111622,1,8,0:0:0:0:
256,192,111688,1,0,0:0:0:0:
256,192,111755,1,0,0:0:0:0:
256,192,111822,1,8,0:0:0:0:
256,192,111922,1,8,0:0:0:0:
256,192,112022,1,0,0:0:0:0:
256,192,112222,1,8,0:0:0:0:
256,192,112422,1,0,0:0:0:0:
256,192,112522,1,0,0:0:0:0:
256,192,112622,1,8,0:0:0:0:
256,192,112722,1,8,0:0:0:0:
256,192,112822,1,0,0:0:0:0:
256,192,113022,1,0,0:0:0:0:
256,192,113422,1,8,0:0:0:0:
256,192,113488,1,8,0:0:0:0:
256,192,113555,1,8,0:0:0:0:
256,192,113622,1,0,0:0:0:0:
256,192,113688,1,0,0:0:0:0:
256,192,113755,1,0,0:0:0:0:
256,192,113822,1,8,0:0:0:0:
256,192,114022,1,0,0:0:0:0:
256,192,114222,1,8,0:0:0:0:
256,192,114622,1,4,0:0:0:0:
256,192,114822,1,8,0:0:0:0:
256,192,114922,1,8,0:0:0:0:
256,192,115022,1,0,0:0:0:0:
256,192,115122,1,8,0:0:0:0:
256,192,115222,1,8,0:0:0:0:
256,192,115422,1,0,0:0:0:0:
256,192,115622,1,8,0:0:0:0:
256,192,115722,1,8,0:0:0:0:
256,192,115822,1,0,0:0:0:0:
256,192,115888,1,8,0:0:0:0:
256,192,115955,1,0,0:0:0:0:
256,192,116022,1,8,0:0:0:0:
256,192,116122,1,8,0:0:0:0:
256,192,116222,1,0,0:0:0:0:
256,192,116422,1,8,0:0:0:0:
256,192,116522,1,8,0:0:0:0:
256,192,116622,1,0,0:0:0:0:
256,192,116688,1,0,0:0:0:0:
256,192,116755,1,8,0:0:0:0:
256,192,116822,1,0,0:0:0:0:
256,192,117022,1,0,0:0:0:0:
256,192,117222,1,0,0:0:0:0:
256,192,117322,1,0,0:0:0:0:
256,192,117422,1,8,0:0:0:0:
256,192,117622,1,8,0:0:0:0:
256,192,117722,1,8,0:0:0:0:
256,192,117822,1,0,0:0:0:0:
256,192,118022,1,8,0:0:0:0:
256,192,118122,1,0,0:0:0:0:
256,192,118222,1,8,0:0:0:0:
256,192,118422,1,8,0:0:0:0:
256,192,118488,1,8,0:0:0:0:
256,192,118555,1,0,0:0:0:0:
256,192,118622,1,0,0:0:0:0:
256,192,118722,1,8,0:0:0:0:
256,192,118822,1,0,0:0:0:0:
256,192,118888,1,0,0:0:0:0:
256,192,118955,1,0,0:0:0:0:
256,192,119022,1,8,0:0:0:0:
256,192,119122,1,0,0:0:0:0:
256,192,119222,1,8,0:0:0:0:
256,192,119288,1,8,0:0:0:0:
256,192,119355,1,8,0:0:0:0:
256,192,119422,1,0,0:0:0:0:
256,192,119622,1,8,0:0:0:0:
256,192,119722,1,8,0:0:0:0:
256,192,119822,1,0,0:0:0:0:
256,192,119922,1,8,0:0:0:0:
256,192,120022,1,8,0:0:0:0:
256,192,120222,1,0,0:0:0:0:
256,192,120322,1,0,0:0:0:0:
256,192,120422,1,8,0:0:0:0:
256,192,120522,1,0,0:0:0:0:
256,192,120622,1,8,0:0:0:0:
256,192,120822,1,8,0:0:0:0:
256,192,120922,1,8,0:0:0:0:
256,192,121022,1,0,0:0:0:0:
256,192,121222,1,0,0:0:0:0:
256,192,121322,1,8,0:0:0:0:
256,192,121422,1,0,0:0:0:0:
256,192,121522,1,8,0:0:0:0:
256,192,121622,1,8,0:0:0:0:
256,192,121822,1,0,0:0:0:0:
256,192,121922,1,0,0:0:0:0:
256,192,122022,1,8,0:0:0:0:
256,192,122122,1,8,0:0:0:0:
256,192,122222,1,0,0:0:0:0:
256,192,122288,1,8,0:0:0:0:
256,192,122355,1,8,0:0:0:0:
256,192,122422,1,8,0:0:0:0:
256,192,122522,1,8,0:0:0:0:
256,192,122622,1,0,0:0:0:0:
256,192,122822,1,8,0:0:0:0:
256,192,122922,1,0,0:0:0:0:
256,192,123022,1,8,0:0:0:0:
256,192,123088,1,0,0:0:0:0:
256,192,123155,1,0,0:0:0:0:
256,192,123222,1,8,0:0:0:0:
256,192,123422,1,0,0:0:0:0:
256,192,123488,1,8,0:0:0:0:
256,192,123555,1,8,0:0:0:0:
256,192,123622,1,0,0:0:0:0:
256,192,123722,1,0,0:0:0:0:
256,192,123822,1,8,0:0:0:0:
256,192,124022,1,8,0:0:0:0:
256,192,124122,1,8,0:0:0:0:
256,192,124222,1,0,0:0:0:0:
256,192,124322,1,0,0:0:0:0:
256,192,124422,1,8,0:0:0:0:
256,192,124488,1,8,0:0:0:0:
256,192,124555,1,0,0:0:0:0:
256,192,124622,1,0,0:0:0:0:
256,192,124722,1,0,0:0:0:0:
256,192,124822,1,8,0:0:0:0:
256,192,124922,1,8,0:0:0:0:
256,192,125022,1,0,0:0:0:0:
256,192,125222,1,0,0:0:0:0:
256,192,125322,1,0,0:0:0:0:
256,192,125422,1,8,0:0:0:0:
256,192,125522,1,0,0:0:0:0:
256,192,125622,1,0,0:0:0:0:
256,192,125822,1,12,0:0:0:0:
256,192,126222,1,4,0:0:0:0:
256,192,126622,1,12,0:0:0:0:
