osu file format v14

[General]
AudioFilename: audio.mp3
AudioLeadIn: 0
PreviewTime: 37296
Countdown: 0
SampleSet: Soft
StackLeniency: 0.3
Mode: 0
LetterboxInBreaks: 0
WidescreenStoryboard: 0

[Editor]
DistanceSpacing: 1.2
BeatDivisor: 4
GridSize: 8
TimelineZoom: 1.1

[Metadata]
Title:Mare Maris
TitleUnicode:Mare Maris
Artist:M2U
ArtistUnicode:M2U
Creator:Minorsonek
Version:Mathew's Hyper
Source:maimai MiLK
Tags:M2Usonek Seulgij Axhina CptSqBany RVMathew SquareTude latin skubi video game all perfect collection shin dong whi 申東輝 classical electronic instrumental ReX sphazer infinity poly RedEye chaos star light
BeatmapID:2071505
BeatmapSetID:908811

[Difficulty]
HPDrainRate:5
CircleSize:4.5
OverallDifficulty:7
ApproachRate:8.2
SliderMultiplier:1.48
SliderTickRate:1

[Events]
//Background and Video events
0,0,"bg.jpg",0,0
//Break Periods
//Storyboard Layer 0 (Background)
//Storyboard Layer 1 (Fail)
//Storyboard Layer 2 (Pass)
//Storyboard Layer 3 (Foreground)
//Storyboard Layer 4 (Overlay)
//Storyboard Sound Samples

[TimingPoints]
-5532,396.982929734021,4,2,1,70,1,0
820,-100,4,2,1,70,0,0
1416,-100,4,2,1,70,0,0
2011,-100,4,2,1,70,0,0
3003,-100,4,2,1,70,0,0
3599,-100,4,2,1,70,0,0
3996,-100,4,2,1,70,0,0
4194,-100,4,2,1,70,0,0
4591,-100,4,2,1,70,0,0
5186,-100,4,2,1,70,0,0
5583,-100,4,2,1,70,0,0
6179,-100,4,2,1,70,0,0
7171,-100,4,2,1,70,0,0
7766,-100,4,2,1,70,0,0
8362,-100,4,2,1,70,0,0
9354,-100,4,2,1,70,0,0
9949,-100,4,2,1,70,0,0
10346,-100,4,2,1,70,0,0
10942,-100,4,2,1,70,0,0
11934,-100,4,2,1,70,0,0
11935,396.982929734021,4,2,1,70,1,0
12529,-100,4,2,1,70,0,0
13125,-100,4,2,1,70,0,0
14117,-100,4,2,1,70,0,0
15109,-100,4,2,1,70,0,0
16697,-100,4,2,1,70,0,0
17292,-100,4,2,1,70,0,0
17887,-100,4,2,1,70,0,0
18284,-100,4,2,1,70,0,0
18880,-100,4,2,1,70,0,0
19475,-100,4,2,1,70,0,0
20467,-100,4,2,1,70,0,0
21460,-100,4,2,1,70,0,0
22650,-100,4,2,1,70,0,0
23047,-100,4,2,1,70,0,0
24635,-100,4,2,2,60,0,0
27413,-100,4,2,2,60,0,0
27810,-100,4,2,2,60,0,0
30985,-100,4,2,2,60,0,0
33367,-100,4,2,2,60,0,0
33764,-100,4,2,2,60,0,0
34160,-100,4,2,2,60,0,0
35748,-100,4,2,3,60,0,0
36145,-100,4,2,3,60,0,0
36151,-100,4,2,2,60,0,0
36349,-100,4,2,1,60,0,0
36542,-100,4,2,1,60,0,0
36740,-100,4,2,1,60,0,0
36939,-100,4,2,5,60,0,0
37342,-100,4,2,1,60,0,0
37931,-100,4,2,1,80,0,0
38526,-100,4,2,1,80,0,0
38923,-100,4,2,1,80,0,0
39519,-100,4,2,1,80,0,0
39916,-100,4,2,1,80,0,0
40114,-100,4,2,1,80,0,0
40511,-100,4,2,1,80,0,0
40709,-100,4,2,1,80,0,0
40908,-100,4,2,1,80,0,0
41106,-100,4,2,1,80,0,0
41503,-100,4,2,1,80,0,0
42099,-100,4,2,1,80,0,0
42694,-100,4,2,1,80,0,0
43289,-100,4,2,1,80,0,0
43686,-100,4,2,1,80,0,0
44282,-100,4,2,1,80,0,0
44877,-100,4,2,1,80,0,0
45274,-100,4,2,1,80,0,0
45869,-100,4,2,1,80,0,0
46266,-100,4,2,1,80,0,0
46464,-100,4,2,1,80,0,0
46861,-100,4,2,1,80,0,0
47457,-100,4,2,1,80,0,0
47854,-100,4,2,1,80,0,0
48052,-100,4,2,1,80,0,0
48449,-100,4,2,1,80,0,0
48846,-100,4,2,1,80,0,0
49640,-100,4,2,5,80,0,0
50037,-100,4,2,1,80,0,0
50632,-100,4,2,1,80,0,0
51227,-100,4,2,1,80,0,0
51624,-100,4,2,1,80,0,0
52220,-100,4,2,1,80,0,0
52616,-100,4,2,1,80,0,0
52815,-100,4,2,1,80,0,0
53212,-100,4,2,1,80,0,0
53410,-100,4,2,1,80,0,0
53609,-100,4,2,1,80,0,0
53807,-100,4,2,1,80,0,0
54403,-100,4,2,1,80,0,0
54799,-100,4,2,1,80,0,0
55395,-100,4,2,1,80,0,0
56387,-100,4,2,1,80,0,0
56982,-100,4,2,1,80,0,0
57578,-100,4,2,1,80,0,0
57975,-100,4,2,1,80,0,0
58570,-100,4,2,1,80,0,0
59165,-100,4,2,1,80,0,0
59562,-100,4,2,1,80,0,0
59761,-100,4,2,1,80,0,0
59959,-100,4,2,1,80,0,0
60158,-100,4,2,1,80,0,0
60753,-100,4,2,1,80,0,0
61150,-100,4,2,1,80,0,0
61547,-100,4,2,1,80,0,0
62341,-100,4,2,1,80,0,0
62738,-106.382978723404,4,2,2,60,0,0
63928,-106.382978723404,4,2,2,60,0,0
64325,-106.382978723404,4,2,2,60,0,0
65516,-106.382978723404,4,2,2,60,0,0
65913,-106.382978723404,4,2,2,60,0,0
66111,-106.382978723404,4,2,2,60,0,0
67103,-106.382978723404,4,2,2,60,0,0
67500,-106.382978723404,4,2,2,60,0,0
67699,-106.382978723404,4,2,2,60,0,0
69088,-94.3396226415094,4,2,1,60,0,0
70676,-94.3396226415094,4,2,1,60,0,0
72263,-94.3396226415094,4,2,1,60,0,0
73851,-94.3396226415094,4,2,1,60,0,0
75042,-94.3396226415094,4,2,5,60,0,0
75339,-94.3396226415094,4,2,1,60,0,0
75452,-89.2857142857143,4,2,1,80,0,1
75835,-89.2857142857143,4,2,1,80,0,1
77423,-89.2857142857143,4,2,1,80,0,1
77820,-89.2857142857143,4,2,1,80,0,1
78217,-89.2857142857143,4,2,1,80,0,1
78614,-89.2857142857143,4,2,1,80,0,1
79408,-89.2857142857143,4,2,1,80,0,1
80003,-89.2857142857143,4,2,1,80,0,1
80598,-89.2857142857143,4,2,1,80,0,1
80995,-89.2857142857143,4,2,1,80,0,1
81789,-89.2857142857143,4,2,1,80,0,1
82186,-89.2857142857143,4,2,1,80,0,1
82583,-89.2857142857143,4,2,1,80,0,1
83773,-89.2857142857143,4,2,1,80,0,1
84170,-89.2857142857143,4,2,1,80,0,1
84567,-89.2857142857143,4,2,1,80,0,1
85956,-89.2857142857143,4,2,1,80,0,1
86353,-89.2857142857143,4,2,1,80,0,1
87346,-89.2857142857143,4,2,1,80,0,1
87743,-89.2857142857143,4,2,1,80,0,1
88139,-89.2857142857143,4,2,1,80,0,1
90521,-89.2857142857143,4,2,1,80,0,1
90918,-89.2857142857143,4,2,1,80,0,1
92307,-89.2857142857143,4,2,1,80,0,1
92704,-89.2857142857143,4,2,1,80,0,1
93696,-89.2857142857143,4,2,1,80,0,1
96871,-89.2857142857143,4,2,1,80,0,1
97665,-89.2857142857143,4,2,1,80,0,1
100065,-89.2857142857143,4,2,1,80,0,0
100443,-89.2857142857143,4,2,5,80,0,0
100840,-100,4,2,1,80,0,0
111954,-100,4,2,1,80,0,0
112747,-100,4,2,1,80,0,0
113562,-89.2857142857143,4,2,1,80,0,1
113740,-89.2857142857143,4,2,1,80,0,1
119495,-89.2857142857143,4,2,1,80,0,1
119892,-89.2857142857143,4,2,1,80,0,1
120090,-89.2857142857143,4,2,1,80,0,1
123662,-89.2857142857143,4,2,1,80,0,1
124678,-100,4,2,1,80,0,0
125051,-100,4,2,1,80,0,0
125448,-100,4,2,1,80,0,0

[Colours]
Combo1 : 240,128,15
Combo2 : 4,130,198
Combo3 : 192,192,192
Combo4 : 26,240,181

[HitObjects]
256,192,820,5,8,0:1:0:0:
256,110,1018,2,0,L|256:54,2,37,2|2|2,0:0|0:0|0:0,0:0:0:0:
256,192,1415,2,0,P|298:253|267:328,1,148,8|0,0:0|0:0,0:0:0:0:
216,264,2010,1,8,0:0:0:0:
256,192,2209,1,0,0:0:0:0:
196,136,2407,6,0,P|201:98|182:57,1,74,8|2,0:1|0:0,0:0:0:0:
119,108,2804,1,2,0:0:0:0:
196,136,3003,2,0,B|254:148|302:122|302:122|277:165,1,148,8|0,0:0|0:0,0:0:0:0:
243,229,3598,1,8,0:0:0:0:
243,229,3797,1,0,0:0:0:0:
308,310,3995,6,0,L|417:303,1,74,8|2,0:1|0:0,0:0:0:0:
381,305,4293,1,2,0:0:0:0:
381,305,4392,1,2,0:0:0:0:
445,255,4591,1,8,0:0:0:0:
445,255,4789,2,0,L|457:181,1,74,0|0,0:0|0:0,0:0:0:0:
378,202,5186,2,0,L|390:128,1,74,8|0,0:0|0:0,0:0:0:0:
328,75,5583,5,8,0:1:0:0:
405,48,5782,1,2,0:0:0:0:
390,128,5980,1,2,0:0:0:0:
328,75,6179,2,0,B|309:183|309:183|261:135,1,148,8|0,0:0|0:0,0:0:0:0:
225,99,6774,1,8,0:0:0:0:
152,136,6973,1,0,0:0:0:0:
72,69,7171,5,8,0:1:0:0:
18,130,7370,2,0,L|-1:90,2,37,2|2|2,0:0|0:0|0:0,0:0:0:0:
45,206,7767,2,0,B|24:305|24:305|68:283,1,148,8|0,0:0|0:0,0:0:0:0:
137,244,8362,1,8,0:0:0:0:
203,301,8561,1,0,0:0:0:0:
203,301,8759,6,0,P|200:341|219:393,2,74,8|2|2,0:1|0:0|0:0,0:0:0:0:
262,244,9355,2,0,P|280:169|221:110,1,148,8|0,0:0|0:0,0:0:0:0:
201,190,9950,1,8,0:0:0:0:
262,244,10149,1,0,0:0:0:0:
323,298,10347,5,8,0:1:0:0:
394,265,10546,1,2,0:0:0:0:
455,320,10744,1,2,0:0:0:0:
455,320,10943,2,0,P|461:217|356:191,1,222,6|0,0:3|0:0,0:0:0:0:
243,299,11935,6,0,P|207:286|149:298,1,74,8|2,0:1|0:0,0:0:0:0:
94,313,12332,1,0,0:0:0:0:
34,266,12530,1,8,0:0:0:0:
34,266,12729,2,0,P|25:227|36:190,1,74,0|0,0:0|0:0,0:0:0:0:
83,130,13126,1,8,0:0:0:0:
157,163,13324,1,0,0:0:0:0:
220,112,13523,6,0,P|215:73|233:33,1,74,8|2,0:1|0:0,0:0:0:0:
300,90,13920,1,2,0:0:0:0:
300,90,14118,2,0,B|318:140|291:193|291:193|341:171,1,148,8|2,0:0|0:0,0:0:0:0:
349,168,14615,1,0,0:0:0:0:
369,160,14714,2,0,L|361:216,3,37,10|0|2|0,0:0|0:0|0:0|0:0,0:0:0:0:
372,217,15111,6,0,P|411:213|456:244,1,74,8|2,0:1|0:0,0:0:0:0:
395,304,15508,1,2,0:0:0:0:
395,304,15706,2,0,B|291:283|291:283|228:314,1,148,8|2,0:0|0:0,0:0:0:0:
253,301,16203,1,2,0:0:0:0:
253,301,16302,1,10,0:0:0:0:
183,342,16500,1,0,0:0:0:0:
115,296,16699,6,0,P|103:263|109:215,1,74,8|2,0:1|0:0,0:0:0:0:
183,250,17096,1,0,0:0:0:0:
115,296,17294,1,8,0:0:0:0:
35,281,17493,1,0,0:0:0:0:
110,311,17691,1,0,0:0:0:0:
183,250,17890,2,0,P|195:283|189:331,1,74,10|0,0:0|0:0,0:0:0:0:
302,370,18287,5,8,0:1:0:0:
370,326,18485,2,0,L|410:340,2,37,2|0|0,0:0|0:0|0:0,0:0:0:0:
295,291,18882,2,0,B|329:248|329:248|296:207|321:151,1,148,8|0,0:0|0:0,0:0:0:0:
390,196,19478,1,8,0:0:0:0:
465,227,19676,1,0,0:0:0:0:
502,144,19875,5,8,0:1:0:0:
467,70,20073,1,2,0:0:0:0:
447,81,20172,1,2,0:0:0:0:
428,92,20272,1,2,0:0:0:0:
366,39,20470,2,0,B|272:68|272:68|206:34,1,148,8|2,0:0|0:0,0:0:0:0:
208,34,20966,1,0,0:0:0:0:
188,23,21066,2,0,L|131:47,3,37,10|0|2|0,0:0|0:0|0:0|0:0,0:0:0:0:
133,47,21463,5,8,0:1:0:0:
59,80,21661,1,2,0:0:0:0:
64,101,21760,1,2,0:0:0:0:
69,122,21860,1,2,0:0:0:0:
86,201,22058,2,0,B|66:306|66:306|125:273,1,148,8|2,0:0|0:0,0:0:0:0:
175,251,22654,1,8,0:0:0:0:
247,317,22852,1,0,0:0:0:0:
247,317,23051,6,0,P|272:248|234:172,1,148,8|0,0:1|0:0,0:0:0:0:
179,133,23646,2,0,L|117:133,4,37,10|0|2|2|2,0:0|0:0|0:0|0:0|0:0,0:0:0:0:
259,108,24241,1,10,0:0:0:0:
259,108,24440,1,0,0:0:0:0:
333,171,24638,6,0,B|378:196|427:175|427:175|392:228,1,148,6|8,0:3|0:0,0:0:0:0:
333,329,25234,2,0,L|274:350,2,37,0|0|2,0:0|0:0|0:3,0:0:0:0:
453,276,25631,2,0,L|513:293,2,37,0|0|8,0:0|0:0|0:0,0:0:0:0:
324,249,26028,6,0,L|285:199,2,37,0|0|2,0:0|0:0|0:3,0:0:0:0:
414,348,26425,2,0,L|416:410,2,37,0|0|8,0:0|0:0|0:0,0:0:0:0:
399,216,26822,1,0,0:0:0:0:
399,216,26921,1,0,0:0:0:0:
399,216,27020,2,0,L|433:163,2,37,2|0|0,0:3|0:0|0:0,0:0:0:0:
319,330,27417,1,8,0:0:0:0:
244,336,27616,1,0,0:0:0:0:
244,336,27715,1,0,0:0:0:0:
244,336,27814,6,0,B|205:304|156:304|156:304|202:261,1,148,2|8,0:3|0:0,0:0:0:0:
271,220,28410,1,0,0:0:0:0:
271,220,28509,1,0,0:0:0:0:
271,220,28608,1,2,0:3:0:0:
350,236,28807,1,0,0:0:0:0:
348,221,28906,1,0,0:0:0:0:
346,206,29005,1,8,0:0:0:0:
409,155,29204,1,0,0:0:0:0:
396,136,29303,1,0,0:0:0:0:
383,117,29402,5,2,0:3:0:0:
343,45,29601,2,0,L|358:-10,2,37,0|0|8,0:0|0:0|0:0,0:0:0:0:
263,63,29998,1,0,0:0:0:0:
263,63,30097,1,0,0:0:0:0:
263,63,30196,2,0,L|278:8,2,37,2|0|8,0:3|0:0|0:0,0:0:0:0:
231,138,30593,1,8,0:0:0:0:
269,210,30792,1,0,0:0:0:0:
172,271,30990,6,0,B|127:246|78:267|78:267|113:214,1,148,6|8,0:3|0:0,0:0:0:0:
172,113,31586,2,0,L|231:92,2,37,0|0|2,0:0|0:0|0:3,0:0:0:0:
52,166,31983,2,0,L|-8:149,2,37,0|0|8,0:0|0:0|0:0,0:0:0:0:
181,193,32380,6,0,L|220:243,2,37,0|0|2,0:0|0:0|0:3,0:0:0:0:
91,94,32777,2,0,L|89:32,2,37,0|0|8,0:0|0:0|0:0,0:0:0:0:
106,226,33174,2,0,L|72:279,2,37,0|0|2,0:0|0:0|0:3,0:0:0:0:
172,113,33571,1,0,0:0:0:0:
245,147,33769,2,0,P|286:156|333:147,1,74,8|0,0:0|0:0,0:0:0:0:
339,149,34067,1,0,0:0:0:0:
360,146,34166,6,0,B|395:253|395:253|332:239,1,148,2|8,0:3|0:0,0:0:0:0:
287,234,34762,1,0,0:0:0:0:
287,234,34861,1,0,0:0:0:0:
287,234,34960,1,2,0:3:0:0:
208,218,35159,1,0,0:0:0:0:
210,233,35258,1,0,0:0:0:0:
212,248,35357,1,8,0:0:0:0:
149,299,35556,1,0,0:0:0:0:
162,318,35655,1,0,0:0:0:0:
175,337,35754,5,4,0:1:0:0:
331,290,36151,1,8,0:0:0:0:
487,247,36548,1,6,0:0:0:0:
487,247,36647,1,0,0:0:0:0:
487,247,36746,1,6,0:0:0:0:
467,167,36945,1,10,0:1:0:0:
256,25,37342,5,6,0:2:0:0:
300,102,37540,1,2,0:1:0:0:
308,119,37640,1,2,0:1:0:0:
316,136,37739,1,2,0:0:0:0:
256,192,37937,2,0,P|214:253|245:328,1,148,8|2,0:0|0:1,0:0:0:0:
296,264,38533,1,8,0:2:0:0:
256,192,38731,1,2,0:1:0:0:
316,136,38930,6,0,P|311:98|330:57,1,74,6|2,0:0|0:1,0:0:0:0:
393,108,39327,1,2,0:0:0:0:
316,136,39525,2,0,B|258:148|210:122|210:122|235:165,1,148,8|2,0:0|0:1,0:0:0:0:
269,229,40121,1,8,0:2:0:0:
269,229,40319,1,2,0:1:0:0:
205,307,40518,5,6,0:0:0:0:
127,283,40716,2,0,L|136:330,2,37,2|2|2,0:1|0:1|0:0,0:0:0:0:
114,207,41113,1,8,0:0:0:0:
114,207,41312,2,0,P|106:170|127:116,1,74,0|2,0:0|0:1,0:0:0:0:
187,99,41709,2,0,P|195:136|174:190,1,74,8|2,0:0|0:1,0:0:0:0:
114,207,42106,5,6,0:0:0:0:
37,180,42304,1,0,0:0:0:0:
53,264,42503,1,2,0:0:0:0:
53,264,42701,2,0,B|72:372|72:372|120:324,1,148,8|2,0:0|0:1,0:0:0:0:
157,287,43297,1,8,0:0:0:0:
230,324,43495,1,2,0:1:0:0:
310,257,43694,5,6,0:0:0:0:
333,335,43892,2,0,L|346:377,2,37,2|2|2,0:1|0:1|0:0,0:0:0:0:
310,257,44289,2,0,B|409:278|409:278|387:234,1,148,8|2,0:0|0:1,0:0:0:0:
353,162,44885,1,8,0:0:0:0:
414,109,45083,1,2,0:1:0:0:
414,109,45282,6,0,P|416:70|385:33,1,74,6|2,0:0|0:1,0:0:0:0:
326,2,45679,1,2,0:0:0:0:
275,65,45877,1,8,0:0:0:0:
275,65,46076,2,0,L|199:65,1,74,0|2,0:0|0:1,0:0:0:0:
119,65,46473,1,8,0:0:0:0:
201,65,46671,1,0,0:0:0:0:
256,162,46870,5,6,0:0:0:0:
325,119,47068,1,2,0:1:0:0:
404,151,47267,1,2,0:0:0:0:
404,151,47465,2,0,P|442:235|410:289,1,148,8|2,0:0|0:1,0:0:0:0:
365,340,48060,1,8,0:0:0:0:
287,313,48259,1,2,0:1:0:0:
292,291,48358,1,0,0:0:0:0:
298,269,48457,1,6,0:0:0:0:
298,269,48854,5,0,0:0:0:0:
371,304,49053,1,8,0:0:0:0:
390,314,49152,1,0,0:0:0:0:
410,323,49251,2,0,L|393:249,2,74,6|8|10,0:0|0:0|0:1,0:0:0:0:
344,371,49847,1,0,0:0:0:0:
256,309,50045,5,6,0:0:0:0:
185,348,50244,2,0,L|149:367,2,37,2|2|2,0:0|0:0|0:0,0:0:0:0:
256,309,50641,2,0,B|245:256|245:256|256:217|256:217|245:163,1,148,8|2,0:0|0:1,0:0:0:0:
316,123,51236,2,0,L|336:220,1,74,8|2,0:0|0:1,0:0:0:0:
398,150,51633,6,0,L|418:247,2,74,6|2|2,0:0|0:1|0:0,0:0:0:0:
470,109,52229,1,8,0:0:0:0:
470,109,52427,2,0,L|484:181,1,74,0|2,0:0|0:1,0:0:0:0:
412,222,52824,1,8,0:0:0:0:
451,293,53023,1,0,0:0:0:0:
374,355,53221,6,0,P|407:352|447:373,2,74,6|2|2,0:0|0:1|0:0,0:0:0:0:
295,375,53817,1,8,0:0:0:0:
256,302,54015,1,0,0:0:0:0:
217,375,54214,1,2,0:1:0:0:
138,355,54412,1,8,0:0:0:0:
59,375,54611,1,0,0:0:0:0:
59,375,54809,6,0,L|74:278,1,74,6|2,0:0|0:1,0:0:0:0:
147,274,55206,1,2,0:0:0:0:
147,274,55405,2,0,B|131:377|131:377|187:350,1,148,8|2,0:0|0:1,0:0:0:0:
242,320,56000,1,8,0:0:0:0:
300,377,56199,1,2,0:1:0:0:
348,283,56397,5,6,0:0:0:0:
413,331,56596,1,2,0:1:0:0:
422,310,56695,1,2,0:1:0:0:
430,289,56794,1,2,0:0:0:0:
461,214,56993,2,0,P|477:144|426:85,1,148,8|2,0:0|0:1,0:0:0:0:
398,162,57588,1,8,0:0:0:0:
331,122,57787,1,2,0:1:0:0:
331,122,57985,6,0,L|340:45,2,74,6|2|2,0:0|0:1|0:0,0:0:0:0:
268,174,58581,1,8,0:0:0:0:
268,174,58779,2,0,P|229:163|188:171,1,74,0|2,0:0|0:1,0:0:0:0:
225,243,59176,1,8,0:0:0:0:
268,174,59374,1,2,0:1:0:0:
165,76,59573,5,6,0:0:0:0:
101,126,59771,1,2,0:1:0:0:
41,79,59970,1,2,0:0:0:0:
41,79,60168,2,0,P|27:142|80:200,1,148,8|2,0:0|0:1,0:0:0:0:
158,178,60764,2,0,L|144:250,1,74,8|2,0:0|0:1,0:0:0:0:
129,331,61161,5,6,0:0:0:0:
129,331,61558,1,2,0:0:0:0:
204,360,61756,1,8,0:0:0:0:
225,367,61856,1,0,0:0:0:0:
245,374,61955,2,0,L|233:266,2,74,2|2|12,0:0|0:1|0:0,0:0:0:0:
355,267,62749,6,0,L|346:340,2,69.5599989385987,10|0|10,0:0|0:0|0:0,0:0:0:0:
410,214,63344,1,0,0:0:0:0:
344,175,63543,1,10,0:0:0:0:
340,153,63642,1,0,0:0:0:0:
337,132,63741,1,0,0:0:0:0:
247,113,63940,2,0,L|241:66,3,34.7799994692993,10|0|0|0,0:0|0:0|0:0|0:0,0:0:0:0:
240,58,64337,6,0,L|171:48,1,69.5599989385987,10|0,0:0|0:0,0:0:0:0:
100,79,64734,1,10,0:0:0:0:
45,25,64932,1,0,0:0:0:0:
6,110,65131,1,10,0:0:0:0:
8,132,65230,1,0,0:0:0:0:
11,152,65329,1,0,0:0:0:0:
25,230,65528,2,0,P|64:222|101:234,1,69.5599989385987,10|0,0:0|0:0,0:0:0:0:
156,293,65925,5,10,0:0:0:0:
237,275,66123,1,0,0:0:0:0:
237,275,66222,1,0,0:0:0:0:
237,275,66322,1,10,0:0:0:0:
253,356,66520,1,0,0:0:0:0:
173,380,66719,1,10,0:0:0:0:
173,380,66818,1,0,0:0:0:0:
173,380,66917,1,0,0:0:0:0:
156,293,67116,1,10,0:0:0:0:
143,217,67314,1,0,0:0:0:0:
79,163,67513,6,0,P|43:175|-9:164,2,69.5599989385987,10|0|10,0:0|0:0|0:0,0:0:0:0:
151,136,68108,1,0,0:0:0:0:
213,188,68307,1,10,0:0:0:0:
209,210,68406,1,0,0:0:0:0:
205,230,68505,1,0,0:0:0:0:
278,287,68704,2,0,L|362:281,1,69.5599989385987,10|0,0:0|0:0,0:0:0:0:
369,281,69001,1,0,0:0:0:0:
393,279,69101,6,0,P|387:237|407:193,1,78.4400001196899,4|0,0:0|0:0,0:0:0:0:
415,102,69498,2,0,P|384:126|346:134,1,78.4400001196899,4|0,0:0|0:0,0:0:0:0:
248,170,69895,2,0,P|285:183|311:213,2,78.4400001196899,4|0|4,0:0|0:0|0:0,0:0:0:0:
161,207,70490,1,0,0:0:0:0:
161,207,70688,6,0,L|145:118,1,78.4400001196899,4|0,0:0|0:0,0:0:0:0:
63,107,71085,2,0,L|76:184,1,78.4400001196899,4|0,0:0|0:0,0:0:0:0:
161,207,71482,1,4,0:0:0:0:
140,291,71681,1,0,0:0:0:0:
220,260,71879,1,4,0:0:0:0:
286,315,72078,1,0,0:0:0:0:
304,300,72177,1,0,0:0:0:0:
322,284,72276,6,0,P|315:323|329:359,1,78.4400001196899,6|6,0:0|0:0,0:0:0:0:
189,284,72673,2,0,P|196:323|182:359,1,78.4400001196899,6|6,0:0|0:0,0:0:0:0:
378,217,73070,2,0,P|406:244|444:253,1,78.4400001196899,6|6,0:0|0:0,0:0:0:0:
134,217,73467,2,0,P|105:244|67:253,1,78.4400001196899,6|6,0:0|0:0,0:0:0:0:
256,258,73864,5,6,0:3:0:0:
219,179,74063,1,0,0:0:0:0:
274,112,74261,1,0,0:0:0:0:
274,112,74460,2,0,B|205:224|250:298|350:234|272:197,1,235.32000035907,2|10,0:0|0:1,0:0:0:0:
271,196,75452,6,0,B|292:241|265:304|265:304|283:278|316:265,1,165.760002023438,14|14,0:0|0:0,0:0:0:0:
392,239,76048,1,0,0:0:0:0:
486,254,76246,2,0,L|478:211,3,41.4400005058594,8|0|2|0,0:0|0:0|0:0|0:0,0:0:0:0:
464,122,76742,2,0,L|479:84,2,41.4400005058594,0|2|0,0:0|0:0|0:0,0:0:0:0:
385,106,77139,5,2,0:0:0:0:
377,125,77239,1,2,0:0:0:0:
369,144,77338,1,2,0:0:0:0:
306,214,77536,1,0,0:0:0:0:
306,214,77636,1,2,0:0:0:0:
306,214,77735,1,2,0:0:0:0:
306,214,77834,2,0,B|267:272|317:329|317:329|355:297,1,165.760002023438,14|14,0:0|0:0,0:0:0:0:
474,177,78628,5,14,0:0:0:0:
424,352,79025,1,8,0:0:0:0:
347,303,79224,1,0,0:0:0:0:
351,327,79323,1,0,0:0:0:0:
355,351,79422,2,0,L|270:346,1,82.8800010117188,8|0,0:0|0:0,0:0:0:0:
250,333,79720,2,0,L|167:337,1,82.8800010117188,8|0,0:0|0:0,0:0:0:0:
146,324,80018,2,0,B|102:315|65:324|65:324|90:284,1,124.320001517578,8|0,0:0|0:0,0:0:0:0:
103,268,80415,5,12,0:0:0:0:
155,193,80613,1,12,0:0:0:0:
165,170,80712,1,0,0:0:0:0:
168,146,80812,1,0,0:0:0:0:
162,122,80911,1,0,0:0:0:0:
147,102,81010,2,0,B|100:108|58:81|58:81|76:125,1,124.320001517578,14|0,0:0|0:0,0:0:0:0:
71,134,81407,2,0,P|35:177|51:268,1,124.320001517578,14|0,0:0|0:0,0:0:0:0:
48,264,81804,6,0,B|153:311|153:311|138:232,1,165.760002023438,14|14,0:0|0:0,0:0:0:0:
207,196,82399,1,0,0:0:0:0:
207,196,82499,1,0,0:0:0:0:
207,196,82598,2,0,L|197:147,3,41.4400005058594,8|0|2|0,0:0|0:0|0:0|0:0,0:0:0:0:
128,110,83094,1,2,0:0:0:0:
123,89,83193,1,2,0:0:0:0:
119,69,83293,1,2,0:0:0:0:
40,150,83491,2,0,L|50:101,2,41.4400005058594,0|2|0,0:0|0:0|0:0,0:0:0:0:
26,170,83789,5,0,0:0:0:0:
28,194,83888,1,2,0:0:0:0:
31,218,83987,1,2,0:0:0:0:
34,242,84087,1,0,0:0:0:0:
35,266,84186,2,0,B|21:313|21:313|76:267|143:281,1,165.760002023438,14|14,0:0|0:0,0:0:0:0:
208,305,84781,1,0,0:0:0:0:
288,235,84980,6,0,P|326:256|384:237,1,82.8800010117188,14|0,0:0|0:0,0:0:0:0:
425,195,85377,1,14,0:0:0:0:
464,268,85575,1,2,0:0:0:0:
485,259,85675,1,2,0:0:0:0:
505,251,85774,2,0,L|487:332,1,82.8800010117188,8|0,0:0|0:0,0:0:0:0:
472,352,86072,2,0,L|375:348,1,82.8800010117188,8|0,0:0|0:0,0:0:0:0:
368,334,86369,2,0,B|330:329|330:329|296:353|296:353|237:345,1,124.320001517578,8|0,0:0|0:0,0:0:0:0:
227,342,86766,5,6,0:0:0:0:
118,302,86965,2,0,B|10:327|10:327|44:272,2,165.760002023438,12|14|14,0:0|0:0|0:0,0:0:0:0:
179,86,88156,6,0,P|112:128|31:98,1,165.760002023438,14|14,0:0|0:0,0:0:0:0:
100,37,88751,1,0,0:0:0:0:
179,86,88950,1,8,0:0:0:0:
196,97,89049,1,0,0:0:0:0:
213,107,89148,1,2,0:0:0:0:
230,118,89247,1,2,0:0:0:0:
313,156,89446,2,0,L|306:115,2,41.4400005058594,2|2|2,0:0|0:0|0:0,0:0:0:0:
399,198,89843,2,0,L|391:151,2,41.4400005058594,2|0|2,0:0|0:0|0:0,0:0:0:0:
371,229,90141,5,2,0:0:0:0:
365,253,90240,1,0,0:0:0:0:
361,277,90339,1,2,0:0:0:0:
355,301,90438,1,2,0:0:0:0:
349,325,90538,2,0,B|370:363|370:363|316:317|241:336,1,165.760002023438,14|14,0:0|0:0,0:0:0:0:
175,348,91133,1,0,0:0:0:0:
162,238,91332,5,14,0:0:0:0:
0,379,91729,1,8,0:0:0:0:
109,328,91927,1,0,0:0:0:0:
132,336,92026,1,0,0:0:0:0:
156,343,92126,2,0,L|148:240,1,82.8800010117188,8|0,0:0|0:0,0:0:0:0:
162,238,92423,2,0,L|154:135,1,82.8800010117188,8|0,0:0|0:0,0:0:0:0:
164,131,92721,6,0,B|263:150|263:150|250:114,1,124.320001517578,8|0,0:0|0:0,0:0:0:0:
247,105,93118,1,14,0:0:0:0:
334,92,93317,1,8,0:0:0:0:
326,71,93416,1,0,0:0:0:0:
318,52,93515,1,0,0:0:0:0:
311,33,93614,1,0,0:0:0:0:
304,15,93714,2,0,B|430:25|430:25|401:71,1,165.760002023438,14|14,0:0|0:0,0:0:0:0:
353,153,94309,1,2,0:0:0:0:
359,168,94408,1,2,0:0:0:0:
365,183,94507,6,0,B|421:225|421:225|318:248,1,165.760002023438,14|2,0:0|0:0,0:0:0:0:
238,264,95103,1,2,0:0:0:0:
167,321,95301,2,0,P|127:311|73:338,1,82.8800010117188,14|2,0:0|0:0,0:0:0:0:
68,338,95599,2,0,L|83:253,1,82.8800010117188,8|2,0:0|0:0,0:0:0:0:
89,232,95897,1,8,0:0:0:0:
94,207,95996,1,2,0:0:0:0:
64,120,96195,2,0,L|56:77,2,41.4400005058594,8|2|10,0:0|0:0|0:0,0:0:0:0:
83,128,96492,5,0,0:0:0:0:
102,134,96592,1,8,0:0:0:0:
121,140,96691,1,2,0:0:0:0:
139,148,96790,1,2,0:0:0:0:
158,155,96889,2,0,B|184:199|163:259|163:259|211:215,1,165.760002023438,14|14,0:0|0:0,0:0:0:0:
272,156,97485,1,0,0:0:0:0:
365,215,97683,6,0,B|414:271|386:333|386:333|349:314,1,165.760002023438,14|8,0:0|0:0,0:0:0:0:
280,277,98279,1,2,0:0:0:0:
280,277,98378,1,2,0:0:0:0:
280,277,98477,2,0,L|177:287,1,82.8800010117188,8|6,0:0|0:0,0:0:0:0:
178,301,98775,2,0,L|95:309,1,82.8800010117188,0|0,0:0|0:0,0:0:0:0:
74,321,99073,1,12,0:0:0:0:
256,192,99271,12,10,100462,0:1:0:0:
385,46,100859,5,6,0:0:0:0:
466,46,101058,2,0,L|502:46,2,37,2|2|2,0:0|0:1|0:1,0:0:0:0:
385,46,101455,2,0,B|329:46|329:46|297:70|297:70|233:70,1,148,8|2,0:0|0:1,0:0:0:0:
181,121,102050,2,0,L|142:128,2,37,8|0|2,0:0|0:0|0:1,0:0:0:0:
256,153,102447,6,0,P|276:186|267:245,1,74,10|2,0:0|0:0,0:0:0:0:
270,242,102745,1,2,0:1:0:0:
257,260,102844,1,2,0:1:0:0:
207,324,103043,1,8,0:0:0:0:
294,356,103241,2,0,L|382:346,1,74,0|2,0:0|0:0,0:0:0:0:
426,291,103638,1,8,0:0:0:0:
376,226,103837,1,0,0:0:0:0:
431,148,104035,6,0,P|466:161|511:150,2,74,8|2|2,0:0|0:0|0:1,0:0:0:0:
380,84,104631,1,8,0:0:0:0:
314,131,104829,1,0,0:0:0:0:
237,102,105028,1,2,0:1:0:0:
240,123,105127,1,2,0:1:0:0:
243,144,105226,1,8,0:0:0:0:
206,218,105425,1,0,0:0:0:0:
206,218,105623,6,0,L|109:203,1,74,6|0,0:0|0:0,0:0:0:0:
88,275,106020,1,2,0:0:0:0:
88,275,106218,2,0,B|191:291|191:291|153:339,1,148,8|2,0:0|0:0,0:0:0:0:
106,383,106814,1,8,0:0:0:0:
163,325,107012,1,2,0:1:0:0:
247,373,107211,5,6,0:0:0:0:
306,317,107409,1,2,0:0:0:0:
301,295,107509,1,2,0:1:0:0:
296,273,107608,1,2,0:1:0:0:
291,251,107707,1,2,0:1:0:0:
286,229,107806,2,0,B|344:241|344:241|302:160,1,148,8|2,0:0|0:1,0:0:0:0:
262,90,108402,1,8,0:0:0:0:
185,116,108600,1,2,0:1:0:0:
185,116,108799,6,0,L|95:105,2,74,6|2|2,0:0|0:0|0:1,0:0:0:0:
256,75,109394,2,0,L|346:86,1,74,8|0,0:0|0:0,0:0:0:0:
417,103,109791,1,2,0:0:0:0:
417,103,109891,1,2,0:0:0:0:
417,103,109990,1,8,0:0:0:0:
469,167,110188,1,0,0:0:0:0:
401,235,110387,5,6,0:0:0:0:
401,235,110585,2,0,L|441:262,2,37,2|2|2,0:0|0:0|0:0,0:0:0:0:
333,189,110982,2,0,P|315:251|363:325,1,148,8|2,0:0|0:0,0:0:0:0:
418,371,111578,2,0,L|511:385,2,74,8|0|6,0:0|0:0|0:0,0:0:0:0:
354,319,112173,5,0,0:0:0:0:
284,361,112372,1,6,0:0:0:0:
228,292,112570,1,2,0:0:0:0:
207,299,112669,1,2,0:0:0:0:
187,306,112769,2,0,L|205:202,2,74,6|2|12,0:0|0:1|0:0,0:0:0:0:
116,348,113364,1,0,0:0:0:0:
73,263,113563,5,14,0:0:0:0:
32,180,113761,2,0,L|49:129,2,41.4400005058594,0|0|14,0:0|0:0|0:0,0:0:0:0:
73,263,114158,1,6,0:3:0:0:
73,263,114357,2,0,P|115:258|164:278,1,82.8800010117188,8|6,0:1|0:0,0:0:0:0:
174,257,114654,1,0,0:0:0:0:
195,245,114754,2,0,P|234:257|274:252,1,82.8800010117188,10|0,0:0|0:0,0:0:0:0:
355,209,115151,6,0,P|351:167|369:125,2,82.8800010117188,14|2|14,0:0|0:0|0:0,0:0:0:0:
389,293,115746,1,6,0:3:0:0:
475,268,115945,2,0,B|459:358,2,82.8800010117188,8|2|14,0:1|0:0|0:0,0:0:0:0:
415,179,116540,1,2,0:0:0:0:
393,191,116639,1,2,0:0:0:0:
371,203,116739,6,0,B|385:121,1,82.8800010117188,14|0,0:0|0:0,0:0:0:0:
402,32,117135,1,14,0:0:0:0:
316,63,117334,1,6,0:3:0:0:
239,14,117532,1,8,0:1:0:0:
163,65,117731,2,0,L|151:15,2,41.4400005058594,2|2|14,0:0|0:0|0:0,0:0:0:0:
182,154,118128,1,2,0:0:0:0:
182,154,118326,6,0,P|143:140|90:153,1,82.8800010117188,14|0,0:0|0:0,0:0:0:0:
81,158,118624,1,0,0:0:0:0:
62,175,118723,2,0,P|47:208|53:257,1,82.8800010117188,10|2,0:0|0:0,0:0:0:0:
96,332,119120,1,14,0:0:0:0:
180,297,119319,1,0,0:0:0:0:
174,321,119418,1,0,0:0:0:0:
169,345,119517,1,14,0:0:0:0:
256,371,119716,1,0,0:0:0:0:
332,297,119914,6,0,B|346:359|346:359|365:345,1,82.8800010117188,14|0,0:0|0:0,0:0:0:0:
382,333,120212,1,0,0:0:0:0:
402,318,120311,2,0,P|412:283|390:222,1,82.8800010117188,14|6,0:0|0:3,0:0:0:0:
340,171,120708,1,8,0:1:0:0:
255,203,120907,1,0,0:0:0:0:
188,140,121105,2,0,P|181:99|202:52,1,82.8800010117188,14|2,0:0|0:0,0:0:0:0:
270,9,121502,5,14,0:0:0:0:
327,80,121701,1,2,0:0:0:0:
350,72,121800,1,2,0:0:0:0:
373,64,121899,1,14,0:0:0:0:
487,159,122098,1,6,0:3:0:0:
339,148,122296,1,8,0:1:0:0:
466,72,122495,2,0,L|482:32,2,41.4400005058594,0|0|14,0:0|0:0|0:0,0:0:0:0:
405,217,122892,1,2,0:0:0:0:
412,240,122991,1,2,0:0:0:0:
418,264,123090,6,0,P|459:256|499:269,2,82.8800010117188,14|2|2,0:0|0:0|0:0,0:0:0:0:
335,303,123686,1,6,0:3:0:0:
256,350,123884,1,0,0:0:0:0:
177,303,124083,2,0,L|191:242,2,41.4400005058594,0|0|14,0:0|0:0|0:0,0:0:0:0:
91,334,124480,1,2,0:0:0:0:
84,310,124579,1,2,0:0:0:0:
78,288,124678,5,6,0:0:0:0:
434,288,125075,1,6,0:0:0:0:
256,192,125472,5,14,0:0:0:0:
