osu file format v14

[General]
AudioFilename: audio.mp3
AudioLeadIn: 0
PreviewTime: 37296
Countdown: 0
SampleSet: Soft
StackLeniency: 0.3
Mode: 0
LetterboxInBreaks: 0
WidescreenStoryboard: 0

[Editor]
Bookmarks: 100794
DistanceSpacing: 1.2
BeatDivisor: 8
GridSize: 8
TimelineZoom: 1.1

[Metadata]
Title:Mare Maris
TitleUnicode:Mare Maris
Artist:M2U
ArtistUnicode:M2U
Creator:Minorsonek
Version:Challenge
Source:maimai MiLK
Tags:M2Usonek Seulgij Axhina CptSqBany RVMathew SquareTude latin skubi video game all perfect collection shin dong whi 申東輝 classical electronic instrumental ReX sphazer infinity poly RedEye chaos star light
BeatmapID:1896581
BeatmapSetID:908811

[Difficulty]
HPDrainRate:6
CircleSize:4.4
OverallDifficulty:8.8
ApproachRate:9.4
SliderMultiplier:2.6
SliderTickRate:1

[Events]
//Background and Video events
0,0,"bg.jpg",0,0
//Break Periods
//Storyboard Layer 0 (Background)
//Storyboard Layer 1 (Fail)
//Storyboard Layer 2 (Pass)
//Storyboard Layer 3 (Foreground)
//Storyboard Layer 4 (Overlay)
//Storyboard Sound Samples

[TimingPoints]
-5532,396.982929734021,4,2,1,70,1,0
422,-166.666666666667,4,2,1,70,0,0
820,-125,4,2,1,70,0,0
1415,-125,4,2,1,70,0,0
2407,-100,4,2,1,70,0,0
3003,-125,4,2,1,70,0,0
3995,-100,4,2,1,70,0,0
5583,-133.333333333333,4,2,1,70,0,0
7171,-125,4,2,1,70,0,0
8759,-100,4,2,1,70,0,0
9354,-125,4,2,1,70,0,0
10346,-100,4,2,1,70,0,0
10942,-133.333333333333,4,2,1,70,0,0
11934,-100,4,2,1,70,0,0
11935,396.982929734021,4,2,1,70,1,0
12529,-83.3333333333333,4,2,1,70,0,0
13125,-100,4,2,1,70,0,0
13521,-83.3333333333333,4,2,1,70,0,0
15109,-100,4,2,1,70,0,0
15704,-83.3333333333333,4,2,1,70,0,0
16697,-100,4,2,1,70,0,0
17292,-71.4285714285714,4,2,1,70,0,0
17490,-100,4,2,1,70,0,0
18284,-100,4,2,1,70,0,0
18880,-83.3333333333333,4,2,1,70,0,0
19475,-100,4,2,1,70,0,0
19872,-83.3333333333333,4,2,1,70,0,0
21460,-100,4,2,1,70,0,0
22055,-83.3333333333333,4,2,1,70,0,0
23051,-100,4,2,1,70,0,0
24635,-71.4285714285714,4,2,2,60,0,0
25230,-83.3333333333333,4,2,2,60,0,0
27810,-71.4285714285714,4,2,2,60,0,0
28405,-83.3333333333333,4,2,2,60,0,0
30985,-71.4285714285714,4,2,2,60,0,0
31580,-83.3333333333333,4,2,2,60,0,0
34160,-71.4285714285714,4,2,2,60,0,0
34755,-83.3333333333333,4,2,2,60,0,0
35748,-71.4285714285714,4,2,3,60,0,0
36151,-71.4285714285714,4,2,2,60,0,0
36349,-71.4285714285714,4,2,1,60,0,0
36542,-62.5,4,2,1,60,0,0
36740,-55.5555555555556,4,2,1,60,0,0
36939,-50,4,2,5,60,0,0
37342,-100,4,2,1,60,0,0
37931,-62.5,4,2,1,80,0,0
38526,-71.4285714285714,4,2,1,80,0,0
38923,-66.6666666666667,4,2,1,80,0,0
39519,-62.5,4,2,1,80,0,0
39916,-100,4,2,1,80,0,0
41106,-62.5,4,2,1,80,0,0
41702,-100,4,2,1,80,0,0
42099,-66.6666666666667,4,2,1,80,0,0
42694,-100,4,2,1,80,0,0
43289,-133.333333333333,4,2,1,80,0,0
43686,-100,4,2,1,80,0,0
44282,-62.5,4,2,1,80,0,0
44877,-71.4285714285714,4,2,1,80,0,0
45274,-66.6666666666667,4,2,1,80,0,0
45869,-62.5,4,2,1,80,0,0
46167,-71.4285714285714,4,2,1,80,0,0
47457,-62.5,4,2,1,80,0,0
48052,-71.4285714285714,4,2,1,80,0,0
48846,-83.3333333333333,4,2,1,80,0,0
49044,-55.5555555555556,4,2,1,80,0,0
49640,-50,4,2,5,80,0,0
50037,-100,4,2,1,80,0,0
50632,-62.5,4,2,1,80,0,0
51227,-71.4285714285714,4,2,1,80,0,0
51624,-66.6666666666667,4,2,1,80,0,0
52220,-62.5,4,2,1,80,0,0
52617,-100,4,2,1,80,0,0
53807,-62.5,4,2,1,80,0,0
54403,-100,4,2,1,80,0,0
54799,-66.6666666666667,4,2,1,80,0,0
55395,-100,4,2,1,80,0,0
55990,-133.333333333333,4,2,1,80,0,0
56387,-100,4,2,1,80,0,0
56982,-62.5,4,2,1,80,0,0
57578,-71.4285714285714,4,2,1,80,0,0
57975,-66.6666666666667,4,2,1,80,0,0
58570,-62.5,4,2,1,80,0,0
58868,-71.4285714285714,4,2,1,80,0,0
60158,-62.5,4,2,1,80,0,0
60753,-71.4285714285714,4,2,1,80,0,0
61547,-83.3333333333333,4,2,1,80,0,0
61745,-55.5555555555556,4,2,1,80,0,0
62341,-50,4,2,1,80,0,0
62738,-100,4,2,2,60,0,0
67500,-83.3333333333333,4,2,2,60,0,0
69088,-83.3333333333333,4,2,1,60,0,0
72263,-71.4285714285714,4,2,1,60,0,0
72859,-62.5,4,2,1,60,0,0
73851,-111.111111111111,4,2,1,60,0,0
75042,-50,4,2,5,60,0,0
75339,-166.666666666667,4,2,1,60,0,0
75452,-55.5555555555556,4,2,1,80,0,1
75835,-55.5555555555556,4,2,1,80,0,1
76232,-66.6666666666667,4,2,1,80,0,1
77820,-45.4545454545455,4,2,1,80,0,1
77919,-50,4,2,1,80,0,1
78018,-133.333333333333,4,2,1,80,0,1
78118,-133.333333333333,4,2,1,80,0,1
78217,-50,4,2,1,80,0,1
78514,-50,4,2,1,80,0,1
78614,-41.6666666666667,4,2,1,80,0,1
79011,-66.6666666666667,4,2,1,80,0,1
79606,-58.8235294117647,4,2,1,80,0,1
79904,-52.6315789473684,4,2,1,80,0,1
80400,-66.6666666666667,4,2,1,80,0,1
80995,-55.5555555555556,4,2,1,80,0,1
81392,-50,4,2,1,80,0,1
82186,-55.5555555555556,4,2,1,80,0,1
82583,-66.6666666666667,4,2,1,80,0,1
84071,-100,4,2,1,80,0,1
84170,-41.6666666666667,4,2,1,80,0,1
84567,-45.4545454545455,4,2,1,80,0,1
84964,-55.5555555555556,4,2,1,80,0,1
85361,-62.5,4,2,1,80,0,1
85758,-66.6666666666667,4,2,1,80,0,1
86056,-80,4,2,1,80,0,1
86353,-100,4,2,1,80,0,1
86750,-50,4,2,1,80,0,1
86949,-37.037037037037,4,2,1,80,0,1
87346,-50,4,2,1,80,0,1
87743,-45.4545454545455,4,2,1,80,0,1
88139,-55.5555555555556,4,2,1,80,0,1
88933,-66.6666666666667,4,2,1,80,0,1
90521,-45.4545454545455,4,2,1,80,0,1
90620,-50,4,2,1,80,0,1
90719,-133.333333333333,4,2,1,80,0,1
90819,-133.333333333333,4,2,1,80,0,1
90918,-50,4,2,1,80,0,1
91215,-50,4,2,1,80,0,1
91315,-40.8163265306122,4,2,1,80,0,1
91712,-66.6666666666667,4,2,1,80,0,1
92307,-58.8235294117647,4,2,1,80,0,1
92605,-52.6315789473684,4,2,1,80,0,1
93101,-66.6666666666667,4,2,1,80,0,1
93696,-50,4,2,1,80,0,1
94490,-55.5555555555556,4,2,1,80,0,1
94887,-45.4545454545455,4,2,1,80,0,1
95284,-62.5,4,2,1,80,0,1
96871,-45.4545454545455,4,2,1,80,0,1
97268,-50,4,2,1,80,0,1
97665,-55.5555555555556,4,2,1,80,0,1
98062,-66.6666666666667,4,2,1,80,0,1
98657,-55.5555555555556,4,2,1,80,0,1
99469,-100,4,2,1,80,0,0
100245,-66.6666666666667,4,2,1,80,0,0
100443,-50,4,2,5,80,0,0
100840,-66.6666666666667,4,2,1,80,0,0
101436,-55.5555555555556,4,2,1,80,0,0
101832,-66.6666666666667,4,2,1,80,0,0
103023,-55.5555555555556,4,2,1,80,0,0
103419,-66.6666666666667,4,2,1,80,0,0
104214,-62.5,4,2,1,80,0,0
104412,-58.8235294117647,4,2,1,80,0,0
104611,-55.5555555555556,4,2,1,80,0,0
105008,-66.6666666666667,4,2,1,80,0,0
105603,-76.9230769230769,4,2,1,80,0,0
106199,-66.6666666666667,4,2,1,80,0,0
106595,-76.9230769230769,4,2,1,80,0,0
107191,-66.6666666666667,4,2,1,80,0,0
107786,-55.5555555555556,4,2,1,80,0,0
108182,-66.6666666666667,4,2,1,80,0,0
109374,-55.5555555555556,4,2,1,80,0,0
109770,-66.6666666666667,4,2,1,80,0,0
109969,-62.5,4,2,1,80,0,0
111954,-76.9230769230769,4,2,1,80,0,0
112351,-62.5,4,2,1,80,0,0
112747,-58.8235294117647,4,2,1,80,0,0
112946,-55.5555555555556,4,2,1,80,0,0
113144,-50,4,2,1,80,0,0
113562,-100,4,2,1,80,0,1
114137,-50,4,2,1,80,0,1
114534,-100,4,2,1,80,0,1
115724,-50,4,2,1,80,0,1
116121,-100,4,2,1,80,0,1
117312,-50,4,2,1,80,0,1
117709,-100,4,2,1,80,0,1
120487,-50,4,2,1,80,0,1
120884,-100,4,2,1,80,0,1
122075,-50,4,2,1,80,0,1
122472,-100,4,2,1,80,0,1
123662,-50,4,2,1,80,0,1
124258,-66.6666666666667,4,2,1,80,0,1
124678,-66.6666666666667,4,2,1,80,0,0
125051,-50,4,2,1,80,0,0
125472,-26.6666666666667,4,2,1,80,0,0

[Colours]
Combo1 : 240,128,15
Combo2 : 4,130,198
Combo3 : 192,192,192
Combo4 : 26,240,181

[HitObjects]
70,75,422,6,0,B|89:106|89:106|184:126,1,116.999996429443
17,126,820,5,8,0:1:0:0:
219,63,1018,1,2,0:0:0:0:
177,54,1117,1,2,0:0:0:0:
135,45,1216,1,8,0:3:0:0:
261,72,1415,6,0,P|316:50|405:111,1,156,8|0,0:0|0:0,0:0:0:0:
318,188,1812,2,0,P|313:162|319:137,1,52
378,302,2010,6,0,L|327:288,1,52,8|0,0:0|0:0,0:0:0:0:
253,262,2209,2,0,L|202:248,1,52
97,205,2407,6,0,L|161:187,1,65,8|0,0:1|0:0,0:0:0:0:
256,154,2606,2,0,L|320:136,1,65,2|0,0:0|0:0,0:0:0:0:
445,97,2804,1,8,0:3:0:0:
375,256,3003,6,0,P|324:226|327:124,1,156,8|0,0:0|0:0,0:0:0:0:
434,194,3400,2,0,P|412:179|387:175,1,52
466,324,3598,2,0,P|465:265|494:314,1,156,8|0,0:0|0:0,0:0:0:0:
314,373,3995,6,0,L|306:292,1,65,8|0,0:1|0:0,0:0:0:0:
179,224,4194,1,2,0:0:0:0:
183,267,4293,1,2,0:0:0:0:
187,311,4392,1,8,0:3:0:0:
309,157,4591,6,0,P|214:158|193:65,1,195,8|0,0:0|0:0,0:0:0:0:
126,172,4988,2,0,P|93:172|63:160,1,65
260,98,5186,2,0,P|326:81|380:128,1,130,8|0,0:0|0:0,0:0:0:0:
373,114,5583,6,0,L|420:80,1,48.750001859665,8|0,0:1|0:0,0:0:0:0:
244,112,5782,2,0,L|197:78,1,48.750001859665,2|0,0:0|0:0,0:0:0:0:
309,157,5980,1,8,0:3:0:0:
357,335,6179,6,0,P|358:263|379:193,1,146.250005578995,8|0,0:0|0:0,0:0:0:0:
451,97,6576,2,0,P|461:131|462:168,1,48.750001859665
286,267,6774,2,0,P|278:243|274:219,1,48.750001859665,8|0,0:0|0:0,0:0:0:0:
379,193,6973,1,0,0:0:0:0:
95,363,7171,5,8,0:1:0:0:
196,191,7370,1,2,0:0:0:0:
205,149,7469,1,2,0:0:0:0:
214,107,7568,1,8,0:3:0:0:
187,233,7767,6,0,P|209:288|148:377,1,156,8|0,0:0|0:0,0:0:0:0:
72,290,8164,2,0,P|97:285|122:291,1,52
303,336,8362,6,0,L|316:285,1,52,8|0,0:0|0:0,0:0:0:0:
343,211,8561,2,0,L|356:160,1,52
400,55,8759,6,0,L|417:119,1,65,8|0,0:1|0:0,0:0:0:0:
451,214,8958,2,0,L|468:278,1,65,2|0,0:0|0:0,0:0:0:0:
501,384,9156,1,8,0:3:0:0:
296,264,9355,6,0,B|223:253|237:337|156:322,1,156,8|0,0:0|0:0,0:0:0:0:
154,204,9752,2,0,P|164:227|170:253,1,52
59,289,9950,2,0,P|47:231|87:274,1,156,8|0,0:0|0:0,0:0:0:0:
25,145,10347,6,0,L|90:153,1,65,8|0,0:1|0:0,0:0:0:0:
295,112,10546,1,2,0:0:0:0:
228,103,10645,1,2,0:0:0:0:
161,96,10744,1,8,0:3:0:0:
418,242,10943,6,0,B|466:305|411:376|321:363|304:276|314:210|341:164|393:134,1,341.250013017655,6|0,0:3|0:0,0:0:0:0:
125,310,11935,6,0,L|133:374,1,65,8|0,0:1|0:0,0:0:0:0:
26,228,12134,2,0,L|17:292,1,65,2|0,0:0|0:0,0:0:0:0:
102,126,12332,1,8,0:3:0:0:
267,222,12530,6,0,P|231:205|186:212,1,77.999997619629,8|0,0:0|0:0,0:0:0:0:
359,117,12729,2,0,P|394:100|440:107,1,77.999997619629
219,282,12927,1,0,0:0:0:0:
423,320,13126,6,0,L|432:385,1,65,10|0,0:0|0:0,0:0:0:0:
405,172,13324,1,0,0:0:0:0:
202,299,13523,6,0,L|124:309,1,77.999997619629,8|0,0:1|0:0,0:0:0:0:
345,236,13721,1,2,0:0:0:0:
394,242,13821,1,2,0:0:0:0:
444,248,13920,1,8,0:3:0:0:
125,384,14118,6,0,P|52:334|141:237,1,233.999992858887,8|0,0:0|0:0,0:0:0:0:
202,299,14515,1,2,0:0:0:0:
196,282,14615,1,0,0:0:0:0:
245,224,14714,1,10,0:0:0:0:
251,207,14813,1,0,0:0:0:0:
191,162,14912,1,2,0:0:0:0:
185,145,15012,1,0,0:0:0:0:
250,101,15111,5,8,0:1:0:0:
120,234,15309,1,2,0:0:0:0:
71,240,15409,1,2,0:0:0:0:
21,246,15508,1,8,0:3:0:0:
311,299,15706,6,0,B|471:325|471:325|411:281,1,233.999992858887,8|0,0:0|0:0,0:0:0:0:
216,256,16103,1,2,0:0:0:0:
199,326,16203,1,2,0:0:0:0:
244,380,16302,1,10,0:0:0:0:
323,180,16500,1,0,0:0:0:0:
108,44,16699,6,0,P|110:76|128:103,1,65,8|0,0:1|0:0,0:0:0:0:
186,159,16897,2,0,P|210:179|241:186,1,65,2|0,0:0|0:0,0:0:0:0:
323,180,17096,1,8,0:3:0:0:
70,293,17294,6,0,L|58:388,1,90.9999972229005,8|0,0:0|0:0,0:0:0:0:
17,229,17493,2,0,P|90:213|149:312,1,195
58,383,17890,1,10,0:0:0:0:
150,301,18088,1,0,0:0:0:0:
302,368,18287,6,0,L|237:374,1,65,8|0,0:1|0:0,0:0:0:0:
386,275,18485,2,0,L|321:268,1,65,2|0,0:0|0:0,0:0:0:0:
484,353,18684,1,8,0:3:0:0:
293,159,18882,6,0,B|224:125|286:28|370:75|380:132|376:170,1,233.999992858887,8|0,0:0|0:0,0:0:0:0:
321,268,19279,1,0,0:0:0:0:
448,118,19478,6,0,L|459:53,1,65,8|0,0:0|0:0,0:0:0:0:
252,226,19676,1,0,0:0:0:0:
434,340,19875,6,0,L|512:350,1,77.999997619629,8|0,0:1|0:0,0:0:0:0:
189,279,20073,1,2,0:0:0:0:
140,285,20172,1,2,0:0:0:0:
90,291,20272,1,8,0:3:0:0:
261,371,20470,6,0,B|373:341|271:217|386:188,1,233.999992858887,8|0,0:0|0:0,0:0:0:0:
452,146,20867,1,2,0:0:0:0:
435,141,20966,1,0,0:0:0:0:
377,190,21066,1,10,0:0:0:0:
360,196,21165,1,0,0:0:0:0:
315,136,21264,1,2,0:0:0:0:
298,130,21363,1,0,0:0:0:0:
254,195,21463,5,8,0:1:0:0:
95,107,21661,1,2,0:0:0:0:
101,58,21760,1,2,0:0:0:0:
107,8,21860,1,8,0:3:0:0:
0,235,22058,6,0,P|90:187|158:286,1,233.999992858887,8|0,0:0|0:0,0:0:0:0:
58,338,22455,2,0,P|57:299|76:265,1,77.999997619629,2|0,0:0|0:0,0:0:0:0:
258,363,22654,2,0,P|205:308|130:317,1,155.999995239258,8|0,0:0|0:0,0:0:0:0:
348,292,23051,6,0,L|275:268,1,65,8|0,0:1|0:0,0:0:0:0:
392,194,23249,2,0,L|453:172,1,65,2|0,0:0|0:0,0:0:0:0:
481,346,23448,1,8,0:3:0:0:
287,272,23646,5,10,0:0:0:0:
281,253,23745,1,0,0:0:0:0:
224,187,23845,1,2,0:0:0:0:
212,218,23944,1,2,0:0:0:0:
152,275,24043,1,2,0:0:0:0:
137,228,24142,1,2,0:0:0:0:
114,155,24241,1,10,0:0:0:0:
25,322,24440,1,0,0:0:0:0:
44,84,24638,6,2,B|-4:137|32:202|97:194|155:152|113:108|78:80|97:34|162:-4|213:44|189:100,1,363.999988891602,6|8,0:3|0:0,0:0:0:0:
108,336,25234,5,0,0:0:0:0:
102,345,25333,1,0,0:0:0:0:
156,283,25432,2,0,P|188:261|226:254,1,77.999997619629,2|0,0:3|0:0,0:0:0:0:
408,297,25631,5,0,0:0:0:0:
414,306,25730,1,0,0:0:0:0:
360,244,25829,2,0,P|327:222|289:215,1,77.999997619629,8|0,0:0|0:0,0:0:0:0:
86,252,26028,5,0,0:0:0:0:
80,261,26127,1,0,0:0:0:0:
40,197,26226,2,0,P|32:158|38:120,1,77.999997619629,2|0,0:3|0:0,0:0:0:0:
196,68,26425,5,0,0:0:0:0:
190,59,26524,1,0,0:0:0:0:
150,122,26623,2,0,P|142:160|148:198,1,77.999997619629,8|0,0:0|0:0,0:0:0:0:
347,124,26822,5,0,0:0:0:0:
341,133,26921,1,0,0:0:0:0:
287,182,27020,2,0,P|318:204|356:205,1,77.999997619629,2|0,0:3|0:0,0:0:0:0:
118,27,27219,1,0,0:0:0:0:
222,218,27417,2,0,L|245:378,1,155.999995239258,8|0,0:0|0:0,0:0:0:0:
184,287,27715,1,0,0:0:0:0:
114,255,27814,6,2,B|72:258|33:279|31:364|99:367|108:313|84:279|84:279|36:235|26:197|46:127|94:119,1,363.999988891602,2|8,0:3|0:0,0:0:0:0:
235,40,28410,5,0,0:0:0:0:
237,29,28509,1,0,0:0:0:0:
208,106,28608,2,0,P|184:137|151:157,1,77.999997619629,2|0,0:3|0:0,0:0:0:0:
325,67,28807,5,0,0:0:0:0:
323,56,28906,1,0,0:0:0:0:
352,133,29005,2,0,P|375:164|408:184,1,77.999997619629,8|0,0:0|0:0,0:0:0:0:
204,282,29204,5,0,0:0:0:0:
202,293,29303,1,0,0:0:0:0:
231,216,29402,2,0,P|254:184|287:164,1,77.999997619629,2|0,0:3|0:0,0:0:0:0:
120,344,29601,5,0,0:0:0:0:
124,355,29700,1,0,0:0:0:0:
97,273,29799,2,0,P|54:192|-2:159,1,155.999995239258,8|0,0:0|0:0,0:0:0:0:
23,78,30097,5,0,0:0:0:0:
34,74,30196,1,2,0:3:0:0:
94,96,30295,1,0,0:0:0:0:
155,78,30395,2,0,P|194:77|231:89,1,77.999997619629,8|0,0:0|0:0,0:0:0:0:
419,167,30593,2,0,P|351:131|279:153,1,155.999995239258,8|0,0:0|0:0,0:0:0:0:
422,343,30990,6,2,B|512:356|533:287|485:194|377:225|374:370|271:329,1,363.999988891602,6|8,0:3|0:0,0:0:0:0:
169,186,31586,5,0,0:0:0:0:
180,184,31685,1,0,0:0:0:0:
252,204,31784,2,0,P|283:228|300:263,1,77.999997619629,2|0,0:3|0:0,0:0:0:0:
82,251,31983,5,0,0:0:0:0:
80,262,32082,1,0,0:0:0:0:
100,334,32181,2,0,P|123:364|158:381,1,77.999997619629,8|0,0:0|0:0,0:0:0:0:
222,93,32380,5,0,0:0:0:0:
211,91,32479,1,0,0:0:0:0:
138,111,32578,2,0,P|107:134|90:169,1,77.999997619629,2|0,0:3|0:0,0:0:0:0:
199,300,32777,5,0,0:0:0:0:
210,302,32876,1,0,0:0:0:0:
282,281,32975,2,0,P|312:257|329:222,1,77.999997619629,8|0,0:0|0:0,0:0:0:0:
274,17,33174,5,0,0:0:0:0:
214,51,33273,1,0,0:0:0:0:
204,119,33372,1,2,0:3:0:0:
503,139,33571,1,0,0:0:0:0:
293,101,33769,2,0,L|464:88,1,155.999995239258,8|0,0:0|0:0,0:0:0:0:
398,51,34067,1,0,0:0:0:0:
372,129,34166,6,2,B|400:209|465:171|568:199|541:337|441:356|382:253|443:198,1,363.999988891602,2|8,0:3|0:0,0:0:0:0:
365,332,34762,5,0,0:0:0:0:
356,339,34861,1,0,0:0:0:0:
283,358,34960,2,0,P|244:353|212:331,1,77.999997619629,2|0,0:3|0:0,0:0:0:0:
31,216,35159,5,0,0:0:0:0:
40,223,35258,1,0,0:0:0:0:
113,242,35357,2,0,P|151:237|183:215,1,77.999997619629,8|0,0:0|0:0,0:0:0:0:
193,14,35556,5,0,0:0:0:0:
182,18,35655,1,0,0:0:0:0:
123,66,35754,6,0,B|155:107|204:91|204:91|243:117|292:99|292:99|330:128|381:115,1,272.999991668701,4|0,0:1|0:0,0:0:0:0:
469,170,36151,2,0,B|421:162|391:206|391:206|351:177|304:202,1,181.999994445801,8|0,0:0|0:0,0:0:0:0:
120,352,36449,1,0,0:0:0:0:
213,323,36548,6,0,P|229:269|221:192,1,104,6|0,0:0|0:0,0:0:0:0:
49,195,36746,2,0,P|33:249|41:326,1,116.999996429443,6|0,0:0|0:0,0:0:0:0:
160,69,36945,6,0,B|173:-2|79:-34|18:33|19:101|78:178|136:202|223:195|222:116|267:121,1,390,10|0,0:1|0:0,0:0:0:0:
410,46,37342,5,6,0:2:0:0:
338,30,37441,1,2,0:1:0:0:
358,101,37540,1,2,0:1:0:0:
419,43,37640,1,2,0:1:0:0:
332,22,37739,1,2,0:0:0:0:
444,319,37937,6,0,P|408:349|423:254,1,208,8|0,0:0|0:0,0:0:0:0:
477,259,38235,1,2,0:1:0:0:
456,333,38334,1,2,0:1:0:0:
380,355,38434,1,2,0:1:0:0:
320,307,38533,6,0,L|353:217,1,90.9999972229005,8|0,0:2|0:0,0:0:0:0:
387,135,38731,2,0,L|418:49,1,90.9999972229005,2|2,0:1|0:1,0:0:0:0:
203,8,38930,6,0,L|237:102,1,97.50000371933,6|0,0:0|0:0,0:0:0:0:
277,198,39128,2,0,L|311:292,1,97.50000371933,2|2,0:1|0:1,0:0:0:0:
346,384,39327,1,2,0:0:0:0:
78,302,39525,6,0,P|132:235|147:315,1,208,8|0,0:0|0:0,0:0:0:0:
56,320,39823,1,2,0:1:0:0:
52,241,39922,1,2,0:1:0:0:
120,207,40022,1,2,0:1:0:0:
181,253,40121,1,8,0:2:0:0:
153,59,40319,1,2,0:1:0:0:
153,59,40419,1,2,0:1:0:0:
153,59,40518,5,6,0:0:0:0:
222,100,40617,1,0,0:0:0:0:
302,90,40716,1,2,0:1:0:0:
365,39,40816,1,2,0:1:0:0:
442,47,40915,1,2,0:0:0:0:
428,268,41113,6,0,P|345:248|378:326,1,208,8|0,0:0|0:0,0:0:0:0:
456,292,41411,1,2,0:1:0:0:
419,225,41510,1,2,0:1:0:0:
348,219,41609,1,2,0:1:0:0:
297,274,41709,1,8,0:0:0:0:
455,152,41907,2,0,L|484:88,1,65,2|2,0:1|0:1,0:0:0:0:
272,289,42106,6,0,B|183:337|163:223|76:285,1,195.00000743866,6|0,0:0|0:0,0:0:0:0:
130,341,42403,1,2,0:1:0:0:
130,341,42503,1,2,0:0:0:0:
229,228,42701,6,0,P|257:162|161:108,1,195.00000743866,8|0,0:0|0:0,0:0:0:0:
96,198,43098,1,2,0:1:0:0:
96,198,43297,2,0,L|39:188,1,48.750001859665,8|0,0:0|0:0,0:0:0:0:
187,173,43495,1,2,0:1:0:0:
39,64,43694,5,6,0:0:0:0:
111,48,43793,1,2,0:1:0:0:
91,119,43892,1,2,0:1:0:0:
30,61,43991,1,2,0:1:0:0:
117,40,44091,1,2,0:0:0:0:
85,248,44289,6,0,P|44:271|138:289,1,208,8|0,0:0|0:0,0:0:0:0:
152,237,44587,1,2,0:1:0:0:
75,231,44686,1,2,0:1:0:0:
29,295,44785,1,2,0:1:0:0:
53,368,44885,6,0,L|146:351,1,90.9999972229005,8|0,0:0|0:0,0:0:0:0:
239,327,45083,2,0,L|332:310,1,90.9999972229005,2|0,0:1|0:0,0:0:0:0:
471,278,45282,6,0,L|372:259,1,97.50000371933,6|0,0:0|0:0,0:0:0:0:
273,234,45480,2,0,L|174:215,1,97.50000371933,2|0,0:1|0:0,0:0:0:0:
14,188,45679,1,2,0:0:0:0:
236,105,45877,6,0,P|250:44|177:100,1,208,8|0,0:0|0:0,0:0:0:0:
245,132,46175,1,2,0:1:0:0:
278,65,46274,1,2,0:1:0:0:
233,6,46373,1,2,0:1:0:0:
160,18,46473,1,8,0:0:0:0:
324,130,46671,1,0,0:0:0:0:
324,130,46770,1,0,0:0:0:0:
324,130,46870,5,6,0:0:0:0:
399,108,46969,1,2,0:1:0:0:
465,151,47068,1,2,0:1:0:0:
470,233,47167,1,2,0:1:0:0:
404,282,47267,1,2,0:0:0:0:
208,329,47465,6,0,P|281:287|272:370,1,208,8|0,0:0|0:0,0:0:0:0:
175,324,47763,1,2,0:1:0:0:
222,258,47862,1,2,0:1:0:0:
304,267,47961,1,2,0:1:0:0:
328,346,48060,2,0,P|366:323|387:265,1,90.9999972229005,8|0,0:0|0:0,0:0:0:0:
197,176,48259,2,0,P|158:199|139:239,1,90.9999972229005,2|0,0:1|0:0,0:0:0:0:
399,108,48457,5,6,0:0:0:0:
399,108,48854,2,0,L|306:117,1,77.999997619629,0|0,0:0|0:0,0:0:0:0:
197,176,49053,2,0,L|313:162,1,116.999996429443,8|0,0:0|0:0,0:0:0:0:
230,50,49251,2,0,L|113:36,1,116.999996429443,6|0,0:0|0:0,0:0:0:0:
447,208,49450,1,8,0:0:0:0:
447,208,49648,6,0,B|502:293|431:361|337:361|326:298|306:223|218:238|185:282,1,390,10|0,0:1|0:0,0:0:0:0:
37,350,50045,5,6,0:0:0:0:
109,366,50145,1,2,0:1:0:0:
89,295,50244,1,2,0:1:0:0:
28,353,50343,1,2,0:1:0:0:
115,374,50442,1,2,0:0:0:0:
130,74,50641,6,0,P|94:44|109:139,1,208,8|0,0:0|0:0,0:0:0:0:
163,134,50939,1,2,0:1:0:0:
142,60,51038,1,2,0:1:0:0:
66,38,51137,1,2,0:1:0:0:
6,86,51236,6,0,L|39:176,1,90.9999972229005,8|0,0:0|0:0,0:0:0:0:
73,258,51435,2,0,L|104:344,1,90.9999972229005,2|0,0:1|0:0,0:0:0:0:
190,384,51633,6,0,L|224:290,1,97.50000371933,6|0,0:0|0:0,0:0:0:0:
264,194,51832,2,0,L|298:100,1,97.50000371933,2|0,0:1|0:0,0:0:0:0:
333,8,52030,1,2,0:0:0:0:
411,256,52229,6,0,P|460:268|426:175,1,208,8|0,0:0|0:0,0:0:0:0:
423,284,52527,1,2,0:1:0:0:
493,262,52626,1,2,0:1:0:0:
497,192,52725,1,2,0:1:0:0:
437,154,52824,1,8,0:0:0:0:
289,361,53023,1,0,0:0:0:0:
289,361,53122,1,0,0:0:0:0:
289,361,53221,5,6,0:0:0:0:
318,287,53320,1,2,0:1:0:0:
282,218,53420,1,2,0:1:0:0:
249,150,53519,1,2,0:1:0:0:
280,83,53618,1,2,0:0:0:0:
180,272,53817,6,0,P|97:292|130:214,1,208,8|0,0:0|0:0,0:0:0:0:
208,248,54114,1,2,0:1:0:0:
171,315,54214,1,2,0:1:0:0:
100,321,54313,1,2,0:1:0:0:
49,266,54412,1,8,0:0:0:0:
245,312,54611,2,0,L|291:363,1,65,0|0,0:0|0:0,0:0:0:0:
72,193,54809,6,0,B|57:123|88:51|88:51|81:85|106:114,1,195.00000743866,6|2,0:0|0:1,0:0:0:0:
159,70,55107,1,2,0:1:0:0:
159,70,55206,1,2,0:0:0:0:
394,180,55405,6,0,P|412:93|320:53,1,195,8|0,0:0|0:0,0:0:0:0:
231,178,55802,1,2,0:1:0:0:
231,178,56000,2,0,L|291:149,1,48.750001859665,8|0,0:0|0:0,0:0:0:0:
340,126,56199,1,2,0:1:0:0:
475,350,56397,5,6,0:0:0:0:
403,366,56496,1,2,0:1:0:0:
423,295,56596,1,2,0:1:0:0:
484,353,56695,1,2,0:1:0:0:
397,374,56794,1,2,0:0:0:0:
428,156,56993,6,0,P|469:133|375:115,1,208,8|0,0:0|0:0,0:0:0:0:
361,167,57290,1,2,0:1:0:0:
438,173,57390,1,2,0:1:0:0:
484,109,57489,1,2,0:1:0:0:
460,36,57588,6,0,L|367:53,1,90.9999972229005,8|0,0:0|0:0,0:0:0:0:
274,77,57787,2,0,L|181:94,1,90.9999972229005,2|0,0:1|0:0,0:0:0:0:
42,126,57985,6,0,L|141:145,1,97.50000371933,6|2,0:0|0:1,0:0:0:0:
240,170,58184,2,0,L|339:189,1,97.50000371933,2|2,0:1|0:1,0:0:0:0:
499,216,58382,1,2,0:0:0:0:
310,339,58581,6,0,P|220:318|278:255,1,208,8|0,0:0|0:0,0:0:0:0:
302,363,58878,1,2,0:1:0:0:
229,366,58977,1,2,0:1:0:0:
196,302,59077,1,2,0:1:0:0:
235,240,59176,1,8,0:0:0:0:
18,205,59374,1,2,0:1:0:0:
18,205,59474,1,0,0:0:0:0:
18,205,59573,5,6,0:0:0:0:
92,196,59672,1,2,0:1:0:0:
140,137,59771,1,2,0:1:0:0:
210,109,59871,1,2,0:1:0:0:
279,134,59970,1,2,0:0:0:0:
415,285,60168,6,0,P|341:243|350:326,1,208,8|0,0:0|0:0,0:0:0:0:
445,281,60466,1,2,0:1:0:0:
398,215,60565,1,2,0:1:0:0:
316,224,60665,1,2,0:1:0:0:
292,303,60764,2,0,P|254:280|233:222,1,90.9999972229005,8|0,0:0|0:0,0:0:0:0:
424,136,60962,2,0,P|463:159|482:199,1,90.9999972229005,2|0,0:1|0:0,0:0:0:0:
221,65,61161,5,6,0:0:0:0:
221,65,61558,2,0,L|206:160,1,77.999997619629,2|0,0:0|0:0,0:0:0:0:
119,258,61756,2,0,L|137:142,1,116.999996429443,8|0,0:0|0:0,0:0:0:0:
265,13,61955,2,0,L|246:128,1,116.999996429443,2|0,0:0|0:0,0:0:0:0:
48,193,62153,1,2,0:1:0:0:
48,193,62352,6,0,P|39:318|206:220,1,390,12|0,0:0|0:0,0:0:0:0:
137,142,62749,6,0,B|207:173|268:142|238:48|313:37|375:67,1,260,10|10,0:0|0:0,0:0:0:0:
179,76,63344,1,0,0:0:0:0:
342,181,63543,1,10,0:0:0:0:
334,155,63642,1,0,0:0:0:0:
327,130,63741,1,0,0:0:0:0:
453,89,63940,5,10,0:0:0:0:
471,137,64039,1,0,0:0:0:0:
475,188,64138,1,0,0:0:0:0:
461,238,64238,1,0,0:0:0:0:
436,281,64337,6,0,P|335:263|264:185,1,195,10|0,0:0|0:0,0:0:0:0:
270,312,64734,2,0,P|199:230|177:127,1,195,10|0,0:0|0:0,0:0:0:0:
114,226,65131,2,0,P|102:117|129:20,1,195,10|0,0:0|0:0,0:0:0:0:
24,73,65528,2,0,P|36:24|46:-3,1,65,10|0,0:0|0:0,0:0:0:0:
359,157,65726,1,0,0:0:0:0:
288,170,65825,1,0,0:0:0:0:
219,186,65925,5,10,0:0:0:0:
385,83,66123,1,0,0:0:0:0:
160,131,66322,1,10,0:0:0:0:
333,225,66520,1,0,0:0:0:0:
142,282,66719,1,10,0:0:0:0:
149,256,66818,1,0,0:0:0:0:
156,231,66917,1,0,0:0:0:0:
262,349,67116,1,10,0:0:0:0:
219,186,67314,1,0,0:0:0:0:
317,290,67513,6,0,P|335:256|368:235,1,77.999997619629,10|0,0:0|0:0,0:0:0:0:
379,124,67711,2,0,P|397:158|430:179,1,77.999997619629,0|0,0:0|0:0,0:0:0:0:
475,251,67910,1,10,0:0:0:0:
425,52,68108,5,0,0:0:0:0:
425,52,68207,1,0,0:0:0:0:
425,52,68307,2,0,P|374:39|319:60,1,77.999997619629,10|0,0:0|0:0,0:0:0:0:
283,134,68505,2,0,P|244:137|207:125,1,77.999997619629,0|0,0:0|0:0,0:0:0:0:
120,21,68704,1,10,0:0:0:0:
46,100,68902,1,0,0:0:0:0:
69,168,69001,1,0,0:0:0:0:
94,236,69101,5,4,0:0:0:0:
330,274,69299,1,0,0:0:0:0:
75,322,69498,5,4,0:0:0:0:
293,173,69696,1,0,0:0:0:0:
142,383,69895,6,0,L|168:279,1,77.999997619629,4|0,0:0|0:0,0:0:0:0:
222,74,70093,1,0,0:0:0:0:
251,352,70292,5,4,0:0:0:0:
124,29,70490,1,0,0:0:0:0:
451,166,70688,5,4,0:0:0:0:
60,114,70887,1,0,0:0:0:0:
416,55,71085,5,4,0:0:0:0:
82,268,71284,1,0,0:0:0:0:
298,13,71482,6,0,L|298:112,1,77.999997619629,4|0,0:0|0:0,0:0:0:0:
294,384,71681,1,0,0:0:0:0:
180,22,71879,5,4,0:0:0:0:
482,320,72078,1,0,0:0:0:0:
152,120,72276,6,0,L|52:91,1,90.9999972229005,6|0,0:0|0:0,0:0:0:0:
236,226,72475,1,6,0:0:0:0:
277,181,72574,1,0,0:0:0:0:
285,121,72673,2,0,L|249:28,1,90.9999972229005,6|0,0:0|0:0,0:0:0:0:
17,253,72872,5,6,0:0:0:0:
35,323,72971,1,0,0:0:0:0:
96,362,73070,2,0,P|146:368|210:328,1,104,6|0,0:0|0:0,0:0:0:0:
152,120,73269,5,6,0:0:0:0:
127,199,73368,1,6,0:0:0:0:
169,270,73467,1,6,0:0:0:0:
250,283,73567,1,6,0:0:0:0:
323,245,73666,1,6,0:0:0:0:
345,164,73765,1,6,0:0:0:0:
300,104,73864,6,0,B|269:124|260:162|283:208|331:205|353:191|365:167|365:167|376:143|414:104|508:135|487:232|435:245|409:243|409:243|383:241|355:252|337:293|361:343|405:351|451:313,1,584.999982147217,6|0,0:3|0:0,0:0:0:0:
254,346,75055,6,0,B|364:307|364:307|260:265|260:265|63:324,1,390,10|0,0:1|0:0,0:0:0:0:
28,373,75452,6,0,B|111:361|100:268|54:242|7:221|28:139|87:114|142:126|154:183,1,350.99998928833,14|0,0:0|0:0,0:0:0:0:
171,178,75849,2,0,B|152:101|61:96|24:138|10:193|17:237|79:280|90:328|33:358,1,350.99998928833,14|0,0:0|0:0,0:0:0:0:
19,354,76246,5,8,0:0:0:0:
71,345,76346,1,0,0:0:0:0:
123,336,76445,1,2,0:0:0:0:
175,327,76544,2,0,L|282:308,1,97.50000371933,2|0,0:0|0:0,0:0:0:0:
422,133,76742,5,0,0:0:0:0:
370,142,76842,1,2,0:0:0:0:
318,151,76941,2,0,L|211:170,1,97.50000371933,2|0,0:0|0:0,0:0:0:0:
71,345,77139,5,0,0:0:0:0:
123,336,77239,1,2,0:0:0:0:
175,327,77338,2,0,L|282:308,1,97.50000371933,2|0,0:0|0:0,0:0:0:0:
474,124,77536,5,0,0:0:0:0:
422,133,77636,1,2,0:0:0:0:
370,142,77735,1,2,0:0:0:0:
318,151,77834,6,0,P|309:211|349:305,1,143.000004364014,14|0,0:0|0:0,0:0:0:0:
363,353,78033,2,0,P|359:329|347:307,1,48.750001859665,0|0,0:0|0:0,0:0:0:0:
232,142,78231,6,0,P|310:67|269:222,1,390,14|0,0:0|0:0,0:0:0:0:
308,250,78628,2,0,P|392:86|216:139,1,467.999985717774,14|0,0:0|0:0,0:0:0:0:
186,287,79025,6,0,L|170:190,1,97.50000371933,8|0,0:0|0:0,0:0:0:0:
92,42,79224,2,0,L|76:138,1,97.50000371933
78,151,79372,1,2,0:0:0:0:
78,151,79422,2,0,L|62:247,1,97.50000371933,8|0,0:0|0:0,0:0:0:0:
193,360,79621,5,0,0:0:0:0:
253,316,79720,2,0,P|258:262|224:220,1,110.50000210762,8|0,0:0|0:0,0:0:0:0:
191,380,79918,5,0,0:0:0:0:
312,356,80018,2,0,P|330:290|235:150,1,246.999993404389,8|0,0:0|0:0,0:0:0:0:
175,120,80315,1,0,0:0:0:0:
156,186,80415,2,0,P|208:182|242:136,1,97.50000371933,12|0,0:0|0:0,0:0:0:0:
11,54,80613,5,12,0:0:0:0:
20,106,80712,1,0,0:0:0:0:
29,158,80812,1,0,0:0:0:0:
38,210,80911,1,0,0:0:0:0:
47,262,81010,6,0,B|175:200|127:331|262:357|274:206|373:290,1,350.99998928833,14|0,0:0|0:0,0:0:0:0:
401,298,81407,2,0,B|360:233|285:227|251:254|233:333|151:326|128:245|125:183|197:151|252:183|264:225,1,390,14|0,0:0|0:0,0:0:0:0:
319,336,81804,6,0,B|377:422|482:406|540:318|500:233|430:188|349:171,1,390,14|0,0:0|0:0,0:0:0:0:
408,367,82201,2,0,B|495:358|496:254|442:227|396:199,1,233.999992858887,14|0,0:0|0:0,0:0:0:0:
152,129,82499,5,0,0:0:0:0:
204,120,82598,1,8,0:0:0:0:
256,111,82697,1,0,0:0:0:0:
308,102,82796,1,2,0:0:0:0:
360,93,82896,2,0,L|467:74,1,97.50000371933,2|0,0:0|0:0,0:0:0:0:
199,281,83094,5,0,0:0:0:0:
147,290,83193,1,2,0:0:0:0:
95,299,83293,2,0,L|-12:318,1,97.50000371933,2|0,0:0|0:0,0:0:0:0:
152,129,83491,5,0,0:0:0:0:
204,120,83590,1,2,0:0:0:0:
256,111,83690,1,2,0:0:0:0:
308,102,83789,5,0,0:0:0:0:
233,89,83888,1,2,0:0:0:0:
158,76,83987,1,2,0:0:0:0:
83,63,84087,2,0,L|42:56,1,32.5
8,50,84186,5,14,0:0:0:0:
39,129,84285,1,2,0:0:0:0:
70,208,84384,1,0,0:0:0:0:
101,287,84484,1,0,0:0:0:0:
132,366,84583,5,14,0:0:0:0:
150,295,84682,1,2,0:0:0:0:
213,260,84781,1,0,0:0:0:0:
285,274,84881,1,0,0:0:0:0:
228,351,84980,2,0,P|103:257|243:171,1,350.99998928833,14|0,0:0|0:0,0:0:0:0:
364,179,85377,6,0,L|387:77,1,104,14|0,0:0|0:0,0:0:0:0:
109,227,85575,2,0,L|85:328,1,104,2|2,0:0|0:0,0:0:0:0:
468,236,85774,6,0,L|444:134,1,97.50000371933,8|0,0:0|0:0,0:0:0:0:
196,259,85972,5,0,0:0:0:0:
196,259,86072,2,0,L|214:338,1,81.25,8|0,0:0|0:0,0:0:0:0:
293,155,86270,5,0,0:0:0:0:
293,155,86369,2,0,L|303:235,1,65,8|0,0:0|0:0,0:0:0:0:
302,220,86766,6,0,L|429:242,1,130,6|0,0:0|0:0,0:0:0:0:
511,289,86965,2,0,L|-6:197,1,526.500002008438,12|0,0:0|0:0,0:0:0:0:
0,211,87362,6,0,B|117:233|103:352|103:352|117:233|251:240,1,390,14|0,0:0|0:0,0:0:0:0:
250,257,87759,2,0,B|177:251|132:283|123:353|123:353|193:401|296:377|331:277,1,429.000013092041,14|0,0:0|0:0,0:0:0:0:
295,116,88156,6,0,P|359:80|296:188,1,350.99998928833,14|0,0:0|0:0,0:0:0:0:
377,54,88553,2,0,P|455:133|406:238,1,233.999992858887,14|0,0:0|0:0,0:0:0:0:
89,306,88850,5,0,0:0:0:0:
80,254,88950,1,8,0:0:0:0:
71,202,89049,1,0,0:0:0:0:
62,150,89148,1,2,0:0:0:0:
53,98,89247,2,0,L|34:-9,1,97.50000371933,2|0,0:0|0:0,0:0:0:0:
358,153,89446,5,0,0:0:0:0:
367,205,89545,1,2,0:0:0:0:
376,257,89644,2,0,L|395:364,1,97.50000371933,2|0,0:0|0:0,0:0:0:0:
71,202,89843,5,0,0:0:0:0:
62,150,89942,1,2,0:0:0:0:
53,98,90041,2,0,L|34:-9,1,97.50000371933,2|0,0:0|0:0,0:0:0:0:
349,101,90240,5,0,0:0:0:0:
358,153,90339,1,2,0:0:0:0:
367,205,90438,1,2,0:0:0:0:
376,257,90538,6,0,P|307:248|215:280,1,143.000004364014,14|0,0:0|0:0,0:0:0:0:
174,287,90736,2,0,P|199:287|222:279,1,48.750001859665,0|0,0:0|0:0,0:0:0:0:
113,196,90935,6,0,B|51:104|138:52|227:101|221:169|164:215|92:204|53:273|126:359,1,390,14|0,0:0|0:0,0:0:0:0:
133,355,91332,2,0,B|88:284|69:209|174:235|251:194|262:71|144:27|60:73|50:141|115:223,1,477.750004556179,14|0,0:0|0:0,0:0:0:0:
234,348,91729,6,0,L|331:332,1,97.50000371933,8|0,0:0|0:0,0:0:0:0:
479,254,91927,2,0,L|383:238,1,97.50000371933
378,238,92076,1,2,0:0:0:0:
377,237,92126,2,0,L|281:221,1,97.50000371933,8|0,0:0|0:0,0:0:0:0:
265,90,92324,5,2,0:0:0:0:
332,68,92423,2,0,P|387:79|439:113,1,110.50000210762,8|0,0:0|0:0,0:0:0:0:
509,162,92622,5,0,0:0:0:0:
512,91,92721,2,0,P|415:16|295:2,1,246.999993404389,10|0,0:0|0:0,0:0:0:0:
191,90,93019,1,2,0:0:0:0:
228,26,93118,2,0,P|194:17|127:52,1,97.50000371933,14|0,0:0|0:0,0:0:0:0:
47,246,93317,5,8,0:0:0:0:
99,237,93416,1,0,0:0:0:0:
151,228,93515,1,0,0:0:0:0:
203,219,93614,1,2,0:0:0:0:
255,210,93714,6,0,B|342:264|277:369|171:392|79:246|110:187|193:123,1,390,14|0,0:0|0:0,0:0:0:0:
158,118,94110,2,0,B|40:238|144:374|243:381|308:305,1,390,14|0,0:0|0:0,0:0:0:0:
457,95,94507,6,0,B|360:111|358:227|358:227|322:126|224:135,1,350.99998928833,14|0,0:0|0:0,0:0:0:0:
219,146,94904,1,6,0:0:0:0:
288,162,95004,1,6,0:0:0:0:
336,215,95103,1,6,0:0:0:0:
350,288,95202,1,6,0:0:0:0:
321,356,95301,6,0,L|434:343,1,104,10|0,0:0|0:0,0:0:0:0:
158,188,95500,5,2,0:0:0:0:
103,195,95599,2,0,L|-10:208,1,104,8|0,0:0|0:0,0:0:0:0:
321,356,95798,5,2,0:0:0:0:
354,312,95897,1,8,0:0:0:0:
388,268,95996,2,0,L|458:178,1,104,2|0,0:0|0:0,0:0:0:0:
158,188,96195,5,8,0:0:0:0:
124,231,96294,1,2,0:0:0:0:
90,275,96393,2,0,L|19:364,1,104,10|0,0:0|0:0,0:0:0:0:
388,268,96592,5,8,0:0:0:0:
380,213,96691,1,2,0:0:0:0:
372,158,96790,1,2,0:0:0:0:
364,103,96889,6,0,P|229:57|319:219,1,429.000013092041,14|0,0:0|0:0,0:0:0:0:
316,244,97286,2,0,B|229:261|166:213|166:136|166:136|166:52|72:24|21:83,1,390,14|0,0:0|0:0,0:0:0:0:
35,56,97683,2,0,P|112:39|61:214,1,350.99998928833,14|0,0:0|0:0,0:0:0:0:
242,70,98080,6,0,P|253:116|249:167,1,97.50000371933,8|0,0:0|0:0,0:0:0:0:
6,166,98279,1,2,0:0:0:0:
43,133,98378,1,2,0:0:0:0:
90,127,98477,2,0,P|136:140|175:168,1,97.50000371933,8|0,0:0|0:0,0:0:0:0:
308,349,98676,6,0,B|219:359|212:246|305:214|386:246|450:347,1,350.99998928833,6|0,0:0|0:0,0:0:0:0:
449,347,99073,2,0,B|348:283|316:202|348:109|461:116|451:208,1,350.99998928833,12|0,0:0|0:0,0:0:0:0:
287,185,99470,6,0,P|296:147|327:108,1,65,2|0,0:0|0:0,0:0:0:0:
279,170,99668,2,0,P|268:133|275:83,1,65,2|0,0:0|0:0,0:0:0:0:
265,161,99867,2,0,P|237:134|218:88,1,65,2|0,0:0|0:0,0:0:0:0:
249,160,100065,2,0,P|211:152|172:120,1,65,10|0,0:0|0:0,0:0:0:0:
146,297,100264,6,0,P|194:297|242:287,1,97.50000371933,6|0,0:0|0:0,0:0:0:0:
87,247,100462,2,0,P|71:319|136:221,1,390,10|0,0:1|0:0,0:0:0:0:
10,196,100859,5,6,0:0:0:0:
188,93,101058,1,2,0:0:0:0:
126,123,101157,1,2,0:1:0:0:
131,54,101256,1,2,0:1:0:0:
193,24,101355,1,2,0:1:0:0:
250,63,101455,2,0,P|246:132|181:25,1,350.99998928833,8|0,0:0|0:0,0:0:0:0:
357,168,101852,5,2,0:1:0:0:
419,198,101951,1,2,0:1:0:0:
472,154,102050,2,0,P|425:129|373:146,1,97.50000371933,8|0,0:0|0:0,0:0:0:0:
301,274,102249,5,2,0:1:0:0:
339,331,102348,1,2,0:1:0:0:
407,319,102447,2,0,P|378:273|325:262,1,97.50000371933,10|0,0:0|0:0,0:0:0:0:
91,310,102646,5,2,0:0:0:0:
153,340,102745,1,2,0:1:0:0:
148,271,102844,1,2,0:1:0:0:
86,241,102943,1,2,0:1:0:0:
29,280,103043,2,0,P|33:349|98:242,1,350.99998928833,8|0,0:0|0:0,0:0:0:0:
81,125,103440,6,0,L|53:24,1,97.50000371933,2|0,0:0|0:0,0:0:0:0:
288,152,103638,2,0,P|166:124|23:214,1,292.50001115799,8|0,0:0|0:0,0:0:0:0:
289,325,104035,6,0,P|308:277|285:219,1,97.50000371933,8|0,0:0|0:0,0:0:0:0:
463,63,104234,1,2,0:0:0:0:
489,133,104333,1,2,0:1:0:0:
466,203,104432,2,0,L|327:179,1,110.50000210762,2|0,0:1|0:0,0:0:0:0:
122,252,104631,2,0,B|71:305|71:305|247:272,1,233.999992858887,8|0,0:0|0:0,0:0:0:0:
288,152,104928,5,2,0:0:0:0:
264,78,105028,1,2,0:1:0:0:
323,30,105127,1,2,0:1:0:0:
391,64,105226,2,0,P|404:111|395:159,1,97.50000371933,8|0,0:0|0:0,0:0:0:0:
259,335,105425,2,0,P|246:288|255:240,1,97.50000371933
408,277,105623,6,0,P|333:261|371:325,1,168.999992263794,6|0,0:0|0:0,0:0:0:0:
428,357,105921,1,2,0:0:0:0:
428,357,106020,2,0,L|518:345,1,84.4999961318971,2|2,0:0|0:0,0:0:0:0:
259,335,106218,2,0,P|159:303|99:227,1,195.00000743866,8|0,0:0|0:0,0:0:0:0:
119,383,106615,6,0,P|155:362|180:328,1,84.4999961318971,2|2,0:0|0:0,0:0:0:0:
220,225,106814,2,0,P|212:183|189:148,1,84.4999961318971,8|0,0:0|0:0,0:0:0:0:
84,115,107012,1,2,0:1:0:0:
464,45,107211,5,6,0:0:0:0:
390,227,107409,1,2,0:0:0:0:
452,257,107509,1,2,0:1:0:0:
447,188,107608,1,2,0:1:0:0:
385,158,107707,1,2,0:1:0:0:
328,197,107806,2,0,P|332:266|397:159,1,350.99998928833,8|0,0:0|0:0,0:0:0:0:
155,191,108203,5,2,0:1:0:0:
93,221,108303,1,2,0:1:0:0:
40,177,108402,2,0,P|87:152|139:169,1,97.50000371933,8|0,0:0|0:0,0:0:0:0:
230,283,108600,5,2,0:1:0:0:
191,339,108700,1,2,0:1:0:0:
123,328,108799,2,0,P|151:282|204:271,1,97.50000371933,6|0,0:0|0:0,0:0:0:0:
411,314,108997,5,2,0:0:0:0:
349,344,109097,1,2,0:1:0:0:
354,275,109196,1,2,0:1:0:0:
416,245,109295,1,2,0:1:0:0:
473,284,109394,2,0,P|469:353|404:246,1,350.99998928833,8|0,0:0|0:0,0:0:0:0:
450,122,109791,6,0,L|481:22,1,97.50000371933,2|2,0:0|0:0,0:0:0:0:
484,204,109990,2,0,P|399:127|235:119,1,208,8|0,0:0|0:0,0:0:0:0:
204,244,110288,1,0,0:0:0:0:
138,171,110387,6,0,L|116:51,1,104,6|0,0:0|0:0,0:0:0:0:
291,208,110585,2,0,L|313:88,1,104,2|2,0:0|0:0,0:0:0:0:
70,239,110784,2,0,L|-9:146,1,104,2|2,0:0|0:0,0:0:0:0:
301,311,110982,6,0,B|367:354|436:316|436:316|398:231|293:194|192:249,1,416,8|2,0:0|0:0,0:0:0:0:
58,328,111478,1,2,0:0:0:0:
58,328,111578,1,8,0:0:0:0:
102,155,111776,2,0,B|46:144|46:144|1:159,1,104,0|0,0:0|0:0,0:0:0:0:
276,86,111975,5,6,0:0:0:0:
276,86,112372,6,0,P|318:163|353:301,1,208,6|2,0:0|0:0,0:0:0:0:
252,365,112669,1,2,0:0:0:0:
252,365,112769,2,0,P|273:290|260:240,1,110.50000210762,6|2,0:0|0:0,0:0:0:0:
107,67,112967,2,0,P|182:86|217:126,1,116.999996429443,2|2,0:1|0:0,0:0:0:0:
91,327,113166,6,0,B|163:393|249:333|254:198|129:256|75:217|131:97|183:89|235:125,1,390,12|0,0:0|0:0,0:0:0:0:
305,196,113563,6,0,P|274:186|242:191,1,65,14|0,0:0|0:0,0:0:0:0:
385,230,113761,1,0,0:0:0:0:
368,151,113860,1,0,0:0:0:0:
309,206,113960,1,14,0:0:0:0:
305,196,114158,6,0,P|292:140|391:226,1,390,6|0,0:3|0:0,0:0:0:0:
439,298,114555,6,0,P|471:295|501:306,1,65,6|0,0:0|0:0,0:0:0:0:
215,345,114754,2,0,P|247:348|277:337,1,65,10|0,0:0|0:0,0:0:0:0:
114,247,114952,5,0,0:0:0:0:
97,326,115051,1,0,0:0:0:0:
38,271,115151,1,14,0:0:0:0:
122,242,115349,5,2,0:0:0:0:
105,321,115448,1,2,0:0:0:0:
46,266,115548,2,0,P|46:217|68:182,1,65,14|0,0:0|0:0,0:0:0:0:
106,97,115746,6,0,B|11:133|-9:49|12:-17|112:-18|156:47|144:132|261:112|281:94,1,390,6|0,0:3|0:0,0:0:0:0:
222,126,116143,6,0,P|206:159|207:211,1,65,2|2,0:0|0:0,0:0:0:0:
375,87,116342,1,14,0:0:0:0:
409,58,116441,1,0,0:0:0:0:
392,18,116540,1,2,0:0:0:0:
347,22,116639,1,2,0:0:0:0:
341,67,116739,6,0,P|359:127|350:162,1,65,14|0,0:0|0:0,0:0:0:0:
152,247,116937,1,0,0:0:0:0:
227,261,117036,1,0,0:0:0:0:
202,186,117135,2,0,P|207:154|222:126,1,65,14|0,0:0|0:0,0:0:0:0:
176,321,117334,6,0,P|26:336|153:232,1,390,6|0,0:3|0:0,0:0:0:0:
321,271,117731,5,2,0:0:0:0:
338,350,117830,1,2,0:0:0:0:
397,295,117929,1,14,0:0:0:0:
313,266,118128,5,2,0:0:0:0:
330,345,118227,1,2,0:0:0:0:
389,290,118326,2,0,P|389:241|367:206,1,65,14|0,0:0|0:0,0:0:0:0:
229,165,118525,1,0,0:0:0:0:
159,154,118624,1,0,0:0:0:0:
91,142,118723,1,10,0:0:0:0:
368,97,118922,6,0,B|401:94|401:94|442:117,2,65,2|0|14,0:0|0:0|0:0,0:0:0:0:
481,172,119319,1,0,0:0:0:0:
301,51,119517,2,0,B|268:48|268:48|240:63,1,65,14|0,0:0|0:0,0:0:0:0:
52,113,119716,2,0,B|79:97|79:97|112:100,1,65,0|0,0:0|0:0,0:0:0:0:
197,240,119914,6,0,P|187:209|192:177,1,65,14|0,0:0|0:0,0:0:0:0:
231,320,120113,1,0,0:0:0:0:
152,303,120212,1,0,0:0:0:0:
207,244,120311,1,14,0:0:0:0:
197,240,120510,6,0,P|141:227|227:326,1,390,6|0,0:3|0:0,0:0:0:0:
342,292,120907,6,0,P|317:311|300:339,1,65,0|0,0:0|0:0,0:0:0:0:
462,174,121105,2,0,P|487:193|504:221,1,65,14|0,0:0|0:0,0:0:0:0:
345,44,121304,5,2,0:0:0:0:
362,123,121403,1,2,0:0:0:0:
421,68,121502,1,14,0:0:0:0:
337,39,121701,5,2,0:0:0:0:
354,118,121800,1,2,0:0:0:0:
413,63,121899,2,0,P|413:14|391:-21,1,65,14|0,0:0|0:0,0:0:0:0:
205,138,122098,6,0,B|150:56|230:-11|325:62|302:124|240:148|191:204|198:264|231:312,1,390,6|0,0:3|0:0,0:0:0:0:
386,273,122495,2,0,P|359:253|328:245,1,65,0|0,0:0|0:0,0:0:0:0:
82,293,122693,1,14,0:0:0:0:
48,322,122793,1,2,0:0:0:0:
65,362,122892,1,2,0:0:0:0:
110,358,122991,1,2,0:0:0:0:
116,313,123090,6,0,P|98:253|107:218,1,65,14|0,0:0|0:0,0:0:0:0:
225,61,123289,1,2,0:0:0:0:
281,116,123388,1,2,0:0:0:0:
358,130,123487,1,2,0:0:0:0:
362,149,123685,6,0,B|381:230|347:271|261:250|248:386|344:431|432:398|455:326|391:247,1,390,6|0,0:3|0:0,0:0:0:0:
205,138,124083,1,0,0:0:0:0:
133,161,124182,1,0,0:0:0:0:
93,224,124281,2,0,P|84:278|102:334,1,97.50000371933,14|0,0:0|0:0,0:0:0:0:
362,184,124479,2,0,P|325:152|279:137,1,97.50000371933
461,350,124678,6,0,B|384:372|317:327|360:172|206:215,1,292.50001115799,6|0,0:0|0:0,0:0:0:0:
10,350,125075,2,0,B|149:336|85:218|173:100|247:127|316:146,1,390,6|0,0:0|0:0,0:0:0:0:
428,278,125472,2,0,B|456:195|410:213|381:136|387:113|457:96|491:156|436:194,1,243.750005811453,14|0,0:0|0:0,0:0:0:0:
