osu file format v14

[General]
AudioFilename: audio.mp3
AudioLeadIn: 0
PreviewTime: 37296
Countdown: 0
SampleSet: Soft
StackLeniency: 0.3
Mode: 0
LetterboxInBreaks: 0
WidescreenStoryboard: 0

[Editor]
Bookmarks: 62692
DistanceSpacing: 1.2
BeatDivisor: 8
GridSize: 8
TimelineZoom: 2.5

[Metadata]
Title:Mare Maris
TitleUnicode:Mare Maris
Artist:M2U
ArtistUnicode:M2U
Creator:Minorsonek
Version:Another
Source:maimai MiLK
Tags:M2Usonek Seulgij Axhina CptSqBany RVMathew SquareTude latin skubi video game all perfect collection shin dong whi 申東輝 classical electronic instrumental ReX sphazer infinity poly RedEye chaos star light
BeatmapID:1896582
BeatmapSetID:908811

[Difficulty]
HPDrainRate:5.5
CircleSize:4
OverallDifficulty:8
ApproachRate:9
SliderMultiplier:2.4
SliderTickRate:1

[Events]
//Background and Video events
0,0,"bg.jpg",0,0
//Break Periods
//Storyboard Layer 0 (Background)
//Storyboard Layer 1 (Fail)
//Storyboard Layer 2 (Pass)
//Storyboard Layer 3 (Foreground)
//Storyboard Layer 4 (Overlay)
//Storyboard Sound Samples

[TimingPoints]
-5532,396.982929734021,4,2,1,70,1,0
422,-200,4,2,1,70,0,0
820,-133.333333333333,4,2,1,70,0,0
1415,-100,4,2,1,70,0,0
2010,-133.333333333333,4,2,1,70,0,0
3002,-100,4,2,1,70,0,0
3598,-133.333333333333,4,2,1,70,0,0
3995,-111.111111111111,4,2,1,70,0,0
4193,-100,4,2,1,70,0,0
4590,-83.3333333333333,4,2,1,70,0,0
5185,-133.333333333333,4,2,1,70,0,0
5582,-133.333333333333,4,2,1,70,0,0
6178,-100,4,2,1,70,0,0
7170,-133.333333333333,4,2,1,70,0,0
7765,-100,4,2,1,70,0,0
8361,-133.333333333333,4,2,1,70,0,0
9353,-100,4,2,1,70,0,0
9948,-133.333333333333,4,2,1,70,0,0
10345,-100,4,2,1,70,0,0
10941,-117.647058823529,4,2,1,70,0,0
11040,-117.647058823529,4,2,1,70,0,0
11933,-100,4,2,1,70,0,0
11935,396.982929734021,4,2,1,70,1,0
12528,-83.3333333333333,4,2,1,70,0,0
13124,-100,4,2,1,70,0,0
14116,-66.6666666666667,4,2,1,70,0,0
14910,-100,4,2,1,70,0,0
15108,-83.3333333333333,4,2,1,70,0,0
16696,-100,4,2,1,70,0,0
17291,-83.3333333333333,4,2,1,70,0,0
17886,-66.6666666666667,4,2,1,70,0,0
18085,-100,4,2,1,70,0,0
18879,-83.3333333333333,4,2,1,70,0,0
19474,-100,4,2,1,70,0,0
20466,-66.6666666666667,4,2,1,70,0,0
21260,-83.3333333333333,4,2,1,70,0,0
21459,-83.3333333333333,4,2,1,70,0,0
22649,-100,4,2,1,70,0,0
23046,-83.3333333333333,4,2,1,70,0,0
24634,-100,4,2,1,70,0,0
24635,-100,4,2,2,60,0,0
27412,-133.333333333333,4,2,2,60,0,0
27809,-100,4,2,2,60,0,0
30984,-90.9090909090909,4,2,2,60,0,0
33366,-76.9230769230769,4,2,2,60,0,0
33763,-133.333333333333,4,2,2,60,0,0
34159,-90.9090909090909,4,2,2,60,0,0
35747,-66.6666666666667,4,2,2,60,0,0
35748,-66.6666666666667,4,2,3,60,0,0
35946,-66.6666666666667,4,2,3,60,0,0
36144,-66.6666666666667,4,2,3,60,0,0
36151,-66.6666666666667,4,2,2,60,0,0
36342,-66.6666666666667,4,2,2,60,0,0
36349,-66.6666666666667,4,2,1,60,0,0
36541,-76.9230769230769,4,2,1,60,0,0
36739,-66.6666666666667,4,2,1,60,0,0
36939,-66.6666666666667,4,2,5,60,0,0
36945,-55.5555555555556,4,2,5,60,0,0
37342,-100,4,2,1,60,0,0
37931,-100,4,2,1,80,0,0
37937,-66.6666666666667,4,2,1,80,0,0
38525,-83.3333333333333,4,2,1,80,0,0
38922,-100,4,2,1,80,0,0
39518,-66.6666666666667,4,2,1,80,0,0
39915,-71.4285714285714,4,2,1,80,0,0
40113,-166.666666666667,4,2,1,80,0,0
40510,-100,4,2,1,80,0,0
40708,-90.9090909090909,4,2,1,80,0,0
40907,-83.3333333333333,4,2,1,80,0,0
41105,-66.6666666666667,4,2,1,80,0,0
41502,-83.3333333333333,4,2,1,80,0,0
42098,-100,4,2,1,80,0,0
42693,-71.4285714285714,4,2,1,80,0,0
43288,-100,4,2,1,80,0,0
43685,-100,4,2,1,80,0,0
44281,-66.6666666666667,4,2,1,80,0,0
44876,-83.3333333333333,4,2,1,80,0,0
45273,-100,4,2,1,80,0,0
45868,-66.6666666666667,4,2,1,80,0,0
46265,-71.4285714285714,4,2,1,80,0,0
46463,-166.666666666667,4,2,1,80,0,0
46860,-100,4,2,1,80,0,0
47456,-66.6666666666667,4,2,1,80,0,0
47853,-100,4,2,1,80,0,0
48051,-62.5,4,2,1,80,0,0
48448,-125,4,2,1,80,0,0
48845,-66.6666666666667,4,2,1,80,0,0
49639,-58.8235294117647,4,2,1,80,0,0
49640,-58.8235294117647,4,2,5,80,0,0
50036,-100,4,2,5,80,0,0
50037,-100,4,2,1,80,0,0
50631,-66.6666666666667,4,2,1,80,0,0
51226,-83.3333333333333,4,2,1,80,0,0
51623,-100,4,2,1,80,0,0
52219,-66.6666666666667,4,2,1,80,0,0
52615,-71.4285714285714,4,2,1,80,0,0
52814,-166.666666666667,4,2,1,80,0,0
53211,-100,4,2,1,80,0,0
53409,-90.9090909090909,4,2,1,80,0,0
53608,-83.3333333333333,4,2,1,80,0,0
53806,-66.6666666666667,4,2,1,80,0,0
54402,-83.3333333333333,4,2,1,80,0,0
54798,-166.666666666667,4,2,1,80,0,0
55394,-76.9230769230769,4,2,1,80,0,0
56386,-100,4,2,1,80,0,0
56981,-66.6666666666667,4,2,1,80,0,0
57577,-83.3333333333333,4,2,1,80,0,0
57974,-100,4,2,1,80,0,0
58569,-66.6666666666667,4,2,1,80,0,0
59164,-166.666666666667,4,2,1,80,0,0
59561,-100,4,2,1,80,0,0
59760,-90.9090909090909,4,2,1,80,0,0
59958,-83.3333333333333,4,2,1,80,0,0
60157,-66.6666666666667,4,2,1,80,0,0
60752,-83.3333333333333,4,2,1,80,0,0
61149,-125,4,2,1,80,0,0
61546,-66.6666666666667,4,2,1,80,0,0
62340,-55.5555555555556,4,2,1,80,0,0
62737,-133.333333333333,4,2,1,80,0,0
62738,-133.333333333333,4,2,2,60,0,0
63927,-133.333333333333,4,2,2,60,0,0
64324,-133.333333333333,4,2,2,60,0,0
65515,-133.333333333333,4,2,2,60,0,0
65912,-133.333333333333,4,2,2,60,0,0
66110,-133.333333333333,4,2,2,60,0,0
67102,-133.333333333333,4,2,2,60,0,0
67499,-133.333333333333,4,2,2,60,0,0
67698,-133.333333333333,4,2,2,60,0,0
69087,-100,4,2,2,60,0,0
69088,-100,4,2,1,60,0,0
70675,-100,4,2,1,60,0,0
72262,-71.4285714285714,4,2,1,60,0,0
72659,-71.4285714285714,4,2,1,60,0,0
73055,-71.4285714285714,4,2,1,60,0,0
73453,-71.4285714285714,4,2,1,60,0,0
73850,-500,4,2,1,60,0,0
74842,-500,4,2,1,60,0,0
75041,-71.4285714285714,4,2,1,60,0,0
75042,-71.4285714285714,4,2,5,60,0,0
75338,-166.666666666667,4,2,5,60,0,0
75339,-166.666666666667,4,2,1,60,0,0
75452,-55.5555555555556,4,2,1,80,0,1
75834,-55.5555555555556,4,2,1,80,0,1
77323,-55.5555555555556,4,2,1,80,0,1
77819,-50,4,2,1,80,0,1
77983,-50,4,2,1,5,0,1
78017,-133.333333333333,4,2,1,80,0,1
78117,-133.333333333333,4,2,1,80,0,1
78216,-50,4,2,1,80,0,1
78513,-50,4,2,1,80,0,1
78613,-55.5555555555556,4,2,1,80,0,1
79307,-100,4,2,1,80,0,1
79704,-100,4,2,1,80,0,1
80002,-83.3333333333333,4,2,1,80,0,1
80200,-83.3333333333333,4,2,1,80,0,1
80597,-71.4285714285714,4,2,1,80,0,1
80994,-55.5555555555556,4,2,1,80,0,1
81193,-55.5555555555556,4,2,1,80,0,1
81391,-55.5555555555556,4,2,1,80,0,1
81589,-55.5555555555556,4,2,1,80,0,1
81788,-55.5555555555556,4,2,1,80,0,1
82185,-55.5555555555556,4,2,1,80,0,1
82582,-100,4,2,1,80,0,1
83673,-100,4,2,1,80,0,1
83872,-100,4,2,1,80,0,1
84169,-50,4,2,1,80,0,1
84334,-50,4,2,1,5,0,1
84368,-133.333333333333,4,2,1,80,0,1
84566,-50,4,2,1,80,0,1
84666,-50,4,2,1,80,0,1
84963,-55.5555555555556,4,2,1,80,0,1
85360,-100,4,2,1,80,0,1
85658,-100,4,2,1,80,0,1
85757,-76.9230769230769,4,2,1,80,0,1
86055,-76.9230769230769,4,2,1,80,0,1
86352,-76.9230769230769,4,2,1,80,0,1
86551,-66.6666666666667,4,2,1,80,0,1
86948,-45.4545454545455,4,2,1,80,0,1
87345,-50,4,2,1,80,0,1
87642,-50,4,2,1,80,0,1
87742,-50,4,2,1,80,0,1
88039,-50,4,2,1,80,0,1
88138,-55.5555555555556,4,2,1,80,0,1
90538,-50,4,2,1,80,0,1
90686,-50,4,2,1,5,0,1
90736,-133.333333333333,4,2,1,80,0,1
90935,-50,4,2,1,80,0,1
91314,-55.5555555555556,4,2,1,80,0,1
91711,-100,4,2,1,80,0,1
92107,-76.9230769230769,4,2,1,80,0,1
92306,-76.9230769230769,4,2,1,80,0,1
92405,-76.9230769230769,4,2,1,80,0,1
92604,-76.9230769230769,4,2,1,80,0,1
92703,-133.333333333333,4,2,1,80,0,1
93100,-76.9230769230769,4,2,1,80,0,1
93695,-50,4,2,1,80,0,1
94489,-55.5555555555556,4,2,1,80,0,1
95283,-66.6666666666667,4,2,1,80,0,1
96889,-50,4,2,1,80,0,1
97038,-50,4,2,1,5,0,1
97088,-133.333333333333,4,2,1,80,0,1
97286,-55.5555555555556,4,2,1,80,0,1
97683,-100,4,2,1,80,0,1
98675,-62.5,4,2,1,80,0,1
99073,-62.5,4,2,1,80,0,1
100443,-62.5,4,2,5,80,0,1
100462,-250,4,2,5,80,0,0
100859,-76.9230769230769,4,2,1,80,0,0
101107,-76.9230769230769,4,2,1,5,0,0
101156,-76.9230769230769,4,2,1,80,0,0
101206,-76.9230769230769,4,2,1,5,0,0
101255,-76.9230769230769,4,2,1,80,0,0
101305,-76.9230769230769,4,2,1,5,0,0
101354,-76.9230769230769,4,2,1,80,0,0
101405,-76.9230769230769,4,2,1,5,0,0
101455,-66.6666666666667,4,2,1,80,0,0
101852,-76.9230769230769,4,2,1,80,0,0
102695,-76.9230769230769,4,2,1,5,0,0
102744,-76.9230769230769,4,2,1,80,0,0
102794,-76.9230769230769,4,2,1,5,0,0
102843,-76.9230769230769,4,2,1,80,0,0
102893,-76.9230769230769,4,2,1,5,0,0
102942,-76.9230769230769,4,2,1,80,0,0
102993,-76.9230769230769,4,2,1,5,0,0
103043,-66.6666666666667,4,2,1,80,0,0
103440,-76.9230769230769,4,2,1,80,0,0
106218,-66.6666666666667,4,2,1,80,0,0
106615,-76.9230769230769,4,2,1,80,0,0
107459,-76.9230769230769,4,2,1,5,0,0
107508,-76.9230769230769,4,2,1,80,0,0
107558,-76.9230769230769,4,2,1,5,0,0
107607,-76.9230769230769,4,2,1,80,0,0
107657,-76.9230769230769,4,2,1,5,0,0
107706,-76.9230769230769,4,2,1,80,0,0
107757,-76.9230769230769,4,2,1,5,0,0
107806,-66.6666666666667,4,2,1,80,0,0
108203,-76.9230769230769,4,2,1,80,0,0
109046,-76.9230769230769,4,2,1,5,0,0
109095,-76.9230769230769,4,2,1,80,0,0
109145,-76.9230769230769,4,2,1,5,0,0
109194,-76.9230769230769,4,2,1,80,0,0
109244,-76.9230769230769,4,2,1,5,0,0
109293,-76.9230769230769,4,2,1,80,0,0
109344,-76.9230769230769,4,2,1,5,0,0
109394,-66.6666666666667,4,2,1,80,0,0
109791,-76.9230769230769,4,2,1,80,0,0
111975,-76.9230769230769,4,2,1,80,0,0
112372,-71.4285714285714,4,2,1,80,0,0
112570,-66.6666666666667,4,2,1,80,0,0
112769,-58.8235294117647,4,2,1,80,0,0
112967,-55.5555555555556,4,2,1,80,0,0
113166,-50,4,2,1,80,0,0
113364,-50,4,2,1,80,0,0
113562,-66.6666666666667,4,2,1,80,0,1
113739,-66.6666666666667,4,2,1,80,0,1
114136,-50,4,2,1,80,0,1
114533,-66.6666666666667,4,2,1,80,0,1
114731,-55.5555555555556,4,2,1,80,0,1
115128,-66.6666666666667,4,2,1,80,0,1
115723,-45.4545454545455,4,2,1,80,0,1
116120,-66.6666666666667,4,2,1,80,0,1
116319,-55.5555555555556,4,2,1,80,0,1
116716,-62.5,4,2,1,80,0,1
116914,-55.5555555555556,4,2,1,80,0,1
117112,-50,4,2,1,80,0,1
117311,-45.4545454545455,4,2,1,80,0,1
117708,-66.6666666666667,4,2,1,80,0,1
117906,-55.5555555555556,4,2,1,80,0,1
118303,-62.5,4,2,1,80,0,1
118898,-45.4545454545455,4,2,1,80,0,1
119295,-66.6666666666667,4,2,1,80,0,1
119494,-55.5555555555556,4,2,1,80,0,1
119692,-55.5555555555556,4,2,1,80,0,1
119891,-62.5,4,2,1,80,0,1
120089,-62.5,4,2,1,80,0,1
120486,-50,4,2,1,80,0,1
120883,-66.6666666666667,4,2,1,80,0,1
121081,-55.5555555555556,4,2,1,80,0,1
121478,-62.5,4,2,1,80,0,1
121677,-55.5555555555556,4,2,1,80,0,1
121875,-50,4,2,1,80,0,1
122074,-45.4545454545455,4,2,1,80,0,1
122471,-66.6666666666667,4,2,1,80,0,1
122669,-55.5555555555556,4,2,1,80,0,1
123066,-62.5,4,2,1,80,0,1
123264,-47.6190476190476,4,2,1,80,0,1
123661,-40,4,2,1,80,0,1
124257,-50,4,2,1,80,0,1
124678,-83.3333333333333,4,2,1,80,0,0
125050,-66.6666666666667,4,2,1,80,0,0
125447,-50,4,2,1,80,0,0

[Colours]
Combo1 : 240,128,15
Combo2 : 4,130,198
Combo3 : 192,192,192
Combo4 : 26,240,181

[HitObjects]
43,154,422,6,0,P|67:116|74:72,1,90
0,257,819,5,8,0:1:0:0:
37,235,918,1,2,0:0:0:0:
80,226,1018,1,2,0:0:0:0:
123,233,1117,1,2,0:0:0:0:
161,253,1216,1,8,0:3:0:0:
330,382,1415,6,0,P|325:285|355:185,1,180,8|0,0:0|0:0,0:0:0:0:
388,124,1812,1,0,0:0:0:0:
421,239,2010,2,0,L|490:261,1,45.0000017166138,8|0,0:0|0:0,0:0:0:0:
305,132,2209,2,0,L|236:110,1,45.0000017166138
397,312,2407,5,8,0:1:0:0:
360,290,2507,1,2,0:0:0:0:
317,281,2606,1,2,0:0:0:0:
274,288,2705,1,2,0:0:0:0:
236,308,2804,1,8,0:3:0:0:
29,282,3003,6,0,B|51:329|51:329|71:182,1,180,8|0,0:0|0:0,0:0:0:0:
80,121,3400,1,0,0:0:0:0:
191,215,3598,2,0,L|113:229,1,45.0000017166138,8|0,0:0|0:0,0:0:0:0:
216,56,3797,2,0,L|294:70,1,45.0000017166138,0|0,0:0|0:0,0:0:0:0:
290,212,3995,6,0,P|281:191|280:159,1,53.9999983520508,8|0,0:1|0:0,0:0:0:0:
137,74,4194,2,0,P|150:100|154:130,1,60,2|0,0:0|0:0,0:0:0:0:
357,174,4392,1,8,0:3:0:0:
137,332,4591,6,0,B|84:310|84:310|244:280,1,215.999993408203,8|0,0:0|0:0,0:0:0:0:
326,291,4988,1,0,0:0:0:0:
182,197,5186,2,0,L|156:143,1,45.0000017166138,8|0,0:0|0:0,0:0:0:0:
239,280,5385,1,0,0:0:0:0:
49,162,5583,6,0,P|67:173|89:180,1,45.0000017166138,8|0,0:1|0:0,0:0:0:0:
259,83,5782,2,0,P|248:102|233:119,1,45.0000017166138,2|0,0:0|0:0,0:0:0:0:
20,145,5980,1,8,0:3:0:0:
282,59,6179,6,0,P|288:153|321:240,1,180,8|0,0:0|0:0,0:0:0:0:
365,301,6576,1,0,0:0:0:0:
195,185,6774,1,8,0:0:0:0:
162,176,6873,1,0,0:0:0:0:
130,168,6973,1,0,0:0:0:0:
317,233,7171,5,8,0:1:0:0:
299,191,7270,1,2,0:0:0:0:
287,148,7370,1,2,0:0:0:0:
281,103,7469,1,2,0:0:0:0:
282,59,7568,1,8,0:3:0:0:
483,219,7767,6,0,P|377:200|305:245,1,180,8|0,0:0|0:0,0:0:0:0:
260,293,8164,1,0,0:0:0:0:
203,178,8362,2,0,L|210:125,1,45.0000017166138,8|0,0:0|0:0,0:0:0:0:
273,315,8561,2,0,L|266:368,1,45.0000017166138,0|0,0:0|0:0,0:0:0:0:
141,339,8759,5,8,0:1:0:0:
141,294,8858,1,2,0:0:0:0:
136,249,8958,1,2,0:0:0:0:
124,206,9057,1,2,0:0:0:0:
105,165,9156,1,8,0:3:0:0:
36,50,9355,6,0,B|0:17|0:17|136:52,1,180,8|0,0:0|0:0,0:0:0:0:
210,79,9752,1,0,0:0:0:0:
105,165,9950,2,0,L|45:174,1,45.0000017166138,8|0,0:0|0:0,0:0:0:0:
236,62,10149,2,0,L|295:71,1,45.0000017166138,0|0,0:0|0:0,0:0:0:0:
181,187,10347,6,0,P|169:212|139:239,1,60,8|0,0:1|0:0,0:0:0:0:
85,88,10546,2,0,P|112:85|151:98,1,60,2|0,0:0|0:0,0:0:0:0:
52,224,10744,2,0,P|34:199|26:171,1,60,8|0,0:3|0:0,0:0:0:0:
91,346,10943,6,0,B|15:382|-21:301|55:244|118:277|136:380|187:382|262:357|288:318,1,357.000006809235,6|0,0:3|0:0,0:0:0:0:
235,213,11935,6,0,P|217:237|208:265,1,60,8|0,0:1|0:0,0:0:0:0:
217,130,12134,2,0,P|189:142|167:162,1,60,2|0,0:0|0:0,0:0:0:0:
274,67,12332,1,8,0:3:0:0:
393,233,12530,6,0,P|427:224|463:226,1,71.9999978027344,8|0,0:0|0:0,0:0:0:0:
250,339,12729,2,0,P|216:348|179:345,1,71.9999978027344,0|0,0:0|0:0,0:0:0:0:
328,293,12927,1,0,0:0:0:0:
36,222,13126,6,0,L|20:164,1,60,10|0,0:0|0:0,0:0:0:0:
72,344,13324,1,0,0:0:0:0:
204,159,13523,6,0,P|215:131|235:109,1,60,8|0,0:1|0:0,0:0:0:0:
126,183,13721,2,0,P|122:152|128:123,1,60,2|0,0:0|0:0,0:0:0:0:
100,264,13920,1,8,0:3:0:0:
371,279,14118,6,0,B|334:296|303:344|303:344|338:247|274:166,1,270.000010299683,8|0,0:0|0:0,0:0:0:0:
236,110,14515,1,2,0:0:0:0:
209,145,14615,1,2,0:0:0:0:
171,169,14714,1,10,0:0:0:0:
127,178,14813,1,2,0:0:0:0:
83,171,14912,2,0,L|70:233,1,60,2|0,0:0|0:0,0:0:0:0:
14,64,15111,5,8,0:1:0:0:
128,314,15309,2,0,P|168:327|207:325,1,71.9999978027344,2|0,0:0|0:0,0:0:0:0:
236,110,15508,2,0,P|196:97|157:99,1,71.9999978027344,8|0,0:3|0:0,0:0:0:0:
217,231,15706,6,0,P|140:212|217:193,1,215.999993408203,8|0,0:0|0:0,0:0:0:0:
309,286,16103,1,2,0:0:0:0:
314,324,16203,1,2,0:0:0:0:
319,362,16302,1,10,0:0:0:0:
376,154,16500,1,0,0:0:0:0:
447,367,16699,6,0,P|426:345|414:317,1,60,8|0,0:1|0:0,0:0:0:0:
199,370,16897,2,0,P|219:348|231:320,1,60,2|0,0:0|0:0,0:0:0:0:
474,384,17096,1,8,0:3:0:0:
165,384,17294,6,0,L|153:312,1,71.9999978027344,8|0,0:0|0:0,0:0:0:0:
63,229,17493,2,0,B|78:294|78:294|127:153,1,215.999993408203,0|0,0:0|0:0,0:0:0:0:
293,26,17890,6,0,P|310:67|307:111,1,90.0000034332277,10|0,0:0|0:0,0:0:0:0:
216,230,18087,1,0,0:0:0:0:
383,283,18287,6,0,P|410:294|432:314,1,60,8|0,0:1|0:0,0:0:0:0:
359,205,18485,2,0,P|389:201|418:207,1,60,2|0,0:0|0:0,0:0:0:0:
278,179,18684,1,8,0:3:0:0:
464,34,18882,6,0,B|488:88|488:88|418:31|325:63,1,215.999993408203,8|0,0:0|0:0,0:0:0:0:
260,98,19279,1,0,0:0:0:0:
122,214,19478,6,0,L|109:272,1,60,8|0,0:0|0:0,0:0:0:0:
148,105,19676,1,0,0:0:0:0:
254,300,19875,6,0,P|230:317|202:327,1,60,8|0,0:1|0:0,0:0:0:0:
333,318,20073,2,0,P|321:346|301:368,1,60,2|0,0:0|0:0,0:0:0:0:
396,261,20272,1,8,0:3:0:0:
41,264,20470,6,0,B|0:322|54:382|150:366|162:254|89:172,1,270.000010299683,8|0,0:0|0:0,0:0:0:0:
77,132,20867,1,2,0:0:0:0:
114,157,20966,1,2,0:0:0:0:
156,173,21066,1,10,0:0:0:0:
200,178,21165,1,2,0:0:0:0:
245,173,21264,2,0,L|257:244,1,71.9999978027344,2|0,0:0|0:0,0:0:0:0:
325,63,21463,5,8,0:1:0:0:
464,237,21661,2,0,P|477:277|475:316,1,71.9999978027344,2|0,0:0|0:0,0:0:0:0:
260,344,21860,2,0,P|247:304|249:265,1,71.9999978027344,8|0,0:3|0:0,0:0:0:0:
381,325,22058,6,0,P|362:248|343:325,1,215.999993408203,8|0,0:0|0:0,0:0:0:0:
407,169,22455,1,2,0:0:0:0:
412,131,22554,1,2,0:0:0:0:
417,93,22654,2,0,P|364:117|306:86,1,120,8|0,0:0|0:0,0:0:0:0:
203,24,23051,6,0,L|216:94,1,71.9999978027344,8|0,0:1|0:0,0:0:0:0:
29,148,23249,2,0,L|42:77,1,71.9999978027344,2|0,0:0|0:0,0:0:0:0:
238,189,23448,1,8,0:3:0:0:
34,255,23646,5,10,0:0:0:0:
80,239,23745,1,2,0:0:0:0:
129,238,23845,1,2,0:0:0:0:
176,251,23944,1,2,0:0:0:0:
216,278,24043,2,0,P|246:299|283:308,1,71.9999978027344,2|0,0:0|0:0,0:0:0:0:
467,250,24241,5,10,0:0:0:0:
359,106,24440,1,0,0:0:0:0:
376,362,24638,6,0,P|385:242|365:124,1,240,6|8,0:3|0:0,0:0:0:0:
267,42,25234,5,0,0:0:0:0:
247,81,25333,1,0,0:0:0:0:
209,101,25432,2,0,L|138:80,1,60,2|0,0:3|0:0,0:0:0:0:
38,143,25631,1,0,0:0:0:0:
58,182,25730,1,0,0:0:0:0:
96,202,25829,2,0,L|167:181,1,60,8|0,0:0|0:0,0:0:0:0:
264,369,26028,1,0,0:0:0:0:
225,349,26127,1,0,0:0:0:0:
205,311,26226,2,0,L|226:240,1,60,2|0,0:3|0:0,0:0:0:0:
338,138,26425,1,0,0:0:0:0:
343,181,26524,1,0,0:0:0:0:
349,224,26623,2,0,L|356:292,1,60,8|0,0:0|0:0,0:0:0:0:
455,158,26822,5,0,0:0:0:0:
461,115,26921,1,0,0:0:0:0:
466,72,27020,1,2,0:3:0:0:
501,226,27219,1,0,0:0:0:0:
398,297,27417,6,0,P|356:314|312:307,1,90.0000034332277,8|0,0:0|0:0,0:0:0:0:
143,356,27714,1,0,0:0:0:0:
143,356,27814,6,0,P|152:236|132:118,1,240,2|8,0:3|0:0,0:0:0:0:
256,35,28410,5,0,0:0:0:0:
251,78,28509,1,0,0:0:0:0:
245,121,28608,2,0,L|238:189,1,60,2|0,0:3|0:0,0:0:0:0:
405,235,28807,1,0,0:0:0:0:
400,192,28906,1,0,0:0:0:0:
394,149,29005,2,0,L|387:89,1,60,8|0,0:0|0:0,0:0:0:0:
467,295,29204,1,0,0:0:0:0:
434,324,29303,1,0,0:0:0:0:
392,330,29402,2,0,L|332:285,1,60,2|0,0:3|0:0,0:0:0:0:
141,326,29600,1,0,0:0:0:0:
184,334,29700,1,0,0:0:0:0:
223,318,29799,1,8,0:0:0:0:
48,143,29998,5,0,0:0:0:0:
53,186,30097,1,0,0:0:0:0:
59,229,30196,2,0,L|69:296,1,60,2|0,0:3|0:0,0:0:0:0:
246,232,30395,2,0,L|254:172,1,60,8|0,0:0|0:0,0:0:0:0:
36,364,30593,1,8,0:0:0:0:
156,231,30792,1,0,0:0:0:0:
269,360,30990,6,0,P|390:356|457:238,1,264.000008056641,6|8,0:3|0:0,0:0:0:0:
421,96,31586,5,0,0:0:0:0:
399,125,31685,1,0,0:0:0:0:
378,154,31784,2,0,P|342:157|311:143,1,66.0000020141602,2|0,0:3|0:0,0:0:0:0:
144,252,31983,1,0,0:0:0:0:
180,247,32082,1,0,0:0:0:0:
215,243,32181,2,0,P|235:213|238:179,1,66.0000020141602,8|0,0:0|0:0,0:0:0:0:
123,32,32380,1,0,0:0:0:0:
87,37,32479,1,0,0:0:0:0:
52,41,32578,2,0,P|31:70|28:104,1,66.0000020141602,2|0,0:3|0:0,0:0:0:0:
61,294,32777,1,0,0:0:0:0:
66,258,32876,1,0,0:0:0:0:
71,222,32975,2,0,L|82:140,1,66.0000020141602,8|0,0:0|0:0,0:0:0:0:
216,319,33174,2,0,L|224:384,1,66.0000020141602,0|0,0:0|0:0,0:0:0:0:
272,146,33372,6,0,P|236:160|197:156,1,77.9999964294435,2|0,0:3|0:0,0:0:0:0:
358,55,33571,1,0,0:0:0:0:
448,220,33769,6,0,P|452:264|444:308,1,90.0000034332277,8|0,0:0|0:0,0:0:0:0:
224,384,34066,1,0,0:0:0:0:
224,384,34166,6,0,P|335:341|359:195,1,264.000008056641,2|8,0:3|0:0,0:0:0:0:
182,81,34762,5,0,0:0:0:0:
193,116,34861,1,0,0:0:0:0:
225,137,34960,2,0,P|260:140|292:126,1,66.0000020141602,2|0,0:3|0:0,0:0:0:0:
96,61,35159,1,0,0:0:0:0:
73,90,35258,1,0,0:0:0:0:
69,126,35357,2,0,P|84:158|112:178,1,66.0000020141602,8|0,0:0|0:0,0:0:0:0:
272,217,35556,1,0,0:0:0:0:
304,258,35655,1,0,0:0:0:0:
310,309,35754,6,0,P|288:355|266:272,1,180.000006866455,4|0,0:1|0:0,0:0:0:0:
387,288,36151,2,0,P|365:360|309:309,1,180.000006866455,8|0,0:0|0:0,0:0:0:0:
391,206,36449,1,0,0:0:0:0:
391,206,36548,6,0,P|398:157|377:116,1,77.9999964294435,6|0,0:0|0:0,0:0:0:0:
238,137,36746,2,0,P|276:167|322:169,1,90.0000034332277,6|0,0:0|0:0,0:0:0:0:
218,58,36945,6,0,B|137:72|135:193|210:216|210:216|150:244|149:319,1,323.999990112305,10|0,0:1|0:0,0:0:0:0:
258,320,37342,5,6,0:2:0:0:
258,320,37441,1,2,0:1:0:0:
253,348,37540,1,2,0:1:0:0:
235,296,37640,1,2,0:1:0:0:
288,306,37739,1,2,0:0:0:0:
430,185,37937,6,0,B|486:226|486:226|273:184,1,270.000010299683,8|0,0:0|0:0,0:0:0:0:
197,165,38334,1,2,0:1:0:0:
314,102,38533,2,0,P|330:71|334:35,1,71.9999978027344,8|0,0:2|0:0,0:0:0:0:
129,106,38731,2,0,P|112:137|108:173,1,71.9999978027344,2|0,0:1|0:0,0:0:0:0:
233,265,38930,6,0,L|291:276,1,60,6|0,0:0|0:0,0:0:0:0:
109,364,39128,2,0,L|167:352,1,60,2|0,0:1|0:0,0:0:0:0:
15,262,39327,1,2,0:0:0:0:
217,90,39525,6,0,P|215:184|132:102,1,270.000010299683,8|0,0:0|0:0,0:0:0:0:
163,32,39922,1,2,0:1:0:0:
325,109,40121,6,0,B|313:188|313:188|349:157,1,107.999996704102,8|0,0:2|0:0,0:0:0:0:
476,116,40518,6,0,P|447:114|418:121,1,60,6|0,0:0|0:0,0:0:0:0:
289,272,40716,2,0,P|318:274|355:265,1,66.0000020141602,2|0,0:1|0:0,0:0:0:0:
209,109,40915,2,0,P|169:105|131:114,1,71.9999978027344,2|0,0:0|0:0,0:0:0:0:
114,253,41113,6,0,B|98:289|113:334|151:349|195:345|227:315|224:257|208:219|191:194|123:154,1,270.000010299683,8|0,0:0|0:0,0:0:0:0:
75,155,41510,1,2,0:1:0:0:
189,24,41709,2,0,L|259:40,1,71.9999978027344,8|0,0:0|0:0,0:0:0:0:
330,159,41907,2,0,L|259:175,1,71.9999978027344,2|0,0:1|0:0,0:0:0:0:
426,38,42106,5,6,0:0:0:0:
463,157,42304,1,0,0:0:0:0:
319,81,42503,1,2,0:0:0:0:
336,272,42701,6,0,P|436:301|371:215,1,251.999992309571,8|0,0:0|0:0,0:0:0:0:
319,193,43098,1,2,0:1:0:0:
246,324,43297,1,8,0:0:0:0:
185,140,43495,1,0,0:0:0:0:
88,312,43694,5,6,0:0:0:0:
88,312,43793,1,2,0:1:0:0:
83,284,43892,1,2,0:1:0:0:
118,326,43991,1,2,0:1:0:0:
65,336,44091,1,2,0:0:0:0:
44,142,44289,6,0,B|-12:101|-12:101|201:143,1,270.000010299683,8|0,0:0|0:0,0:0:0:0:
277,162,44686,1,2,0:1:0:0:
111,213,44885,2,0,P|76:207|43:219,1,71.9999978027344,8|0,0:0|0:0,0:0:0:0:
191,351,45083,2,0,P|197:315|185:282,1,71.9999978027344,2|0,0:1|0:0,0:0:0:0:
59,336,45282,6,0,L|117:325,1,60,6|0,0:0|0:0,0:0:0:0:
257,247,45480,2,0,L|316:258,1,60,2|0,0:1|0:0,0:0:0:0:
462,335,45679,1,2,0:0:0:0:
390,135,45877,6,0,B|441:128|484:189|403:226|342:205|369:137|362:97|321:60|220:86,1,270.000010299683,8|0,0:0|0:0,0:0:0:0:
205,103,46274,1,2,0:1:0:0:
131,258,46473,6,0,B|127:184|127:184|104:227,1,107.999996704102,8|0,0:0|0:0,0:0:0:0:
220,354,46870,6,0,L|228:294,1,60,6|0,0:0|0:0,0:0:0:0:
372,303,47068,2,0,L|349:247,1,60,2|0,0:1|0:0,0:0:0:0:
471,185,47267,1,2,0:0:0:0:
355,106,47465,6,0,B|310:142|310:142|403:178|416:69|517:114,1,270.000010299683,8|0,0:0|0:0,0:0:0:0:
480,244,47862,2,0,L|470:184,1,60,2|0,0:1|0:0,0:0:0:0:
372,303,48060,6,0,B|429:357|429:357|210:289,1,288,8|0,0:0|0:0,0:0:0:0:
103,251,48457,5,6,0:0:0:0:
103,251,48854,1,0,0:0:0:0:
68,127,49053,2,0,L|41:29,1,90.0000034332277,8|0,0:0|0:0,0:0:0:0:
217,193,49251,2,0,L|240:106,1,90.0000034332277,6|0,0:0|0:0,0:0:0:0:
33,304,49450,1,8,0:0:0:0:
33,304,49648,6,0,B|136:406|200:221|332:343,1,306.000005836487,10|0,0:1|0:0,0:0:0:0:
453,345,50045,5,6,0:0:0:0:
453,345,50145,1,2,0:1:0:0:
423,359,50244,1,2,0:1:0:0:
458,317,50343,1,2,0:1:0:0:
476,369,50442,1,2,0:0:0:0:
425,137,50641,6,0,B|501:112|501:112|288:77,1,270.000010299683,8|0,0:0|0:0,0:0:0:0:
227,62,51038,1,2,0:1:0:0:
104,197,51236,2,0,P|99:161|108:126,1,71.9999978027344,8|0,0:0|0:0,0:0:0:0:
313,190,51435,2,0,P|321:224|316:263,1,71.9999978027344,2|0,0:1|0:0,0:0:0:0:
103,311,51633,6,0,L|43:321,1,60,6|0,0:0|0:0,0:0:0:0:
242,225,51832,2,0,L|182:214,1,60,2|0,0:1|0:0,0:0:0:0:
335,336,52030,1,2,0:0:0:0:
395,166,52229,6,0,P|435:68|338:109,1,270.000010299683,8|0,0:0|0:0,0:0:0:0:
313,190,52626,1,2,0:1:0:0:
450,356,52824,6,0,B|463:278|463:278|474:313,1,107.999996704102,8|0,0:0|0:0,0:0:0:0:
315,355,53221,6,0,P|275:346|246:321,1,60,6|0,0:0|0:0,0:0:0:0:
174,178,53420,2,0,P|206:159|244:153,1,66.0000020141602,2|0,0:1|0:0,0:0:0:0:
90,320,53618,2,0,P|79:285|79:248,1,71.9999978027344,2|0,0:0|0:0,0:0:0:0:
316,275,53817,6,0,B|375:227|375:227|160:273,1,270.000010299683,8|0,0:0|0:0,0:0:0:0:
90,320,54214,1,2,0:1:0:0:
174,177,54412,2,0,P|176:142|168:107,1,71.9999978027344,8|0,0:0|0:0,0:0:0:0:
26,30,54611,2,0,P|18:64|20:100,1,71.9999978027344,0|0,0:0|0:0,0:0:0:0:
59,221,54809,5,6,0:0:0:0:
195,204,55008,1,2,0:1:0:0:
13,286,55206,1,2,0:0:0:0:
213,293,55405,6,0,B|168:357|168:357|194:203,1,233.999989288331,8|0,0:0|0:0,0:0:0:0:
211,124,55802,1,2,0:1:0:0:
268,237,56000,1,8,0:0:0:0:
134,147,56199,1,2,0:1:0:0:
292,342,56397,5,6,0:0:0:0:
292,342,56496,1,2,0:1:0:0:
315,366,56596,1,2,0:1:0:0:
262,356,56695,1,2,0:1:0:0:
297,314,56794,1,2,0:0:0:0:
374,188,56993,6,0,B|424:180|453:197|434:258|373:269|335:231|361:183|332:140|234:159,1,270.000010299683,8|0,0:0|0:0,0:0:0:0:
180,187,57390,1,2,0:1:0:0:
79,295,57588,2,0,P|114:300|148:289,1,71.9999978027344,8|0,0:0|0:0,0:0:0:0:
208,104,57787,2,0,P|172:98|138:109,1,71.9999978027344,2|0,0:1|0:0,0:0:0:0:
268,237,57985,6,0,L|226:285,1,60,6|0,0:0|0:0,0:0:0:0:
365,305,58184,2,0,L|304:325,1,60,2|0,0:1|0:0,0:0:0:0:
435,384,58382,1,2,0:0:0:0:
480,176,58581,6,0,P|448:231|415:119,1,270.000010299683,8|0,0:0|0:0,0:0:0:0:
485,91,58977,1,2,0:1:0:0:
288,162,59176,6,0,B|209:182|209:182|229:164,1,107.999996704102,8|0,0:0|0:0,0:0:0:0:
299,244,59573,6,0,P|298:274|288:303,1,60,6|0,0:0|0:0,0:0:0:0:
136,362,59771,2,0,P|124:328|122:293,1,66.0000020141602,2|0,0:1|0:0,0:0:0:0:
324,239,59970,2,0,P|321:276|309:311,1,71.9999978027344,2|0,0:0|0:0,0:0:0:0:
80,196,60168,6,0,B|17:154|17:154|224:184,1,270.000010299683,8|0,0:0|0:0,0:0:0:0:
204,267,60565,2,0,P|195:222|215:173,1,90.0000034332277,2|0,0:1|0:0,0:0:0:0:
364,128,60764,6,0,P|270:131|346:68,1,215.999993408203,8|0,0:0|0:0,0:0:0:0:
441,147,61161,5,6,0:0:0:0:
441,147,61558,2,0,L|426:235,1,90.0000034332277,2|0,0:0|0:0,0:0:0:0:
263,54,61756,2,0,L|277:142,1,90.0000034332277,8|0,0:0|0:0,0:0:0:0:
456,59,61955,1,2,0:0:0:0:
290,232,62153,1,2,0:1:0:0:
290,232,62352,6,0,B|354:271|354:271|224:316|242:210|111:263,1,323.999990112305,12|0,0:0|0:0,0:0:0:0:
37,310,62749,5,10,0:0:0:0:
12,224,62947,1,0,0:0:0:0:
17,202,63047,1,0,0:0:0:0:
23,180,63146,1,10,0:0:0:0:
104,105,63344,2,0,L|114:148,1,45.0000017166138,0|0,0:0|0:0,0:0:0:0:
207,170,63543,1,10,0:0:0:0:
212,148,63642,1,0,0:0:0:0:
218,126,63741,1,0,0:0:0:0:
318,50,63939,2,0,L|370:42,1,45.0000017166138,10|0,0:0|0:0,0:0:0:0:
372,123,64138,2,0,L|424:115,1,45.0000017166138
432,202,64337,5,10,0:0:0:0:
262,242,64535,1,0,0:0:0:0:
268,264,64635,1,0,0:0:0:0:
273,286,64734,1,10,0:0:0:0:
395,364,64932,1,0,0:0:0:0:
400,342,65031,1,0,0:0:0:0:
406,320,65131,2,0,L|397:269,1,45.0000017166138,10|0,0:0|0:0,0:0:0:0:
505,288,65329,2,0,L|496:237,1,45.0000017166138
478,132,65528,1,10,0:0:0:0:
285,164,65726,5,0,0:0:0:0:
241,208,65825,1,0,0:0:0:0:
225,149,65925,1,10,0:0:0:0:
179,284,66123,1,0,0:0:0:0:
77,183,66322,2,0,L|88:241,1,45.0000017166138,10|0,0:0|0:0,0:0:0:0:
50,298,66520,1,0,0:0:0:0:
172,255,66719,1,10,0:0:0:0:
167,233,66818,1,0,0:0:0:0:
161,211,66917,1,0,0:0:0:0:
252,338,67115,2,0,L|260:286,1,45.0000017166138,10|0,2:0|2:0,2:0:0:0:
344,294,67314,2,0,L|352:242,1,45.0000017166138,0|0,2:0|2:0,2:0:0:0:
438,250,67513,5,10,0:0:0:0:
252,63,67711,1,0,0:0:0:0:
282,72,67810,1,0,0:0:0:0:
312,78,67910,1,10,0:0:0:0:
445,145,68108,1,0,0:0:0:0:
415,154,68207,1,0,0:0:0:0:
385,160,68307,1,10,0:0:0:0:
355,169,68406,1,0,0:0:0:0:
325,175,68505,1,0,0:0:0:0:
421,278,68704,2,0,L|434:330,1,45.0000017166138,10|0,0:0|0:0,0:0:0:0:
241,234,68902,2,0,L|251:190,1,45.0000017166138,0|0,0:0|0:0,0:0:0:0:
299,355,69101,5,4,0:0:0:0:
157,276,69299,1,0,0:0:0:0:
345,276,69498,5,4,0:0:0:0:
203,355,69696,1,0,0:0:0:0:
407,364,69895,5,4,0:0:0:0:
418,328,69994,1,0,0:0:0:0:
429,292,70093,1,0,0:0:0:0:
337,162,70292,5,4,0:0:0:0:
498,244,70490,1,0,0:0:0:0:
336,62,70688,5,4,0:0:0:0:
264,255,70887,1,0,0:0:0:0:
449,127,71085,5,4,0:0:0:0:
221,79,71284,1,0,0:0:0:0:
271,270,71482,5,4,0:0:0:0:
268,311,71582,1,0,0:0:0:0:
266,353,71681,1,0,0:0:0:0:
148,115,71879,5,4,0:0:0:0:
417,50,72078,1,0,0:0:0:0:
140,32,72276,6,0,P|99:43|71:73,1,83.9999974365235,6|0,0:0|0:0,0:0:0:0:
151,200,72475,2,0,P|191:188|219:158,1,83.9999974365235,6|0,0:0|0:0,0:0:0:0:
32,149,72673,6,0,P|21:189|34:229,1,83.9999974365235,6|0,0:0|0:0,0:0:0:0:
256,85,72872,2,0,P|266:44|254:4,1,83.9999974365235,6|0,0:0|0:0,0:0:0:0:
104,268,73070,5,6,0:0:0:0:
134,296,73170,1,0,0:0:0:0:
173,310,73268,2,0,P|174:333|182:354,1,41.9999987182618,6|0,0:0|0:0,0:0:0:0:
215,308,73368,2,0,P|214:325|222:352,1,41.9999987182618,6|0,0:0|0:0,0:0:0:0:
254,292,73467,5,6,0:0:0:0:
259,219,73567,1,6,0:0:0:0:
293,155,73666,1,6,0:0:0:0:
359,126,73765,1,6,0:0:0:0:
431,123,73864,6,0,P|478:92|431:80,1,132,6|0,0:3|0:0,0:0:0:0:
430,339,75055,6,0,B|465:289|465:289|378:319|378:319|283:283,1,251.999992309571,10|0,0:1|0:0,0:0:0:0:
185,42,75452,6,0,B|191:155|191:155|150:258|150:258|152:363,1,323.999990112305,14|0,0:0|0:0,0:0:0:0:
128,355,75849,2,0,B|126:255|126:255|167:152|167:152|161:39,1,323.999990112305,14|0,0:0|0:0,0:0:0:0:
57,45,76246,5,8,0:0:0:0:
58,67,76346,1,0,0:0:0:0:
59,90,76445,1,2,0:0:0:0:
60,113,76544,1,2,0:0:0:0:
36,32,76742,5,2,0:0:0:0:
37,54,76842,1,2,0:0:0:0:
38,77,76941,1,2,0:0:0:0:
12,12,77139,5,2,0:0:0:0:
13,34,77239,1,2,0:0:0:0:
14,57,77338,1,2,0:0:0:0:
63,195,77536,5,2,0:0:0:0:
64,217,77636,1,2,0:0:0:0:
65,239,77735,1,2,0:0:0:0:
66,262,77834,6,0,B|152:304|152:224|256:280,1,180,14|0,0:0|0:0,0:0:0:0:
318,319,78033,2,0,P|306:306|301:325,1,45.0000017166138,0|0,0:0|0:0,0:0:0:0:
411,372,78231,6,0,B|405:210|462:112|462:112|463:163|493:197,1,360,14|0,0:0|0:0,0:0:0:0:
512,287,78628,6,0,B|333:308|441:102|232:137,1,323.999990112305,14|0,0:0|0:0,0:0:0:0:
141,147,79025,5,8,0:0:0:0:
140,169,79124,1,0,0:0:0:0:
139,192,79224,1,0,0:0:0:0:
137,214,79323,2,0,L|134:262,1,30,0|0,0:0|0:0,0:0:0:0:
63,271,79422,5,8,0:0:0:0:
62,249,79521,1,0,0:0:0:0:
61,226,79621,1,0,0:0:0:0:
60,203,79720,2,0,L|56:143,1,60,8|0,0:0|0:0,0:0:0:0:
133,48,79918,1,0,0:0:0:0:
155,64,80018,6,0,B|96:93|68:28|-2:81,1,143.999995605469,8|0,0:0|0:0,0:0:0:0:
228,103,80415,1,12,0:0:0:0:
368,77,80613,6,0,B|345:17|345:17|318:212,1,251.999992309571,12|0,0:0|0:0,0:0:0:0:
346,312,81010,6,0,B|175:327|254:128|70:165,1,323.999990112305,14|0,0:0|0:0,0:0:0:0:
320,203,81407,2,0,P|349:132|408:267,1,323.999990112305,14|0,0:0|0:0,0:0:0:0:
118,339,81804,2,0,B|155:277|115:204|115:204|141:174|141:174|102:104|146:31,1,323.999990112305,14|0,0:0|0:0,0:0:0:0:
274,149,82201,2,0,P|225:146|295:88,1,215.999993408203,14|0,0:0|0:0,0:0:0:0:
346,196,82499,1,0,0:0:0:0:
357,233,82598,6,0,L|376:159,1,60,8|0,0:0|0:0,0:0:0:0:
449,78,82796,1,2,0:0:0:0:
450,101,82896,1,2,0:0:0:0:
463,56,83094,5,2,0:0:0:0:
464,79,83193,1,2,0:0:0:0:
465,101,83293,1,2,0:0:0:0:
479,41,83491,5,2,0:0:0:0:
480,64,83590,1,2,0:0:0:0:
481,86,83690,1,2,0:0:0:0:
482,109,83789,6,0,L|485:185,1,60,0|0,0:0|0:0,0:0:0:0:
436,298,83987,1,2,0:0:0:0:
392,315,84087,2,0,L|386:279,1,30,0|0,0:0|0:0,0:0:0:0:
356,341,84186,6,0,B|283:303|247:383|158:315,1,180,14|0,0:0|0:0,0:0:0:0:
125,272,84384,2,0,P|113:288|107:268,1,45.0000017166138,0|0,0:0|0:0,0:0:0:0:
227,252,84583,6,0,P|219:166|4:235,1,360,14|0,0:0|0:0,0:0:0:0:
197,353,84980,6,0,B|244:320|227:252|227:252|300:352|431:327,1,323.999990112305,14|0,0:0|0:0,0:0:0:0:
512,244,85377,1,14,0:0:0:0:
446,92,85575,1,2,0:0:0:0:
457,127,85675,2,0,L|463:91,1,30,2|0,0:0|0:0,0:0:0:0:
444,169,85774,6,0,P|398:230|308:240,1,155.999992858887,8|0,0:0|0:0,0:0:0:0:
220,79,86071,2,0,P|295:88|349:161,1,155.999992858887,8|0,0:0|0:0,0:0:0:0:
223,273,86369,2,0,P|219:231|237:190,1,77.9999964294435,8|0,0:0|0:0,0:0:0:0:
0,207,86766,6,0,P|25:177|90:163,1,90.0000034332277,6|0,0:0|0:0,0:0:0:0:
443,280,86965,2,0,B|385:212|265:190|252:336|112:296|65:238,1,396.000012084961,12|0,0:0|0:0,0:0:0:0:
210,82,87362,6,0,P|235:158|141:74,1,360,14|0,0:0|0:0,0:0:0:0:
376,115,87759,2,0,B|410:80|394:40|394:40|263:121|370:190|237:273,1,360,14|0,0:0|0:0,0:0:0:0:
40,223,88156,2,0,P|102:277|315:162,1,323.999990112305,14|0,0:0|0:0,0:0:0:0:
384,373,88553,2,0,P|305:307|330:162,1,215.999993408203,14|0,0:0|0:0,0:0:0:0:
398,114,88850,1,0,0:0:0:0:
414,92,88950,5,8,0:0:0:0:
388,90,89049,1,0,0:0:0:0:
362,89,89148,1,2,0:0:0:0:
335,88,89247,1,2,0:0:0:0:
434,76,89446,5,2,0:0:0:0:
408,74,89545,1,2,0:0:0:0:
382,73,89644,1,2,0:0:0:0:
454,60,89843,5,2,0:0:0:0:
428,58,89942,1,2,0:0:0:0:
402,57,90041,1,2,0:0:0:0:
478,191,90240,5,2,0:0:0:0:
452,192,90339,1,2,0:0:0:0:
426,193,90438,1,2,0:0:0:0:
400,195,90538,6,0,B|314:206|363:312|262:320,1,180,14|0,0:0|0:0,0:0:0:0:
196,312,90736,2,0,P|196:292|183:306,1,45.0000017166138,0|0,0:0|0:0,0:0:0:0:
4,276,90935,6,0,P|129:290|260:113,1,360,14|0,0:0|0:0,0:0:0:0:
46,49,91332,6,0,B|216:45|116:222|321:200,1,323.999990112305,14|0,0:0|0:0,0:0:0:0:
382,64,91729,6,0,L|375:123,1,60,8|0,0:0|0:0,0:0:0:0:
418,207,91927,1,0,0:0:0:0:
438,251,92026,2,0,L|477:261,1,30,0|0,0:0|0:0,0:0:0:0:
426,297,92126,2,0,P|365:323|276:294,1,155.999992858887,8|0,0:0|0:0,0:0:0:0:
230,77,92423,2,0,P|283:116|302:208,1,155.999992858887,8|0,0:0|0:0,0:0:0:0:
151,332,92721,6,0,L|301:293,1,135.000005149841,10|2,0:0|0:0,0:0:0:0:
42,261,93118,2,0,L|59:338,1,77.9999964294435,14|0,0:0|0:0,0:0:0:0:
25,165,93317,2,0,P|145:205|268:169,1,233.999989288331,8|0,0:0|0:0,0:0:0:0:
469,54,93714,6,0,B|296:35|431:304|187:277,1,360,14|0,0:0|0:0,0:0:0:0:
13,143,94110,2,0,B|186:124|51:393|295:366,1,360,14|0,0:0|0:0,0:0:0:0:
463,249,94507,2,0,P|378:346|361:218,1,323.999990112305,14|0,0:0|0:0,0:0:0:0:
144,57,94904,2,0,P|293:76|356:50,1,215.999993408203,6|0,0:0|0:0,0:0:0:0:
450,100,95202,1,6,0:0:0:0:
437,121,95301,5,10,0:0:0:0:
449,173,95401,1,0,0:0:0:0:
453,227,95500,1,2,0:0:0:0:
448,281,95599,1,8,0:0:0:0:
277,346,95798,5,2,0:0:0:0:
272,292,95897,1,8,0:0:0:0:
276,238,95996,1,2,0:0:0:0:
128,120,96195,5,10,0:0:0:0:
132,174,96294,1,2,0:0:0:0:
127,228,96393,1,10,0:0:0:0:
5,350,96592,5,10,0:0:0:0:
0,314,96691,1,2,0:0:0:0:
0,277,96790,2,0,L|44:283,1,45.0000017166138,2|0,0:0|0:0,0:0:0:0:
5,242,96889,6,0,P|97:250|202:203,1,180,14|0,0:0|0:0,0:0:0:0:
290,148,97088,2,0,P|274:151|277:129,1,45.0000017166138,0|0,0:0|0:0,0:0:0:0:
332,292,97286,6,0,P|208:251|144:79,1,323.999990112305,14|0,0:0|0:0,0:0:0:0:
463,30,97683,6,0,P|413:147|413:271,1,240,14|8,0:0|0:0,0:0:0:0:
471,381,98279,1,2,0:0:0:0:
442,361,98378,2,0,L|466:321,1,30,2|0,0:0|0:0,0:0:0:0:
409,350,98477,2,0,P|372:347|332:359,1,60,8|0,0:0|0:0,0:0:0:0:
194,146,98675,6,0,B|164:180|164:180|240:152|295:218,2,192,6|0|12,0:0|0:0|0:0,0:0:0:0:
256,192,99172,12,10,100462,0:1:0:0:
138,42,100859,5,6,0:0:0:0:
70,142,101057,2,0,L|111:151,1,38.9999982147218,2|0,0:0|0:0,0:0:0:0:
55,168,101156,2,0,L|96:177,1,38.9999982147218,2|0,0:0|0:0,0:0:0:0:
40,194,101256,2,0,L|81:203,1,38.9999982147218,2|0,0:0|0:0,0:0:0:0:
25,220,101355,2,0,L|66:229,1,38.9999982147218,2|0,0:0|0:0,0:0:0:0:
7,245,101455,6,0,B|-9:292|-9:292|37:350|127:312,1,180.000006866455,8|0,0:0|0:0,0:0:0:0:
200,171,101852,1,2,0:1:0:0:
210,209,101951,1,2,0:1:0:0:
220,247,102050,1,8,0:0:0:0:
301,360,102249,1,2,0:1:0:0:
311,322,102348,1,2,0:1:0:0:
321,284,102447,5,10,0:0:0:0:
474,384,102646,2,0,L|515:375,1,38.9999982147218,2|0,0:0|0:0,0:0:0:0:
459,358,102745,2,0,L|500:349,1,38.9999982147218,2|0,0:0|0:0,0:0:0:0:
444,332,102844,2,0,L|485:323,1,38.9999982147218,2|0,0:0|0:0,0:0:0:0:
429,306,102943,2,0,L|470:297,1,38.9999982147218,2|0,0:0|0:0,0:0:0:0:
411,281,103043,6,0,P|401:205|510:153,1,180.000006866455,8|0,0:0|0:0,0:0:0:0:
314,76,103440,2,0,P|274:90|221:73,1,77.9999964294435,2|0,0:1|0:0,0:0:0:0:
191,10,103638,2,0,P|195:116|101:220,1,233.999989288331,8|0,0:0|0:0,0:0:0:0:
10,308,104035,5,8,0:0:0:0:
229,319,104234,1,2,0:0:0:0:
44,142,104432,1,2,0:0:0:0:
116,384,104631,2,0,P|103:314|120:205,1,155.999992858887,8|0,0:0|0:0,0:0:0:0:
201,56,105028,1,2,0:1:0:0:
325,253,105226,2,0,P|247:234|201:161,1,155.999992858887,8|0,0:0|0:0,0:0:0:0:
432,67,105623,5,6,0:0:0:0:
488,210,105821,1,0,0:0:0:0:
475,247,105921,1,2,0:0:0:0:
463,284,106020,1,2,0:0:0:0:
451,321,106119,1,2,0:0:0:0:
439,358,106218,6,0,P|341:308|195:329,1,180.000006866455,8|0,0:0|0:0,0:0:0:0:
301,160,106615,1,2,0:0:0:0:
289,123,106715,1,2,0:0:0:0:
276,86,106814,1,8,0:0:0:0:
198,247,107012,1,2,0:0:0:0:
121,46,107211,5,6,0:0:0:0:
30,232,107409,2,0,L|6:201,1,38.9999982147218,2|0,0:0|0:0,0:0:0:0:
58,221,107508,2,0,L|34:190,1,38.9999982147218,2|0,0:0|0:0,0:0:0:0:
86,211,107607,2,0,L|62:180,1,38.9999982147218,2|0,0:0|0:0,0:0:0:0:
114,201,107707,2,0,L|90:170,1,38.9999982147218,2|0,0:0|0:0,0:0:0:0:
144,193,107806,6,0,B|196:169|196:169|161:105|216:41,1,180.000006866455,8|0,0:0|0:0,0:0:0:0:
357,145,108203,1,2,0:1:0:0:
319,133,108303,1,2,0:1:0:0:
283,120,108402,1,8,0:0:0:0:
309,306,108600,1,2,0:1:0:0:
295,270,108700,1,2,0:1:0:0:
284,232,108799,5,6,0:0:0:0:
417,356,108997,2,0,L|448:379,1,38.9999982147218,2|0,0:0|0:0,0:0:0:0:
428,328,109096,2,0,L|459:351,1,38.9999982147218,2|0,0:0|0:0,0:0:0:0:
438,300,109195,2,0,L|469:323,1,38.9999982147218,2|0,0:0|0:0,0:0:0:0:
448,272,109295,2,0,L|479:295,1,38.9999982147218,2|0,0:0|0:0,0:0:0:0:
456,242,109394,6,0,P|479:139|400:71,1,180.000006866455,8|0,0:0|0:0,0:0:0:0:
218,173,109791,2,0,P|174:175|142:157,1,77.9999964294435,2|2,0:1|0:0,0:0:0:0:
90,73,109990,2,0,P|114:185|68:291,1,233.999989288331,8|0,0:0|0:0,0:0:0:0:
254,323,110387,6,0,P|267:282|264:241,1,77.9999964294435,6|0,0:0|0:0,0:0:0:0:
401,98,110585,2,0,P|401:137|413:174,1,77.9999964294435,2|2,0:0|0:0,0:0:0:0:
228,97,110784,2,0,P|229:136|217:173,1,77.9999964294435,2|2,0:0|0:0,0:0:0:0:
406,335,110982,6,0,B|476:285|476:285|246:324,1,311.999985717774,8|2,0:0|0:0,0:0:0:0:
81,384,111578,2,0,P|82:295|46:219,1,155.999992858887,8|0,0:0|0:0,0:0:0:0:
256,352,111975,5,6,0:0:0:0:
256,352,112372,2,0,P|316:352|358:331,1,83.9999974365235,6|0,0:0|0:0,0:0:0:0:
339,172,112570,2,0,P|303:198|283:238,1,90.0000034332277,2|0,0:0|0:0,0:0:0:0:
479,380,112769,2,0,P|492:331|476:283,1,102.000001945496,6|2,0:0|0:0,0:0:0:0:
180,237,112967,2,0,P|188:289|224:329,1,107.999996704102,2|2,0:1|0:0,0:0:0:0:
483,150,113166,2,0,P|379:176|174:31,1,360,12|0,0:0|0:0,0:0:0:0:
179,45,113563,6,0,L|83:62,1,90.0000034332277,14|0,0:0|0:0,0:0:0:0:
19,146,113761,2,0,L|108:162,1,90.0000034332277,0|0,0:0|0:0,0:0:0:0:
180,237,113959,1,14,0:0:0:0:
180,237,114158,6,0,P|243:288|207:141,1,360,6|0,0:3|0:0,0:0:0:0:
258,207,114554,1,6,0:0:0:0:
297,224,114653,1,0,0:0:0:0:
340,227,114754,2,0,P|392:207|421:146,1,107.999996704102,10|0,0:0|0:0,0:0:0:0:
268,36,114951,1,0,0:0:0:0:
180,237,115151,6,0,L|158:148,1,90.0000034332277,14|0,0:0|0:0,0:0:0:0:
69,43,115349,2,0,L|47:130,1,90.0000034332277,2|0,0:0|0:0,0:0:0:0:
197,312,115547,1,14,0:0:0:0:
197,312,115746,6,0,B|133:352|78:289|119:186|218:200|253:327|400:239,1,396.000012084961,6|0,0:3|0:0,0:0:0:0:
350,91,116143,6,0,P|327:129|316:173,1,90.0000034332277,2|2,0:0|0:0,0:0:0:0:
454,116,116342,2,0,P|405:14|270:24,1,215.999993408203,14|0,0:0|0:0,0:0:0:0:
25,162,116739,6,0,P|83:193|126:234,1,96,14|0,0:0|0:0,0:0:0:0:
178,82,116937,2,0,P|213:139|229:196,1,107.999996704102,0|0,0:0|0:0,0:0:0:0:
350,91,117135,2,0,P|351:157|338:215,1,120,14|0,0:0|0:0,0:0:0:0:
463,169,117334,6,0,P|474:310|379:167,1,396.000012084961,6|0,0:3|0:0,0:0:0:0:
419,244,117730,1,2,0:0:0:0:
404,285,117829,1,2,0:0:0:0:
370,316,117929,2,0,L|229:289,1,107.999996704102,14|0,0:0|0:0,0:0:0:0:
151,202,118127,1,2,0:0:0:0:
54,366,118325,5,14,0:0:0:0:
0,181,118525,2,0,P|41:205|71:241,1,96,0|0,0:0|0:0,0:0:0:0:
249,328,118723,2,0,P|207:303|160:295,1,96,10|0,0:0|0:0,0:0:0:0:
78,132,118922,6,0,P|200:118|251:230,1,264.000008056641,2|10,0:0|0:0,0:0:0:0:
428,365,119319,6,0,L|412:277,1,90.0000034332277,0|0,0:0|0:0,0:0:0:0:
489,103,119517,2,0,L|467:209,1,107.999996704102,14|0,0:0|0:0,0:0:0:0:
321,282,119715,1,0,0:0:0:0:
321,282,119914,6,0,P|276:264|228:264,1,96,14|0,0:0|0:0,0:0:0:0:
66,355,120113,2,0,P|113:354|158:337,1,96,0|0,0:0|0:0,0:0:0:0:
134,182,120310,1,14,0:0:0:0:
134,182,120510,6,0,P|-4:158|111:79,1,360,6|0,0:3|0:0,0:0:0:0:
69,141,120906,1,0,0:0:0:0:
59,100,121005,1,0,0:0:0:0:
65,56,121105,2,0,P|115:36|168:40,1,107.999996704102,14|0,0:0|0:0,0:0:0:0:
317,135,121303,1,2,0:0:0:0:
439,15,121502,6,0,P|413:54|407:101,1,96,14|0,0:0|0:0,0:0:0:0:
318,285,121701,2,0,P|275:251|251:204,1,107.999996704102,2|0,0:0|0:0,0:0:0:0:
503,200,121898,1,14,0:0:0:0:
503,200,122098,6,0,B|298:237|339:41|121:66,1,396.000012084961,6|0,0:3|0:0,0:0:0:0:
79,197,122495,6,0,P|88:138|82:83,1,90.0000034332277,0|0,0:0|0:0,0:0:0:0:
5,290,122693,2,0,P|119:221|267:244,1,215.999993408203,14|2,0:0|0:0,0:0:0:0:
353,346,122991,1,2,0:0:0:0:
373,365,123090,6,0,L|398:244,1,96,14|0,0:0|0:0,0:0:0:0:
173,95,123289,2,0,L|198:217,1,125.999996154785,2|0,0:0|0:0,0:0:0:0:
453,339,123487,2,0,L|478:215,1,125.999996154785,2|0,0:0|0:0,0:0:0:0:
106,138,123686,6,0,P|135:321|247:104,1,600,6|0,0:3|0:0,0:0:0:0:
198,218,124281,1,14,0:0:0:0:
173,58,124480,1,0,0:0:0:0:
280,255,124678,6,0,P|421:256|502:181,1,215.999993408203,6|0,0:0|0:0,0:0:0:0:
193,102,125075,2,0,P|116:206|154:375,1,270.000010299683,6|0,0:0|0:0,0:0:0:0:
360,125,125472,2,0,P|359:64|314:-6,1,120,14|0,0:0|0:0,0:0:0:0:
