osu file format v14

[General]
AudioFilename: audio.mp3
AudioLeadIn: 0
PreviewTime: 40012
Countdown: 0
SampleSet: Soft
StackLeniency: 0.4
Mode: 0
LetterboxInBreaks: 0
WidescreenStoryboard: 0

[Editor]
Bookmarks: 26512,81637,105074,141449
DistanceSpacing: 1.3
BeatDivisor: 4
GridSize: 4
TimelineZoom: 2

[Metadata]
Title:Magnolia (feat. Guriri)
TitleUnicode:Magnolia (feat. 구리리)
Artist:M2U
ArtistUnicode:M2U
Creator:Su1fu7
Version:PandaHero's Advanced
Source:Deemo
Tags:wav.av. rayark sammish finshie pandahero diversity dubstep electronic
BeatmapID:1310970
BeatmapSetID:610967

[Difficulty]
HPDrainRate:4
CircleSize:3.8
OverallDifficulty:5
ApproachRate:6.5
SliderMultiplier:1.2
SliderTickRate:1

[Events]
//Background and Video events
0,0,"39400722_p0.jpg",0,0
//Break Periods
2,70212,75037
//Storyboard Layer 0 (Background)
//Storyboard Layer 1 (Fail)
//Storyboard Layer 2 (Pass)
//Storyboard Layer 3 (Foreground)
//Storyboard Sound Samples

[TimingPoints]
2512,375,4,2,0,70,1,0
8512,-100,4,2,2,50,0,0
14512,-100,4,2,2,70,0,0
22762,-100,4,2,0,50,0,0
23512,-100,4,2,0,35,0,0
24263,-100,4,2,0,20,0,0
28012,-133.333333333333,4,2,0,40,0,0
40012,-100,4,2,2,55,0,0
52012,-100,4,2,2,70,0,0
70012,-100,4,2,0,55,0,0
76012,-100,4,2,2,70,0,0
82012,-83.3333333333333,4,2,2,70,0,1
104699,-100,4,2,2,70,0,0
105262,-133.333333333333,4,2,2,70,0,0
118012,-100,4,2,2,70,0,0
136012,-133.333333333333,4,2,0,40,0,0
142105,-133.333333333333,4,2,0,5,0,0

[Colours]
Combo1 : 105,220,208
Combo2 : 172,241,109
Combo3 : 197,99,243
Combo4 : 238,126,72

[HitObjects]
476,324,2512,5,4,0:0:0:0:
324,284,2887,2,0,P|294:264|266:229,1,60,0|0,0:0|0:0,0:0:0:0:
236,180,3262,1,2,0:0:0:0:
340,64,3637,1,2,0:0:0:0:
188,32,4012,6,0,P|100:48|0:28,1,180,2|0,0:0|0:0,0:0:0:0:
16,112,4762,2,0,P|32:200|12:300,1,180,2|0,0:0|0:0,0:0:0:0:
68,348,5512,5,4,0:0:0:0:
224,344,5887,2,0,P|260:336|302:318,1,60,0|0,0:0|0:0,0:0:0:0:
348,288,6262,1,2,0:0:0:0:
408,144,6637,1,2,0:0:0:0:
260,188,7012,6,0,P|184:159|126:69,1,180,2|0,0:0|0:0,0:0:0:0:
196,40,7762,2,0,P|280:56|376:36,1,180,2|2,0:0|0:0,0:0:0:0:
448,16,8512,5,4,0:0:0:0:
472,172,8887,2,0,P|465:207|450:256,1,60,0|0,0:0|0:0,0:0:0:0:
424,300,9262,1,8,0:0:0:0:
296,212,9637,1,0,0:0:0:0:
220,348,10012,5,0,0:0:0:0:
88,264,10387,2,0,P|67:234|44:189,1,60,0|0,0:0|0:0,0:0:0:0:
24,140,10762,1,8,0:0:0:0:
180,116,11137,1,0,0:0:0:0:
280,236,11512,5,4,0:0:0:0:
432,200,11887,2,0,P|446:167|462:118,1,60,0|0,0:0|0:0,0:0:0:0:
480,72,12262,1,8,0:0:0:0:
324,80,12637,1,0,0:0:0:0:
196,168,13012,6,0,P|116:132|84:40,1,180,0|0,0:0|0:0,0:0:0:0:
16,92,13762,2,0,B|3:145|33:185|33:185|13:217|13:217|16:275,1,180,8|0,0:0|0:0,0:0:0:0:
48,332,14512,6,0,P|145:332|237:340,1,180,6|8,0:0|0:0,0:0:0:0:
416,200,15637,2,0,P|319:200|227:192,1,180,2|8,0:0|0:0,0:0:0:0:
64,32,16762,2,0,P|161:32|253:40,1,180,2|0,0:0|0:0,0:0:0:0:
320,52,17512,1,2,0:0:0:0:
20,144,18262,6,0,P|29:171|36:201,1,60,8|0,0:0|0:0,0:0:0:0:
96,256,18637,2,0,P|105:284|111:313,1,60,0|0,0:0|0:0,0:0:0:0:
180,352,19012,2,0,P|236:360|308:344,1,120,2|0,0:0|0:0,0:0:0:0:
332,276,19574,2,0,P|432:304|492:364,1,180,8|8,0:0|0:0,0:0:0:0:
492,200,20512,6,0,P|492:110|485:20,1,180,6|8,0:0|0:0,0:0:0:0:
268,104,21637,2,0,P|268:201|276:293,1,180,2|8,0:0|0:0,0:0:0:0:
48,228,22762,1,4,0:0:0:0:
256,192,22855,12,0,26512,0:0:0:0:
44,144,28012,6,0,P|76:176|96:232,1,90.0000034332277,2|0,0:0|0:0,0:0:0:0:
160,120,28762,2,0,P|171:163|161:222,1,90.0000034332277,2|0,0:0|0:0,0:0:0:0:
272,156,29512,2,0,P|260:199|221:245,2,90.0000034332277,2|2|2,0:0|0:0|0:0,0:0:0:0:
476,40,31012,6,0,P|433:55|389:54,1,90.0000034332277,2|0,0:0|0:0,0:0:0:0:
288,116,31762,2,0,P|330:131|374:130,1,90.0000034332277,2|2,0:0|0:0,0:0:0:0:
476,192,32512,2,0,P|433:207|389:206,2,90.0000034332277,2|2|2,0:0|0:0|0:0,0:0:0:0:
374,129,33637,1,2,0:0:0:0:
256,128,34012,6,0,P|232:168|228:216,1,90.0000034332277,2|2,0:0|0:0,0:0:0:0:
328,272,34762,2,0,P|352:312|356:368,1,90.0000034332277,2|2,0:0|0:0,0:0:0:0:
240,356,35512,1,2,0:0:0:0:
148,284,35887,1,2,0:0:0:0:
192,176,36262,1,2,0:0:0:0:
356,344,37012,6,0,P|399:348|442:335,1,90.0000034332277,2|0,0:0|0:0,0:0:0:0:
492,228,37762,2,0,P|495:184|484:140,1,90.0000034332277,2|0,0:0|0:0,0:0:0:0:
392,68,38512,2,0,B|356:92|308:100|300:64|256:64|217:85,1,180.000006866455,2|2,0:0|0:0,0:0:0:0:
52,348,40012,6,0,P|17:234|39:117,1,240,6|8,0:0|0:0,0:0:0:0:
172,36,41137,1,0,0:0:0:0:
264,164,41512,1,0,0:0:0:0:
132,248,41887,1,2,0:0:0:0:
132,248,42262,2,0,P|120:200|124:128,1,120,8|0,0:0|0:0,0:0:0:0:
252,40,43012,6,0,P|368:64|492:32,1,240,2|8,0:0|0:0,0:0:0:0:
420,180,44137,1,0,0:0:0:0:
264,172,44512,2,0,P|212:204|160:264,1,120,0|2,0:0|0:0,0:0:0:0:
280,360,45262,2,0,P|332:328|384:268,1,120,8|0,0:0|0:0,0:0:0:0:
372,128,46012,6,0,P|318:98|240:83,2,120,6|0|8,0:0|0:0|0:0,0:0:0:0:
488,232,47137,1,0,0:0:0:0:
388,352,47512,1,0,0:0:0:0:
240,296,47887,1,2,0:0:0:0:
108,216,48262,2,0,P|124:273|156:324,1,120,8|0,0:0|0:0,0:0:0:0:
276,224,49012,6,0,P|276:128|144:24,1,240,2|8,0:0|0:0,0:0:0:0:
28,76,50137,1,0,0:0:0:0:
160,160,50512,2,0,B|295:206|261:114|423:179,1,240,0|8,0:0|0:0,0:0:0:0:
24,352,52012,6,0,P|84:288|200:280,1,180,6|8,0:0|0:0,0:0:0:0:
392,352,53137,1,8,0:0:0:0:
488,228,53512,6,0,P|428:164|312:156,1,180,2|8,0:0|0:0,0:0:0:0:
124,240,54637,1,8,0:0:0:0:
28,116,55012,6,0,P|88:52|204:44,2,180,2|8|8,0:0|0:0|0:0,0:0:0:0:
24,272,56512,2,0,P|84:336|200:344,2,180,2|8|8,0:0|0:0|0:0,0:0:0:0:
80,128,58012,6,0,P|168:125|256:201,1,180,6|8,0:0|0:0,0:0:0:0:
396,352,59137,1,8,0:0:0:0:
240,356,59512,6,0,P|176:297|168:180,1,180,2|8,0:0|0:0,0:0:0:0:
308,28,60637,1,8,0:0:0:0:
380,168,61012,6,0,P|420:228|440:340,2,180,2|8|8,0:0|0:0|0:0,0:0:0:0:
232,116,62512,2,0,P|172:116|96:160,1,120,2|0,0:0|0:0,0:0:0:0:
68,200,63074,2,0,P|100:272|180:348,1,180,8|0,0:0|0:0,0:0:0:0:
328,344,64012,6,0,P|388:333|447:329,1,120,2|0,0:0|0:0,0:0:0:0:
432,252,64574,2,0,P|373:256|314:268,1,120,8|0,0:0|0:0,0:0:0:0:
288,192,65137,2,0,P|359:95|463:37,1,240,8|0,1:2|0:0,0:0:0:0:
472,116,66074,1,0,0:0:0:0:
460,192,66262,2,0,P|456:224|448:256,2,60,8|0|0,0:0|0:0|0:0,0:0:0:0:
340,88,67012,6,0,P|281:85|221:77,1,120,2|0,0:0|0:0,0:0:0:0:
212,156,67574,2,0,P|269:177|326:194,1,120,8|0,0:0|0:0,0:0:0:0:
360,264,68137,2,0,P|253:315|112:340,1,240,8|0,1:2|0:0,0:0:0:0:
88,188,69262,6,0,P|140:176|196:188,1,90,0|0,0:0|0:0,0:0:0:0:
212,196,69637,2,0,P|232:210|248:228,2,30,0|0|0,0:0|0:0|0:0,0:0:0:0:
164,256,70012,1,2,0:0:0:0:
480,352,76012,5,2,0:0:0:0:
364,248,76387,1,2,0:0:0:0:
208,248,76762,1,2,0:0:0:0:
92,352,77137,1,2,0:0:0:0:
36,208,77512,5,2,0:0:0:0:
152,104,77887,1,2,0:0:0:0:
308,104,78262,1,2,0:0:0:0:
424,208,78637,1,2,0:0:0:0:
476,60,79012,6,0,L|476:128,2,60,2|2|2,0:0|0:0|0:0,0:0:0:0:
404,32,79574,2,0,P|341:26|271:30,1,120,8|2,0:0|0:0,0:0:0:0:
208,52,80137,6,0,P|206:83|208:120,1,60,8|2,0:0|0:0,0:0:0:0:
260,168,80512,2,0,P|261:197|260:227,1,60,8|0,0:0|0:0,0:0:0:0:
216,292,80887,1,2,0:0:0:0:
216,292,81074,2,0,B|284:316|284:316|352:304,1,120,8|2,0:0|0:0,0:0:0:0:
408,304,81637,2,0,B|440:304|440:304|488:320,1,60,8|0,0:0|0:0,0:0:0:0:
480,220,82012,6,0,P|484:148|476:93,2,107.999996704102,2|2|2,1:2|2:1|0:1,0:0:0:0:
388,224,82762,2,0,P|328:228|256:220,1,107.999996704102,8|2,1:2|0:1,0:0:0:0:
204,168,83230,2,0,L|148:168,1,35.9999989013672,2|2,0:1|0:1,0:0:0:0:
92,224,83512,6,0,P|88:284|100:352,2,107.999996704102,2|2|2,0:0|0:1|0:1,0:0:0:0:
168,276,84262,2,0,L|196:304,2,35.9999989013672,10|0|2,0:1|0:0|0:1,0:0:0:0:
256,248,84637,2,0,P|292:244|356:256,1,71.9999978027344,2|0,0:1|0:0,0:0:0:0:
368,164,85012,6,0,P|307:127|248:108,2,107.999996704102,2|2|2,0:0|0:1|0:1,0:0:0:0:
420,244,85762,2,0,P|423:315|416:368,1,107.999996704102,8|2,0:0|0:1,0:0:0:0:
324,356,86230,2,0,L|292:332,1,35.9999989013672,2|2,0:1|0:1,0:0:0:0:
232,264,86512,6,0,P|196:260|152:260,1,71.9999978027344,6|0,0:1|0:0,0:0:0:0:
96,328,86887,2,0,P|61:327|25:323,1,71.9999978027344,2|8,0:1|0:0,0:0:0:0:
16,223,87262,6,0,B|25:184|25:184|12:144,1,71.9999978027344,8|0,0:0|0:0,0:0:0:0:
100,115,87637,2,0,B|91:154|91:154|100:185,1,71.9999978027344,8|0,0:0|0:0,0:0:0:0:
160,259,88012,6,0,P|233:262|293:254,2,107.999996704102,2|2|2,0:0|0:1|0:1,0:0:0:0:
99,184,88762,2,0,P|131:119|167:72,1,107.999996704102,8|2,0:0|0:1,0:0:0:0:
240,60,89230,2,0,L|288:68,1,35.9999989013672,2|2,0:1|0:1,0:0:0:0:
360,108,89512,6,0,P|372:172|372:236,2,107.999996704102,2|2|2,0:0|0:1|0:1,0:0:0:0:
452,132,90262,2,0,P|456:164|456:208,1,71.9999978027344,10|2,0:1|0:1,0:0:0:0:
456,296,90637,2,0,B|416:288|416:288|385:293,1,71.9999978027344,2|0,0:1|0:0,0:0:0:0:
292,300,91012,6,0,P|232:308|172:348,2,107.999996704102,2|2|2,0:0|0:1|0:1,0:0:0:0:
324,212,91762,2,0,B|324:170|324:170|336:146|336:146|336:106,2,107.999996704102,8|8|0,0:0|0:0|0:0,0:0:0:0:
292,300,92512,5,10,0:1:0:0:
108,344,92887,1,0,0:0:0:0:
136,256,93075,2,0,P|106:191|42:160,1,143.999995605469,10|10,0:1|0:1,0:0:0:0:
104,88,93637,2,0,P|135:105|163:127,1,71.9999978027344,2|0,0:1|0:0,0:0:0:0:
228,196,94012,6,0,P|267:248|347:290,1,143.999995605469,2|2,0:0|0:0,0:0:0:0:
428,272,94574,1,2,0:0:0:0:
476,192,94762,2,0,P|480:157|476:121,1,71.9999978027344,8|0,0:0|0:0,0:0:0:0:
380,135,95137,2,0,P|377:176|382:217,1,71.9999978027344,0|2,0:0|0:0,0:0:0:0:
334,286,95512,6,0,B|302:290|302:290|274:282|274:282|206:282,2,107.999996704102,2|2|2,0:0|0:0|0:0,0:0:0:0:
380,206,96262,2,0,P|344:210|308:208,1,71.9999978027344,10|2,0:1|0:1,0:0:0:0:
256,132,96637,2,0,P|291:128|327:128,1,71.9999978027344,2|0,0:1|0:0,0:0:0:0:
412,168,97012,6,0,P|424:252|416:324,1,143.999995605469,2|2,0:0|0:0,0:0:0:0:
332,352,97574,1,2,0:0:0:0:
240,332,97762,2,0,B|192:316|192:316|156:336|156:336|108:336,2,107.999996704102,8|2|2,0:0|0:0|0:0,0:0:0:0:
244,240,98512,6,0,P|203:232|161:215,1,71.9999978027344,6|0,0:1|0:0,0:0:0:0:
100,164,98887,2,0,P|76:129|58:87,1,71.9999978027344,2|8,0:1|0:0,0:0:0:0:
128,32,99262,6,0,B|159:52|159:52|188:96,1,71.9999978027344,8|0,0:0|0:0,0:0:0:0:
272,84,99637,2,0,B|292:54|292:54|322:34,1,71.9999978027344,8|0,0:0|0:0,0:0:0:0:
400,84,100012,6,0,P|418:154|407:225,1,143.999995605469,2|2,0:0|0:0,0:0:0:0:
372,312,100574,1,2,0:0:0:0:
284,340,100762,2,0,P|232:338|174:312,1,107.999996704102,8|2,0:0|0:0,0:0:0:0:
148,284,101137,2,0,P|138:265|133:250,2,35.9999989013672,0|0|2,0:0|0:0|0:0,0:0:0:0:
224,228,101512,6,0,P|236:148|224:76,1,143.999995605469,2|2,0:0|0:0,0:0:0:0:
148,36,102074,1,2,0:0:0:0:
72,88,102262,2,0,P|40:80|-8:60,2,71.9999978027344,8|0|0,0:0|0:0|0:0,0:0:0:0:
148,36,102824,1,8,0:0:0:0:
228,88,103012,6,0,P|282:134|294:204,1,143.999995605469,0|0,0:0|0:0,0:0:0:0:
256,288,103574,2,0,P|210:341|140:353,1,143.999995605469,8|2,0:0|0:0,0:0:0:0:
88,276,104137,2,0,P|135:222|205:210,1,143.999995605469,2|0,0:0|0:0,0:0:0:0:
294,203,104699,6,0,P|321:190|357:162,1,60,8|0,0:0|0:0,0:0:0:0:
360,56,105262,6,0,B|276:20|260:88|168:44,1,180.000006866455,2|2,0:0|0:0,0:0:0:0:
472,140,106762,6,0,P|464:192|460:232,1,90.0000034332277,8|0,0:0|0:0,0:0:0:0:
378,148,107512,2,0,P|370:200|366:240,2,90.0000034332277,2|0|8,0:0|0:0|0:0,0:0:0:0:
404,36,108637,1,0,0:0:0:0:
288,48,109012,6,0,P|243:55|198:59,1,90.0000034332277,2|0,0:0|0:0,0:0:0:0:
112,140,109762,2,0,P|156:147|201:151,1,90.0000034332277,8|0,0:0|0:0,0:0:0:0:
276,240,110512,2,0,P|231:247|186:251,2,90.0000034332277,2|8|0,0:0|0:0|0:0,0:0:0:0:
388,200,111637,1,8,0:0:0:0:
304,120,112012,6,0,P|252:120|212:132,1,90.0000034332277,6|0,0:0|0:0,0:0:0:0:
108,88,112762,2,0,P|108:140|120:180,1,90.0000034332277,8|0,0:0|0:0,0:0:0:0:
212,248,113512,2,0,P|264:248|304:260,1,90.0000034332277,0|2,0:0|0:0,0:0:0:0:
412,220,114262,2,0,P|412:272|400:312,1,90.0000034332277,8|0,0:0|0:0,0:0:0:0:
296,356,115012,6,0,P|256:322|240:232,1,135.000005149841,2|2,0:0|0:0,0:0:0:0:
236,184,115762,1,8,0:0:0:0:
348,212,116137,1,8,0:0:0:0:
364,96,116512,2,0,P|424:84|472:88,1,90.0000034332277,8|2,0:0|0:0,0:0:0:0:
500,120,117074,2,0,P|512:188|496:268,1,135.000005149841,8|8,0:0|0:0,0:0:0:0:
380,352,118012,6,0,P|320:288|204:280,1,180,6|8,0:0|0:0,0:0:0:0:
12,356,119137,1,8,0:0:0:0:
8,200,119512,6,0,P|68:136|184:128,1,180,2|8,0:0|0:0,0:0:0:0:
368,220,120637,1,8,0:0:0:0:
484,116,121012,6,0,P|424:52|308:44,2,180,2|8|8,0:0|0:0|0:0,0:0:0:0:
488,272,122512,2,0,P|428:336|312:344,2,180,2|8|8,0:0|0:0|0:0,0:0:0:0:
432,128,124012,6,0,P|344:125|256:201,1,180,6|8,0:0|0:0,0:0:0:0:
128,360,125137,1,8,0:0:0:0:
284,360,125512,6,0,P|348:301|356:184,1,180,2|8,0:0|0:0,0:0:0:0:
216,32,126637,1,8,0:0:0:0:
140,168,127012,6,0,P|100:228|80:340,2,180,2|8|8,0:0|0:0|0:0,0:0:0:0:
288,124,128512,2,0,P|348:124|424:168,1,120,2|0,0:0|0:0,0:0:0:0:
448,212,129074,2,0,P|416:284|336:360,1,180,8|0,0:0|0:0,0:0:0:0:
188,344,130012,6,0,P|128:333|69:329,1,120,2|0,0:0|0:0,0:0:0:0:
80,252,130574,2,0,P|139:256|198:268,1,120,8|0,0:0|0:0,0:0:0:0:
220,192,131137,2,0,P|149:95|45:37,1,240,8|0,1:2|0:0,0:0:0:0:
40,116,132074,1,0,0:0:0:0:
48,192,132262,2,0,P|52:224|60:256,2,60,8|0|0,0:0|0:0|0:0,0:0:0:0:
160,84,133012,6,0,P|219:81|279:73,1,120,2|0,0:0|0:0,0:0:0:0:
356,92,133574,2,0,P|362:152|364:212,1,120,8|0,0:0|0:0,0:0:0:0:
356,288,134137,1,8,1:2:0:0:
256,192,134230,12,2,136011,0:0:0:0:
316,260,136574,5,2,0:0:0:0:
160,344,137137,2,0,P|124:288|96:168,1,180.000006866455,2|0,0:0|0:0,0:0:0:0:
132,68,138262,1,0,0:0:0:0:
240,112,138637,5,2,0:0:0:0:
356,120,139012,2,0,P|422:110|487:92,1,135.000005149841,2|2,0:0|0:0,0:0:0:0:
320,44,140137,2,0,P|204:106|323:184,1,315.000012016297,2|0,0:0|0:0,0:0:0:0:
