osu file format v14

[General]
AudioFilename: audio.mp3
AudioLeadIn: 0
PreviewTime: 40012
Countdown: 0
SampleSet: Soft
StackLeniency: 0.4
Mode: 0
LetterboxInBreaks: 0
WidescreenStoryboard: 0

[Editor]
Bookmarks: 8512,14512,28012,40012,52012,68137,69262,70012,84262,85012,90262,91012,112012,142762
DistanceSpacing: 2
BeatDivisor: 4
GridSize: 16
TimelineZoom: 1.8

[Metadata]
Title:Magnolia (feat. Guriri)
TitleUnicode:Magnolia (feat. 구리리)
Artist:M2U
ArtistUnicode:M2U
Creator:Su1fu7
Version:Finshie's Insane
Source:Deemo
Tags:wav.av. rayark sammish finshie pandahero diversity dubstep electronic
BeatmapID:1305803
BeatmapSetID:610967

[Difficulty]
HPDrainRate:5
CircleSize:4.2
OverallDifficulty:7.2
ApproachRate:9.1
SliderMultiplier:1.4
SliderTickRate:1

[Events]
//Background and Video events
0,0,"39400722_p0.jpg",0,0
//Break Periods
//Storyboard Layer 0 (Background)
//Storyboard Layer 1 (Fail)
//Storyboard Layer 2 (Pass)
//Storyboard Layer 3 (Foreground)
//Storyboard Sound Samples

[TimingPoints]
2512,375,4,2,0,40,1,0
2512,-125,4,2,0,40,0,0
8512,-111.111111111111,4,2,2,50,0,0
13012,-83.3333333333333,4,2,2,60,0,0
13762,-66.6666666666667,4,2,2,60,0,0
14512,-100,4,2,2,70,0,0
22762,-100,4,2,0,70,0,0
23512,-100,4,2,0,60,0,0
23887,-100,4,2,0,50,0,0
24262,-100,4,2,0,40,0,0
24637,-100,4,2,0,30,0,0
25012,-100,4,2,0,40,0,0
25387,-100,4,2,0,50,0,0
25762,-100,4,2,0,60,0,0
26137,-100,4,2,0,70,0,0
26512,-100,4,2,0,5,0,0
28012,-125,4,2,0,40,0,0
40012,-111.111111111111,4,2,2,55,0,0
52012,-100,4,2,2,70,0,0
69168,-100,4,2,2,5,0,0
69262,-100,4,2,2,70,0,0
70012,-125,4,2,0,55,0,0
72355,-125,4,2,0,30,0,0
72449,-125,4,2,0,55,0,0
72543,-125,4,2,0,30,0,0
72637,-125,4,2,0,55,0,0
72730,-125,4,2,0,30,0,0
72824,-125,4,2,0,55,0,0
72918,-125,4,2,0,30,0,0
73012,-125,4,2,0,55,0,0
75355,-125,4,2,0,30,0,0
75449,-125,4,2,0,55,0,0
75543,-125,4,2,0,30,0,0
75637,-125,4,2,0,55,0,0
75730,-125,4,2,0,30,0,0
75824,-125,4,2,0,55,0,0
75918,-125,4,2,0,30,0,0
76012,-100,4,2,2,70,0,0
79012,-80,4,2,2,70,0,0
80137,-66.6666666666667,4,2,2,70,0,0
81637,-50,4,2,2,70,0,0
82012,-57.1428571428571,4,2,2,70,0,1
84262,-40,4,2,2,70,0,1
85012,-57.1428571428571,4,2,2,70,0,1
87262,-50,4,2,2,70,0,1
88012,-57.1428571428571,4,2,2,70,0,1
90262,-40,4,2,2,70,0,1
91012,-57.1428571428571,4,2,2,70,0,1
91762,-50,4,2,2,70,0,1
93074,-76.9230769230769,4,2,2,70,0,1
93637,-50,4,2,2,70,0,1
94012,-57.1428571428571,4,2,2,70,0,1
95512,-50,4,2,2,70,0,1
96262,-57.1428571428571,4,2,2,70,0,1
99262,-50,4,2,2,70,0,1
100012,-57.1428571428571,4,2,2,70,0,1
101512,-50,4,2,2,70,0,1
102262,-40,4,2,2,70,0,1
103012,-100,4,2,2,70,0,1
103574,-66.6666666666667,4,2,2,70,0,1
104137,-50,4,2,2,70,0,1
104887,-50,4,2,2,70,0,0
105262,-50,4,2,2,70,0,1
106012,-111.111111111111,4,2,2,50,0,0
118012,-100,4,2,2,60,0,0
136012,-200,4,2,0,40,0,0
140137,-400,4,2,0,40,0,0
142105,-400,4,2,0,5,0,0

[Colours]
Combo1 : 105,220,208
Combo2 : 172,241,109
Combo3 : 197,99,243
Combo4 : 238,126,72

[HitObjects]
466,281,2512,6,0,P|411:299|354:279,1,112,4|0,0:0|0:0,0:0:0:0:
338,269,2980,1,0,0:0:0:0:
313,258,3073,1,0,0:0:0:0:
285,254,3167,1,0,0:0:0:0:
257,260,3262,2,0,L|258:388,1,112,2|2,0:0|0:0,0:0:0:0:
99,297,4012,6,0,L|97:129,1,168,2|0,0:0|0:0,0:0:0:0:
122,115,4668,1,0,0:0:0:0:
146,100,4762,2,0,P|235:76|342:123,1,196,2|0,0:0|0:0,0:0:0:0:
362,139,5512,6,0,L|356:19,1,112,4|0,0:0|0:0,0:0:0:0:
383,37,5980,1,0,0:0:0:0:
407,46,6074,1,0,0:0:0:0:
431,56,6168,1,0,0:0:0:0:
455,66,6262,2,0,L|461:178,1,112,2|2,0:0|0:0,0:0:0:0:
243,293,7012,6,0,P|325:297|382:238,1,168,2|0,0:0|0:0,0:0:0:0:
395,213,7668,1,0,0:0:0:0:
406,187,7762,2,0,L|412:299,1,112,2|2,0:0|0:0,0:0:0:0:
291,208,8324,1,2,0:0:0:0:
277,181,8418,1,0,0:0:0:0:
266,159,8512,6,0,L|131:161,1,125.999996154785,4|0,0:0|0:0,0:0:0:0:
110,167,8980,1,0,0:0:0:0:
83,182,9074,1,0,0:0:0:0:
62,206,9168,1,0,0:0:0:0:
48,234,9262,2,0,P|39:308|73:377,1,125.999996154785,8|0,0:0|0:0,0:0:0:0:
141,161,10012,6,0,P|150:87|116:18,1,125.999996154785,0|0,0:0|0:0,0:0:0:0:
113,17,10480,1,0,0:0:0:0:
150,16,10574,1,0,0:0:0:0:
187,16,10668,1,0,0:0:0:0:
224,17,10762,2,0,L|350:19,1,125.999996154785,8|0,0:0|0:0,0:0:0:0:
501,170,11512,6,0,P|409:170|370:140,1,125.999996154785,4|0,0:0|0:0,0:0:0:0:
349,125,11980,1,0,0:0:0:0:
307,108,12074,1,0,0:0:0:0:
263,113,12168,1,0,0:0:0:0:
233,146,12262,2,0,L|233:300,1,125.999996154785,8|0,0:0|0:0,0:0:0:0:
415,354,13012,6,0,B|351:318|272:339|316:358|236:393|170:349,1,251.999992309571,0|0,0:0|0:0,0:0:0:0:
77,344,13762,6,0,P|133:262|233:272,1,210.000008010865,8|0,0:0|0:0,0:0:0:0:
233,272,14230,1,0,0:0:0:0:
233,272,14324,1,0,0:0:0:0:
30,242,14512,5,6,0:0:0:0:
78,173,14699,1,0,0:0:0:0:
43,97,14887,1,0,0:0:0:0:
166,31,15074,6,0,L|311:38,1,140,8|0,0:0|0:0,0:0:0:0:
390,162,15637,2,0,L|251:156,1,140,2|0,0:0|0:0,0:0:0:0:
166,31,16199,1,8,0:0:0:0:
166,116,16387,1,0,0:0:0:0:
166,200,16574,1,0,0:0:0:0:
256,322,16762,6,0,L|426:331,1,140,2|0,0:0|0:0,0:0:0:0:
457,193,17324,1,0,0:0:0:0:
457,193,17418,1,0,0:0:0:0:
457,193,17512,2,0,L|318:186,1,140,2|0,0:0|0:0,0:0:0:0:
256,322,18074,5,0,0:0:0:0:
256,322,18168,1,0,0:0:0:0:
256,322,18262,1,8,0:0:0:0:
251,239,18449,1,0,0:0:0:0:
318,186,18637,1,0,0:0:0:0:
313,103,18824,1,0,0:0:0:0:
208,11,19012,5,2,0:0:0:0:
83,50,19199,1,0,0:0:0:0:
83,50,19293,1,0,0:0:0:0:
83,50,19387,1,0,0:0:0:0:
188,142,19574,2,0,P|256:144|327:80,1,140,8|0,0:0|0:0,0:0:0:0:
208,11,20137,1,8,0:0:0:0:
75,177,20512,6,0,L|74:278,1,70,6|0,0:0|0:0,0:0:0:0:
75,247,20793,1,0,0:0:0:0:
75,247,20887,1,0,0:0:0:0:
171,339,21074,2,0,P|252:352|315:334,1,140,8|0,0:0|0:0,0:0:0:0:
377,215,21637,2,0,P|296:202|233:220,1,140,2|0,0:0|0:0,0:0:0:0:
171,339,22199,5,8,0:0:0:0:
165,255,22387,1,0,0:0:0:0:
241,217,22574,1,0,0:0:0:0:
235,133,22762,1,4,0:0:0:0:
256,192,22855,12,0,26512,0:0:0:0:
0,168,28012,6,0,P|68:199|154:164,1,168,2|0,0:0|0:0,0:0:0:0:
235,111,28762,2,0,L|230:235,1,112,2|0,0:0|0:0,0:0:0:0:
150,167,29324,1,0,0:0:0:0:
320,55,29512,2,0,L|315:179,1,112,2|2,0:0|0:0,0:0:0:0:
235,111,30074,1,0,0:0:0:0:
402,188,30262,2,0,P|385:223|356:243,1,56,2|0,0:0|0:0,0:0:0:0:
418,312,30637,2,0,P|381:324|346:318,1,56,0|0,0:0|0:0,0:0:0:0:
204,228,31012,6,0,L|371:233,1,168,2|0,0:0|0:0,0:0:0:0:
445,164,31762,2,0,P|390:136|325:147,1,112,2|2,0:0|0:0,0:0:0:0:
262,201,32324,1,0,0:0:0:0:
262,201,32512,2,0,L|261:73,1,112,2|2,0:0|0:0,0:0:0:0:
341,139,33074,1,0,0:0:0:0:
181,145,33262,2,0,L|180:34,1,112,2|2,0:0|0:0,0:0:0:0:
384,287,34012,6,0,P|315:312|264:287,1,112,2|2,0:0|0:0,0:0:0:0:
401,206,34574,1,0,0:0:0:0:
401,206,34762,2,0,P|458:254|461:310,1,112,2|2,0:0|0:0,0:0:0:0:
323,232,35324,1,0,0:0:0:0:
323,232,35512,2,0,L|329:102,1,112,2|2,0:0|0:0,0:0:0:0:
141,169,36262,2,0,P|195:182|248:167,1,112,2|0,0:0|0:0,0:0:0:0:
328,120,36824,1,0,0:0:0:0:
328,120,37012,6,0,P|294:144|280:271,1,168,2|0,0:0|0:0,0:0:0:0:
322,350,37762,2,0,L|435:345,1,112,2|0,0:0|0:0,0:0:0:0:
424,101,38512,2,0,B|378:82|340:99|353:111|313:131|262:105,1,168,2|0,0:0|0:0,0:0:0:0:
190,38,39262,2,0,P|138:28|58:51,1,112,2|2,0:0|0:0,0:0:0:0:
80,39,39730,1,0,0:0:0:0:
80,39,39824,1,2,0:0:0:0:
17,115,40012,6,0,B|22:242|22:242|77:282,1,188.999994232178,6|0,0:0|0:0,0:0:0:0:
151,328,40762,1,8,0:0:0:0:
105,184,41137,1,0,0:0:0:0:
76,371,41512,1,0,0:0:0:0:
105,184,41887,1,2,0:0:0:0:
105,184,42262,2,0,P|186:161|294:190,1,188.999994232178,8|0,0:0|0:0,0:0:0:0:
350,256,43012,6,0,P|320:161|375:82,1,188.999994232178,2|0,0:0|0:0,0:0:0:0:
428,178,43762,1,8,0:0:0:0:
253,85,44137,1,0,0:0:0:0:
464,77,44512,1,0,0:0:0:0:
286,186,44887,1,2,0:0:0:0:
355,13,45262,1,8,0:0:0:0:
428,178,45637,1,0,0:0:0:0:
253,85,46012,6,0,P|192:75|106:102,1,125.999996154785,6|0,0:0|0:0,0:0:0:0:
3,197,46762,2,0,P|64:207|150:180,1,125.999996154785,8|0,0:0|0:0,0:0:0:0:
253,85,47512,1,0,0:0:0:0:
217,277,47887,1,2,0:0:0:0:
217,277,48262,2,0,P|313:256|410:305,1,188.999994232178,8|0,0:0|0:0,0:0:0:0:
433,377,49012,6,0,L|443:167,1,188.999994232178,2|0,0:0|0:0,0:0:0:0:
345,135,49762,2,0,L|339:268,1,125.999996154785,8|0,0:0|0:0,0:0:0:0:
417,56,50512,2,0,P|328:33|282:56,1,125.999996154785,0|2,0:0|0:0,0:0:0:0:
232,91,51074,1,0,0:0:0:0:
156,143,51262,2,0,L|161:13,1,125.999996154785,8|0,0:0|0:0,0:0:0:0:
75,91,51824,1,0,0:0:0:0:
232,191,52012,6,0,P|321:215|373:198,1,140,6|0,0:0|0:0,0:0:0:0:
444,156,52574,1,8,0:0:0:0:
450,241,52762,1,0,0:0:0:0:
456,326,52949,1,0,0:0:0:0:
364,202,53137,2,0,P|320:191|265:206,1,70,8|0,0:0|0:0,0:0:0:0:
179,271,53512,6,0,L|196:122,1,140,2|0,0:0|0:0,0:0:0:0:
129,51,54074,1,8,0:0:0:0:
213,38,54262,1,0,0:0:0:0:
297,25,54449,1,0,0:0:0:0:
195,132,54637,2,0,P|138:156|104:151,1,70,8|0,0:0|0:0,0:0:0:0:
213,38,55012,6,0,P|276:87|285:159,1,140,2|0,0:0|0:0,0:0:0:0:
224,228,55574,1,8,0:0:0:0:
285,287,55762,1,0,0:0:0:0:
223,343,55949,1,0,0:0:0:0:
347,228,56137,2,0,P|394:223|433:242,1,70,8|0,0:0|0:0,0:0:0:0:
224,228,56512,6,0,P|158:247|93:225,1,140,2|0,0:0|0:0,0:0:0:0:
279,116,57074,2,0,P|331:162|347:228,1,140,8|0,0:0|0:0,0:0:0:0:
162,137,57637,2,0,P|168:70|185:43,1,70,8|0,0:0|0:0,0:0:0:0:
410,120,58012,6,0,P|344:139|279:117,1,140,6|0,0:0|0:0,0:0:0:0:
38,72,58574,2,0,P|105:91|170:69,1,140,8|0,0:0|0:0,0:0:0:0:
323,169,59137,2,0,P|296:149|279:118,1,70,8|0,0:0|0:0,0:0:0:0:
56,136,59512,2,0,P|123:120|169:69,1,140,2|0,0:0|0:0,0:0:0:0:
285,290,60074,2,0,P|228:249|199:187,1,140,8|0,0:0|0:0,0:0:0:0:
323,169,60637,1,8,0:0:0:0:
67,27,61012,5,2,0:0:0:0:
327,172,61387,1,0,0:0:0:0:
327,172,61574,2,0,L|495:179,1,140,8|0,0:0|0:0,0:0:0:0:
285,290,62137,1,8,0:0:0:0:
369,54,62512,5,2,0:0:0:0:
289,293,62887,1,0,0:0:0:0:
289,293,63074,2,0,L|150:299,1,140,8|0,0:0|0:0,0:0:0:0:
429,108,64012,6,0,P|366:81|299:97,1,140,2|0,0:0|0:0,0:0:0:0:
255,192,64574,2,0,L|239:27,1,140,8|0,0:0|0:0,0:0:0:0:
360,183,65137,2,0,P|343:250|154:231,1,280,8|0,1:2|0:0,0:0:0:0:
165,252,66074,1,0,0:0:0:0:
291,176,66262,2,0,P|350:179|374:188,1,70,8|0,0:0|0:0,0:0:0:0:
165,252,66637,2,0,P|106:249|82:240,1,70,0|0,0:0|0:0,0:0:0:0:
145,22,67012,6,0,P|162:89|139:155,1,140,2|0,0:0|0:0,0:0:0:0:
158,384,67574,2,0,P|142:310|184:231,1,140,8|0,0:0|0:0,0:0:0:0:
335,114,68137,1,8,1:2:0:0:
256,192,68230,12,0,69168,0:0:0:0:
29,321,69262,6,0,L|169:317,1,140,0|0,0:0|0:0,0:0:0:0:
186,331,69730,1,0,0:0:0:0:
204,343,69824,2,0,L|238:341,1,35,0|0,0:0|0:0,0:0:0:0:
303,285,70012,6,0,L|366:283,1,56,2|0,0:0|0:0,0:0:0:0:
414,219,70387,1,2,0:0:0:0:
361,155,70574,1,2,0:0:0:0:
412,88,70762,2,0,L|467:86,1,56,2|0,0:0|0:0,0:0:0:0:
305,156,71137,2,0,L|361:155,1,56,2|0,0:0|0:0,0:0:0:0:
197,94,71512,2,0,L|253:93,1,56,2|0,0:0|0:0,0:0:0:0:
147,162,71887,5,2,0:0:0:0:
192,233,72074,1,2,0:0:0:0:
147,304,72262,2,0,L|93:307,1,28,2|0,0:0|0:0,0:0:0:0:
232,368,72449,2,0,L|204:369,1,28,2|0,0:0|0:0,0:0:0:0:
311,300,72637,2,0,L|283:300,1,28,2|0,0:0|0:0,0:0:0:0:
396,363,72824,2,0,L|369:365,1,28,2|0,0:0|0:0,0:0:0:0:
448,298,73012,6,0,L|503:295,1,56,2|0,0:0|0:0,0:0:0:0:
379,249,73387,1,2,0:0:0:0:
432,184,73574,1,2,0:0:0:0:
318,129,73762,2,0,L|373:125,1,56,2|0,0:0|0:0,0:0:0:0:
206,195,74137,2,0,L|261:191,1,56,2|0,0:0|0:0,0:0:0:0:
94,261,74512,2,0,L|149:257,1,56,2|0,0:0|0:0,0:0:0:0:
25,212,74887,5,2,0:0:0:0:
71,142,75074,1,2,0:0:0:0:
22,75,75262,2,0,L|-5:80,1,28,2|0,0:0|0:0,0:0:0:0:
98,137,75449,2,0,L|50:145,1,28,2|0,0:0|0:0,0:0:0:0:
151,51,75637,2,0,L|103:59,1,28,2|0,0:0|0:0,0:0:0:0:
226,112,75824,2,0,L|178:120,1,28,2|0,0:0|0:0,0:0:0:0:
324,29,76012,6,0,L|255:40,1,70,2|0,0:0|0:0,0:0:0:0:
431,86,76387,2,0,L|501:97,1,70,2|0,0:0|0:0,0:0:0:0:
324,159,76762,2,0,L|255:170,1,70,2|0,0:0|0:0,0:0:0:0:
431,216,77137,2,0,L|501:227,1,70,2|0,0:0|0:0,0:0:0:0:
403,320,77512,6,0,P|371:307|347:281,1,70,2|0,0:0|0:0,0:0:0:0:
291,175,77887,2,0,P|258:245|206:255,1,105,2|0,0:0|0:0,0:0:0:0:
159,264,78262,5,2,0:0:0:0:
139,263,78355,1,0,0:0:0:0:
118,262,78449,1,0,0:0:0:0:
98,261,78543,1,0,0:0:0:0:
61,242,78637,5,2,0:0:0:0:
41,206,78730,1,0,0:0:0:0:
40,164,78824,1,0,0:0:0:0:
54,124,78918,1,0,0:0:0:0:
84,94,79012,6,0,P|130:80|187:96,1,87.5,2|2,0:0|0:0,0:0:0:0:
235,254,79387,1,2,0:0:0:0:
235,254,79574,2,0,P|200:222|186:164,1,87.5,8|2,0:0|0:0,0:0:0:0:
353,15,79949,1,2,0:0:0:0:
353,16,80137,6,0,P|327:88|269:119,1,105.000004005432,8|2,0:0|0:0,0:0:0:0:
280,120,80418,1,0,0:0:0:0:
249,126,80512,1,8,0:0:0:0:
235,254,80699,2,0,P|283:214|308:209,1,52.5000020027161,0|0,0:0|0:0,0:0:0:0:
303,208,80887,1,2,0:0:0:0:
410,352,81074,2,0,P|362:311|278:310,1,105.000004005432,8|0,0:0|0:0,0:0:0:0:
162,292,81449,1,2,0:0:0:0:
121,364,81637,6,0,P|218:350|235:253,1,210,8|0,0:0|0:0,0:0:0:0:
230,134,82012,6,0,B|212:170|220:208|237:198|248:237|227:268,1,122.500001168251,2|0,1:2|0:0,0:0:0:0:
163,84,82293,2,0,P|214:53|273:64,1,122.500001168251,2|0,2:1|0:0,0:0:0:0:
301,166,82574,2,0,L|388:157,1,61.2500005841255,2|0,0:1|0:0,0:0:0:0:
147,214,82762,2,0,B|53:204|53:204|68:235,1,122.500001168251,8|0,1:2|0:0,0:0:0:0:
163,353,83043,2,0,L|161:283,1,61.2500005841255,2|0,0:1|0:0,0:0:0:0:
227,162,83230,1,2,0:1:0:0:
227,162,83324,2,0,L|229:239,1,61.2500005841255,2|0,0:1|0:0,0:0:0:0:
350,214,83512,6,0,B|211:224,1,122.500001168251,2|0,0:0|0:0,0:0:0:0:
114,64,83793,2,0,B|236:55,1,122.500001168251,2|0,0:1|0:0,0:0:0:0:
228,224,84074,1,2,0:1:0:0:
276,301,84262,6,0,P|308:271|320:229,1,87.5,10|0,0:1|0:0,0:0:0:0:
138,234,84449,2,0,P|152:276|183:306,1,87.5,2|0,0:1|0:0,0:0:0:0:
276,145,84637,2,0,P|234:132|192:140,1,87.5,2|0,0:1|0:0,0:0:0:0:
276,301,84824,1,0,0:0:0:0:
288,59,85012,6,0,P|218:48|151:66,1,122.500001168251,2|0,0:0|0:0,0:0:0:0:
49,60,85293,2,0,P|118:70|185:52,1,122.500001168251,2|0,0:1|0:0,0:0:0:0:
228,224,85574,2,0,P|183:224|143:243,1,61.2500005841255,2|0,0:1|0:0,0:0:0:0:
47,230,85762,2,0,P|116:240|183:222,1,122.500001168251,8|0,0:0|0:0,0:0:0:0:
283,80,86043,2,0,P|272:155|279:171,1,61.2500005841255,2|0,0:1|0:0,0:0:0:0:
438,133,86230,1,2,0:1:0:0:
438,133,86324,2,0,P|410:62|395:52,1,61.2500005841255,2|0,0:1|0:0,0:0:0:0:
328,226,86512,6,0,L|398:235,1,61.2500005841255,6|0,0:1|0:0,0:0:0:0:
269,139,86699,2,0,L|339:130,1,61.2500005841255,0|0,0:0|0:0,0:0:0:0:
167,216,86887,2,0,L|237:225,1,61.2500005841255,2|0,0:1|0:0,0:0:0:0:
100,130,87074,1,8,0:0:0:0:
100,130,87168,1,0,0:0:0:0:
100,130,87262,6,0,L|170:121,1,70,8|0,0:0|0:0,0:0:0:0:
338,130,87449,2,0,L|268:139,1,70,0|0,0:0|0:0,0:0:0:0:
48,47,87637,2,0,B|199:27|199:27|254:53,1,210,8|0,0:0|0:0,0:0:0:0:
297,206,88012,6,0,B|283:231|283:231|267:129,1,122.500001168251,2|0,0:0|0:0,0:0:0:0:
339,31,88293,2,0,B|353:6|353:6|369:108,1,122.500001168251,2|0,0:1|0:0,0:0:0:0:
427,192,88574,2,0,L|496:178,1,61.2500005841255,2|0,0:1|0:0,0:0:0:0:
268,138,88762,2,0,B|172:150|172:150|215:177,1,122.500001168251,8|0,0:0|0:0,0:0:0:0:
325,250,89043,2,0,P|339:281|337:317,1,61.2500005841255,2|0,0:1|0:0,0:0:0:0:
268,138,89230,1,2,0:1:0:0:
268,138,89324,2,0,P|257:106|262:71,1,61.2500005841255,2|0,0:1|0:0,0:0:0:0:
325,250,89512,6,0,L|146:271,1,122.500001168251,2|0,0:0|0:0,0:0:0:0:
137,93,89793,2,0,L|277:77,1,122.500001168251,2|0,0:1|0:0,0:0:0:0:
204,265,90074,1,2,0:1:0:0:
145,192,90262,6,0,P|185:173|228:175,1,87.5,10|0,0:1|0:0,0:0:0:0:
171,352,90449,2,0,P|135:327|114:289,1,87.5,2|0,0:1|0:0,0:0:0:0:
293,250,90637,2,0,P|290:294|267:330,1,87.5,2|0,0:1|0:0,0:0:0:0:
145,192,90824,1,0,0:0:0:0:
382,268,91012,6,0,P|369:336|331:395,1,122.500001168251,2|0,0:0|0:0,0:0:0:0:
209,345,91293,2,0,P|238:334|269:331,1,61.2500005841255,2|0,0:1|0:0,0:0:0:0:
263,197,91480,1,0,0:0:0:0:
263,197,91574,2,0,P|282:222|293:250,1,61.2500005841255,2|0,0:1|0:0,0:0:0:0:
175,269,91762,6,0,P|101:282|23:255,1,140,8|2,0:0|0:0,0:0:0:0:
46,79,92043,2,0,P|115:66|182:84,1,140,8|0,0:0|0:0,0:0:0:0:
110,174,92324,1,0,0:0:0:0:
260,22,92512,2,0,P|280:63|272:110,1,70,10|0,0:1|0:0,0:0:0:0:
372,124,92699,2,0,P|347:162|302:179,1,70,0|0,0:0|0:0,0:0:0:0:
181,83,92887,1,0,0:0:0:0:
340,271,93074,6,0,P|295:268|228:170,1,136.499993751526,10|0,0:1|0:0,0:0:0:0:
232,206,93449,1,10,0:1:0:0:
376,56,93637,6,0,P|374:124|328:174,1,140,2|0,0:1|0:0,0:0:0:0:
110,203,94012,6,0,L|267:208,1,122.500001168251,2|0,0:0|0:0,0:0:0:0:
328,175,94293,1,0,0:0:0:0:
328,175,94386,2,0,L|359:243,1,61.2500005841255,2|0,0:0|0:0,0:0:0:0:
221,146,94574,2,0,L|234:220,1,61.2500005841255,2|0,0:0|0:0,0:0:0:0:
121,80,94762,6,0,L|110:202,1,122.500001168251,8|0,0:0|0:0,0:0:0:0:
80,338,95043,2,0,L|93:217,1,122.500001168251,2|0,0:0|0:0,0:0:0:0:
93,216,95324,1,2,0:0:0:0:
232,207,95512,6,0,P|167:185|217:165,1,140,2|0,0:0|0:0,0:0:0:0:
255,296,95793,2,0,P|187:309|123:283,1,140,2|0,0:0|0:0,0:0:0:0:
123,283,96074,1,2,0:0:0:0:
322,236,96262,6,0,L|407:255,1,61.2500005841255,10|0,0:1|0:0,0:0:0:0:
282,153,96449,2,0,L|370:150,1,61.2500005841255,2|0,0:1|0:0,0:0:0:0:
222,84,96637,2,0,L|306:58,1,61.2500005841255,2|0,0:1|0:0,0:0:0:0:
369,37,96824,1,0,0:0:0:0:
197,175,97012,6,0,P|136:130|152:41,1,122.500001168251,2|0,0:0|0:0,0:0:0:0:
280,66,97293,1,0,0:0:0:0:
280,66,97387,2,0,L|222:84,1,61.2500005841255,2|0,0:0|0:0,0:0:0:0:
343,151,97574,2,0,L|282:153,1,61.2500005841255,2|0,0:0|0:0,0:0:0:0:
424,260,97762,6,0,L|304:232,1,122.500001168251,8|0,0:0|0:0,0:0:0:0:
163,210,98043,2,0,L|282:237,1,122.500001168251,2|0,0:0|0:0,0:0:0:0:
282,237,98324,1,2,0:0:0:0:
98,303,98512,6,0,P|101:327|86:380,1,61.2500005841255,6|0,0:1|0:0,0:0:0:0:
163,210,98699,2,0,P|163:235|183:285,1,61.2500005841255,0|0,0:0|0:0,0:0:0:0:
89,136,98887,2,0,P|92:172|82:205,1,61.2500005841255,2|0,0:1|0:0,0:0:0:0:
158,43,99074,1,8,0:0:0:0:
158,43,99168,1,0,0:0:0:0:
158,43,99262,6,0,P|159:79|171:111,1,70,8|0,0:0|0:0,0:0:0:0:
83,205,99449,2,0,P|93:172|90:137,1,70,0|0,0:0|0:0,0:0:0:0:
10,244,99637,2,0,P|99:285|164:210,1,210,8|0,0:0|0:0,0:0:0:0:
316,346,100012,6,0,P|257:334|217:290,1,122.500001168251,2|0,0:0|0:0,0:0:0:0:
366,243,100293,1,0,0:0:0:0:
366,243,100387,2,0,L|306:250,1,61.2500005841255,2|0,0:0|0:0,0:0:0:0:
414,137,100574,2,0,L|357:159,1,61.2500005841255,2|0,0:0|0:0,0:0:0:0:
432,22,100762,2,0,L|383:58,1,61.2500005841255,8|0,0:0|0:0,0:0:0:0:
489,187,100949,5,0,0:0:0:0:
489,187,101043,2,0,P|499:113|490:93,1,61.2500005841255,2|0,0:0|0:0,0:0:0:0:
305,9,101230,1,0,0:0:0:0:
305,9,101324,2,0,P|295:83|304:103,1,61.2500005841255,2|0,0:0|0:0,0:0:0:0:
357,159,101512,6,0,P|291:114|191:151,1,140,2|0,0:0|0:0,0:0:0:0:
112,80,101793,2,0,P|178:125|278:88,1,140,2|0,0:0|0:0,0:0:0:0:
195,29,102074,1,2,0:0:0:0:
274,210,102262,6,0,L|280:254,4,43.75,8|0|0|0|0,0:0|0:0|0:0|0:0|0:0,0:0:0:0:
203,261,102543,2,0,L|198:305,4,43.75,8|0|0|0|0,0:0|0:0|0:0|0:0|0:0,0:0:0:0:
122,292,102824,6,0,L|106:333,2,43.75,8|0|0,0:0|0:0|0:0,0:0:0:0:
88,213,103012,6,0,P|156:213|204:262,1,140,0|0,0:0|0:0,0:0:0:0:
29,286,103574,6,0,P|-5:228|30:139,1,157.500006008148,8|0,0:0|0:0,0:0:0:0:
21,146,103949,1,2,0:0:0:0:
266,220,104137,6,0,B|172:284|88:212|88:212|145:218|185:154,1,280,2|0,0:0|0:0,0:0:0:0:
134,59,104699,6,0,B|105:32|105:32|100:133,1,140,8|0,0:0|0:0,0:0:0:0:
100,132,105262,6,0,B|187:202|313:157|235:108|371:74|441:140|441:140|399:124|355:124|324:161,1,490,2|0,0:0|0:0,0:0:0:0:
395,226,106012,6,0,P|337:250|276:238,1,125.999996154785,2|0,0:0|0:0,0:0:0:0:
187,116,106574,1,0,0:0:0:0:
187,116,106762,2,0,P|197:159|149:230,1,125.999996154785,8|0,0:0|0:0,0:0:0:0:
81,304,107324,1,0,0:0:0:0:
81,304,107512,2,0,L|225:316,1,125.999996154785,2|0,0:0|0:0,0:0:0:0:
161,229,108074,1,0,0:0:0:0:
161,229,108262,2,0,L|36:219,1,125.999996154785,8|0,0:0|0:0,0:0:0:0:
187,116,109012,6,0,P|225:105|270:123,1,62.9999980773926,2|0,0:0|0:0,0:0:0:0:
316,174,109387,2,0,P|300:111|328:50,2,125.999996154785,0|8|0,0:0|0:0|0:0,0:0:0:0:
428,323,110512,2,0,P|373:304|282:329,1,125.999996154785,2|8,0:0|0:0,0:0:0:0:
219,342,111074,1,2,0:0:0:0:
219,342,111168,1,2,0:0:0:0:
219,342,111262,2,0,L|226:258,1,62.9999980773926,8|2,0:0|0:0,0:0:0:0:
154,217,111637,2,0,L|149:280,1,62.9999980773926,8|2,0:0|0:0,0:0:0:0:
86,166,112012,6,0,P|129:136|219:162,1,125.999996154785,6|0,0:0|0:0,0:0:0:0:
413,268,112762,2,0,P|370:298|280:272,1,125.999996154785,8|0,0:0|0:0,0:0:0:0:
198,145,113512,2,0,L|210:9,1,125.999996154785,0|2,0:0|0:0,0:0:0:0:
287,93,114074,1,0,0:0:0:0:
198,145,114262,2,0,L|136:145,1,62.9999980773926,8|0,0:0|0:0,0:0:0:0:
119,156,114543,1,0,0:0:0:0:
103,166,114637,2,0,L|40:166,1,62.9999980773926,0|0,0:0|0:0,0:0:0:0:
143,285,115012,6,0,P|204:305|284:275,1,125.999996154785,2|2,0:0|0:0,0:0:0:0:
277,278,115480,1,0,0:0:0:0:
290,265,115574,1,2,0:0:0:0:
301,250,115668,1,0,0:0:0:0:
310,234,115762,2,0,L|396:235,1,62.9999980773926,8|0,0:0|0:0,0:0:0:0:
500,167,116137,2,0,L|437:166,1,62.9999980773926,8|2,0:0|0:0,0:0:0:0:
424,153,116418,1,2,0:0:0:0:
410,141,116512,6,0,L|348:141,1,62.9999980773926,8|2,0:0|0:0,0:0:0:0:
373,235,116887,1,2,0:0:0:0:
451,51,117074,2,0,L|389:51,1,62.9999980773926,8|2,0:0|0:0,0:0:0:0:
355,34,117355,1,0,0:0:0:0:
318,32,117449,1,2,0:0:0:0:
281,32,117543,1,0,0:0:0:0:
248,16,117637,2,0,L|185:15,1,62.9999980773926,8|0,0:0|0:0,0:0:0:0:
1,137,118012,6,0,P|92:133|136:83,1,140,6|0,0:0|0:0,0:0:0:0:
186,16,118574,1,8,0:0:0:0:
203,99,118762,1,0,0:0:0:0:
220,182,118949,1,0,0:0:0:0:
338,259,119137,6,0,L|251:267,1,70,8|0,0:0|0:0,0:0:0:0:
177,372,119512,2,0,L|317:361,1,140,2|0,0:0|0:0,0:0:0:0:
338,259,120074,1,8,0:0:0:0:
300,185,120262,1,0,0:0:0:0:
338,111,120449,1,0,0:0:0:0:
226,28,120637,6,0,P|162:30|136:45,1,70,8|0,0:0|0:0,0:0:0:0:
300,185,121012,2,0,P|378:185|425:136,1,140,2|0,0:0|0:0,0:0:0:0:
493,69,121574,1,8,0:0:0:0:
501,153,121762,1,0,0:0:0:0:
510,237,121949,1,0,0:0:0:0:
421,145,122137,6,0,P|391:129|356:127,1,70,8|0,0:0|0:0,0:0:0:0:
232,192,122512,2,0,P|263:96|244:39,1,140,2|0,0:0|0:0,0:0:0:0:
119,220,123074,2,0,P|187:295|246:307,1,140,8|0,0:0|0:0,0:0:0:0:
152,109,123637,2,0,P|110:99|62:118,1,70,8|0,0:0|0:0,0:0:0:0:
97,352,124012,6,0,P|128:256|109:199,1,140,6|0,0:0|0:0,0:0:0:0:
89,39,124574,2,0,P|68:138|23:178,1,140,8|0,0:0|0:0,0:0:0:0:
159,275,125137,2,0,P|143:240|117:219,1,70,8|0,0:0|0:0,0:0:0:0:
145,78,125512,2,0,P|77:153|18:165,1,140,2|0,0:0|0:0,0:0:0:0:
279,284,126074,2,0,P|267:216|219:168,1,140,8|0,0:0|0:0,0:0:0:0:
159,275,126637,1,8,0:0:0:0:
341,84,127012,5,2,0:0:0:0:
159,275,127387,1,0,0:0:0:0:
159,275,127574,2,0,P|226:296|320:271,1,140,8|0,0:0|0:0,0:0:0:0:
417,220,128137,1,8,0:0:0:0:
211,139,128512,5,2,0:0:0:0:
417,220,128887,1,0,0:0:0:0:
417,220,129074,2,0,L|405:366,1,140,8|0,0:0|0:0,0:0:0:0:
112,63,130012,6,0,P|178:43|245:61,1,140,2|0,0:0|0:0,0:0:0:0:
325,152,130574,2,0,P|314:83|348:23,1,140,8|0,0:0|0:0,0:0:0:0:
407,219,131137,2,0,B|332:281|236:241|292:211|191:185|123:241,1,280,8|0,1:2|0:0,0:0:0:0:
143,227,132074,1,0,0:0:0:0:
203,353,132262,2,0,P|261:352|283:345,1,70,8|0,0:0|0:0,0:0:0:0:
143,228,132637,2,0,P|85:229|63:236,1,70,0|0,0:0|0:0,0:0:0:0:
203,353,133012,6,0,P|260:294|268:212,1,140,2|0,0:0|0:0,0:0:0:0:
78,111,133574,2,0,P|100:189|167:237,1,140,8|0,0:0|0:0,0:0:0:0:
350,123,134137,1,8,1:2:0:0:
256,192,134230,12,0,135637,0:0:0:0:
83,69,136012,6,0,L|204:74,1,105,2|2,0:0|0:0,0:0:0:0:
424,124,137137,2,0,L|285:130,1,140,2|0,0:0|0:0,0:0:0:0:
82,181,138637,1,2,0:0:0:0:
82,181,139012,6,0,L|186:186,1,105,2|2,0:0|0:0,0:0:0:0:
425,234,140137,6,0,L|286:243,1,140,2|0,0:0|0:0,0:0:0:0:
