osu file format v14

[General]
AudioFilename: audio.mp3
AudioLeadIn: 0
PreviewTime: 40012
Countdown: 0
SampleSet: Soft
StackLeniency: 0.4
Mode: 0
LetterboxInBreaks: 0
WidescreenStoryboard: 0

[Editor]
DistanceSpacing: 1.1
BeatDivisor: 4
GridSize: 8
TimelineZoom: 1.5

[Metadata]
Title:Magnolia (feat. Guriri)
TitleUnicode:Magnolia (feat. 구리리)
Artist:M2U
ArtistUnicode:M2U
Creator:Su1fu7
Version:Easy
Source:Deemo
Tags:wav.av. rayark sammish finshie pandahero diversity dubstep electronic
BeatmapID:1309254
BeatmapSetID:610967

[Difficulty]
HPDrainRate:3
CircleSize:3
OverallDifficulty:3
ApproachRate:3
SliderMultiplier:0.8
SliderTickRate:1

[Events]
//Background and Video events
0,0,"39400722_p0.jpg",0,0
//Break Periods
//Storyboard Layer 0 (Background)
//Storyboard Layer 1 (Fail)
//Storyboard Layer 2 (Pass)
//Storyboard Layer 3 (Foreground)
//Storyboard Sound Samples

[TimingPoints]
2512,375,4,2,0,70,1,0
8512,-100,4,2,2,50,0,0
14512,-100,4,2,2,70,0,0
22762,-100,4,2,0,50,0,0
23512,-100,4,2,0,35,0,0
24263,-100,4,2,0,20,0,0
28012,-100,4,2,0,40,0,0
40012,-100,4,2,2,55,0,0
52012,-100,4,2,2,70,0,0
70012,-100,4,2,0,55,0,0
76012,-100,4,2,2,70,0,0
82012,-100,4,2,2,70,0,1
104887,-100,4,2,2,70,0,0
106012,-100,4,2,2,70,0,0
136012,-100,4,2,0,40,0,0
142105,-100,4,2,0,5,0,0

[Colours]
Combo1 : 105,220,208
Combo2 : 172,241,109
Combo3 : 197,99,243
Combo4 : 238,126,72

[HitObjects]
422,143,2512,5,4,0:0:0:0:
366,79,2887,2,0,P|334:71|286:79,1,80,0|2,0:0|0:0,0:0:0:0:
219,132,3637,1,2,0:0:0:0:
142,168,4012,2,0,P|134:132|177:57,2,120,2|0|0,0:0|0:0|0:0,0:0:0:0:
188,244,5512,5,4,0:0:0:0:
246,311,5887,2,0,P|278:319|326:311,1,80,0|2,0:0|0:0,0:0:0:0:
372,238,6637,1,2,0:0:0:0:
449,274,7012,2,0,P|457:238|414:163,2,120,2|0|2,0:0|0:0|0:0,0:0:0:0:
487,355,8512,5,4,0:0:0:0:
399,347,8887,1,0,0:0:0:0:
311,339,9262,2,0,L|215:330,1,80,8|0,0:0|0:0,0:0:0:0:
151,369,10012,1,0,0:0:0:0:
159,281,10387,1,0,0:0:0:0:
167,193,10762,2,0,L|175:97,1,80,8|0,0:0|0:0,0:0:0:0:
122,40,11512,5,4,0:0:0:0:
210,32,11887,1,0,0:0:0:0:
260,104,12262,2,0,B|332:101|332:141|416:125,1,160,8|0,0:0|0:0,0:0:0:0:
340,284,13762,2,0,B|325:257|325:257|318:191,1,80,8|0,0:0|0:0,0:0:0:0:
244,163,14512,6,0,B|210:185|210:185|114:176,1,120,6|8,0:0|0:0,0:0:0:0:
60,67,15637,2,0,B|93:46|93:46|189:55,1,120,2|8,0:0|0:0,0:0:0:0:
304,67,16762,1,2,0:0:0:0:
159,167,17512,5,2,0:0:0:0:
112,336,18262,2,0,L|199:343,1,80,8|0,0:0|0:0,0:0:0:0:
277,348,19012,1,2,0:0:0:0:
408,355,19574,2,0,B|434:326|434:326|442:230,1,120,8|8,0:0|0:0,0:0:0:0:
440,155,20512,6,0,P|400:163|320:147,1,120,6|8,0:0|0:0,0:0:0:0:
216,75,21637,2,0,P|224:115|208:195,1,120,2|8,0:0|0:0,0:0:0:0:
136,299,22762,1,4,0:0:0:0:
256,192,23512,12,0,26512,0:0:0:0:
288,51,28012,6,0,P|243:150|340:199,1,240,2|0,0:0|0:0,0:0:0:0:
392,125,29512,2,0,P|427:227|315:288,1,240,2|0,0:0|0:0,0:0:0:0:
256,243,31012,6,0,P|224:227|104:243,2,160,2|2|2,0:0|0:0|0:0,0:0:0:0:
332,292,32887,1,2,0:0:0:0:
392,227,33262,2,0,L|398:147,1,80,2|2,0:0|0:0,0:0:0:0:
396,59,34012,6,0,P|338:32|191:127,1,240,2|2,0:0|0:0,0:0:0:0:
260,173,35512,2,0,P|355:238|359:354,1,240,2|0,0:0|0:0,0:0:0:0:
271,355,37012,5,2,0:0:0:0:
97,359,37762,1,2,0:0:0:0:
17,199,38512,2,0,B|87:159|144:192|120:207|187:231|249:198,1,240,2|2,0:0|0:0,0:0:0:0:
313,143,40012,5,6,0:0:0:0:
465,223,40762,2,0,B|494:187|494:187|505:67,2,160,8|0|8,0:0|0:0|0:0,0:0:0:0:
382,85,43012,5,2,0:0:0:0:
256,184,43762,2,0,B|251:239|251:239|255:280|255:280|250:344,2,160,8|0|8,0:0|0:0|0:0,0:0:0:0:
256,8,46012,5,6,0:0:0:0:
157,150,46762,2,0,B|107:161|107:161|-3:151,2,160,8|0|8,0:0|0:0|0:0,0:0:0:0:
288,33,49012,5,2,0:0:0:0:
309,207,49762,2,0,P|296:296|234:343,2,160,8|0|8,0:0|0:0|0:0,0:0:0:0:
436,85,52012,6,0,L|316:74,1,120,6|8,0:0|0:0,0:0:0:0:
184,63,53137,1,8,0:0:0:0:
142,140,53512,2,0,L|22:129,2,120,2|8|8,0:0|0:0|0:0,0:0:0:0:
229,147,55012,6,0,B|229:203|229:203|190:254,1,120,2|8,0:0|0:0,0:0:0:0:
100,355,56137,1,8,0:0:0:0:
187,347,56512,2,0,L|306:336,2,120,2|8|8,0:0|0:0|0:0,0:0:0:0:
196,256,58012,6,0,P|138:269|102:316,2,120,6|8|8,0:0|0:0|0:0,0:0:0:0:
298,255,59512,2,0,P|347:228|371:171,2,120,2|8|8,0:0|0:0|0:0,0:0:0:0:
282,166,61012,6,0,L|162:176,2,120,2|8|8,0:0|0:0|0:0,0:0:0:0:
298,256,62512,1,2,0:0:0:0:
166,264,63074,1,8,0:0:0:0:
110,54,64012,6,0,P|54:67|15:123,2,120,2|8|8,0:0|0:0|1:2,0:0:0:0:
410,145,66637,1,0,0:0:0:0:
402,54,67012,6,0,P|458:67|497:123,2,120,2|8|8,0:0|0:0|1:2,0:0:0:0:
464,368,70012,6,0,L|304:354,1,160,2|2,0:0|0:0,0:0:0:0:
216,344,71137,1,2,0:0:0:0:
128,336,71512,1,2,0:0:0:0:
178,263,71887,2,0,B|227:251|227:251|354:262,1,160,2|2,0:0|0:0,0:0:0:0:
423,289,73012,6,0,P|424:236|333:167,1,160,2|2,0:0|0:0,0:0:0:0:
263,161,74137,1,2,0:0:0:0:
175,151,74512,1,2,0:0:0:0:
139,69,74887,2,0,B|188:57|188:57|315:68,1,160,2|2,0:0|0:0,0:0:0:0:
376,104,76012,6,0,B|378:61|378:61|400:10,2,80,2|2|2,0:0|0:0|0:0,0:0:0:0:
393,199,77137,1,2,0:0:0:0:
401,287,77512,1,2,0:0:0:0:
314,295,77887,2,0,P|321:331|362:369,2,80,2|2|2,0:0|0:0|0:0,0:0:0:0:
340,210,79012,6,0,B|306:196|306:196|211:205,1,120,2|8,0:0|0:0,0:0:0:0:
129,111,80137,2,0,B|208:104|208:104|356:50|356:50|439:43,1,320,8|8,0:0|0:0,0:0:0:0:
473,127,82012,6,0,L|393:133,2,80,2|0|8,1:2|0:0|1:2,0:0:0:0:
481,215,83137,1,0,0:0:0:0:
393,222,83512,1,2,0:0:0:0:
305,229,83887,2,0,B|270:209|270:209|200:186|200:186|144:154,1,160,0|2,0:0|0:1,0:0:0:0:
89,111,85012,5,2,0:0:0:0:
73,199,85387,2,0,B|98:230|98:230|134:250,2,80,0|8|0,0:0|0:0|0:0,0:0:0:0:
4,141,86512,1,6,0:1:0:0:
20,52,86887,1,2,0:1:0:0:
89,111,87262,2,0,B|127:118|127:118|167:109,1,80,8|8,0:0|0:0,0:0:0:0:
257,95,88012,6,0,L|264:7,2,80,2|0|8,0:0|0:0|0:0,0:0:0:0:
249,183,89137,1,0,0:0:0:0:
241,271,89512,1,2,0:0:0:0:
185,343,89887,2,0,B|234:362|234:362|346:352,1,160,0|2,0:0|0:1,0:0:0:0:
425,343,91012,5,2,0:0:0:0:
421,250,91387,2,0,P|454:255|494:284,2,80,0|8|0,0:0|0:0|0:0,0:0:0:0:
336,280,92512,2,0,B|288:296|288:296|200:288,1,120,10|10,0:1|0:1,0:0:0:0:
128,280,93449,1,10,0:1:0:0:
1,318,94012,5,2,0:0:0:0:
33,230,94387,2,0,P|71:188|172:181,1,160,2|0,0:0|0:0,0:0:0:0:
251,211,95512,2,0,P|298:217|338:208,1,80,2|0,0:0|0:0,0:0:0:0:
412,182,96262,2,0,L|405:261,1,80,10|2,0:1|0:1,0:0:0:0:
402,349,97012,6,0,P|365:337|325:334,1,80,2|2,0:0|0:0,0:0:0:0:
244,360,97762,2,0,L|237:280,1,80,8|0,0:0|0:0,0:0:0:0:
241,191,98512,2,0,B|279:171|279:171|367:163,2,120,6|8|8,0:1|0:0|0:0,0:0:0:0:
165,235,100012,5,2,0:0:0:0:
97,175,100387,2,0,L|90:95,2,80,2|8|0,0:0|0:0|0:0,0:0:0:0:
177,135,101512,2,0,L|183:55,1,80,2|2,0:0|0:0,0:0:0:0:
273,63,102262,2,0,L|266:142,1,80,8|0,0:0|0:0,0:0:0:0:
257,231,103012,5,0,0:0:0:0:
361,151,103574,1,8,0:0:0:0:
465,239,104137,2,0,B|485:280|485:280|477:368,1,120,2|8,0:0|0:0,0:0:0:0:
361,303,105262,1,2,0:0:0:0:
185,303,106012,5,2,0:0:0:0:
105,271,106387,2,0,P|88:226|90:195,2,80,0|8|0,0:0|0:0|0:0,0:0:0:0:
173,218,107512,1,2,0:0:0:0:
253,186,107887,2,0,P|270:141|268:110,2,80,0|8|0,0:0|0:0|0:0,0:0:0:0:
317,244,109012,6,0,P|354:175|352:95,1,160,2|8,0:0|0:0,0:0:0:0:
221,208,110512,2,0,P|142:197|67:224,1,160,2|8,0:0|0:0,0:0:0:0:
199,314,112012,6,0,P|153:324|113:324,2,80,6|0|8,0:0|0:0|0:0,0:0:0:0:
372,286,113512,1,0,0:0:0:0:
396,201,113887,2,0,P|436:224|459:259,2,80,2|8|0,0:0|0:0|0:0,0:0:0:0:
309,217,115012,5,2,0:0:0:0:
225,245,115387,2,0,P|169:260|58:243,1,160,2|8,0:0|0:0,0:0:0:0:
23,172,116512,1,8,0:0:0:0:
65,94,116887,2,0,P|144:80|222:97,1,160,2|8,0:0|0:0,0:0:0:0:
290,145,118012,6,0,P|336:118|416:120,1,120,6|8,0:0|0:0,0:0:0:0:
375,244,119137,1,8,0:0:0:0:
313,307,119512,2,0,P|267:334|187:332,2,120,2|8|8,0:0|0:0|0:0,0:0:0:0:
350,226,121012,6,0,P|344:167|316:115,1,120,2|8,0:0|0:0,0:0:0:0:
184,115,122137,1,8,0:0:0:0:
154,198,122512,2,0,L|34:187,2,120,2|8|8,0:0|0:0|0:0,0:0:0:0:
240,214,124012,6,0,P|227:156|178:113,2,120,6|8|8,0:0|0:0|0:0,0:0:0:0:
181,280,125512,6,0,P|123:292|80:342,2,120,2|8|8,0:0|0:0|0:0,0:0:0:0:
262,314,127012,6,0,P|313:334|374:311,2,120,2|8|8,0:0|0:0|0:0,0:0:0:0:
318,249,128512,1,2,0:0:0:0:
256,136,129074,1,8,0:0:0:0:
89,223,130012,6,0,P|72:279|86:337,2,120,2|8|8,0:0|0:0|1:2,0:0:0:0:
410,337,133012,6,0,P|425:280|409:223,2,120,2|8|8,0:0|0:0|1:2,0:0:0:0:
256,64,136012,5,2,0:0:0:0:
256,192,136574,1,2,0:0:0:0:
257,316,137137,2,0,P|314:302|377:220,1,160,2|0,0:0|0:0,0:0:0:0:
26,191,139012,2,0,B|96:151|153:184|129:199|196:223|255:191,1,240,2|2,0:0|0:0,0:0:0:0:
256,192,140324,12,0,142105,0:0:0:0:
