osu file format v14

[General]
AudioFilename: audio.mp3
AudioLeadIn: 0
PreviewTime: 40012
Countdown: 0
SampleSet: Soft
StackLeniency: 0.4
Mode: 0
LetterboxInBreaks: 0
WidescreenStoryboard: 0

[Editor]
DistanceSpacing: 1.1
BeatDivisor: 4
GridSize: 8
TimelineZoom: 2.3

[Metadata]
Title:Magnolia (feat. Guriri)
TitleUnicode:Magnolia (feat. 구리리)
Artist:M2U
ArtistUnicode:M2U
Creator:Su1fu7
Version:Normal
Source:Deemo
Tags:wav.av. rayark sammish finshie pandahero diversity dubstep electronic
BeatmapID:1306490
BeatmapSetID:610967

[Difficulty]
HPDrainRate:3.5
CircleSize:3.5
OverallDifficulty:4.5
ApproachRate:4.5
SliderMultiplier:1
SliderTickRate:1

[Events]
//Background and Video events
0,0,"39400722_p0.jpg",0,0
//Break Periods
//Storyboard Layer 0 (Background)
//Storyboard Layer 1 (Fail)
//Storyboard Layer 2 (Pass)
//Storyboard Layer 3 (Foreground)
//Storyboard Sound Samples

[TimingPoints]
2512,375,4,2,0,70,1,0
8512,-100,4,2,2,50,0,0
14512,-100,4,2,2,70,0,0
22762,-100,4,2,0,50,0,0
23512,-100,4,2,0,35,0,0
24263,-100,4,2,0,20,0,0
28012,-100,4,2,0,40,0,0
40012,-100,4,2,2,55,0,0
52012,-100,4,2,2,70,0,0
70012,-100,4,2,0,55,0,0
76012,-100,4,2,2,70,0,0
82012,-100,4,2,2,70,0,1
104887,-100,4,2,2,70,0,0
136012,-100,4,2,0,40,0,0
142105,-100,4,2,0,5,0,0

[Colours]
Combo1 : 105,220,208
Combo2 : 172,241,109
Combo3 : 197,99,243
Combo4 : 238,126,72

[HitObjects]
344,144,2512,5,4,0:0:0:0:
416,212,2887,2,0,P|373:237|324:242,1,100,0|2,0:0|0:0,0:0:0:0:
239,187,3637,1,2,0:0:0:0:
196,97,4012,2,0,P|155:132|152:237,1,150,2|0,0:0|0:0,0:0:0:0:
165,269,4762,2,0,P|115:261|69:277,1,100,2|0,0:0|0:0,0:0:0:0:
124,361,5512,5,4,0:0:0:0:
223,347,5887,2,0,P|259:312|277:267,1,100,0|2,0:0|0:0,0:0:0:0:
244,171,6637,1,2,0:0:0:0:
171,102,7012,2,0,P|217:74|317:103,1,150,2|0,0:0|0:0,0:0:0:0:
333,135,7762,2,0,P|380:143|447:125,1,100,2|2,0:0|0:0,0:0:0:0:
511,73,8512,5,4,0:0:0:0:
502,172,8887,2,0,L|493:272,1,100,0|8,0:0|0:0,0:0:0:0:
394,289,9637,1,0,0:0:0:0:
294,289,10012,1,0,0:0:0:0:
203,330,10387,2,0,L|194:230,1,100,0|8,0:0|0:0,0:0:0:0:
186,130,11137,1,0,0:0:0:0:
181,30,11512,5,4,0:0:0:0:
259,82,11887,2,0,P|273:130|259:178,1,100,0|8,0:0|0:0,0:0:0:0:
178,237,12637,1,0,0:0:0:0:
259,294,13012,2,0,P|306:305|355:295,1,100,0|0,0:0|0:0,0:0:0:0:
401,206,13762,1,8,0:0:0:0:
306,203,14137,1,0,0:0:0:0:
221,157,14512,6,0,B|221:205|221:205|205:253|205:253|205:304,1,150,6|8,0:0|0:0,0:0:0:0:
93,201,15637,1,2,0:0:0:0:
109,53,16199,1,8,0:0:0:0:
229,140,16762,2,0,P|277:150|326:141,1,100,2|0,0:0|0:0,0:0:0:0:
422,114,17512,6,0,B|410:241,1,100,2|0,0:0|0:0,0:0:0:0:
428,312,18262,2,0,P|379:301|330:309,1,100,8|0,0:0|0:0,0:0:0:0:
234,338,19012,2,0,P|166:337|122:311,1,100,2|0,0:0|0:0,0:0:0:0:
101,297,19574,1,8,0:0:0:0:
101,145,20137,1,8,0:0:0:0:
181,201,20512,6,0,B|230:189|230:189|333:198,1,150,6|8,0:0|0:0,0:0:0:0:
450,85,21637,2,0,L|350:76,1,100,2|0,0:0|0:0,0:0:0:0:
301,68,22199,2,0,L|201:59,1,100,8|0,0:0|0:0,0:0:0:0:
146,54,22762,1,4,0:0:0:0:
256,192,23512,12,0,26512,0:0:0:0:
224,176,28012,6,0,P|182:155|123:159,1,100,2|0,0:0|0:0,0:0:0:0:
56,220,28762,2,0,P|35:178|39:119,1,100,2|0,0:0|0:0,0:0:0:0:
84,38,29512,1,2,0:0:0:0:
135,123,29887,2,0,L|234:114,1,100,2|2,0:0|0:0,0:0:0:0:
428,171,31012,6,0,L|328:179,1,100,2|0,0:0|0:0,0:0:0:0:
228,187,31762,2,0,P|182:209|139:258,1,100,2|2,0:0|0:0,0:0:0:0:
112,335,32512,1,2,0:0:0:0:
52,259,32887,2,0,P|44:211|60:139,2,100,2|2|2,0:0|0:0|0:0,0:0:0:0:
143,238,34012,5,2,0:0:0:0:
242,229,34387,1,2,0:0:0:0:
317,295,34762,2,0,P|338:252|335:191,1,100,2|2,0:0|0:0,0:0:0:0:
285,115,35512,1,2,0:0:0:0:
186,124,35887,1,2,0:0:0:0:
100,171,36262,2,0,L|91:72,1,100,2|0,0:0|0:0,0:0:0:0:
190,27,37012,6,0,P|199:75|186:123,1,100,2|0,0:0|0:0,0:0:0:0:
100,171,37762,2,0,P|90:217|104:267,1,100,2|0,0:0|0:0,0:0:0:0:
193,215,38512,2,0,B|255:180|305:209|284:222|344:244|398:215,1,200,2|2,0:0|0:0,0:0:0:0:
432,207,39449,2,0,P|450:178|453:145,1,50,0|2,0:0|0:0,0:0:0:0:
465,66,40012,6,0,P|407:78|372:109,1,100,6|0,0:0|0:0,0:0:0:0:
303,178,40762,2,0,L|294:78,1,100,8|0,0:0|0:0,0:0:0:0:
209,24,41512,1,0,0:0:0:0:
205,123,41887,1,2,0:0:0:0:
294,78,42262,2,0,P|341:66|391:82,1,100,8|0,0:0|0:0,0:0:0:0:
334,173,43012,6,0,L|325:272,1,100,2|0,0:0|0:0,0:0:0:0:
418,308,43762,2,0,B|428:188,1,100,8|0,0:0|0:0,0:0:0:0:
437,108,44512,1,0,0:0:0:0:
367,36,44887,1,2,0:0:0:0:
310,118,45262,2,0,P|260:119|212:104,1,100,8|0,0:0|0:0,0:0:0:0:
123,58,46012,6,0,P|134:106|130:156,1,100,6|0,0:0|0:0,0:0:0:0:
33,184,46762,2,0,P|22:232|26:282,1,100,8|0,0:0|0:0,0:0:0:0:
109,337,47512,1,0,0:0:0:0:
208,325,47887,1,2,0:0:0:0:
307,318,48262,2,0,P|357:315|405:330,1,100,8|0,0:0|0:0,0:0:0:0:
384,232,49012,6,0,P|334:223|291:198,1,100,2|0,0:0|0:0,0:0:0:0:
228,121,49762,2,0,P|178:113|130:124,1,100,8|0,0:0|0:0,0:0:0:0:
45,176,50512,1,0,0:0:0:0:
43,77,50887,1,2,0:0:0:0:
129,23,51262,2,0,L|130:126,1,100,8|0,0:0|0:0,0:0:0:0:
112,224,52012,6,0,P|184:207|258:218,1,150,6|8,0:0|0:0,0:0:0:0:
368,320,53137,1,8,0:0:0:0:
377,216,53512,1,2,0:0:0:0:
493,122,54074,2,0,B|443:141|443:141|347:133,1,150,8|8,0:0|0:0,0:0:0:0:
320,232,55012,6,0,L|469:245,2,150,2|8|8,0:0|0:0|0:0,0:0:0:0:
220,223,56512,1,2,0:0:0:0:
102,130,57074,2,0,P|72:182|88:282,1,150,8|8,0:0|0:0,0:0:0:0:
152,338,58012,5,6,0:0:0:0:
256,232,58574,2,0,B|305:220|305:220|404:228,1,150,8|8,0:0|0:0,0:0:0:0:
416,128,59512,1,2,0:0:0:0:
264,128,60074,2,0,L|118:164,1,150,8|8,0:0|0:0,0:0:0:0:
22,136,61012,5,2,0:0:0:0:
114,17,61574,2,0,P|129:89|117:163,1,150,8|8,0:0|0:0,0:0:0:0:
64,248,62512,1,2,0:0:0:0:
202,304,63074,2,0,B|259:315|259:315|350:307,1,150,8|0,0:0|0:0,0:0:0:0:
410,214,64012,5,2,0:0:0:0:
256,192,64574,1,8,0:0:0:0:
128,107,65137,2,0,P|188:55|396:135,1,300,8|8,1:2|0:0,0:0:0:0:
384,208,66637,1,0,0:0:0:0:
289,235,67012,5,2,0:0:0:0:
147,186,67574,1,8,0:0:0:0:
150,38,68137,2,0,B|227:34|281:104|281:104|357:89|357:89|399:161|513:169,1,400,8|0,1:2|0:0,0:0:0:0:
455,257,70012,6,0,P|406:244|356:244,1,100,2|2,0:0|0:0,0:0:0:0:
256,256,70762,2,0,P|215:257|145:238,1,100,2|2,0:0|0:0,0:0:0:0:
80,184,71512,1,2,0:0:0:0:
168,136,71887,2,0,B|186:105|186:105|193:25,2,100,2|2|2,0:0|0:0|0:0,0:0:0:0:
256,192,73012,6,0,P|296:190|366:209,1,100,2|2,0:0|0:0,0:0:0:0:
432,264,73762,2,0,L|442:144,1,100,2|2,0:0|0:0,0:0:0:0:
449,64,74512,1,2,0:0:0:0:
357,106,74887,2,0,B|338:75|338:75|331:-4,2,100,2|2|2,0:0|0:0|0:0,0:0:0:0:
440,164,76012,5,2,0:0:0:0:
376,240,76387,2,0,B|328:232|328:232|277:238,1,100,2|2,0:0|0:0,0:0:0:0:
192,296,77137,1,2,0:0:0:0:
185,194,77512,1,2,0:0:0:0:
100,251,77887,2,0,B|81:281|81:281|74:361,2,100,2|2|2,0:0|0:0|0:0,0:0:0:0:
168,323,79012,6,0,P|216:330|264:316,1,100,2|2,0:0|0:0,0:0:0:0:
314,319,79574,2,0,P|363:325|410:311,1,100,8|2,0:0|0:0,0:0:0:0:
444,274,80137,1,8,0:0:0:0:
357,218,80512,1,8,0:0:0:0:
313,125,80887,2,0,L|374:140,1,50,2|8,0:0|0:0,0:0:0:0:
458,163,81449,2,0,L|473:102,1,50,2|8,0:0|0:0,0:0:0:0:
392,48,82012,5,2,1:2:0:0:
290,52,82387,1,0,0:0:0:0:
192,83,82762,2,0,P|187:42|196:9,2,75,8|2|2,1:2|0:1|0:1,0:0:0:0:
217,126,83512,2,0,P|225:162|220:199,1,75,2|2,0:0|0:1,0:0:0:0:
160,304,84262,2,0,B|199:312|199:312|257:298,1,100,10|2,0:1|0:1,0:0:0:0:
352,264,85012,5,2,0:0:0:0:
437,315,85387,1,0,0:0:0:0:
439,211,85762,2,0,P|485:224|521:255,2,75,8|2|2,0:0|0:1|0:1,0:0:0:0:
391,194,86512,2,0,L|395:138,2,50,6|0|2,0:1|0:0|0:1,0:0:0:0:
342,204,87074,1,8,0:0:0:0:
247,193,87449,2,0,B|223:151|223:151|225:99,1,100,0|0,0:0|0:0,0:0:0:0:
226,49,88012,5,2,0:0:0:0:
144,104,88387,1,0,0:0:0:0:
87,186,88762,2,0,B|71:162|71:162|63:114,2,75,8|2|2,0:0|0:1|0:1,0:0:0:0:
127,214,89512,2,0,B|143:238|143:238|151:286,1,75,2|2,0:0|0:1,0:0:0:0:
264,336,90262,2,0,B|264:288|264:288|280:240|280:240|280:188,1,150,10|0,0:1|0:0,0:0:0:0:
280,136,91012,5,2,0:0:0:0:
376,144,91387,1,0,0:0:0:0:
418,51,91762,2,0,B|368:32|368:32|271:38,1,150,8|0,0:0|0:0,0:0:0:0:
220,43,92512,1,10,0:1:0:0:
265,131,92887,2,0,L|336:126,1,50,0|10,0:0|0:1,0:0:0:0:
360,216,93449,2,0,L|248:224,1,100,10|0,0:1|0:0,0:0:0:0:
210,227,94012,5,2,0:0:0:0:
128,288,94387,1,2,0:0:0:0:
119,188,94762,1,8,0:0:0:0:
208,144,95137,2,0,L|212:88,1,50,0|2,0:0|0:0,0:0:0:0:
216,48,95512,2,0,P|166:39|117:47,1,100,2|0,0:0|0:0,0:0:0:0:
48,120,96262,2,0,P|39:169|47:218,1,100,10|2,0:1|0:1,0:0:0:0:
112,296,97012,5,2,0:0:0:0:
200,248,97387,1,2,0:0:0:0:
191,348,97762,1,8,0:0:0:0:
288,336,98137,2,0,L|293:280,1,50,0|2,0:0|0:0,0:0:0:0:
296,240,98512,2,0,L|345:235,2,50,6|0|2,0:1|0:0|0:1,0:0:0:0:
246,245,99074,1,8,0:0:0:0:
162,189,99449,2,0,B|199:158|199:158|250:151,1,100,0|0,0:0|0:0,0:0:0:0:
299,143,100012,5,2,0:0:0:0:
398,150,100387,1,2,0:0:0:0:
390,246,100762,1,8,0:0:0:0:
432,336,101137,2,0,P|407:333|383:338,1,50,0|2,0:0|0:0,0:0:0:0:
336,360,101512,2,0,P|287:346|238:343,1,100,2|2,0:0|0:0,0:0:0:0:
136,352,102262,2,0,L|126:248,1,100,8|0,0:0|0:0,0:0:0:0:
120,152,103012,5,0,0:0:0:0:
256,304,103574,1,8,0:0:0:0:
226,208,103949,2,0,P|240:170|349:124,1,150,2|0,0:0|0:0,0:0:0:0:
382,127,104699,1,8,0:0:0:0:
504,39,105262,2,0,P|499:113|459:177,1,150,2|0,0:0|0:0,0:0:0:0:
423,209,106012,5,2,0:0:0:0:
324,192,106387,1,0,0:0:0:0:
242,250,106762,2,0,P|189:251|129:229,1,100,8|0,0:0|0:0,0:0:0:0:
81,159,107512,1,2,0:0:0:0:
159,95,107887,1,0,0:0:0:0:
222,173,108262,2,0,P|275:174|335:152,1,100,8|0,0:0|0:0,0:0:0:0:
408,104,109012,6,0,P|393:182|394:263,1,150,2|0,0:0|0:0,0:0:0:0:
408,296,109762,2,0,P|336:288|288:296,1,100,8|0,0:0|0:0,0:0:0:0:
224,344,110512,1,2,0:0:0:0:
125,326,110887,1,8,0:0:0:0:
176,240,111262,2,0,P|186:216|185:78,1,150,8|2,0:0|0:0,0:0:0:0:
169,48,112012,5,6,0:0:0:0:
265,73,112387,1,0,0:0:0:0:
363,102,112762,2,0,P|360:151|335:195,1,100,8|0,0:0|0:0,0:0:0:0:
246,231,113512,1,0,0:0:0:0:
311,306,113887,1,2,0:0:0:0:
410,312,114262,2,0,P|443:275|456:227,1,100,8|0,0:0|0:0,0:0:0:0:
392,152,115012,6,0,L|511:141,2,100,2|2|8,0:0|0:0|0:0,0:0:0:0:
292,160,116137,1,8,0:0:0:0:
336,70,116512,1,8,0:0:0:0:
237,77,116887,2,0,P|183:65|120:69,2,100,2|2|8,0:0|0:0|0:0,0:0:0:0:
240,176,118012,6,0,P|191:161|85:170,1,150,6|8,0:0|0:0,0:0:0:0:
90,317,119137,1,8,0:0:0:0:
174,264,119512,1,2,0:0:0:0:
296,352,120074,2,0,L|447:338,1,150,8|8,0:0|0:0,0:0:0:0:
400,248,121012,6,0,B|296:257|296:257|252:242,2,150,2|8|8,0:0|0:0|0:0,0:0:0:0:
499,239,122512,1,2,0:0:0:0:
400,128,123074,2,0,P|336:90|261:85,1,150,8|8,0:0|0:0,0:0:0:0:
168,120,124012,5,6,0:0:0:0:
296,204,124574,2,0,P|307:277|295:351,1,150,8|8,0:0|0:0,0:0:0:0:
192,352,125512,1,2,0:0:0:0:
80,256,126074,2,0,L|229:242,1,150,8|8,0:0|0:0,0:0:0:0:
328,232,127012,5,2,0:0:0:0:
440,136,127574,2,0,L|290:122,1,150,8|8,0:0|0:0,0:0:0:0:
192,112,128512,1,2,0:0:0:0:
112,240,129074,2,0,B|153:227|153:227|259:236,1,150,8|0,0:0|0:0,0:0:0:0:
359,249,130012,1,2,0:0:0:0:
256,144,130574,1,8,0:0:0:0:
104,144,131137,2,0,B|56:184|48:264|96:320|96:320|151:283|208:320,1,300,8|8,1:2|0:0,0:0:0:0:
264,240,132637,1,0,0:0:0:0:
352,192,133012,5,2,0:0:0:0:
211,139,133574,1,8,0:0:0:0:
91,229,134137,2,0,B|223:202|298:284|251:297|348:371|452:351,1,400,8|0,1:2|0:0,0:0:0:0:
456,256,136012,5,2,0:0:0:0:
324,180,136574,1,2,0:0:0:0:
207,271,137137,2,0,P|160:187|192:95,2,200,2|0|2,0:0|0:0|0:0,0:0:0:0:
286,333,139012,1,2,0:0:0:0:
424,276,139574,1,2,0:0:0:0:
306,185,140137,1,2,0:0:0:0:
256,192,140324,12,0,142105,0:0:0:0:
