osu file format v14

[General]
AudioFilename: audio.mp3
AudioLeadIn: 0
PreviewTime: 40012
Countdown: 0
SampleSet: Soft
StackLeniency: 0.5
Mode: 0
LetterboxInBreaks: 0
WidescreenStoryboard: 0

[Editor]
DistanceSpacing: 1.2
BeatDivisor: 4
GridSize: 8
TimelineZoom: 1.7

[Metadata]
Title:Magnolia (feat. Guriri)
TitleUnicode:Magnolia (feat. 구리리)
Artist:M2U
ArtistUnicode:M2U
Creator:Su1fu7
Version:Hard
Source:Deemo
Tags:wav.av. rayark sammish finshie pandahero diversity dubstep electronic
BeatmapID:1315612
BeatmapSetID:610967

[Difficulty]
HPDrainRate:6
CircleSize:4
OverallDifficulty:7
ApproachRate:8
SliderMultiplier:1.4
SliderTickRate:1

[Events]
//Background and Video events
0,0,"39400722_p0.jpg",0,0
//Break Periods
//Storyboard Layer 0 (Background)
//Storyboard Layer 1 (Fail)
//Storyboard Layer 2 (Pass)
//Storyboard Layer 3 (Foreground)
//Storyboard Sound Samples

[TimingPoints]
2512,375,4,2,0,50,1,0
8512,-100,4,2,2,60,0,0
14512,-100,4,2,2,70,0,0
22762,-100,4,2,0,50,0,0
23512,-133.333333333333,4,2,0,35,0,0
24263,-133.333333333333,4,2,0,20,0,0
26512,-100,4,2,0,20,0,0
28012,-125,4,2,0,40,0,0
40012,-100,4,2,2,55,0,0
52012,-100,4,2,2,70,0,0
70012,-100,4,2,0,55,0,0
76012,-100,4,2,2,70,0,0
82012,-83.3333333333333,4,2,2,70,0,1
94387,-71.4285714285714,4,2,2,70,0,1
106012,-125,4,2,2,70,0,0
118012,-100,4,2,2,70,0,0
134137,-133.333333333333,4,2,2,70,0,0
136012,-100,4,2,0,40,0,0
142105,-100,4,2,0,5,0,0

[Colours]
Combo1 : 105,220,208
Combo2 : 172,241,109
Combo3 : 197,99,243
Combo4 : 238,126,72

[HitObjects]
466,29,2512,5,4,0:0:0:0:
378,77,2887,2,0,L|330:72,4,35,0|0|0|0|2,0:0|0:0|0:0|0:0|0:0,0:0:0:0:
464,130,3637,1,2,0:0:0:0:
400,206,4012,6,0,L|256:187,1,140,2|0,0:0|0:0,0:0:0:0:
184,190,4574,2,0,P|173:220|175:245,1,35,0|0,0:0|0:0,0:0:0:0:
179,240,4762,2,0,P|191:276|173:381,1,140,2|0,0:0|0:0,0:0:0:0:
416,315,5512,5,4,0:0:0:0:
368,227,5887,2,0,P|372:211|369:169,4,35,0|0|0|0|2,0:0|0:0|0:0|0:0|0:0,0:0:0:0:
315,313,6637,1,2,0:0:0:0:
256,234,7012,6,0,P|269:174|251:93,1,140,2|0,0:0|0:0,0:0:0:0:
227,32,7574,2,0,P|256:21|284:25,1,35,0|0,0:0|0:0,0:0:0:0:
277,27,7762,2,0,P|316:41|416:31,1,140,2|2,0:0|0:0,0:0:0:0:
253,98,8512,5,4,0:0:0:0:
134,62,8887,2,0,P|122:52|103:43,3,35,0|0|0|0,0:0|0:0|0:0|0:0,0:0:0:0:
150,76,9262,2,0,P|167:119|156:196,1,105,8|0,0:0|0:0,0:0:0:0:
149,204,9637,2,0,P|194:193|268:216,1,105,0|0,0:0|0:0,0:0:0:0:
277,222,10012,6,0,L|271:291,1,70,0|0,0:0|0:0,0:0:0:0:
248,370,10387,2,0,P|265:373|282:373,3,35,0|0|0|0,0:0|0:0|0:0|0:0,0:0:0:0:
225,362,10762,2,0,P|174:350|123:363,1,105,8|0,0:0|0:0,0:0:0:0:
98,382,11137,2,0,P|102:331|84:282,1,105,0|0,0:0|0:0,0:0:0:0:
64,257,11512,6,0,P|53:223|55:188,1,70,4|0,0:0|0:0,0:0:0:0:
78,114,11887,2,0,P|61:111|44:111,3,35,0|0|0|0,0:0|0:0|0:0|0:0,0:0:0:0:
101,122,12262,2,0,P|152:134|203:121,1,105,8|0,0:0|0:0,0:0:0:0:
233,107,12637,2,0,P|300:93|367:112,2,140,0|0|0,0:0|0:0|0:0,0:0:0:0:
401,225,13762,6,0,B|367:211|367:211|264:220,1,140,8|0,0:0|0:0,0:0:0:0:
252,225,14230,1,0,0:0:0:0:
252,225,14324,1,0,0:0:0:0:
140,252,14512,6,0,L|153:92,1,140,6|0,0:0|0:0,0:0:0:0:
68,75,15074,2,0,P|59:108|64:143,1,70,8|0,0:0|0:0,0:0:0:0:
222,233,15637,2,0,B|262:249|262:249|366:241,1,140,2|0,0:0|0:0,0:0:0:0:
443,213,16199,2,0,P|447:247|439:281,1,70,8|0,0:0|0:0,0:0:0:0:
261,318,16762,6,0,L|355:355,2,70,2|0|0,0:0|0:0|0:0,0:0:0:0:
171,304,17324,1,0,0:0:0:0:
236,240,17512,6,0,B|260:208|260:208|253:108,1,140,2|0,0:0|0:0,0:0:0:0:
243,24,18074,1,0,0:0:0:0:
331,40,18262,2,0,L|337:124,1,70,8|0,0:0|0:0,0:0:0:0:
343,200,18637,1,0,0:0:0:0:
311,285,18825,1,0,0:0:0:0:
311,285,18918,1,0,0:0:0:0:
311,285,19012,5,2,0:0:0:0:
220,275,19199,2,0,L|150:268,1,70,0|0,0:0|0:0,0:0:0:0:
127,179,19574,2,0,L|197:186,1,70,8|0,0:0|0:0,0:0:0:0:
287,203,19949,1,0,0:0:0:0:
377,197,20137,2,0,L|447:190,1,70,8|0,0:0|0:0,0:0:0:0:
400,111,20512,6,0,P|351:97|263:110,1,140,6|0,0:0|0:0,0:0:0:0:
177,143,21074,2,0,P|171:107|184:69,1,70,8|0,0:0|0:0,0:0:0:0:
265,30,21449,1,0,0:0:0:0:
265,29,21637,2,0,P|334:20|403:31,1,140,2|0,0:0|0:0,0:0:0:0:
468,94,22199,1,8,0:0:0:0:
403,158,22387,6,0,P|369:166|334:162,1,70,0|0,0:0|0:0,0:0:0:0:
247,134,22762,2,0,L|260:285,1,140,4|0,0:0|0:0,0:0:0:0:
256,192,23512,12,0,26512,0:0:0:0:
205,52,28012,6,0,P|226:103|220:158,1,112,2|0,0:0|0:0,0:0:0:0:
122,117,28762,2,0,P|100:168|106:223,1,112,2|0,0:0|0:0,0:0:0:0:
203,279,29512,5,2,0:0:0:0:
108,338,29887,2,0,P|53:346|0:330,2,112,2|2|0,0:0|0:0|0:0,0:0:0:0:
203,279,31012,6,0,P|257:270|310:286,1,112,2|0,0:0|0:0,0:0:0:0:
403,349,31762,2,0,P|394:294|410:241,1,112,2|2,0:0|0:0,0:0:0:0:
463,155,32512,5,2,0:0:0:0:
355,189,32887,1,2,0:0:0:0:
246,165,33262,1,2,0:0:0:0:
133,169,33637,1,2,0:0:0:0:
33,118,34012,6,0,P|21:163|47:247,1,112,2|2,0:0|0:0,0:0:0:0:
139,263,34762,2,0,P|186:267|252:325,1,112,2|2,0:0|0:0,0:0:0:0:
155,367,35512,5,2,0:0:0:0:
64,301,35887,1,2,0:0:0:0:
151,230,36262,2,0,L|161:119,1,112,2|0,0:0|0:0,0:0:0:0:
254,173,37012,6,0,P|307:189|361:176,1,112,2|0,0:0|0:0,0:0:0:0:
455,112,37762,2,0,L|464:223,1,112,2|0,0:0|0:0,0:0:0:0:
360,176,38512,6,0,L|351:287,1,112,2|0,0:0|0:0,0:0:0:0:
298,352,39074,1,0,0:0:0:0:
298,352,39262,2,0,P|257:352|234:344,1,56,2|0,0:0|0:0,0:0:0:0:
189,282,39637,1,2,0:0:0:0:
189,282,39824,1,2,0:0:0:0:
279,249,40012,6,0,P|289:199|258:91,1,140,6|0,0:0|0:0,0:0:0:0:
151,42,40762,2,0,B|200:22|200:22|320:32,2,140,8|0|0,0:0|0:0|0:0,0:0:0:0:
121,151,41887,1,2,0:0:0:0:
232,123,42262,2,0,L|371:134,1,140,8|0,0:0|0:0,0:0:0:0:
452,47,43012,6,0,B|464:91|464:91|439:184,1,140,2|0,0:0|0:0,0:0:0:0:
359,270,43762,2,0,L|498:282,2,140,8|0|0,0:0|0:0|0:0,0:0:0:0:
243,244,44887,1,2,0:0:0:0:
179,334,45262,2,0,P|244:357|308:333,1,140,8|0,0:0|0:0,0:0:0:0:
243,244,46012,6,0,B|258:203|258:203|249:99,1,140,6|0,0:0|0:0,0:0:0:0:
156,46,46762,2,0,P|138:111|169:186,2,140,8|0|0,0:0|0:0|0:0,0:0:0:0:
249,107,47887,1,2,0:0:0:0:
342,46,48262,2,0,P|360:111|329:186,1,140,8|0,0:0|0:0,0:0:0:0:
436,242,49012,6,0,L|296:254,1,140,2|0,0:0|0:0,0:0:0:0:
198,320,49762,2,0,L|337:332,2,140,8|0|0,0:0|0:0|0:0,0:0:0:0:
79,305,50887,1,2,0:0:0:0:
147,207,51262,2,0,B|163:255|163:255|147:351,1,140,8|0,0:0|0:0,0:0:0:0:
256,288,52012,6,0,B|317:271|317:271|393:275|393:275|478:253,1,210,6|8,0:0|0:0,0:0:0:0:
461,257,53137,1,8,0:0:0:0:
288,192,53512,6,0,P|232:176|144:200,1,140,2|0,0:0|0:0,0:0:0:0:
96,264,54074,2,0,B|39:218|61:145|81:166|91:95|65:69,1,210,8|8,0:0|0:0,0:0:0:0:
241,69,55012,6,0,B|215:95|225:166|245:145|267:218|211:264,1,210,2|8,0:0|0:0,0:0:0:0:
57,361,55949,1,0,0:0:0:0:
148,356,56137,2,0,L|235:348,1,70,8|0,0:0|0:0,0:0:0:0:
303,318,56512,6,0,P|330:274|319:166,1,140,2|0,0:0|0:0,0:0:0:0:
296,104,57074,2,0,B|232:98|232:98|175:109|175:109|79:101,1,210,8|8,0:0|0:0,0:0:0:0:
56,280,58012,6,0,P|127:273|212:313,1,140,6|0,0:0|0:0,0:0:0:0:
253,364,58574,2,0,P|324:371|435:294,1,210,8|8,0:0|0:0,0:0:0:0:
288,192,59512,6,0,B|243:169|243:169|153:175,1,140,2|0,0:0|0:0,0:0:0:0:
128,92,60074,2,0,B|264:82|264:82|331:115,1,210,8|8,0:0|0:0,0:0:0:0:
277,296,61012,6,0,P|249:247|273:168,1,140,2|0,0:0|0:0,0:0:0:0:
340,229,61574,2,0,B|282:197|222:225|252:241|175:258|119:215,1,210,8|8,0:0|0:0,0:0:0:0:
287,320,62512,6,0,P|355:332|416:300,1,140,2|0,0:0|0:0,0:0:0:0:
461,224,63074,1,8,0:0:0:0:
25,96,64012,6,0,P|81:99|148:152,1,140,2|0,0:0|0:0,0:0:0:0:
118,223,64574,2,0,P|168:197|252:210,1,140,8|0,0:0|0:0,0:0:0:0:
263,286,65137,2,0,P|313:260|398:273,2,140,8|0|0,1:2|0:0|0:0,0:0:0:0:
199,330,66074,1,0,0:0:0:0:
157,265,66262,2,0,P|152:221|163:190,1,70,8|0,0:0|0:0,0:0:0:0:
193,127,66637,1,0,0:0:0:0:
324,206,67012,6,0,L|491:191,1,140,2|0,0:0|0:0,0:0:0:0:
446,107,67574,2,0,L|307:119,1,140,8|0,0:0|0:0,0:0:0:0:
223,126,68137,1,8,1:2:0:0:
256,192,68230,12,0,69637,0:0:0:0:
84,146,70012,6,0,L|90:215,1,70,2|0,0:0|0:0,0:0:0:0:
101,294,70387,1,2,0:0:0:0:
173,262,70574,1,2,0:0:0:0:
249,298,70762,1,2,0:0:0:0:
249,298,71137,2,0,P|283:293|318:299,1,70,2|0,0:0|0:0,0:0:0:0:
394,333,71512,5,2,0:0:0:0:
394,333,71887,1,2,0:0:0:0:
402,254,72074,1,2,0:0:0:0:
410,174,72262,2,0,L|402:77,1,70,2|2,0:0|0:0,0:0:0:0:
325,57,72637,2,0,L|317:153,1,70,2|2,0:0|0:0,0:0:0:0:
309,203,73012,5,2,0:0:0:0:
237,235,73199,1,0,0:0:0:0:
181,179,73387,1,2,0:0:0:0:
109,211,73574,1,2,0:0:0:0:
40,171,73762,1,2,0:0:0:0:
40,171,74137,2,0,L|33:101,1,70,2|0,0:0|0:0,0:0:0:0:
40,24,74512,5,2,0:0:0:0:
40,24,74887,1,2,0:0:0:0:
112,54,75074,1,2,0:0:0:0:
171,106,75262,2,0,P|211:114|251:106,1,70,2|2,0:0|0:0,0:0:0:0:
295,53,75637,2,0,P|329:49|363:56,1,70,2|2,0:0|0:0,0:0:0:0:
432,96,76012,5,2,0:0:0:0:
312,192,76387,1,2,0:0:0:0:
456,248,76762,1,2,0:0:0:0:
336,345,77137,1,2,0:0:0:0:
315,197,77512,5,2,0:0:0:0:
315,197,77887,2,0,L|227:189,1,70,2|0,0:0|0:0,0:0:0:0:
161,154,78262,2,0,P|155:202|174:247,1,70,2|0,0:0|0:0,0:0:0:0:
223,266,78637,2,0,P|229:314|210:359,1,70,2|0,0:0|0:0,0:0:0:0:
309,349,79012,5,2,0:0:0:0:
309,349,79199,2,0,B|344:357|344:357|390:350,1,70,2|2,0:0|0:0,0:0:0:0:
336,272,79574,1,8,0:0:0:0:
336,272,79762,2,0,B|301:264|301:264|255:271,1,70,2|2,0:0|0:0,0:0:0:0:
176,280,80137,1,8,0:0:0:0:
128,208,80324,1,2,0:0:0:0:
128,208,80418,1,0,0:0:0:0:
128,208,80512,6,0,P|104:130|126:70,2,140,8|2|0,0:0|0:0|0:0,0:0:0:0:
223,237,81449,1,2,0:0:0:0:
221,138,81637,2,0,P|223:103|238:72,1,70,8|0,0:0|0:0,0:0:0:0:
320,129,82012,6,0,L|500:146,1,167.999994873047,2|0,1:2|0:0,0:0:0:0:
428,226,82574,1,2,0:1:0:0:
428,226,82762,2,0,L|302:215,1,125.999996154785,8|2,1:2|0:1,0:0:0:0:
243,134,83230,2,0,L|239:92,1,41.9999987182618,2|2,0:1|0:1,0:0:0:0:
149,139,83512,6,0,P|158:184|149:227,1,83.9999974365235,2|0,0:0|0:0,0:0:0:0:
115,256,83793,2,0,P|164:263|206:309,1,83.9999974365235,2|0,0:1|0:0,0:0:0:0:
190,300,84074,1,2,0:1:0:0:
78,264,84262,2,0,P|31:263|-6:241,1,83.9999974365235,10|2,0:1|0:1,0:0:0:0:
60,161,84637,2,0,P|61:114|80:74,1,83.9999974365235,2|0,0:1|0:0,0:0:0:0:
156,140,85012,6,0,B|193:167|193:167|321:178,1,167.999994873047,2|0,0:0|0:0,0:0:0:0:
376,96,85574,1,2,0:1:0:0:
377,100,85762,2,0,L|249:88,1,125.999996154785,8|2,0:0|0:1,0:0:0:0:
165,55,86230,2,0,L|121:50,1,41.9999987182618,2|2,0:1|0:1,0:0:0:0:
154,137,86512,5,6,0:1:0:0:
186,223,86699,1,0,0:0:0:0:
114,277,86886,1,2,0:1:0:0:
102,382,87074,2,0,P|61:368|27:337,1,83.9999974365235,8|8,0:0|0:0,0:0:0:0:
31,224,87449,1,0,0:0:0:0:
31,224,87543,1,0,0:0:0:0:
31,224,87637,2,0,P|62:196|102:183,1,83.9999974365235,8|0,0:0|0:0,0:0:0:0:
202,175,88012,6,0,B|184:231|184:231|232:341,1,167.999994873047,2|0,0:0|0:0,0:0:0:0:
327,338,88574,1,2,0:1:0:0:
327,338,88762,2,0,B|350:335|350:335|410:345|410:345|452:341,1,125.999996154785,8|2,0:0|0:1,0:0:0:0:
474,242,89230,2,0,L|477:200,1,41.9999987182618,2|2,0:1|0:1,0:0:0:0:
392,256,89512,6,0,P|353:230|329:193,1,83.9999974365235,2|0,0:0|0:0,0:0:0:0:
333,149,89793,2,0,P|293:178|231:175,1,83.9999974365235,2|0,0:1|0:0,0:0:0:0:
246,167,90074,1,2,0:1:0:0:
353,117,90262,2,0,P|386:84|428:73,1,83.9999974365235,10|2,0:1|0:1,0:0:0:0:
439,177,90637,2,0,P|471:210|486:252,1,83.9999974365235,2|0,0:1|0:0,0:0:0:0:
381,265,91012,6,0,B|331:276|331:276|208:252,1,167.999994873047,2|0,0:0|0:0,0:0:0:0:
117,236,91574,1,2,0:1:0:0:
50,171,91762,2,0,P|25:228|41:288,2,125.999996154785,8|8|0,0:0|0:0|0:0,0:0:0:0:
134,97,92512,6,0,L|38:88,1,83.9999974365235,10|0,0:1|0:0,0:0:0:0:
142,17,92887,1,0,0:0:0:0:
142,17,93074,2,0,L|237:8,1,83.9999974365235,10|0,0:1|0:0,0:0:0:0:
246,105,93449,2,0,B|301:100|301:100|350:111|350:111|414:106,1,167.999994873047,10|0,0:1|0:0,0:0:0:0:
474,185,94012,6,0,P|430:205|381:201,1,83.9999974365235,2|0,0:0|0:0,0:0:0:0:
289,180,94387,6,0,L|295:243,3,48.9999985046387,2|0|2|0,0:0|0:0|0:0|0:0,0:0:0:0:
287,266,94762,2,0,P|338:279|414:368,2,146.999995513916,8|2|2,0:0|0:0|0:0,0:0:0:0:
182,273,95512,6,0,B|206:233|206:233|198:105,2,146.999995513916,2|2|2,0:0|0:0|0:0,0:0:0:0:
102,321,96262,2,0,P|90:273|103:227,1,97.9999970092774,10|2,0:1|0:1,0:0:0:0:
12,219,96637,2,0,P|29:173|68:143,1,97.9999970092774,2|0,0:1|0:0,0:0:0:0:
158,161,97012,6,0,B|158:114|158:114|119:62,1,97.9999970092774,2|0,0:0|0:0,0:0:0:0:
225,49,97387,2,0,P|240:74|248:99,3,48.9999985046387,2|0|2|0,0:0|0:0|0:0|0:0,0:0:0:0:
245,121,97762,2,0,P|240:181|263:236,1,97.9999970092774,8|0,0:0|0:0,0:0:0:0:
278,257,98043,2,0,L|110:242,1,146.999995513916,2|2,0:0|0:0,0:0:0:0:
78,321,98512,5,6,0:1:0:0:
174,333,98699,2,0,L|277:342,1,97.9999970092774,0|2,0:0|0:1,0:0:0:0:
368,356,99074,1,8,0:0:0:0:
368,356,99168,1,0,0:0:0:0:
368,356,99262,1,8,0:0:0:0:
352,259,99449,1,0,0:0:0:0:
311,163,99637,2,0,P|358:153|404:168,1,97.9999970092774,8|0,0:0|0:0,0:0:0:0:
494,220,100012,6,0,P|509:174|500:127,1,97.9999970092774,2|0,0:0|0:0,0:0:0:0:
486,43,100387,2,0,P|462:48|438:49,3,48.9999985046387,2|0|2|0,0:0|0:0|0:0|0:0,0:0:0:0:
409,39,100762,2,0,P|359:28|312:33,1,97.9999970092774,8|0,0:0|0:0,0:0:0:0:
285,40,101043,1,2,0:0:0:0:
285,40,101137,1,0,0:0:0:0:
187,33,101324,1,2,0:0:0:0:
169,134,101512,6,0,B|217:118|217:118|313:126,2,146.999995513916,2|2|2,0:0|0:0|0:0,0:0:0:0:
89,89,102262,2,0,P|79:145|95:192,1,97.9999970092774,8|0,0:0|0:0,0:0:0:0:
114,208,102543,1,8,0:0:0:0:
114,208,102637,1,0,0:0:0:0:
17,220,102824,1,8,0:0:0:0:
77,297,103012,6,0,P|157:322|278:287,1,195.999994018555,0|0,0:0|0:0,0:0:0:0:
354,291,103574,2,0,P|303:213|211:224,1,195.999994018555,8|2,0:0|0:0,0:0:0:0:
262,296,104137,2,0,P|357:205|446:303,1,293.999991027832,2|8,0:0|0:0,0:0:0:0:
446,302,105262,5,2,0:0:0:0:
158,273,106012,6,0,P|115:230|104:162,1,112,2|0,0:0|0:0,0:0:0:0:
218,172,106762,2,0,P|258:132|274:60,1,112,8|0,0:0|0:0,0:0:0:0:
158,71,107512,5,2,0:0:0:0:
142,193,107887,1,0,0:0:0:0:
239,268,108262,2,0,B|282:279|282:279|365:268,1,112,8|0,0:0|0:0,0:0:0:0:
463,225,109012,6,0,L|451:355,1,112,2|0,0:0|0:0,0:0:0:0:
349,270,109762,2,0,L|361:140,1,112,8|0,0:0|0:0,0:0:0:0:
422,52,110512,6,0,P|369:33|315:44,1,112,2|8,0:0|0:0,0:0:0:0:
271,119,111074,1,2,0:0:0:0:
271,119,111168,1,2,0:0:0:0:
271,119,111262,2,0,P|222:116|200:104,1,56,8|2,0:0|0:0,0:0:0:0:
137,101,111637,2,0,L|143:180,1,56,8|2,0:0|0:0,0:0:0:0:
154,243,112012,6,0,B|112:255|112:255|36:246,1,112,6|0,0:0|0:0,0:0:0:0:
140,340,112762,2,0,L|275:351,1,112,8|0,0:0|0:0,0:0:0:0:
251,349,113512,5,0,0:0:0:0:
165,245,113887,1,2,0:0:0:0:
278,204,114262,2,0,P|318:172|337:95,1,112,8|0,0:0|0:0,0:0:0:0:
225,98,115012,5,2,0:0:0:0:
193,221,115387,2,0,P|212:257|219:264,3,28,2|0|2|0,0:0|0:0|0:0|0:0,0:0:0:0:
227,275,115762,2,0,P|285:260|345:277,1,112,8|8,0:0|0:0,0:0:0:0:
420,327,116324,1,2,0:0:0:0:
420,327,116418,1,2,0:0:0:0:
420,327,116512,6,0,L|428:247,1,56,8|2,0:0|0:0,0:0:0:0:
435,186,116887,1,2,0:0:0:0:
435,186,117074,1,8,0:0:0:0:
349,163,117262,2,0,P|319:161|287:173,1,56,2|2,0:0|0:0,0:0:0:0:
227,233,117637,2,0,P|200:240|172:238,1,56,8|0,0:0|0:0,0:0:0:0:
92,287,118012,6,0,P|97:188|188:147,1,210,6|8,0:0|0:0,0:0:0:0:
188,147,119137,1,8,0:0:0:0:
304,270,119512,6,0,B|390:260|390:260|435:228,1,140,2|0,0:0|0:0,0:0:0:0:
482,298,120074,2,0,B|422:342|422:342|287:356,1,210,8|8,0:0|0:0,0:0:0:0:
110,327,121012,6,0,B|169:283|169:283|305:269,1,210,2|8,0:0|0:0,0:0:0:0:
148,198,121949,1,0,0:0:0:0:
194,127,122137,2,0,P|240:114|284:122,1,70,8|0,0:0|0:0,0:0:0:0:
348,136,122512,6,0,P|412:148|507:125,1,140,2|0,0:0|0:0,0:0:0:0:
507,47,123074,2,0,P|440:19|293:61,1,210,8|8,0:0|0:0,0:0:0:0:
253,221,124012,6,0,B|302:232|302:232|397:224,1,140,6|0,0:0|0:0,0:0:0:0:
383,134,124574,2,0,B|311:140|311:140|246:129|246:129|174:136,1,210,8|8,0:0|0:0,0:0:0:0:
12,219,125512,6,0,P|52:162|55:93,1,140,2|0,0:0|0:0,0:0:0:0:
3,18,126074,2,0,B|62:-17|122:11|92:27|169:44|225:1,1,210,8|8,0:0|0:0,0:0:0:0:
282,182,127012,6,0,L|130:195,1,140,2|0,0:0|0:0,0:0:0:0:
72,256,127574,2,0,B|121:275|121:275|277:262,1,210,8|8,0:0|0:0,0:0:0:0:
448,192,128512,6,0,P|385:230|361:311,1,140,2|0,0:0|0:0,0:0:0:0:
364,373,129074,1,8,0:0:0:0:
104,112,130012,6,0,L|256:153,1,140,2|0,0:0|0:0,0:0:0:0:
265,76,130574,2,0,L|362:175,1,140,8|0,0:0|0:0,0:0:0:0:
413,117,131137,2,0,L|520:225,2,140,8|0|0,1:2|0:0|0:0,0:0:0:0:
356,64,132074,1,0,0:0:0:0:
300,117,132262,2,0,P|252:116|214:101,1,70,8|0,0:0|0:0,0:0:0:0:
174,57,132637,1,0,0:0:0:0:
170,210,133012,6,0,P|229:191|311:215,1,140,2|0,0:0|0:0,0:0:0:0:
353,269,133574,2,0,P|334:210|358:128,1,140,8|0,0:0|0:0,0:0:0:0:
413,72,134137,1,8,1:2:0:0:
256,192,134230,12,0,135637,0:0:0:0:
104,128,136012,5,2,0:0:0:0:
158,192,136574,1,2,0:0:0:0:
167,276,137137,1,2,0:0:0:0:
408,128,138637,5,2,0:0:0:0:
408,128,139012,1,2,0:0:0:0:
354,192,139574,1,2,0:0:0:0:
345,276,140137,1,2,0:0:0:0:
256,192,140230,12,0,142105,0:0:0:0:
