osu file format v14

[General]
AudioFilename: audio.mp3
AudioLeadIn: 0
PreviewTime: 40012
Countdown: 0
SampleSet: Soft
StackLeniency: 0.4
Mode: 0
LetterboxInBreaks: 0
WidescreenStoryboard: 0

[Editor]
Bookmarks: 81637,105074
DistanceSpacing: 1.7
BeatDivisor: 4
GridSize: 8
TimelineZoom: 1.999999

[Metadata]
Title:Magnolia (feat. Guriri)
TitleUnicode:Magnolia (feat. 구리리)
Artist:M2U
ArtistUnicode:M2U
Creator:Su1fu7
Version:Collab Expert
Source:Deemo
Tags:wav.av. rayark sammish finshie pandahero diversity dubstep electronic
BeatmapID:1299913
BeatmapSetID:610967

[Difficulty]
HPDrainRate:6.2
CircleSize:5
OverallDifficulty:8.2
ApproachRate:9.2
SliderMultiplier:1.4
SliderTickRate:1

[Events]
//Background and Video events
0,0,"39400722_p0.jpg",0,0
//Break Periods
//Storyboard Layer 0 (Background)
//Storyboard Layer 1 (Fail)
//Storyboard Layer 2 (Pass)
//Storyboard Layer 3 (Foreground)
//Storyboard Sound Samples

[TimingPoints]
2512,375,4,2,0,70,1,0
2512,-133.333333333333,4,2,0,70,0,0
2793,-133.333333333333,4,2,0,5,0,0
2887,-133.333333333333,4,2,0,70,0,0
3543,-133.333333333333,4,2,0,5,0,0
3637,-117.647058823529,4,2,0,70,0,0
3918,-117.647058823529,4,2,0,5,0,0
4012,-105.263157894737,4,2,0,70,0,0
4480,-105.263157894737,4,2,0,5,0,0
4574,-105.263157894737,4,2,0,70,0,0
4762,-133.333333333333,4,2,0,70,0,0
5324,-133.333333333333,4,2,0,5,0,0
5512,-133.333333333333,4,2,0,70,0,0
5793,-133.333333333333,4,2,0,5,0,0
5887,-133.333333333333,4,2,0,70,0,0
6262,-117.647058823529,4,2,0,70,0,0
6543,-117.647058823529,4,2,0,5,0,0
6637,-105.263157894737,4,2,0,70,0,0
7012,-95.2380952380951,4,2,0,70,0,0
7480,-95.2380952380951,4,2,0,5,0,0
7574,-95.2380952380951,4,2,0,70,0,0
7949,-95.2380952380951,4,2,0,70,0,0
8512,-133.333333333333,4,2,2,50,0,0
8793,-133.333333333333,4,2,2,5,0,0
8887,-133.333333333333,4,2,2,50,0,0
9543,-133.333333333333,4,2,2,5,0,0
9637,-117.647058823529,4,2,2,50,0,0
9918,-117.647058823529,4,2,2,5,0,0
10012,-133.333333333333,4,2,2,50,0,0
10293,-133.333333333333,4,2,2,5,0,0
10387,-133.333333333333,4,2,2,50,0,0
10762,-105.263157894737,4,2,2,50,0,0
11043,-105.263157894737,4,2,2,5,0,0
11137,-95.2380952380951,4,2,2,50,0,0
11418,-95.2380952380951,4,2,2,5,0,0
11512,-86.9565217391304,4,2,2,50,0,0
11793,-86.9565217391304,4,2,2,5,0,0
11887,-86.9565217391304,4,2,2,50,0,0
12262,-95.2380952380952,4,2,2,50,0,0
12543,-95.2380952380952,4,2,2,5,0,0
12637,-86.9565217391304,4,2,2,50,0,0
12918,-86.9565217391304,4,2,2,5,0,0
13012,-80,4,2,2,50,0,0
13668,-80,4,2,2,5,0,0
13762,-66.6666666666667,4,2,2,50,0,0
14512,-80,4,2,2,70,0,0
16387,-100,4,2,2,70,0,0
18262,-80,4,2,2,70,0,0
21074,-66.6666666666667,4,2,2,70,0,0
21637,-80,4,2,2,70,0,0
22387,-86.9565217391304,4,2,2,70,0,0
22762,-133.333333333333,4,2,0,50,0,0
23512,-133.333333333333,4,2,0,35,0,0
24263,-133.333333333333,4,2,0,20,0,0
28012,-133.333333333333,4,2,0,40,0,0
40012,-100,4,2,2,55,0,0
52012,-80,4,2,2,70,0,0
65512,-100,4,2,2,70,0,0
66262,-86.9565217391304,4,2,2,70,0,0
67012,-80,4,2,2,70,0,0
70012,-100,4,2,0,55,0,0
72262,-133.333333333333,4,2,0,55,0,0
72355,-133.333333333333,4,2,0,30,0,0
72449,-133.333333333333,4,2,0,55,0,0
72543,-133.333333333333,4,2,0,30,0,0
72637,-133.333333333333,4,2,0,55,0,0
72730,-133.333333333333,4,2,0,30,0,0
72824,-133.333333333333,4,2,0,55,0,0
72918,-133.333333333333,4,2,0,30,0,0
73012,-86.9565217391304,4,2,0,55,0,0
75262,-117.647058823529,4,2,0,55,0,0
75355,-117.647058823529,4,2,0,30,0,0
75449,-117.647058823529,4,2,0,55,0,0
75543,-117.647058823529,4,2,0,30,0,0
75637,-117.647058823529,4,2,0,55,0,0
75730,-117.647058823529,4,2,0,30,0,0
75824,-117.647058823529,4,2,0,55,0,0
75918,-117.647058823529,4,2,0,30,0,0
76012,-79.9999999999998,4,2,2,70,0,0
78262,-105.263157894737,4,2,2,70,0,0
80512,-74.0740740740741,4,2,2,70,0,0
81637,-66.6666666666667,4,2,2,70,0,0
82012,-133.333333333333,4,2,2,70,0,1
82293,-50,4,2,2,70,0,1
82668,-40,4,2,2,70,0,1
83043,-50,4,2,2,70,0,1
83512,-40,4,2,2,70,0,1
83793,-50,4,2,2,70,0,1
84262,-50,4,2,2,70,0,1
85012,-133.333333333333,4,2,2,70,0,1
85293,-50,4,2,2,70,0,1
85762,-40,4,2,2,70,0,1
86043,-50,4,2,2,70,0,1
86512,-100,4,2,2,70,0,1
86699,-66.6666666666667,4,2,2,70,0,1
86887,-50,4,2,2,70,0,1
87074,-40,4,2,2,70,0,1
87637,-58.8235294117647,4,2,2,70,0,1
88012,-133.333333333333,4,2,2,70,0,1
88293,-50,4,2,2,70,0,1
88762,-40,4,2,2,70,0,1
89043,-50,4,2,2,70,0,1
89512,-40,4,2,2,70,0,1
89793,-50,4,2,2,70,0,1
90262,-50,4,2,2,70,0,1
91012,-133.333333333333,4,2,2,70,0,1
91293,-50,4,2,2,70,0,1
91762,-133.333333333333,4,2,2,70,0,1
92043,-62.5,4,2,2,70,0,1
92324,-66.6666666666667,4,2,2,70,0,1
92512,-200,4,2,2,70,0,1
93074,-100,4,2,2,70,0,1
93637,-33.333333333333,4,2,2,70,0,1
94012,-133.333333333333,4,2,2,70,0,1
94387,-50,4,2,2,70,0,1
95137,-66.6666666666667,4,2,2,70,0,1
95512,-58.8235294117647,4,2,2,70,0,1
95887,-100,4,2,2,70,0,1
96262,-40,4,2,2,70,0,1
96824,-100,4,2,2,70,0,1
97012,-133.333333333333,4,2,2,70,0,1
97387,-50,4,2,2,70,0,1
98137,-66.6666666666667,4,2,2,70,0,1
98512,-50,4,2,2,70,0,1
98887,-40,4,2,2,70,0,1
99449,-66.6666666666667,4,2,2,70,0,1
100012,-133.333333333333,4,2,2,70,0,1
100387,-50,4,2,2,70,0,1
101043,-66.6666666666667,4,2,2,70,0,1
101512,-50,4,2,2,70,0,1
101887,-100,4,2,2,70,0,1
102262,-66.6666666666667,4,2,2,70,0,1
102637,-50,4,2,2,70,0,1
103012,-200,4,2,2,70,0,1
103574,-100,4,2,2,70,0,1
104137,-50,4,2,2,70,0,1
104699,-200,4,2,2,70,0,1
104887,-200,4,2,2,70,0,0
105262,-100,4,2,2,70,0,0
106012,-117.647058823529,4,2,2,70,0,0
118012,-80,4,2,2,70,0,0
131512,-100,4,2,2,70,0,0
132637,-80,4,2,2,70,0,0
136012,-200,4,2,0,40,0,0

[Colours]
Combo1 : 105,220,208
Combo2 : 172,241,109
Combo3 : 197,99,243
Combo4 : 238,126,72

[HitObjects]
320,32,2512,6,0,L|312:110,1,78.7500030040742,4|0,0:0|0:0,0:0:0:0:
304,136,2887,1,0,0:0:0:0:
284,118,2980,1,0,0:0:0:0:
260,108,3074,1,0,0:0:0:0:
234,105,3168,1,0,0:0:0:0:
209,110,3262,2,0,P|170:119|133:109,1,78.7500030040742,2|0,0:0|0:0,0:0:0:0:
115,88,3637,2,0,P|132:147|112:195,1,89.2500017023087,2|0,0:0|0:0,0:0:0:0:
102,204,4012,6,0,P|184:176|264:208,1,166.249995560646,2|0,0:0|0:0,0:0:0:0:
280,272,4575,1,0,0:0:0:0:
278,287,4668,1,0,0:0:0:0:
288,312,4762,6,0,P|216:296|136:336,1,157.500006008148,2|0,0:0|0:0,0:0:0:0:
63,58,5512,6,0,L|70:136,1,78.7500030040742,4|0,0:0|0:0,0:0:0:0:
87,178,5887,1,0,0:0:0:0:
88,151,5980,1,0,0:0:0:0:
98,127,6074,1,0,0:0:0:0:
114,106,6168,1,0,0:0:0:0:
136,92,6262,2,0,P|172:67|190:27,1,89.2500017023087,2|0,0:0|0:0,0:0:0:0:
193,3,6637,2,0,L|184:102,1,99.7499973363877,2|0,0:0|0:0,0:0:0:0:
182,138,7012,6,0,P|264:104|352:136,1,183.749994392395,2|0,0:0|0:0,0:0:0:0:
368,168,7574,1,0,0:0:0:0:
368,149,7667,1,0,0:0:0:0:
368,131,7761,1,2,0:0:0:0:
267,238,7949,2,0,B|299:230|299:230|340:235,2,73.4999977569581,2|2|2,0:0|0:0|0:0,0:0:0:0:
448,112,8512,6,0,L|455:33,1,78.7500030040742,4|0,0:0|0:0,0:0:0:0:
433,15,8887,1,0,0:0:0:0:
432,34,8980,1,0,0:0:0:0:
429,54,9074,1,0,0:0:0:0:
428,73,9168,1,0,0:0:0:0:
405,111,9262,2,0,P|443:117|474:142,1,78.7500030040742,8|0,0:0|0:0,0:0:0:0:
502,114,9637,2,0,P|486:159|449:194,1,89.2500017023087,0|0,0:0|0:0,0:0:0:0:
410,200,10012,6,0,L|505:207,1,78.7500030040742,0|0,0:0|0:0,0:0:0:0:
511,233,10387,1,0,0:0:0:0:
484,231,10480,1,0,0:0:0:0:
458,228,10574,1,0,0:0:0:0:
432,227,10668,1,0,0:0:0:0:
390,232,10762,2,0,P|339:220|286:244,1,99.7499973363877,8|0,0:0|0:0,0:0:0:0:
276,251,11137,2,0,P|221:255|171:233,1,110.249996635437,0|0,0:0|0:0,0:0:0:0:
146,188,11512,6,0,L|146:308,1,120.750002303124,4|0,0:0|0:0,0:0:0:0:
170,366,11887,1,0,0:0:0:0:
170,329,11980,1,0,0:0:0:0:
170,294,12074,1,0,0:0:0:0:
170,259,12168,1,0,0:0:0:0:
202,228,12262,2,0,P|235:185|234:131,1,110.249996635437,8|0,0:0|0:0,0:0:0:0:
192,128,12637,2,0,P|252:127|308:75,1,120.750002303124,0|0,0:0|0:0,0:0:0:0:
322,30,13012,6,0,B|314:126|314:126|320:239|320:239|312:336,1,306.25,0|0,0:0|0:0,0:0:0:0:
288,368,13762,6,0,B|297:264|297:264|333:211,1,157.500006008148,8|0,0:0|0:0,0:0:0:0:
368,152,14137,1,0,0:0:0:0:
352,152,14230,1,0,0:0:0:0:
336,152,14324,2,0,L|280:147,1,52.5000020027161
196,141,14512,5,6,0:0:0:0:
326,220,14699,1,0,0:0:0:0:
175,220,14887,1,0,0:0:0:0:
416,155,15074,2,0,B|397:220|397:220|406:327,1,175,8|0,0:0|0:0,0:0:0:0:
256,16,15637,6,0,B|184:22|184:22|121:43|121:43|41:50,1,218.75,2|0,0:0|0:0,0:0:0:0:
41,49,16199,1,8,0:0:0:0:
160,112,16387,2,0,L|91:119,1,70
256,24,16762,5,2,0:0:0:0:
276,101,16949,1,0,0:0:0:0:
236,170,17137,1,0,0:0:0:0:
352,78,17324,1,0,0:0:0:0:
368,78,17418,1,0,0:0:0:0:
384,78,17512,6,0,L|453:83,2,70,2|0|0,0:0|0:0|0:0,0:0:0:0:
277,230,18074,1,0,0:0:0:0:
277,230,18168,1,0,0:0:0:0:
277,230,18262,1,8,0:0:0:0:
173,221,18449,1,0,0:0:0:0:
88,280,18637,1,0,0:0:0:0:
76,143,18825,1,0,0:0:0:0:
74,127,18918,1,0,0:0:0:0:
73,111,19012,5,2,0:0:0:0:
82,212,19199,1,0,0:0:0:0:
67,43,19387,1,0,0:0:0:0:
256,232,19574,2,0,P|320:232|408:112,1,218.75,8|0,0:0|0:0,0:0:0:0:
413,58,20137,2,0,L|399:209,1,131.25,8|0,0:0|0:0,0:0:0:0:
397,218,20512,5,6,0:0:0:0:
501,146,20699,1,0,0:0:0:0:
413,58,20887,1,0,0:0:0:0:
397,258,21074,6,0,L|406:369,1,105.000004005432,8|0,0:0|0:0,0:0:0:0:
400,188,21449,1,0,0:0:0:0:
216,240,21637,6,0,B|96:200|96:200|4:215,1,218.75,2|0,0:0|0:0,0:0:0:0:
4,215,22199,1,8,0:0:0:0:
124,337,22387,2,0,L|48:311,1,80.5000015354157
320,334,22762,6,0,P|243:328|185:378,1,157.500006008148,4|0,0:0|0:0,0:0:0:0:
186,210,23512,5,2,0:0:0:0:
186,378,23762,1,0,0:0:0:0:
332,294,24012,1,2,0:0:0:0:
186,210,24262,1,2,0:0:0:0:
274,261,24512,1,2,0:0:0:0:
325,173,24762,1,2,0:0:0:0:
256,192,25012,1,2,0:0:0:0:
126,46,28012,6,0,P|76:30|25:38,1,105.000004005432,2|0,0:0|0:0,0:0:0:0:
184,96,28762,2,0,P|234:112|285:104,1,105.000004005432,2|0,0:0|0:0,0:0:0:0:
392,56,29512,6,0,L|387:108,1,52.5000020027161,2|0,0:0|0:0,0:0:0:0:
424,192,29887,2,0,P|398:186|372:190,1,52.5000020027161,2|0,0:0|0:0,0:0:0:0:
292,205,30262,2,0,P|279:167|289:91,1,105.000004005432,2|0,0:0|0:0,0:0:0:0:
256,336,31012,6,0,P|183:353|80:328,1,157.500006008148,2|0,0:0|0:0,0:0:0:0:
18,362,31762,2,0,P|13:336|17:310,1,52.5000020027161,2|0,0:0|0:0,0:0:0:0:
89,258,32137,2,0,P|89:222|75:186,1,52.5000020027161,2|0,0:0|0:0,0:0:0:0:
16,66,32512,6,0,P|26:89|30:115,1,52.5000020027161,2|0,0:0|0:0,0:0:0:0:
1,200,32887,1,2,0:0:0:0:
84,206,33074,1,0,0:0:0:0:
183,203,33262,2,0,P|166:222|157:247,1,52.5000020027161,2|0,0:0|0:0,0:0:0:0:
242,267,33637,2,0,P|237:298|242:322,1,52.5000020027161,2|0,0:0|0:0,0:0:0:0:
376,240,34012,6,0,P|382:214|381:188,1,52.5000020027161,2|0,0:0|0:0,0:0:0:0:
340,101,34387,2,0,P|366:107|392:104,1,52.5000020027161,2|0,0:0|0:0,0:0:0:0:
480,120,34762,2,0,P|480:95|470:60,1,52.5000020027161,2|0,0:0|0:0,0:0:0:0:
392,16,35137,2,0,P|366:10|340:13,1,52.5000020027161,2|0,0:0|0:0,0:0:0:0:
229,115,35512,6,0,P|252:129|267:150,1,52.5000020027161,2|0,0:0|0:0,0:0:0:0:
340,101,35887,2,0,P|352:124|355:150,1,52.5000020027161,2|0,0:0|0:0,0:0:0:0:
388,233,36262,2,0,P|419:209|442:132,1,105.000004005432,2|0,0:0|0:0,0:0:0:0:
302,350,37012,6,0,P|225:364|149:344,1,157.500006008148,2|0,0:0|0:0,0:0:0:0:
64,246,37762,2,0,P|54:299|72:366,1,105.000004005432,2|0,0:0|0:0,0:0:0:0:
212,218,38512,6,0,P|240:171|247:102,1,105.000004005432,2|0,0:0|0:0,0:0:0:0:
244,43,39074,1,0,0:0:0:0:
324,146,39262,1,2,0:0:0:0:
324,18,39449,1,0,0:0:0:0:
285,208,39637,2,0,L|291:233,2,26.2500010013581,2|0|2,0:0|0:0|0:0,0:0:0:0:
465,307,40012,6,0,B|396:300|396:300|323:310|323:310|256:304,1,210,6|0,0:0|0:0,0:0:0:0:
116,355,40762,2,0,L|256:368,1,140,8|0,0:0|0:0,0:0:0:0:
323,375,41512,1,0,0:0:0:0:
256,240,41887,1,2,0:0:0:0:
432,280,42262,2,0,B|416:240|416:240|439:145,1,140,8|0,0:0|0:0,0:0:0:0:
256,272,43012,6,0,L|46:253,1,210,2|0,0:0|0:0,0:0:0:0:
119,139,43762,2,0,P|113:70|95:49,1,70,8|0,0:0|0:0,0:0:0:0:
41,115,44137,2,0,P|32:184|55:271,1,140
137,343,44887,1,2,0:0:0:0:
235,261,45262,2,0,P|297:233|366:238,1,140,8|0,0:0|0:0,0:0:0:0:
71,161,46012,6,0,L|237:148,1,140,6|0,0:0|0:0,0:0:0:0:
386,319,46762,2,0,P|336:288|248:288,1,140,8|0,0:0|0:0,0:0:0:0:
192,312,47512,1,0,0:0:0:0:
336,192,47887,1,2,0:0:0:0:
385,369,48262,2,0,P|388:305|432:232,1,140,8|0,0:0|0:0,0:0:0:0:
248,80,49012,6,0,P|315:158|331:260,1,210,2|0,0:0|0:0,0:0:0:0:
64,224,49762,2,0,P|127:195|195:203,1,140,8|0,0:0|0:0,0:0:0:0:
257,225,50512,1,0,0:0:0:0:
64,224,50887,1,2,0:0:0:0:
256,136,51262,2,0,L|116:123,1,140,8|0,0:0|0:0,0:0:0:0:
264,320,52012,6,0,B|325:290|325:290|469:278,1,175,6|0,0:0|0:0,0:0:0:0:
366,165,52574,1,8,0:0:0:0:
251,175,52761,1,0,0:0:0:0:
136,186,52949,1,0,0:0:0:0:
256,368,53137,2,0,L|248:280,1,87.5,8|0,0:0|0:0,0:0:0:0:
56,184,53512,6,0,P|91:262|164:307,1,175,2|0,0:0|0:0,0:0:0:0:
256,79,54074,2,0,P|176:111|136:187,1,175,8|0,0:0|0:0,0:0:0:0:
40,32,54637,2,0,P|71:52|101:106,1,87.5,8|0,0:0|0:0,0:0:0:0:
272,248,55012,6,0,L|97:263,1,175,2|0,0:0|0:0,0:0:0:0:
256,352,55574,2,0,L|169:361,1,87.5,8|0,0:0|0:0,0:0:0:0:
384,344,55949,1,0,0:0:0:0:
272,248,56137,2,0,P|240:184|256:136,1,87.5,8|0,0:0|0:0,0:0:0:0:
458,81,56512,6,0,P|409:152|328:179,1,175,2|0,0:0|0:0,0:0:0:0:
380,22,57074,2,0,P|451:71|478:152,1,175,8|0,0:0|0:0,0:0:0:0:
432,313,57637,2,0,P|467:262|466:219,1,87.5,8|0,0:0|0:0,0:0:0:0:
217,196,58012,6,0,B|336:206|336:206|381:238,1,175,6|0,0:0|0:0,0:0:0:0:
208,304,58574,2,0,B|88:293|88:293|39:317,1,175,8|0,0:0|0:0,0:0:0:0:
80,184,59137,2,0,L|1:223,1,87.5,8|0,0:0|0:0,0:0:0:0:
255,192,59512,6,0,P|319:129|318:43,1,175,2|0,0:0|0:0,0:0:0:0:
223,90,60074,2,0,L|406:106,1,175,8|0,0:0|0:0,0:0:0:0:
167,184,60637,2,0,L|255:192,1,87.5,8|0,0:0|0:0,0:0:0:0:
384,360,61012,6,0,P|327:295|322:209,1,175,2|0,0:0|0:0,0:0:0:0:
512,128,61574,2,0,P|424:176|400:264,1,175,8|0,0:0|0:0,0:0:0:0:
304,32,62137,2,0,P|352:72|368:120,1,87.5,8|0,0:0|0:0,0:0:0:0:
147,200,62512,6,0,L|321:184,1,175,2|0,0:0|0:0,0:0:0:0:
512,280,63074,2,0,B|381:276|381:276|250:288,1,262.5,8|0,0:0|0:0,0:0:0:0:
85,50,64012,6,0,P|81:107|155:203,1,175,2|0,0:0|0:0,0:0:0:0:
312,144,64574,2,0,B|256:148|256:148|228:163,2,87.5,8|0|0,0:0|0:0|0:0,0:0:0:0:
368,332,65137,2,0,P|400:284|392:179,1,131.25,8|0,1:2|0:0,0:0:0:0:
394,192,65512,6,0,P|391:156|413:116,2,70
430,280,66074,1,0,0:0:0:0:
335,267,66262,1,8,0:0:0:0:
256,320,66449,1,0,0:0:0:0:
172,187,66637,2,0,L|180:268,1,80.5000015354157
112,2,67012,6,0,B|120:92|120:92|84:168,1,175,2|0,0:0|0:0,0:0:0:0:
198,331,67574,2,0,B|122:295|122:295|32:304,1,175,8|0,0:0|0:0,0:0:0:0:
256,120,68137,1,8,1:2:0:0:
256,192,68230,12,0,69074,0:0:0:0:
256,174,69262,6,0,P|243:199|252:302,1,131.25
167,333,69637,1,0,0:0:0:0:
167,333,69730,1,0,0:0:0:0:
167,333,69824,2,0,B|188:343|188:343|207:365,1,43.75
311,350,70012,6,0,P|327:318|330:284,1,70,2|0,0:0|0:0,0:0:0:0:
304,200,70387,1,2,0:0:0:0:
304,112,70574,1,2,0:0:0:0:
400,176,70762,2,0,L|330:182,1,70,2|0,0:0|0:0,0:0:0:0:
207,90,71137,2,0,P|223:122|226:156,1,70,2|0,0:0|0:0,0:0:0:0:
323,46,71512,6,0,P|307:78|304:112,1,70,2|0,0:0|0:0,0:0:0:0:
207,90,71887,1,2,0:0:0:0:
207,2,72074,1,2,0:0:0:0:
303,111,72262,6,0,L|289:133,1,26.2500010013581,2|0,0:0|0:0,0:0:0:0:
259,187,72449,2,0,L|245:209,1,26.2500010013581,2|0,0:0|0:0,0:0:0:0:
215,263,72637,2,0,L|201:285,1,26.2500010013581,2|0,0:0|0:0,0:0:0:0:
171,339,72824,2,0,L|157:361,1,26.2500010013581,2|0,0:0|0:0,0:0:0:0:
216,264,73012,6,0,P|176:271|137:264,1,80.5000015354157,2|0,0:0|0:0,0:0:0:0:
59,199,73387,1,2,0:0:0:0:
59,303,73574,1,2,0:0:0:0:
0,176,73762,2,0,L|95:167,1,80.5000015354157,2|0,0:0|0:0,0:0:0:0:
256,120,74137,2,0,L|165:152,1,80.5000015354157,2|0,0:0|0:0,0:0:0:0:
368,120,74512,6,0,L|419:58,1,80.5000015354157,2|0,0:0|0:0,0:0:0:0:
320,176,74887,1,2,0:0:0:0:
404,244,75074,1,2,0:0:0:0:
273,279,75262,6,0,L|302:280,1,29.7500005674362,2|0,0:0|0:0,0:0:0:0:
184,293,75449,2,0,L|212:302,1,29.7500005674362,2|0,0:0|0:0,0:0:0:0:
94,283,75637,2,0,L|120:301,1,29.7500005674362,2|0,0:0|0:0,0:0:0:0:
9,250,75824,2,0,L|29:274,1,29.7500005674362,2|0,0:0|0:0,0:0:0:0:
96,168,76012,6,0,P|120:136|120:72,1,87.5,2|0,0:0|0:0,0:0:0:0:
21,95,76387,1,2,0:0:0:0:
96,192,76574,1,0,0:0:0:0:
224,152,76762,2,0,L|319:143,1,87.5,2|0,0:0|0:0,0:0:0:0:
187,261,77137,2,0,L|91:252,1,87.5,2|0,0:0|0:0,0:0:0:0:
224,370,77512,6,0,L|319:361,1,87.5,2|0,0:0|0:0,0:0:0:0:
392,184,77887,2,0,P|344:200|304:272,1,131.25,2|0,0:0|0:0,0:0:0:0:
303,286,78262,6,0,L|272:296,1,33.2499991121292,2|0,0:0|0:0,0:0:0:0:
393,275,78449,2,0,L|369:316,1,33.2499991121292,0|0,0:0|0:0,0:0:0:0:
456,231,78637,2,0,L|480:272,1,33.2499991121292,2|0,0:0|0:0,0:0:0:0:
392,184,78824,2,0,L|368:225,1,33.2499991121292,0|0,0:0|0:0,0:0:0:0:
456,136,79012,5,2,0:0:0:0:
472,347,79199,1,2,0:0:0:0:
258,367,79387,5,2,0:0:0:0:
456,231,79574,1,8,0:0:0:0:
248,139,79762,5,2,0:0:0:0:
394,328,79949,1,2,0:0:0:0:
480,80,80137,1,8,0:0:0:0:
464,80,80230,1,0,0:0:0:0:
448,80,80324,1,2,0:0:0:0:
432,80,80418,1,0,0:0:0:0:
389,88,80512,6,0,L|430:111,1,47.2500001802444,8|0,0:0|0:0,0:0:0:0:
447,216,80699,1,0,0:0:0:0:
456,231,80792,1,0,0:0:0:0:
432,247,80887,2,0,L|384:247,1,47.2500001802444,2|0,0:0|0:0,0:0:0:0:
256,256,81074,2,0,B|274:255|274:255|304:264,1,47.2500001802444,8|0,0:0|0:0,0:0:0:0:
361,320,81262,1,0,0:0:0:0:
269,99,81449,2,0,P|255:119|248:141,1,47.2500001802444,2|0,0:0|0:0,0:0:0:0:
174,285,81637,6,0,B|158:232|191:195|191:195|158:160|173:108,1,157.500006008148,8|0,0:0|0:0,0:0:0:0:
126,75,82012,6,0,P|170:60|192:59,1,52.5000020027161,2|0,1:2|0:0,0:0:0:0:
378,127,82293,6,0,B|308:161|308:161|242:139,1,140,2|0,2:1|0:0,0:0:0:0:
247,0,82574,2,0,B|300:45,1,70,2|0,0:1|0:0,0:0:0:0:
404,146,82762,6,0,B|308:192|308:192|217:162,1,175,8|0,1:2|0:0,0:0:0:0:
384,73,83043,2,0,P|456:88|468:105,1,70,2|0,0:1|0:0,0:0:0:0:
463,194,83230,1,2,0:1:0:0:
448,261,83324,2,0,P|394:211|392:190,1,70,2|0,0:1|0:0,0:0:0:0:
497,138,83512,6,0,B|496:214|496:214|514:241|514:241|512:317,1,175,2|0,0:0|0:0,0:0:0:0:
427,379,83793,6,0,B|355:387|355:387|296:344,1,140,2|0,0:1|0:0,0:0:0:0:
194,266,84074,1,2,0:1:0:0:
209,187,84262,6,0,P|264:226|265:256,1,70,10|0,0:1|0:0,0:0:0:0:
118,290,84449,2,0,P|124:222|149:207,1,70,2|0,0:1|0:0,0:0:0:0:
254,317,84636,2,0,P|192:345|166:330,1,70,2|0,0:1|0:0,0:0:0:0:
76,179,84824,2,0,B|65:164|65:164|154:156,1,70
280,250,85012,6,0,L|205:257,1,52.5000020027161,2|0,0:0|0:0,0:0:0:0:
122,223,85293,6,0,B|169:220|169:220|196:194|196:194|276:185,1,140,2|0,0:1|0:0,0:0:0:0:
423,168,85574,2,0,L|352:176,1,70,2|0,0:1|0:0,0:0:0:0:
122,223,85762,6,0,B|171:233|171:233|208:174|208:174|279:189,1,175,8|0,0:0|0:0,0:0:0:0:
280,338,86043,6,0,L|249:268,1,70,2|0,0:1|0:0,0:0:0:0:
384,224,86230,1,2,0:1:0:0:
389,302,86324,2,0,L|358:232,1,70,2|0,0:1|0:0,0:0:0:0:
262,185,86512,6,0,L|306:172,1,35,6|0,0:1|0:0,0:0:0:0:
352,76,86699,6,0,L|370:139,1,52.5000020027161,0|0,0:0|0:0,0:0:0:0:
466,183,86887,6,0,L|394:204,1,70,2|0,0:1|0:0,0:0:0:0:
255,202,87074,6,0,L|328:180,2,43.75,8|0|0,0:0|0:0|0:0,0:0:0:0:
212,313,87262,6,0,P|161:331|96:306,1,87.5,8|0,0:0|0:0,0:0:0:0:
30,133,87449,5,0,0:0:0:0:
84,180,87543,1,0,0:0:0:0:
142,230,87637,2,0,L|142:195,6,29.7500005674362,8|0|0|0|0|0|0,0:0|0:0|0:0|0:0|0:0|0:0|0:0,0:0:0:0:
239,119,88012,6,0,P|239:145|211:182,1,52.5000020027161,2|0,0:0|0:0,0:0:0:0:
104,125,88293,6,0,B|143:64|143:64|174:125,1,140,2|0,0:1|0:0,0:0:0:0:
250,236,88574,2,0,P|179:223|169:213,1,70,2|0,0:1|0:0,0:0:0:0:
174,125,88762,6,0,B|239:118|239:118|278:135|278:135|368:126,1,175,8|0,0:0|0:0,0:0:0:0:
403,32,89043,6,0,P|368:17|328:25,1,70,2|0,0:1|0:0,0:0:0:0:
344,128,89230,1,2,0:1:0:0:
398,186,89324,2,0,P|419:154|419:113,1,70,2|0,0:1|0:0,0:0:0:0:
272,87,89512,6,0,B|248:141|268:186|273:163|296:204|268:260,1,175,2|0,0:0|0:0,0:0:0:0:
103,246,89793,6,0,B|136:247|163:276|163:276|161:239|193:214,1,140,2|0,0:1|0:0,0:0:0:0:
344,128,90074,1,2,0:1:0:0:
251,79,90262,6,0,P|236:123|242:168,1,70,10|0,0:1|0:0,0:0:0:0:
291,279,90449,2,0,P|306:235|300:190,1,70,2|0,0:1|0:0,0:0:0:0:
131,216,90637,2,0,P|175:231|220:225,1,70,2|0,0:1|0:0,0:0:0:0:
389,142,90824,2,0,B|397:128|397:128|324:128,1,70
149,198,91012,6,0,P|180:208|212:204,1,52.5000020027161,2|0,0:0|0:0,0:0:0:0:
251,79,91293,6,0,B|283:64|283:64|272:227,1,140,2|0,0:1|0:0,0:0:0:0:
264,284,91574,1,2,0:1:0:0:
149,198,91762,6,0,P|175:198|200:208,1,52.5000020027161,8|2,0:0|0:0,0:0:0:0:
215,89,92043,6,0,B|219:113|256:130|256:130|250:169|269:186,1,112,8|0,0:0|0:0,0:0:0:0:
330,164,92324,6,0,P|334:201|325:225,1,52.5000020027161
240,296,92512,6,0,L|304:312,1,52.5,10|0,0:1|0:0,0:0:0:0:
314,315,92887,1,0,0:0:0:0:
433,297,93074,6,0,P|439:281|438:264,1,35,10|0,0:1|0:0,0:0:0:0:
325,225,93449,2,0,P|323:242|326:259,1,35,10|0,0:1|0:0,0:0:0:0:
324,258,93637,6,0,P|366:171|381:308,1,315.000012016297,2|0,0:1|0:0,0:0:0:0:
273,305,94012,6,0,P|256:262|260:234,1,52.5000020027161,2|0,0:0|0:0,0:0:0:0:
392,237,94293,5,0,0:0:0:0:
392,237,94387,2,0,B|395:267|395:267|369:316,1,70,2|0,0:0|0:0,0:0:0:0:
177,269,94574,2,0,B|174:239|174:239|200:190,1,70,2|0,0:0|0:0,0:0:0:0:
343,125,94762,2,0,B|304:186|304:186|290:97,1,140,8|0,0:0|0:0,0:0:0:0:
328,44,95043,1,2,0:0:0:0:
405,147,95137,6,0,L|377:192,1,52.5000020027161,0|0,0:0|0:0,0:0:0:0:
235,171,95324,2,0,L|244:224,1,52.5000020027161,2|0,0:0|0:0,0:0:0:0:
353,308,95512,6,0,B|320:291|320:291|289:310|289:310|228:310|228:310,1,119.000002269745,2|0,0:0|0:0,0:0:0:0:
131,306,95793,1,2,0:0:0:0:
131,306,95887,6,0,L|84:304,1,35,0|0,0:0|0:0,0:0:0:0:
33,197,96074,2,0,L|80:195,1,35,2|0,0:0|0:0,0:0:0:0:
188,112,96262,6,0,L|163:226,1,87.5,10|0,0:1|0:0,0:0:0:0:
291,140,96449,2,0,L|237:243,1,87.5,2|0,0:1|0:0,0:0:0:0:
383,193,96637,2,0,L|304:279,1,87.5,2|0,0:1|0:0,0:0:0:0:
424,315,96824,6,0,L|369:313,1,35,0|0,0:0|0:0,0:0:0:0:
265,358,97012,6,0,P|297:338|334:337,1,52.5000020027161,2|0,0:0|0:0,0:0:0:0:
208,297,97293,1,0,0:0:0:0:
208,297,97387,6,0,P|183:350|186:382,1,70,2|0,0:0|0:0,0:0:0:0:
73,223,97574,2,0,P|98:276|95:308,1,70,2|0,0:0|0:0,0:0:0:0:
173,89,97762,2,0,B|140:140|189:169|161:230,1,140,8|0,0:0|0:0,0:0:0:0:
241,130,98043,1,2,0:0:0:0:
241,130,98137,6,0,P|254:87|248:60,1,52.5000020027161
95,185,98324,2,0,P|82:228|88:255,1,52.5000020027161,2|0,0:0|0:0,0:0:0:0:
148,63,98512,6,0,P|98:48|66:55,1,70,6|0,0:1|0:0,0:0:0:0:
176,253,98699,2,0,P|225:269|257:262,1,70
280,149,98887,6,0,P|298:88|289:54,1,87.5,2|0,0:1|0:0,0:0:0:0:
35,160,99074,6,0,B|15:205|15:205|25:254,1,87.5,8|0,0:0|0:0,0:0:0:0:
210,341,99262,2,0,B|258:335|258:335|296:302,1,87.5,8|0,0:0|0:0,0:0:0:0:
140,148,99450,5,0,0:0:0:0:
116,220,99544,1,0,0:0:0:0:
92,292,99637,2,0,L|129:267,6,26.2500010013581,8|0|0|0|0|0|0,0:0|0:0|0:0|0:0|0:0|0:0|0:0,0:0:0:0:
37,353,100012,6,0,L|93:358,1,52.5000020027161,2|0,0:0|0:0,0:0:0:0:
210,291,100293,5,0,0:0:0:0:
224,275,100387,2,0,L|153:281,1,70,2|0,0:0|0:0,0:0:0:0:
37,353,100574,2,0,L|107:359,1,70,2|0,0:0|0:0,0:0:0:0:
254,365,100762,2,0,B|256:313|256:313|241:275|241:275|249:193,1,140,8|0,0:0|0:0,0:0:0:0:
310,155,101043,6,0,P|270:196|211:193,1,105.000004005432,2|0,0:0|0:0,0:0:0:0:
187,130,101324,2,0,P|241:124|261:143,1,52.5000020027161,2|0,0:0|0:0,0:0:0:0:
149,212,101512,6,0,B|96:207|96:207|47:224|47:224|80:191,1,140,2|0,0:0|0:0,0:0:0:0:
103,67,101793,1,2,0:0:0:0:
103,67,101887,6,0,L|88:133,1,35,2|0,0:0|0:0,0:0:0:0:
231,176,102074,2,0,L|231:141,1,35,2|0,0:0|0:0,0:0:0:0:
354,90,102262,6,0,L|344:45,4,26.2500010013581,8|0|0|0|0,0:0|0:0|0:0|0:0|0:0,0:0:0:0:
421,149,102543,1,8,0:0:0:0:
483,178,102637,2,0,L|396:179,1,70,0|0,0:0|0:0,0:0:0:0:
287,249,102824,2,0,L|218:249,1,70,8|0,0:0|0:0,0:0:0:0:
246,115,103012,6,0,P|257:140|250:177,1,52.5,0|0,0:0|0:0,0:0:0:0:
249,182,103387,1,0,0:0:0:0:
86,323,103574,6,0,P|59:256|79:224,1,105,8|0,0:0|0:0,0:0:0:0:
83,220,103949,1,2,0:0:0:0:
391,271,104137,6,0,B|309:225|242:263|270:281|191:309|118:270,1,280,2|0,0:0|0:0,0:0:0:0:
179,131,104699,6,0,L|182:165,1,35,8|0,0:0|0:0,0:0:0:0:
256,208,105262,6,0,L|249:240,14,17.5,2|0|0|0|0|0|0|0|0|0|0|0|0|0|0,0:0|0:0|0:0|0:0|0:0|0:0|0:0|0:0|0:0|0:0|0:0|0:0|0:0|0:0|0:0,0:0:0:0:
256,245,106012,6,0,B|280:240|280:240|314:243,1,59.5000011348725,2|0,0:0|0:0,0:0:0:0:
396,204,106387,2,0,P|405:241|397:273,1,59.5000011348725
363,122,106762,2,0,P|399:114|427:120,1,59.5000011348725,8|0,0:0|0:0,0:0:0:0:
288,156,107137,2,0,P|251:148|223:154,1,59.5000011348725
127,60,107512,6,0,B|122:84|122:84|125:118,1,59.5000011348725,2|0,0:0|0:0,0:0:0:0:
47,107,107887,2,0,P|47:137|58:165,1,59.5000011348725
40,302,108262,2,0,P|40:272|51:244,1,59.5000011348725,8|0,0:0|0:0,0:0:0:0:
160,336,108637,2,0,L|100:330,1,59.5000011348725
256,368,109012,6,0,B|261:344|261:344|258:310,1,59.5000011348725,2|0,0:0|0:0,0:0:0:0:
288,194,109387,2,0,P|260:206|238:226,1,59.5000011348725
336,139,109762,2,0,P|360:184|358:216,1,59.5000011348725,8|0,0:0|0:0,0:0:0:0:
364,302,110137,2,0,P|387:283|415:272,1,59.5000011348725
258,309,110512,6,0,P|228:307|200:296,1,59.5000011348725,2|0,0:0|0:0,0:0:0:0:
127,231,110887,1,8,0:0:0:0:
280,208,111074,1,2,0:0:0:0:
304,191,111167,1,2,0:0:0:0:
322,168,111261,1,8,0:0:0:0:
312,32,111449,1,2,0:0:0:0:
376,224,111637,1,8,0:0:0:0:
208,112,111824,1,2,0:0:0:0:
68,229,112012,6,0,B|92:234|92:234|126:231,1,59.5000011348725,6|0,0:0|0:0,0:0:0:0:
192,360,112387,2,0,P|199:331|216:307,1,59.5000011348725
359,157,112762,2,0,P|367:185|367:214,1,59.5000011348725,8|0,0:0|0:0,0:0:0:0:
406,298,113137,2,0,L|346:292,1,59.5000011348725
256,160,113512,6,0,B|251:184|251:184|254:218,1,59.5000011348725,0|0,0:0|0:0,0:0:0:0:
112,256,113887,2,0,P|106:226|106:196,1,59.5000011348725,2|0,0:0|0:0,0:0:0:0:
155,91,114262,2,0,P|180:109|197:133,1,59.5000011348725,8|0,0:0|0:0,0:0:0:0:
312,63,114637,2,0,P|287:81|270:105,1,59.5000011348725
264,200,115012,5,2,0:0:0:0:
320,320,115199,1,0,0:0:0:0:
222,246,115387,1,2,0:0:0:0:
194,252,115480,1,0,0:0:0:0:
168,266,115574,1,2,0:0:0:0:
147,288,115668,1,0,0:0:0:0:
134,314,115762,2,0,P|104:334|65:335,1,59.5000011348725,8|0,0:0|0:0,0:0:0:0:
71,250,116137,1,8,0:0:0:0:
207,384,116324,1,2,0:0:0:0:
221,361,116417,1,2,0:0:0:0:
227,330,116511,5,8,0:0:0:0:
176,200,116699,1,2,0:0:0:0:
320,320,116887,1,2,0:0:0:0:
256,136,117074,1,8,0:0:0:0:
392,256,117262,1,2,0:0:0:0:
397,238,117355,1,0,0:0:0:0:
402,222,117449,1,2,0:0:0:0:
407,204,117543,1,0,0:0:0:0:
373,178,117637,5,8,0:0:0:0:
361,205,117730,1,0,0:0:0:0:
362,235,117824,1,0,0:0:0:0:
371,263,117918,1,0,0:0:0:0:
391,319,118012,6,0,P|393:268|327:152,1,175,6|0,0:0|0:0,0:0:0:0:
96,192,118574,1,8,0:0:0:0:
207,198,118762,1,0,0:0:0:0:
299,260,118949,1,0,0:0:0:0:
256,24,119137,2,0,P|253:62|229:109,1,87.5,8|0,0:0|0:0,0:0:0:0:
512,176,119512,6,0,L|320:159,1,175,2|0,0:0|0:0,0:0:0:0:
112,236,120074,2,0,B|167:240|167:240|221:269|221:269|279:274,1,175,8|0,0:0|0:0,0:0:0:0:
72,360,120637,2,0,L|159:367,1,87.5,8|0,0:0|0:0,0:0:0:0:
0,120,121012,6,0,P|76:158|112:236,1,175,2|0,0:0|0:0,0:0:0:0:
334,246,121574,2,0,P|306:279|298:322,1,87.5,8|0,0:0|0:0,0:0:0:0:
400,328,121949,1,0,0:0:0:0:
230,207,122137,2,0,L|142:199,1,87.5,8|0,0:0|0:0,0:0:0:0:
349,72,122512,6,0,L|332:255,1,175,2|0,0:0|0:0,0:0:0:0:
96,176,123074,2,0,P|182:171|256:215,1,175,8|0,0:0|0:0,0:0:0:0:
47,100,123637,2,0,P|17:133|7:175,1,87.5,8|0,0:0|0:0,0:0:0:0:
209,55,124012,6,0,B|281:55|281:55|379:85,1,175,6|0,0:0|0:0,0:0:0:0:
256,232,124574,2,0,B|184:232|184:232|85:201,1,175,8|0,0:0|0:0,0:0:0:0:
192,360,125137,2,0,L|108:333,1,87.5,8|0,0:0|0:0,0:0:0:0:
327,294,125512,6,0,P|431:286|503:230,1,175,2|0,0:0|0:0,0:0:0:0:
209,71,126074,2,0,P|217:175|273:247,1,175,8|0,0:0|0:0,0:0:0:0:
40,120,126637,2,0,P|96:128|136:160,1,87.5,8|0,0:0|0:0,0:0:0:0:
270,57,127012,6,0,L|255:232,1,175,2|0,0:0|0:0,0:0:0:0:
488,248,127574,2,0,L|504:74,1,175,8|0,0:0|0:0,0:0:0:0:
336,192,128137,2,0,L|328:279,1,87.5,8|0,0:0|0:0,0:0:0:0:
512,0,128512,6,0,P|464:36|341:45,1,175,2|0,0:0|0:0,0:0:0:0:
90,48,129074,2,0,B|220:40|220:40|352:47,1,262.5,8|0,0:0|0:0,0:0:0:0:
256,346,130012,6,0,P|293:268|368:224,1,175,2|0,0:0|0:0,0:0:0:0:
111,227,130574,2,0,P|73:149|-1:105,1,175,8|0,0:0|0:0,0:0:0:0:
224,24,131137,2,0,P|189:50|160:136,1,131.25,8|0,1:2|0:0,0:0:0:0:
158,154,131512,6,0,L|228:161,2,70
111,227,132074,1,0,0:0:0:0:
206,235,132262,1,8,0:0:0:0:
279,299,132449,1,0,0:0:0:0:
367,250,132637,2,0,P|376:292|369:335,1,87.5
256,117,133012,6,0,P|180:76|141:-1,1,175,2|0,0:0|0:0,0:0:0:0:
484,135,133574,2,0,P|406:174|366:250,1,175,8|0,0:0|0:0,0:0:0:0:
256,32,134137,1,8,1:2:0:0:
256,192,134230,12,0,135637,0:0:0:0:
253,166,136012,6,0,P|224:182|196:222,1,70,2|0,0:0|0:0,0:0:0:0:
117,73,136574,2,0,P|133:101|137:150,1,70,2|0,0:0|0:0,0:0:0:0:
159,296,137137,2,0,P|179:243|126:128,1,175,2|0,0:0|0:0,0:0:0:0:
292,192,138637,2,0,P|307:164|313:149,1,35,2|0,0:0|0:0,0:0:0:0:
210,46,139012,6,0,P|211:87|222:122,1,70,2|0,0:0|0:0,0:0:0:0:
292,192,139574,2,0,P|296:233|280:272,1,70,2|0,0:0|0:0,0:0:0:0:
209,221,140137,2,0,B|291:175|358:213|330:231|409:259|476:222,1,280,2|0,0:0|0:0,0:0:0:0:
