osu file format v14

[General]
AudioFilename: Magnolia.mp3
AudioLeadIn: 0
PreviewTime: 40012
Countdown: 0
SampleSet: Normal
StackLeniency: 0.7
Mode: 2
LetterboxInBreaks: 1
WidescreenStoryboard: 1

[Editor]
DistanceSpacing: 1.3
BeatDivisor: 4
GridSize: 4
TimelineZoom: 1.5

[Metadata]
Title:Magnolia (feat. Guriri)
TitleUnicode:Magnolia (feat. 구리리)
Artist:M2U
ArtistUnicode:M2U
Creator:Spectator
Version:Alice
Source:Deemo
Tags:symphonic dubstep rayark xinely deif zirox yumeno himiko examination
BeatmapID:452481
BeatmapSetID:188879

[Difficulty]
HPDrainRate:5
CircleSize:3.9
OverallDifficulty:9.1
ApproachRate:9.1
SliderMultiplier:1.6
SliderTickRate:2

[Events]
//Background and Video events
0,0,"angel.jpg",0,0
//Break Periods
//Storyboard Layer 0 (Background)
//Storyboard Layer 1 (Fail)
//Storyboard Layer 2 (Pass)
//Storyboard Layer 3 (Foreground)
//Storyboard Layer 4 (Overlay)
//Storyboard Sound Samples

[TimingPoints]
2512,375,4,2,1,25,1,0
7949,-100,4,2,1,20,0,0
8324,-100,4,1,1,25,0,0
8512,-100,4,1,1,50,0,0
8887,-100,4,2,1,30,0,0
9262,-100,4,1,1,50,0,0
9355,-100,4,2,1,30,0,0
10012,-100,4,2,1,50,0,0
10199,-100,4,2,1,30,0,0
10762,-100,4,2,1,50,0,0
11137,-100,4,2,1,30,0,0
11512,-100,4,1,1,50,0,0
11605,-100,4,2,1,30,0,0
13012,-200,4,1,1,30,0,0
13762,-100,4,1,1,50,0,0
13855,-100,4,2,1,25,0,0
14324,-100,4,1,1,30,0,0
14512,-100,4,1,1,50,0,0
16387,-100,4,2,1,50,0,0
16574,-100,4,1,1,50,0,0
17137,-100,4,2,1,50,0,0
18262,-100,4,1,1,50,0,0
19621,-100,4,2,1,5,0,0
20324,-100,4,1,1,50,0,0
22012,-100,4,2,1,50,0,0
22762,-100,4,1,1,50,0,0
23512,-100,4,1,1,45,0,0
23762,-100,4,1,1,42,0,0
24012,-100,4,1,1,39,0,0
24262,-100,4,1,1,36,0,0
24512,-100,4,1,1,33,0,0
24762,-100,4,1,1,30,0,0
25012,-100,4,1,1,25,0,0
25387,-100,4,1,1,20,0,0
25574,-100,4,1,1,18,0,0
25762,-100,4,1,1,16,0,0
25949,-100,4,1,1,14,0,0
26137,-100,4,1,1,12,0,0
26324,-100,4,1,1,10,0,0
26512,-100,4,2,1,5,0,0
27637,-100,4,2,1,10,0,0
28012,-100,4,2,1,25,0,0
34199,-100,4,2,1,5,0,0
34387,-100,4,2,1,25,0,0
34574,-100,4,2,1,5,0,0
34762,-100,4,2,1,40,0,0
34949,-100,4,2,1,25,0,0
35043,-100,4,2,1,5,0,0
35137,-100,4,2,1,35,0,0
35324,-100,4,2,1,25,0,0
35418,-100,4,2,1,5,0,0
35512,-100,4,2,1,25,0,0
35699,-100,4,2,1,5,0,0
35887,-100,4,2,1,25,0,0
36730,-100,4,2,1,5,0,0
37012,-100,4,2,1,25,0,0
38605,-100,4,2,1,5,0,0
39262,-100,4,2,1,30,0,0
39449,-100,4,2,1,10,0,0
40012,-100,4,2,1,80,0,0
47887,-100,4,3,1,80,0,0
47980,-100,4,2,1,80,0,0
49762,-100,4,1,1,80,0,0
49949,-100,4,2,1,80,0,0
50605,-100,4,2,1,5,0,0
50887,-100,4,1,1,80,0,0
51262,-100,4,1,1,50,0,0
52012,-83.3333333333333,4,2,1,80,0,1
52105,-83.3333333333333,4,2,1,80,0,0
59137,-83.3333333333333,4,1,1,80,0,0
59324,-83.3333333333333,4,2,1,80,0,0
60730,-83.3333333333333,4,2,1,5,0,0
61012,-83.3333333333333,4,2,1,80,0,0
62137,-83.3333333333333,4,1,1,80,0,0
62324,-83.3333333333333,4,2,1,80,0,0
68324,-83.3333333333333,4,2,1,20,0,0
70012,-83.3333333333333,4,1,1,50,0,0
70762,-100,4,2,1,30,0,0
71887,-100,4,3,1,5,0,0
72262,-100,4,3,1,10,0,0
72637,-100,4,3,1,15,0,0
73012,-100,4,1,1,15,0,0
73105,-100,4,2,1,30,0,0
74887,-100,4,3,1,15,0,0
75262,-100,4,3,1,20,0,0
75637,-100,4,3,1,25,0,0
76012,-83.3333333333333,4,3,1,40,0,0
76199,-83.3333333333333,4,2,1,40,0,0
76387,-83.3333333333333,4,3,1,40,0,0
76574,-83.3333333333333,4,2,1,40,0,0
76762,-83.3333333333333,4,3,1,40,0,0
76949,-83.3333333333333,4,2,1,40,0,0
77137,-83.3333333333333,4,3,1,40,0,0
77324,-83.3333333333333,4,2,1,40,0,0
78262,-83.3333333333333,4,3,1,40,0,0
78637,-83.3333333333333,4,3,1,45,0,0
79012,-83.3333333333333,4,1,1,45,0,0
79199,-83.3333333333333,4,1,1,60,0,0
79762,-83.3333333333333,4,2,1,60,0,0
79949,-83.3333333333333,4,1,1,60,0,0
80324,-83.3333333333333,4,2,1,60,0,0
80512,-83.3333333333333,4,1,1,60,0,0
80699,-83.3333333333333,4,2,1,60,0,0
81074,-83.3333333333333,4,1,1,60,0,0
81262,-83.3333333333333,4,2,1,60,0,0
82012,-50,4,1,1,60,0,1
84262,-50,4,2,1,60,0,1
84918,-50,4,2,1,60,0,0
85012,-50,4,1,1,60,0,1
86887,-50,4,2,1,60,0,1
87074,-50,4,1,1,60,0,1
87918,-50,4,1,1,60,0,0
88012,-50,4,1,1,60,0,1
90262,-50,4,2,1,60,0,1
91012,-50,4,1,1,60,0,1
92324,-50,4,2,1,60,0,1
92512,-50,4,1,1,60,0,1
92887,-50,4,2,1,60,0,1
93074,-50,4,1,1,60,0,1
93918,-50,4,1,1,60,0,0
94012,-50,4,1,1,60,0,1
96262,-50,4,2,1,60,0,1
96918,-50,4,2,1,60,0,0
97012,-50,4,1,1,60,0,1
103012,-100,4,1,1,60,0,1
103199,-100,4,2,1,60,0,1
103574,-100,4,1,1,60,0,1
103949,-100,4,3,1,60,0,1
104137,-100,4,1,1,60,0,0
104183,-100,4,2,1,5,0,1
104699,-100,4,1,1,60,0,1
105308,-100,4,2,1,5,0,1
105965,-100,4,2,1,5,0,0
106012,-90.9090909090909,4,1,1,50,0,1
106058,-90.9090909090909,4,1,1,60,0,0
106387,-90.9090909090909,4,2,1,60,0,0
106762,-90.9090909090909,4,1,1,60,0,0
106949,-90.9090909090909,4,2,1,60,0,0
111637,-76.9230769230769,4,3,1,65,0,0
112012,-90.9090909090909,4,2,1,60,0,0
114449,-90.9090909090909,4,2,1,50,0,0
115012,-90.9090909090909,4,3,1,40,0,0
115387,-83.3333333333333,4,3,1,40,0,0
115762,-83.3333333333333,4,1,1,60,0,0
115949,-83.3333333333333,4,2,1,60,0,0
116137,-83.3333333333333,4,1,1,60,0,0
116324,-83.3333333333333,4,2,1,60,0,0
116512,-83.3333333333333,4,1,1,60,0,0
116887,-83.3333333333333,4,2,1,60,0,0
117074,-100,4,1,1,60,0,0
117262,-100,4,3,1,60,0,0
118012,-83.3333333333333,4,1,1,60,0,1
118105,-83.3333333333333,4,1,1,80,0,0
118199,-83.3333333333333,4,2,1,80,0,0
118387,-83.3333333333333,4,1,1,80,0,0
118574,-83.3333333333333,4,2,1,80,0,0
120637,-83.3333333333333,4,1,1,80,0,0
120824,-83.3333333333333,4,2,1,80,0,0
125137,-83.3333333333333,4,1,1,80,0,0
125324,-83.3333333333333,4,2,1,80,0,0
127387,-83.3333333333333,4,1,1,80,0,0
127574,-83.3333333333333,4,2,1,80,0,0
128137,-83.3333333333333,4,1,1,80,0,0
128324,-83.3333333333333,4,2,1,80,0,0
136012,-133.333333333333,4,2,1,40,0,0
139012,-133.333333333333,4,2,1,25,0,0
140137,-133.333333333333,4,2,1,5,0,0

[Colours]
Combo1 : 242,150,119
Combo2 : 255,128,64
Combo3 : 217,150,89

[HitObjects]
460,136,2511,5,4,3:2:0:0:
312,40,2887,1,0,3:0:0:0:
304,96,2980,1,0,0:0:0:0:
280,148,3074,1,0,0:0:0:0:
240,188,3168,1,0,0:0:0:0:
188,204,3262,1,2,0:0:0:0:
360,328,3637,1,0,0:0:0:0:
52,308,4012,6,0,L|44:140,1,160,2|0,0:0|0:0,0:0:0:0:
144,32,4574,2,0,L|148:88,1,40
228,124,4762,2,0,L|235:283,1,160,2|0,0:0|0:0,0:0:0:0:
468,52,5512,5,4,3:2:0:0:
286,56,5887,1,0,3:0:0:0:
244,88,5980,1,0,3:0:0:0:
224,140,6074,1,0,3:0:0:0:
240,192,6168,1,0,3:0:0:0:
280,232,6262,1,2,0:0:0:0:
41,297,6637,1,0,0:0:0:0:
271,350,7012,6,0,P|338:328|438:364,1,160,0|0,3:0|0:0,0:0:0:0:
466,242,7574,1,2,0:0:0:0:
480,197,7668,1,0,0:0:0:0:
492,155,7762,2,0,L|509:77,1,80,0|0,3:0|1:0,0:0:0:0:
367,79,8137,2,0,L|350:1,1,80,0|0,1:0|0:0,0:0:0:0:
296,40,8418,1,0,0:0:0:0:
44,88,8512,6,0,L|209:97,1,160
502,164,9074,1,0,0:0:0:0:
481,190,9168,1,0,0:0:0:0:
461,221,9262,2,0,L|296:230,1,160
48,312,10012,5,0,1:0:0:0:
172,224,10199,1,0,0:0:0:0:
28,176,10387,1,2,0:0:0:0:
44,124,10480,1,0,0:0:0:0:
72,76,10574,1,0,0:0:0:0:
120,48,10668,1,0,0:0:0:0:
176,44,10762,1,0,1:0:0:0:
472,273,11137,1,2,0:0:0:0:
197,337,11512,6,0,L|188:238,1,80
344,239,11887,1,2,0:0:0:0:
357,185,11980,1,0,0:0:0:0:
388,138,12074,1,0,0:0:0:0:
433,105,12168,1,0,0:0:0:0:
487,93,12262,1,0,1:0:0:0:
25,291,12637,1,2,0:1:0:0:
328,352,13012,6,0,L|344:208,1,140
168,152,13762,2,0,L|160:44,1,80,2|2,0:0|0:0,0:0:0:0:
256,236,14137,2,0,L|264:184,1,40,2|0,0:1|0:0,0:0:0:0:
80,104,14324,1,0,0:0:0:0:
333,49,14512,5,0,1:0:0:0:
497,145,14699,1,2,2:2:0:0:
324,229,14887,1,2,2:2:0:0:
504,308,15074,2,0,P|413:286|339:344,1,160
8,76,15637,6,0,P|99:98|173:40,1,160,2|0,2:2|0:0,0:0:0:0:
348,128,16199,2,0,L|248:132,1,80,0|2,0:0|2:0,0:0:0:0:
120,288,16574,2,0,L|220:284,1,80
424,348,17137,2,0,L|428:256,1,80,4|0,0:3|0:0,0:0:0:0:
356,220,17418,2,0,L|352:180,1,40,0|4,0:0|0:3,0:0:0:0:
488,40,17887,2,0,L|396:44,1,80,4|0,0:3|0:0,0:0:0:0:
356,76,18168,1,0,0:0:0:0:
151,53,18262,5,0,0:0:0:0:
77,106,18449,1,2,2:0:0:0:
50,192,18637,1,0,2:0:0:0:
85,270,18824,1,2,2:0:0:0:
155,326,19012,2,0,L|269:330,1,80
335,269,19387,1,0,0:0:0:0:
493,214,19574,2,0,L|488:189,16,20,0|0|0|0|0|0|0|0|0|0|0|0|0|0|0|0|0,0:0|0:0|0:0|0:0|0:0|0:0|0:0|0:0|0:0|0:0|0:0|0:0|0:0|0:0|0:0|0:0|0:0,0:0:0:0:
196,284,20512,5,0,0:0:0:0:
344,172,20699,1,2,2:2:0:0:
164,96,20887,1,0,0:0:0:0:
449,334,21074,2,0,L|480:162,1,160
202,204,21637,2,0,L|171:32,1,160,0|2,0:0|0:0,0:0:0:0:
336,72,22199,5,2,0:0:0:0:
376,111,22293,1,0,0:0:0:0:
393,164,22387,1,2,0:0:0:0:
385,219,22480,1,0,0:0:0:0:
353,265,22574,1,2,0:0:0:0:
294,286,22668,1,0,0:0:0:0:
108,280,22762,1,0,0:0:0:0:
256,192,22949,12,0,26512,0:0:0:0:
176,72,27637,5,2,0:0:0:0:
440,88,28012,2,0,L|460:256,1,160,2|0,0:0|0:0,0:0:0:0:
272,360,28762,2,0,L|252:192,1,160,2|0,0:0|0:0,0:0:0:0:
104,312,29512,1,2,0:0:0:0:
316,140,29887,1,0,0:0:0:0:
64,52,30262,1,2,0:0:0:0:
22,120,31012,6,0,P|101:148|240:80,1,240,2|0,0:0|0:0,0:0:0:0:
492,174,31762,2,0,L|327:173,1,160,2|2,0:0|0:0,0:0:0:0:
80,351,32512,2,0,L|62:166,1,160,2|0,0:0|0:0,0:0:0:0:
312,155,33074,1,0,0:0:0:0:
407,255,33262,2,0,L|425:70,1,160,2|0,0:0|0:0,0:0:0:0:
264,36,34012,6,0,L|184:44,1,80,2|0,0:0|0:0,0:0:0:0:
0,124,34387,2,0,L|80:132,1,80,2|0,0:0|0:0,0:0:0:0:
256,256,34762,2,0,P|320:240|392:264,1,120,2|0,0:0|0:0,0:0:0:0:
248,348,35137,2,0,P|184:364|112:340,1,120,2|0,0:0|0:0,0:0:0:0:
256,248,35512,6,0,L|344:236,1,80,2|0,0:0|0:0,0:0:0:0:
160,136,35887,2,0,L|0:108,1,160,2|2,0:0|0:0,0:0:0:0:
243,39,36637,1,2,0:0:0:0:
282,77,36730,1,0,0:0:0:0:
296,131,36824,1,0,0:0:0:0:
278,184,36918,1,0,0:0:0:0:
234,219,37012,6,0,L|223:383,1,160,2|0,0:0|0:0,0:0:0:0:
420,32,37762,2,0,L|431:196,1,160,2|0,0:0|0:0,0:0:0:0:
80,360,38512,2,0,L|68:112,1,240,2|0,0:0|0:0,0:0:0:0:
396,72,39262,1,2,0:0:0:0:
504,144,39449,1,0,0:0:0:0:
388,214,39637,1,2,0:0:0:0:
356,156,40012,6,0,L|352:312,1,120,4|0,0:3|0:0,0:0:0:0:
176,360,40387,2,0,L|164:256,1,80,0|0,0:0|0:0,0:0:0:0:
248,204,40762,2,0,P|304:220|384:192,1,120,8|0,0:1|0:0,0:0:0:0:
180,124,41137,2,0,P|124:108|44:136,1,120
244,224,41512,5,2,0:0:0:0:
376,128,41699,1,0,0:0:0:0:
216,56,41887,1,4,3:3:0:0:
80,336,42262,2,0,L|72:196,1,120,8|0,0:1|0:0,0:0:0:0:
244,148,42637,2,0,L|248:52,1,80,2|0,0:0|0:0,0:0:0:0:
69,98,43012,6,0,P|121:132|296:76,1,240
438,186,43762,2,0,L|350:181,1,80,8|0,0:1|0:0,0:0:0:0:
176,272,44137,2,0,L|264:277,1,80,2|0,0:0|0:0,0:0:0:0:
441,325,44512,6,0,P|349:349|301:333,1,120,2|0,0:0|0:0,0:0:0:0:
133,262,44887,2,0,L|212:255,1,80,4|0,3:3|0:0,0:0:0:0:
27,120,45262,2,0,L|119:128,1,80,8|0,0:1|0:0,0:0:0:0:
241,30,45637,2,0,L|162:37,1,80,2|0,0:0|0:0,0:0:0:0:
446,345,46012,6,0,L|474:205,1,120,4|0,0:0|0:0,0:0:0:0:
272,232,46387,2,0,L|244:92,1,120,2|0,0:0|0:0,0:0:0:0:
428,48,46762,2,0,P|476:56|532:36,2,80,8|0|2,0:1|0:0|0:0,0:0:0:0:
84,336,47512,6,0,P|36:328|-20:348,2,80,2|0|4,0:0|0:0|0:0,0:0:0:0:
312,364,48262,2,0,L|320:212,1,120,8|0,0:1|0:0,0:0:0:0:
131,195,48637,2,0,L|123:91,1,80,2|0,0:0|0:0,0:0:0:0:
452,36,49012,5,4,0:3:0:0:
128,72,49387,2,0,L|28:56,2,80,2|0|8,0:0|0:0|0:0,0:0:0:0:
376,228,50137,2,0,L|276:212,1,80,2|0,0:0|0:0,0:0:0:0:
120,291,50512,2,0,L|108:112,1,160,2|0,0:0|1:0,0:0:0:0:
455,236,51262,1,8,0:0:0:0:
132,252,52012,6,0,L|244:248,1,95.9999970703126,4|2,0:0|0:0,0:0:0:0:
408,92,52387,1,0,0:0:0:0:
148,64,52574,2,0,P|88:72|36:60,1,95.9999970703126,8|0,0:1|0:0,0:0:0:0:
248,88,52949,1,2,0:0:0:0:
128,164,53137,1,8,0:1:0:0:
264,248,53324,1,2,0:0:0:0:
56,132,53512,6,0,L|52:328,1,191.999994140625,2|0,0:1|0:0,0:0:0:0:
456,252,54074,2,0,L|460:56,1,191.999994140625,8|2,0:1|0:0,0:0:0:0:
192,64,54637,1,8,0:1:0:0:
336,168,54824,1,2,0:0:0:0:
168,240,55012,6,0,L|176:336,1,95.9999970703126,4|0,0:0|0:0,0:0:0:0:
288,128,55387,1,8,0:1:0:0:
84,168,55574,2,0,L|96:296,1,95.9999970703126,2|2,0:0|0:0,0:0:0:0:
348,52,55949,1,4,0:3:0:0:
8,112,56137,2,0,L|16:216,1,95.9999970703126,8|0,0:1|0:0,0:0:0:0:
316,232,56512,6,0,P|412:268|524:220,1,191.999994140625,2|2,0:1|0:0,0:0:0:0:
292,108,57074,2,0,P|196:72|84:120,1,191.999994140625,8|2,0:1|0:0,0:0:0:0:
316,58,57637,2,0,L|433:52,1,95.9999970703126,8|2,0:1|0:0,0:0:0:0:
144,32,58012,5,4,0:0:0:0:
76,84,58199,1,2,0:0:0:0:
40,168,58387,1,2,0:0:0:0:
72,248,58574,1,8,0:1:0:0:
140,304,58762,1,2,0:0:0:0:
224,336,58949,2,0,L|352:320,2,95.9999970703126,2|8|0,0:0|0:0|0:0,0:0:0:0:
402,349,59512,6,0,L|444:150,1,191.999994140625,2|2,0:1|0:0,0:0:0:0:
110,35,60074,2,0,L|68:234,1,191.999994140625,8|2,0:1|0:0,0:0:0:0:
298,87,60637,1,2,0:0:0:0:
250,134,60730,1,0,0:0:0:0:
240,200,60824,1,0,0:0:0:0:
266,261,60918,1,0,0:0:0:0:
324,295,61012,6,0,L|437:305,1,95.9999970703126,4|0,0:0|0:0,0:0:0:0:
174,360,61387,1,8,0:1:0:0:
292,288,61574,2,0,L|327:146,1,143.999995605469,4|0,0:0|0:0,0:0:0:0:
104,117,61949,2,0,L|81:11,1,95.9999970703126,2|8,0:0|0:1,0:0:0:0:
380,60,62324,1,0,0:0:0:0:
88,234,62512,6,0,L|44:48,1,191.999994140625,4|2,0:0|0:0,0:0:0:0:
348,152,63074,2,0,L|392:338,1,191.999994140625,4|2,0:0|0:0,0:0:0:0:
116,41,63637,1,0,0:0:0:0:
68,88,63730,1,0,0:0:0:0:
46,151,63824,1,0,0:0:0:0:
66,215,63918,1,0,0:0:0:0:
115,260,64012,5,4,0:0:0:0:
252,328,64199,1,2,0:0:0:0:
139,179,64387,1,2,0:0:0:0:
305,271,64574,1,4,0:0:0:0:
160,100,64762,1,0,3:0:0:0:
353,209,64949,1,0,3:0:0:0:
19,37,65137,1,8,0:1:0:0:
256,192,65324,12,2,66637,0:0:0:0:
397,260,67012,5,4,0:0:0:0:
260,328,67199,1,2,0:0:0:0:
373,179,67387,1,2,0:0:0:0:
207,271,67574,1,4,0:0:0:0:
352,100,67762,1,0,3:0:0:0:
159,209,67949,1,0,3:0:0:0:
493,37,68137,1,8,0:1:0:0:
256,192,68324,12,0,70012,0:0:0:0:
184,348,70762,6,0,L|168:188,1,160,2|0,0:0|0:0,0:0:0:0:
352,48,71512,1,2,0:0:0:0:
124,16,71887,5,0,0:0:0:0:
76,40,71980,1,0,0:0:0:0:
44,84,72074,1,0,0:0:0:0:
28,136,72168,1,0,0:0:0:0:
32,192,72262,1,0,0:0:0:0:
52,244,72355,1,0,0:0:0:0:
88,284,72449,1,0,0:0:0:0:
140,304,72543,1,0,0:0:0:0:
343,340,72637,2,0,L|355:290,1,40
153,223,72824,2,0,L|141:173,1,40
344,277,73012,6,0,L|360:117,1,160
144,108,73762,1,2,0:0:0:0:
351,105,74137,1,0,0:0:0:0:
123,129,74512,1,2,0:0:0:0:
388,16,74887,5,0,0:0:0:0:
436,40,74980,1,0,0:0:0:0:
468,84,75074,1,0,0:0:0:0:
484,136,75168,1,0,0:0:0:0:
480,192,75262,1,0,0:0:0:0:
460,244,75355,1,0,0:0:0:0:
424,284,75449,1,0,0:0:0:0:
372,304,75543,1,0,0:0:0:0:
160,269,75637,2,0,L|151:211,1,40,0|0,3:0|3:0,3:0:0:0:
352,269,75824,2,0,L|361:211,1,40,0|0,3:0|3:0,3:0:0:0:
144,48,76012,6,0,L|40:36,1,95.9999970703126,4|0,0:0|2:2,0:0:0:0:
152,176,76387,2,0,L|48:164,1,95.9999970703126,4|0,0:0|2:2,0:0:0:0:
335,228,76762,2,0,L|439:216,1,95.9999970703126,0|0,0:0|2:2,0:0:0:0:
317,356,77137,2,0,L|421:344,1,95.9999970703126,4|0,0:0|2:2,0:0:0:0:
148,36,77512,5,4,3:0:0:0:
27,99,77699,1,0,0:0:0:0:
167,127,77887,1,4,3:0:0:0:
44,196,78074,1,0,0:0:0:0:
336,308,78262,1,8,1:0:0:0:
379,263,78355,1,0,0:0:0:0:
368,201,78449,1,0,0:0:0:0:
310,175,78543,1,0,0:0:0:0:
105,199,78637,1,8,1:0:0:0:
62,154,78730,1,0,0:0:0:0:
73,92,78824,1,0,0:0:0:0:
131,66,78918,1,0,0:0:0:0:
384,168,79012,5,0,0:0:0:0:
97,126,79199,1,2,2:2:0:0:
400,44,79387,1,2,0:1:0:0:
127,54,79574,2,0,L|15:66,1,95.9999970703126
385,330,79949,2,0,L|497:318,2,95.9999970703126,0|2|2,0:0|0:0|0:0,0:0:0:0:
30,235,80512,5,0,0:0:0:0:
204,64,80699,1,2,0:0:0:0:
223,107,80793,1,2,0:0:0:0:
242,151,80887,1,2,0:1:0:0:
146,309,81074,5,0,0:0:0:0:
320,138,81261,1,2,0:0:0:0:
338,181,81355,1,2,0:0:0:0:
358,225,81449,1,2,1:1:0:0:
84,39,81637,5,0,0:0:0:0:
43,64,81730,1,0,0:0:0:0:
26,109,81824,1,0,0:0:0:0:
45,153,81918,1,0,0:0:0:0:
92,217,82012,6,0,L|256:234,1,160
428,72,82293,2,0,L|264:89,1,160,2|0,0:0|0:0,0:0:0:0:
60,44,82574,2,0,L|48:156,1,80,2|0,0:1|0:0,0:0:0:0:
300,296,82762,6,0,L|528:252,1,160
280,156,83043,2,0,L|52:112,1,160,2|0,0:0|0:0,0:0:0:0:
329,83,83324,2,0,L|415:72,1,80,2|0,0:1|0:0,0:0:0:0:
65,39,83512,6,0,L|47:217,1,160
235,208,83793,2,0,L|253:386,1,160,2|0,0:0|0:0,0:0:0:0:
150,146,84074,2,0,L|140:243,1,80
360,47,84262,6,0,L|370:144,1,80,2|0,1:1|0:0,0:0:0:0:
57,67,84449,2,0,L|47:164,1,80,2|0,1:1|0:0,0:0:0:0:
304,356,84637,1,2,1:1:0:0:
364,304,84730,1,2,0:1:0:0:
380,224,84824,1,2,1:0:0:0:
348,148,84918,1,0,0:0:0:0:
284,100,85012,6,0,L|112:84,1,160
212,180,85293,2,0,L|384:164,1,160,2|0,0:0|0:0,0:0:0:0:
124,256,85574,2,0,L|32:244,1,80,2|0,0:0|0:0,0:0:0:0:
268,344,85762,5,0,0:0:0:0:
312,276,85855,1,0,0:0:0:0:
308,196,85949,1,0,0:0:0:0:
256,136,86043,2,0,P|160:156|88:108,1,160,2|0,0:0|0:0,0:0:0:0:
276,49,86324,2,0,L|374:36,1,80,2|0,0:0|0:0,0:0:0:0:
54,38,86512,5,0,0:0:0:0:
206,132,86699,1,0,0:0:0:0:
33,229,86887,1,0,0:0:0:0:
181,319,87074,1,8,0:0:0:0:
432,272,87262,6,0,L|526:262,1,80
316,184,87449,2,0,L|222:174,1,80
457,182,87637,2,0,L|477:10,1,160
272,52,87918,1,0,0:0:0:0:
49,83,88012,6,0,P|124:111|226:91,1,160
36,203,88293,2,0,P|111:231|213:211,1,160,2|0,0:0|0:0,0:0:0:0:
353,281,88574,2,0,L|270:292,1,80
80,348,88762,6,0,L|63:171,1,160
259,251,89043,2,0,L|276:74,1,160,2|0,0:0|0:0,0:0:0:0:
171,113,89324,2,0,L|162:28,1,80,2|0,0:0|0:0,0:0:0:0:
346,114,89512,6,0,P|428:132|512:103,1,160
338,203,89793,2,0,P|256:185|172:214,1,160,2|0,0:0|0:0,0:0:0:0:
16,108,90074,2,0,L|96:92,1,80
319,56,90262,6,0,L|403:36,1,80,2|0,1:1|0:0,0:0:0:0:
324,176,90449,2,0,L|408:156,1,80,2|0,1:1|0:0,0:0:0:0:
192,328,90637,2,0,L|108:348,1,80,2|0,1:0|0:0,0:0:0:0:
0,228,90824,2,0,L|84:248,1,80,2|0,1:0|0:0,0:0:0:0:
305,288,91012,6,0,L|324:112,1,160
199,162,91293,2,0,L|180:-14,1,160,2|0,0:0|0:0,0:0:0:0:
476,78,91574,1,2,0:0:0:0:
59,76,91762,6,0,L|42:239,1,160
254,102,92043,2,2,L|279:409,1,240,2|2,0:0|0:0,0:0:0:0:
414,238,92512,6,0,L|321:227,1,80
109,162,92699,2,0,L|202:151,1,80,0|0,0:0|0:0,0:0:0:0:
480,60,92887,2,0,L|496:224,1,160
71,296,93262,1,0,0:0:0:0:
368,302,93449,2,0,P|451:261|341:41,1,400
129,198,94012,6,0,P|56:145|156:49,1,240,0|0,1:0|0:0,0:0:0:0:
426,98,94387,1,0,0:0:0:0:
482,154,94480,1,0,0:0:0:0:
510,230,94574,1,0,0:0:0:0:
482,306,94668,1,0,0:0:0:0:
410,346,94762,6,0,L|210:326,1,160,2|0,0:0|0:0,0:0:0:0:
0,208,95043,2,0,L|200:188,1,160,0|0,0:0|0:0,0:0:0:0:
344,112,95324,2,0,L|248:88,1,80
52,200,95512,6,0,L|40:80,1,80
240,124,95699,2,0,L|252:4,1,80,0|0,0:0|0:0,0:0:0:0:
136,292,95887,2,0,L|124:172,1,80
324,216,96074,2,0,L|336:96,1,80,0|0,0:0|0:0,0:0:0:0:
108,68,96262,6,0,P|52:60|8:72,1,80,2|0,1:1|0:0,0:0:0:0:
236,138,96449,2,0,P|292:146|336:134,1,80,2|0,1:1|0:0,0:0:0:0:
489,51,96637,2,0,L|310:59,1,160,2|0,0:0|0:0,0:0:0:0:
0,220,97012,6,0,L|240:232,1,240,0|0,0:0|0:0,0:0:0:0:
392,288,97387,1,2,0:0:0:0:
452,236,97480,1,0,0:0:0:0:
464,156,97574,1,0,0:0:0:0:
432,84,97668,1,0,0:0:0:0:
272,40,97762,6,0,L|176:36,2,80,2|0|0,0:0|0:0|0:0,0:0:0:0:
76,68,98043,2,0,L|68:248,1,160
223,231,98324,2,0,L|229:322,1,80
302,137,98512,6,0,L|308:228,1,80,2|0,0:0|0:0,0:0:0:0:
123,58,98699,2,0,L|117:149,1,80,0|0,0:0|0:0,0:0:0:0:
195,217,98887,2,0,L|201:308,1,80,2|0,0:0|0:0,0:0:0:0:
16,138,99074,2,0,L|10:229,1,80,0|0,0:0|0:0,0:0:0:0:
239,43,99262,5,8,0:0:0:0:
324,64,99355,1,0,0:0:0:0:
96,144,99449,1,0,0:1:0:0:
11,165,99542,1,0,0:0:0:0:
316,324,99637,2,0,P|392:296|432:180,1,160,8|0,0:0|0:0,0:0:0:0:
344,228,99918,1,0,0:0:0:0:
136,192,100012,6,0,P|60:164|20:48,1,160
108,96,100293,1,0,0:0:0:0:
292,237,100387,2,0,L|303:147,1,80
48,115,100574,2,0,L|37:25,1,80
243,350,100762,6,0,L|338:335,2,80
453,255,101043,2,0,L|273:225,1,160,8|0,0:0|0:0,0:0:0:0:
81,284,101324,2,0,L|66:182,1,80
296,99,101512,6,0,L|474:80,1,160
217,273,101793,2,0,L|39:254,1,160,0|0,0:0|0:0,0:0:0:0:
404,108,102074,2,0,L|500:92,2,80,0|0|0,0:0|0:0|0:0,0:0:0:0:
16,144,102543,1,0,0:0:0:0:
488,320,102824,1,0,0:0:0:0:
198,363,103012,6,0,L|189:234,1,80,0|2,0:0|0:0,0:0:0:0:
313,257,103387,2,0,L|322:128,1,80,0|0,0:0|0:0,0:0:0:0:
177,115,103762,2,0,L|168:-14,1,80,0|4,0:0|0:0,0:0:0:0:
476,176,104137,2,0,L|480:140,10,20
276,40,104699,1,0,0:0:0:0:
36,176,105262,2,0,L|32:140,12,20
427,158,106012,5,4,0:0:0:0:
199,253,106387,1,0,0:0:0:0:
326,211,106574,1,0,0:0:0:0:
199,253,106762,1,8,0:0:0:0:
465,261,107137,1,0,0:0:0:0:
152,94,107512,6,0,L|292:95,1,132.00000402832,2|0,0:0|0:0,0:0:0:0:
360,129,107887,2,0,L|213:129,1,132.00000402832,4|0,0:3|0:0,0:0:0:0:
68,366,108262,2,0,L|58:266,1,88.000002685547,8|0,0:1|0:0,0:0:0:0:
193,236,108637,2,0,L|202:141,1,88.000002685547,2|0,0:2|0:0,0:0:0:0:
474,199,109012,6,0,L|322:198,1,132.00000402832,4|0,0:3|0:0,0:0:0:0:
251,117,109387,2,0,L|349:116,1,88.000002685547,2|0,0:0|0:0,0:0:0:0:
26,207,109762,1,8,0:1:0:0:
151,116,109949,1,0,0:0:0:0:
8,54,110137,1,2,0:0:0:0:
281,35,110324,5,2,0:0:0:0:
289,75,110418,1,0,0:0:0:0:
297,119,110512,1,0,0:0:0:0:
132,154,110699,1,2,0:0:0:0:
117,192,110793,1,0,0:0:0:0:
102,233,110887,1,0,0:0:0:0:
308,244,111074,1,0,0:0:0:0:
350,283,111168,1,0,0:0:0:0:
393,320,111262,2,0,P|403:268|317:207,1,132.00000402832,8|0,0:1|0:0,0:0:0:0:
181,206,111637,6,4,L|111:205,1,51.999997619629
353,102,111824,2,4,L|423:101,1,51.999997619629
19,208,112012,5,4,0:0:0:0:
245,209,112387,1,0,0:0:0:0:
19,208,112762,1,8,0:1:0:0:
493,208,113512,5,2,2:0:0:0:
226,207,113887,1,0,0:0:0:0:
493,208,114262,1,8,0:1:0:0:
170,329,114637,6,0,L|166:221,1,88.000002685547,2|0,0:0|0:0,0:0:0:0:
457,225,115012,2,0,L|461:117,1,88.000002685547,4|0,0:0|0:0,0:0:0:0:
186,64,115387,2,0,L|127:62,1,47.9999985351563,4|4,0:0|0:0,0:0:0:0:
322,154,115574,2,0,L|381:152,1,47.9999985351563,4|4,0:0|0:0,0:0:0:0:
134,149,115762,2,0,L|37:148,1,95.9999970703126,0|2,0:0|0:0,0:0:0:0:
351,313,116137,2,0,L|448:314,1,95.9999970703126,0|2,0:0|0:0,0:0:0:0:
366,312,116418,1,0,0:0:0:0:
178,137,116512,6,0,L|32:124,1,143.999995605469
220,220,116887,2,0,L|329:208,1,95.9999970703126,2|0,0:0|0:0,0:0:0:0:
103,25,117262,1,0,0:0:0:0:
56,52,117355,1,0,0:0:0:0:
32,100,117449,1,0,0:0:0:0:
28,152,117543,1,0,0:0:0:0:
36,204,117637,1,0,0:0:0:0:
64,248,117730,1,0,0:0:0:0:
104,280,117824,1,0,0:0:0:0:
152,296,117918,1,0,0:0:0:0:
440,352,118012,6,0,L|448:254,1,95.9999970703126,4|0,0:2|0:0,0:0:0:0:
202,112,118387,1,2,2:0:0:0:
60,189,118574,1,8,0:1:0:0:
256,232,118762,1,0,0:0:0:0:
64,312,118949,1,2,0:0:0:0:
207,370,119137,1,8,0:1:0:0:
489,193,119324,1,2,0:0:0:0:
214,73,119512,6,0,P|165:82|111:74,1,95.9999970703126,2|0,1:1|0:0,0:0:0:0:
278,148,119887,1,2,0:0:0:0:
120,192,120074,2,0,P|71:201|17:193,1,95.9999970703126,8|0,1:1|0:0,0:0:0:0:
379,249,120449,2,0,P|428:240|482:248,2,95.9999970703126,2|8|0,0:0|0:0|0:0,0:0:0:0:
79,363,121012,6,0,L|69:247,1,95.9999970703126,4|0,0:0|0:0,0:0:0:0:
326,54,121387,1,2,0:0:0:0:
191,127,121574,1,8,1:1:0:0:
418,200,121762,1,0,0:0:0:0:
119,231,121949,1,2,0:0:0:0:
288,300,122137,1,8,1:1:0:0:
116,369,122324,1,2,0:0:0:0:
407,366,122512,6,0,L|432:164,1,191.999994140625,2|2,1:1|0:0,0:0:0:0:
93,211,123074,2,0,L|64:4,1,191.999994140625,8|2,0:1|0:0,0:0:0:0:
324,32,123637,1,8,0:1:0:0:
184,124,123824,1,2,0:0:0:0:
344,200,124012,5,4,0:0:0:0:
96,328,124199,2,0,L|80:192,1,95.9999970703126,0|2,0:0|0:0,0:0:0:0:
440,180,124574,2,0,L|456:44,1,95.9999970703126,8|2,0:1|0:0,0:0:0:0:
14,160,124949,2,0,L|-2:24,1,95.9999970703126,0|8,0:0|0:0,0:0:0:0:
462,175,125324,1,0,0:0:0:0:
304,27,125512,6,0,L|290:219,1,191.999994140625,2|2,1:1|0:0,0:0:0:0:
4,193,126074,2,0,L|18:385,1,191.999994140625,8|2,0:1|0:0,0:0:0:0:
283,346,126637,1,8,0:1:0:0:
326,302,126730,1,0,0:0:0:0:
341,241,126824,1,2,0:0:0:0:
318,182,126918,1,0,0:0:0:0:
248,139,127012,6,0,L|124:124,2,95.9999970703126,4|0|8,0:0|0:0|0:0,0:0:0:0:
413,231,127574,2,0,L|238:257,1,143.999995605469,4|0,0:0|0:0,0:0:0:0:
51,241,127949,2,0,L|43:134,1,95.9999970703126,2|8,0:0|0:0,0:0:0:0:
339,33,128324,1,2,0:0:0:0:
200,92,128512,6,0,P|112:120|8:76,1,191.999994140625,4|2,0:0|0:0,0:0:0:0:
312,292,129074,2,0,P|400:264|504:308,1,191.999994140625,4|2,0:0|0:0,0:0:0:0:
216,40,129637,1,0,0:0:0:0:
168,76,129730,1,0,0:0:0:0:
152,136,129824,1,0,0:0:0:0:
176,192,129918,1,0,0:0:0:0:
228,224,130012,5,0,1:0:0:0:
352,252,130199,1,0,0:0:0:0:
200,148,130387,1,2,0:0:0:0:
392,176,130574,1,0,1:0:0:0:
168,68,130762,1,0,0:0:0:0:
428,96,130949,1,2,0:0:0:0:
12,56,131137,1,8,1:0:0:0:
256,192,131324,12,0,132637,0:0:0:0:
284,160,133012,5,0,1:0:0:0:
160,132,133199,1,0,0:0:0:0:
312,236,133387,1,2,0:0:0:0:
120,208,133574,1,0,1:0:0:0:
344,316,133762,1,0,0:0:0:0:
84,288,133949,1,2,0:0:0:0:
500,328,134137,1,8,1:0:0:0:
256,192,134324,12,2,136012,0:0:0:0:
351,51,136199,5,0,0:0:0:0:
412,99,136387,1,0,0:0:0:0:
430,174,136574,1,2,0:0:0:0:
390,241,136762,1,0,0:0:0:0:
324,282,136949,1,0,0:0:0:0:
261,79,137137,2,0,P|194:158|307:355,1,360.000013732911,2|2,0:0|0:0,0:0:0:0:
455,161,138637,1,0,0:0:0:0:
157,343,139012,6,0,L|150:205,1,120.000004577637,2|0,0:0|0:0,0:0:0:0:
312,228,139574,2,0,L|319:90,1,120.000004577637,2|0,0:0|0:0,0:0:0:0:
52,44,140137,6,0,P|152:120|24:344,1,420.000016021729
