osu file format v14

[General]
AudioFilename: audio.mp3
AudioLeadIn: 0
PreviewTime: 105353
Countdown: 0
SampleSet: Soft
StackLeniency: 0.4
Mode: 0
LetterboxInBreaks: 0
WidescreenStoryboard: 0

[Editor]
DistanceSpacing: 2
BeatDivisor: 4
GridSize: 8
TimelineZoom: 2

[Metadata]
Title:Magnolia
TitleUnicode:中英字幕
Artist:M2U
ArtistUnicode:M2U
Creator:Battquif
Version:Extra
Source:
Tags:wubwub
BeatmapID:1628422
BeatmapSetID:774830

[Difficulty]
HPDrainRate:6
CircleSize:4.2
OverallDifficulty:8.5
ApproachRate:9.6
SliderMultiplier:1.7
SliderTickRate:1

[Events]
//Background and Video events
0,0,"maxresdefault (2).jpg",0,0
//Break Periods
2,69295,74518
//Storyboard Layer 0 (Background)
//Storyboard Layer 1 (Fail)
//Storyboard Layer 2 (Pass)
//Storyboard Layer 3 (Foreground)
//Storyboard Sound Samples

[TimingPoints]
1596,375,4,2,0,60,1,0
3094,-200,4,2,0,60,0,0
4594,-100,4,2,0,60,0,0
6094,-200,4,2,0,60,0,0
7594,-100,4,2,0,65,0,0
9094,-133.333333333333,4,2,0,65,0,0
9844,-100,4,2,0,65,0,0
11344,-149.925037481259,4,2,0,65,0,0
11719,-100,4,2,0,65,0,0
12094,-149.925037481259,4,2,0,65,0,0
12844,-66.6666666666667,4,2,0,75,0,0
13406,-50,4,2,0,75,0,0
13594,-149.925037481259,4,2,0,75,0,0
14719,-200,4,2,0,75,0,0
17344,-133.333333333333,4,2,0,75,0,0
18656,-80,4,2,0,75,0,0
19219,-120.481927710843,4,2,0,75,0,0
19594,-100,4,2,0,75,0,0
20719,-200,4,2,0,75,0,0
21937,-200,4,2,0,65,0,0
27094,-200,4,2,0,50,0,0
32719,-133.333333333333,4,2,0,60,0,0
33094,-149.925037481259,4,2,0,60,0,0
33469,-133.333333333333,4,2,0,60,0,0
36094,-200,4,2,0,60,0,0
39094,-100,4,2,0,70,0,0
44062,-80,4,2,0,73,0,0
44344,-50,4,2,0,80,0,0
44719,-66.6666666666667,4,2,0,85,0,0
45094,-100,4,2,0,75,0,0
51094,-80,4,2,0,80,0,0
51656,-100,4,2,0,80,0,0
53719,-80,4,2,0,80,0,0
54094,-100,4,2,0,80,0,0
56156,-66.6666666666667,4,2,0,80,0,0
57094,-111.111111111111,4,2,0,80,0,0
58219,-80,4,2,0,80,0,0
58594,-100,4,2,0,80,0,0
63094,-200,4,2,0,90,0,0
68344,-66.6666666666667,4,2,0,75,0,0
75094,-100,4,2,0,80,0,0
79594,-66.6666666666667,4,2,0,85,0,0
79781,-50,4,2,0,95,0,0
80531,-200,4,2,0,65,0,0
80719,-50,4,2,0,80,0,0
81094,-50,4,2,0,100,0,1
81844,-133.333333333333,4,2,0,100,0,1
82125,-50,4,2,0,100,0,1
82594,-133.333333333333,4,2,0,100,0,1
82875,-50,4,2,0,100,0,1
83906,-200,4,2,0,100,0,1
84094,-50,4,2,0,100,0,1
84844,-133.333333333333,4,2,0,100,0,1
85125,-50,4,2,0,100,0,1
85594,-25,4,2,0,100,0,1
85781,-33.3333333333333,4,2,0,100,0,1
85969,-25,4,2,0,100,0,1
86156,-50,4,2,0,100,0,1
86719,-200,4,2,0,100,0,1
87094,-50,4,2,0,100,0,1
87844,-133.333333333333,4,2,0,100,0,1
88125,-50,4,2,0,100,0,1
88594,-133.333333333333,4,2,0,100,0,1
88875,-50,4,2,0,100,0,1
89906,-200,4,2,0,100,0,1
90094,-50,4,2,0,100,0,1
92531,-200,4,2,0,100,0,1
92719,-50,4,2,0,100,0,1
94219,-100,4,2,0,100,0,1
94406,-50,4,2,0,100,0,1
94875,-100,4,2,0,100,0,1
95156,-50,4,2,0,100,0,1
95906,-133.333333333333,4,2,0,100,0,1
96094,-50,4,2,0,100,0,1
97219,-100,4,2,0,100,0,1
97406,-50,4,2,0,100,0,1
98719,-200,4,2,0,100,0,1
99094,-50,4,2,0,100,0,1
100125,-100,4,2,0,100,0,1
100594,-50,4,2,0,100,0,1
100875,-100,4,2,0,100,0,1
101156,-50,4,2,0,100,0,1
102094,-80,4,2,0,100,0,1
103219,-100,4,2,0,100,0,1
104344,-133.333333333333,4,2,0,100,0,1
105094,-100,4,2,0,60,0,0
129094,-200,4,2,0,90,0,0
133312,-200,4,2,0,40,0,0

[Colours]
Combo1 : 128,0,0
Combo2 : 64,0,128

[HitObjects]
380,297,1596,6,0,P|389:256|380:214,1,85,2|0,0:0|0:0,0:0:0:0:
307,256,1971,1,2,0:0:0:0:
276,265,2064,1,2,0:0:0:0:
245,269,2158,1,2,0:0:0:0:
213,265,2252,1,2,0:0:0:0:
183,255,2346,2,0,B|149:245|130:221|130:221|85:207|93:251,1,127.5,2|0,0:0|0:0,0:0:0:0:
107,284,2721,2,0,P|90:226|110:159,1,127.5,2|0,0:0|0:0,0:0:0:0:
128,146,3096,6,0,P|176:162|228:149,1,106.25,2|0,0:0|0:0,0:0:0:0:
273,94,3658,1,2,0:0:0:0:
298,81,3752,1,2,0:0:0:0:
349,96,3846,2,0,B|381:107|402:101|402:101|426:90|456:93|489:103,1,127.5,2|0,0:0|0:0,0:0:0:0:
442,216,4596,6,0,P|440:264|430:308,1,85,2|0,0:0|0:0,0:0:0:0:
339,226,4971,1,2,0:0:0:0:
338,194,5064,1,2,0:0:0:0:
340,162,5158,1,2,0:0:0:0:
345,130,5252,1,2,0:0:0:0:
353,99,5346,2,0,P|291:84|223:98,1,127.5,2|0,0:0|0:0,0:0:0:0:
253,122,5721,2,0,P|190:133|129:118,1,127.5,2|0,0:0|0:0,0:0:0:0:
106,86,6096,6,0,P|111:169|101:202,1,106.25,2|0,0:0|0:0,0:0:0:0:
55,244,6658,1,2,0:0:0:0:
62,268,6752,1,2,0:0:0:0:
98,303,6846,2,0,L|140:312,1,42.5,2|0,0:0|0:0,0:0:0:0:
200,262,7221,2,0,L|242:253,1,42.5
302,321,7596,5,2,0:0:0:0:
383,193,7783,2,0,B|374:217|374:217|373:239,1,42.5
400,249,7971,1,2,0:0:0:0:
408,268,8064,1,2,0:0:0:0:
412,289,8158,1,2,0:0:0:0:
411,310,8252,1,2,0:0:0:0:
383,356,8346,6,0,B|440:353|440:353|467:366,1,85,2|0,1:2|0:0,0:0:0:0:
333,298,8721,2,0,B|276:294|276:294|249:307,1,85,2|0,0:0|0:0,0:0:0:0:
172,371,9096,6,0,P|152:332|156:273,1,95.6250036478044,2|0,0:0|0:0,0:0:0:0:
215,241,9471,1,2,0:0:0:0:
218,217,9564,1,2,0:0:0:0:
216,193,9658,1,2,0:0:0:0:
209,171,9752,1,2,0:0:0:0:
160,117,9846,6,0,P|217:98|275:139,1,127.5,2|0,1:2|0:0,0:0:0:0:
295,207,10221,2,0,P|343:168|344:106,1,127.5,2|0,0:0|0:0,0:0:0:0:
287,52,10596,5,2,0:0:0:0:
378,114,10783,2,0,B|400:111|400:111|418:94,1,42.5
442,58,10971,1,2,0:0:0:0:
456,86,11064,1,2,0:0:0:0:
464,116,11158,1,2,0:0:0:0:
465,148,11252,1,2,0:0:0:0:
410,211,11346,6,2,P|406:254|416:304,1,85,2|0,1:2|0:0,0:0:0:0:
325,324,11721,2,2,P|311:261|316:198,1,127.500004863739,2|0,0:0|0:0,0:0:0:0:
216,190,12096,2,2,P|213:274|232:357,1,170,2|0,0:0|0:0,0:0:0:0:
134,381,12846,6,2,P|78:294|181:311,1,255.000009727478,0|2,1:2|0:0,0:0:0:0:
232,357,13314,1,2,0:0:0:0:
306,346,13408,2,2,B|326:346|341:333|341:333|355:345|355:345|382:337|404:346,1,85,2|0,0:0|0:0,0:0:0:0:
455,354,13596,6,0,L|449:268,1,85,4|0,1:2|0:0,0:0:0:0:
358,166,13971,1,0,0:0:0:0:
455,354,14158,1,8,0:0:0:0:
455,354,14721,6,0,L|449:268,1,85,0|0,1:0|0:0,0:0:0:0:
449,114,15283,1,8,0:0:0:0:
449,114,15846,5,0,1:0:0:0:
382,62,16033,1,0,0:0:0:0:
309,106,16221,2,0,L|251:86,1,42.5
132,109,16596,6,0,P|175:137|214:142,1,85,0|0,1:0|0:0,0:0:0:0:
309,106,17158,1,0,0:0:0:0:
327,117,17252,1,0,0:0:0:0:
342,157,17346,2,0,P|343:192|360:228,1,63.7500024318696,10|2,0:0|0:0,0:0:0:0:
481,190,17721,2,0,P|450:173|410:170,1,63.7500024318696,2|2,0:0|0:0,0:0:0:0:
284,267,18096,5,0,1:0:0:0:
338,127,18283,1,2,0:0:0:0:
338,127,18377,1,2,0:0:0:0:
338,127,18471,1,2,0:0:0:0:
430,243,18658,6,0,B|433:285|433:285|423:309|423:309|428:352,2,106.25,4|0|0,1:2|0:0|0:0,0:0:0:0:
465,117,19221,2,0,B|468:74|468:74|458:50|458:50|463:7,1,106.25,8|0,0:0|0:0,0:0:0:0:
393,89,19596,6,0,B|337:88|337:88|302:73,1,85,0|2,1:0|0:0,0:0:0:0:
283,48,19877,1,2,0:0:0:0:
283,48,19971,1,2,0:0:0:0:
407,159,20158,1,8,0:0:0:0:
407,159,20533,5,2,0:0:0:0:
318,135,20721,2,0,L|312:219,1,85,2|0,1:2|0:0,0:0:0:0:
324,50,21283,1,10,0:0:0:0:
243,88,21471,1,2,0:0:0:0:
168,38,21658,1,2,0:0:0:0:
318,135,21846,1,2,0:0:0:0:
256,192,21939,12,0,25502,0:0:0:0:
364,140,26721,6,0,B|360:192|360:192|364:213,1,63.75,2|0,0:0|0:0,0:0:0:0:
386,221,27096,6,0,P|338:248|266:230,1,127.5,2|0,0:0|0:0,0:0:0:0:
255,142,27846,2,0,P|211:161|185:197,1,85,2|2,0:0|0:0,0:0:0:0:
268,326,28596,1,2,0:0:0:0:
346,188,28971,1,2,0:0:0:0:
425,324,29346,1,2,0:0:0:0:
425,324,30096,6,0,B|428:282|428:282|411:243|411:243|417:187,1,127.5,2|0,0:0|0:0,0:0:0:0:
340,143,30846,2,0,P|372:115|413:106,2,85,2|2|2,0:0|0:0|0:0,0:0:0:0:
340,143,31971,5,2,0:0:0:0:
269,189,32158,1,2,0:0:0:0:
189,158,32346,2,0,L|146:161,1,42.5,2|0,0:0|0:0,0:0:0:0:
113,234,32721,2,0,L|48:229,1,63.7500024318696,2|0,0:0|0:0,0:0:0:0:
156,303,33096,6,0,L|240:297,1,85,2|0,0:0|0:0,0:0:0:0:
264,278,33471,2,0,P|301:279|335:294,1,63.7500024318696,2|0,0:0|0:0,0:0:0:0:
177,361,33846,2,0,P|159:328|155:291,1,63.7500024318696,2|0,0:0|0:0,0:0:0:0:
166,128,34221,2,0,P|183:160|187:197,1,63.7500024318696,2|0,0:0|0:0,0:0:0:0:
31,270,34596,6,0,P|50:238|80:216,1,63.7500024318696,2|0,0:0|0:0,0:0:0:0:
304,151,34971,1,2,0:0:0:0:
154,302,35346,1,2,0:0:0:0:
154,302,36096,6,0,B|197:306|197:306|232:328|232:328|278:335,1,127.5,2|0,0:0|0:0,0:0:0:0:
311,248,36846,2,0,P|348:276|367:322,1,85,2|0,0:0|0:0,0:0:0:0:
219,261,37596,6,0,P|232:197|283:159,1,127.5,2|0,0:0|0:0,0:0:0:0:
361,181,38346,1,2,0:0:0:0:
432,135,38533,1,0,0:0:0:0:
373,259,38721,1,0,0:0:0:0:
379,279,38814,1,0,0:0:0:0:
392,296,38908,1,0,0:0:0:0:
409,308,39002,1,0,0:0:0:0:
478,335,39096,6,0,B|412:332|412:332|379:339,1,85,2|0,1:2|0:0,0:0:0:0:
348,352,39377,1,0,0:0:0:0:
348,352,39471,1,0,0:0:0:0:
285,270,39658,1,0,0:0:0:0:
242,363,39846,2,0,B|178:346|178:346|128:351|128:351|70:335,1,170,10|2,0:0|0:0,0:0:0:0:
134,262,40408,1,0,0:0:0:0:
83,181,40596,6,0,L|89:93,1,85,2|0,0:0|0:0,0:0:0:0:
223,241,40971,2,0,B|208:187|208:187|206:154,1,85,2|0,1:2|0:0,0:0:0:0:
375,252,41346,2,0,B|339:212|339:212|336:172,1,85,10|0,0:0|0:0,0:0:0:0:
459,168,41721,1,0,0:0:0:0:
389,106,41908,1,0,0:0:0:0:
439,25,42096,6,0,P|358:17|299:77,1,170,2|0,1:2|0:0,0:0:0:0:
311,110,42564,1,0,0:0:0:0:
311,110,42658,1,0,0:0:0:0:
229,28,42846,2,0,L|140:34,1,85,10|0,0:0|0:0,0:0:0:0:
0,119,43221,2,0,L|89:125,1,85,2|0,0:0|0:0,0:0:0:0:
229,210,43596,6,2,B|144:216|144:216|108:241,1,127.5,2|0,0:0|0:0,0:0:0:0:
37,309,43971,1,2,1:2:0:0:
180,307,44064,6,0,B|242:301|242:301|258:318|295:320,1,106.25,2|0,0:0|0:0,0:0:0:0:
289,249,44346,6,2,P|349:333|233:370,1,255,10|0,0:0|0:0,0:0:0:0:
286,263,44721,6,2,P|334:330|241:359,1,191.250007295609,2|0,0:0|0:0,0:0:0:0:
180,307,45096,5,2,1:2:0:0:
289,249,45471,2,0,P|295:195|264:126,1,127.500004863739,2|0,0:0|0:0,0:0:0:0:
321,172,45846,2,0,P|363:175|407:166,1,85,10|0,0:0|0:0,0:0:0:0:
397,16,46221,2,0,P|373:50|359:93,1,85,2|0,0:0|0:0,0:0:0:0:
449,241,46596,6,0,L|435:327,1,85,2|0,0:0|0:0,0:0:0:0:
320,203,46971,2,0,B|332:259|332:259|327:289,1,85,2|0,1:2|0:0,0:0:0:0:
186,176,47346,2,0,B|211:212|211:212|215:257,1,85,10|0,0:0|0:0,0:0:0:0:
130,248,47721,1,0,0:0:0:0:
167,323,47908,1,0,0:0:0:0:
44,243,48096,6,0,P|17:163|38:77,1,170,2|0,1:2|0:0,0:0:0:0:
121,37,48658,1,0,0:0:0:0:
184,110,48846,2,0,P|228:113|282:99,1,85,10|0,0:0|0:0,0:0:0:0:
398,27,49221,2,0,P|373:63|358:117,1,85,2|0,0:0|0:0,0:0:0:0:
481,199,49596,6,0,L|395:187,1,85,2|0,0:0|0:0,0:0:0:0:
229,241,49971,2,0,B|288:226|288:226|315:229,1,85,2|0,1:2|0:0,0:0:0:0:
478,294,50346,2,0,B|435:278|435:278|392:282,1,85,10|0,0:0|0:0,0:0:0:0:
305,319,50721,1,0,0:0:0:0:
381,376,50908,1,0,0:0:0:0:
215,355,51096,6,0,B|69:344|69:344|157:284,1,212.5,6|0,1:2|0:0,0:0:0:0:
274,210,51658,2,0,L|175:275,1,85,8|0,0:0|0:0,0:0:0:0:
123,306,52033,1,0,0:0:0:0:
0,186,52221,2,0,B|46:193|76:219|76:219|64:193|75:163,1,127.5,10|0,0:0|0:0,0:0:0:0:
139,189,52596,6,0,B|143:136|109:108|70:108|70:108|58:78|91:43,1,170,2|0,1:2|0:0,0:0:0:0:
177,127,53158,2,0,P|260:134|336:98,1,170,10|0,0:0|0:0,0:0:0:0:
450,17,53721,2,0,P|425:64|428:117,1,106.25,10|0,0:0|0:0,0:0:0:0:
492,233,54096,6,0,P|411:209|330:231,1,170,2|0,1:2|0:0,0:0:0:0:
384,360,54658,2,0,P|408:313|405:260,1,85,8|0,0:0|0:0,0:0:0:0:
354,138,55033,1,2,0:0:0:0:
301,318,55221,1,10,0:0:0:0:
484,274,55408,1,2,0:0:0:0:
261,171,55596,6,2,B|127:108|127:108|153:172,1,212.5,2|0,1:2|0:0,0:0:0:0:
298,172,56158,6,2,B|96:77|96:77|135:173,1,318.750012159348,10|0,0:0|0:0,0:0:0:0:
335,173,56721,2,2,B|133:78,1,191.250007295609,10|0,0:0|0:0,0:0:0:0:
212,154,57096,6,0,B|274:141|326:101|326:101|361:99|386:113|392:142,1,191.249994163513,6|0,1:2|0:0,0:0:0:0:
393,163,57658,2,0,B|418:114|412:51|412:51|430:101|459:126,1,191.249994163513,10|0,0:0|0:0,0:0:0:0:
507,165,58221,6,2,P|512:237|457:308,1,159.375,10|2,0:0|0:0,0:0:0:0:
391,297,58596,6,2,P|324:280|268:298,1,127.5,2|0,1:2|0:0,0:0:0:0:
246,310,58971,1,0,0:0:0:0:
303,202,59158,2,2,P|312:129|310:71,1,127.5,10|0,0:0|0:0,0:0:0:0:
304,38,59533,1,0,0:0:0:0:
182,207,59721,1,10,0:0:0:0:
390,229,60096,5,6,1:2:0:0:
390,229,60471,1,2,0:0:0:0:
182,207,60658,2,2,B|57:188|57:188|134:158,1,170,10|0,0:0|0:0,0:0:0:0:
249,129,61221,1,10,0:0:0:0:
199,306,61596,6,0,B|249:334|249:334|280:330,1,85,2|0,1:2|0:0,0:0:0:0:
391,270,61971,1,2,0:0:0:0:
292,228,62158,2,2,P|279:145|316:60,1,170,10|0,0:0|0:0,0:0:0:0:
310,67,63096,6,0,L|210:59,1,85,4|0,1:2|0:0,0:0:0:0:
121,180,63658,2,0,L|221:172,1,85,4|0,0:0|0:0,0:0:0:0:
311,240,64221,1,6,0:0:0:0:
256,192,64314,12,2,65721,0:0:0:0:
202,67,66096,6,0,L|302:59,1,85,4|0,1:2|0:0,0:0:0:0:
391,180,66658,2,0,L|291:172,1,85,4|0,0:0|0:0,0:0:0:0:
201,240,67221,1,6,0:0:0:0:
256,192,67314,12,0,68158,0:0:0:0:
311,143,68346,6,2,B|326:171|326:171|311:183|311:183|342:199|287:239|287:239|317:283|369:250|369:250|387:255|425:251,1,255.000009727478,2|0,0:0|0:0,0:0:0:0:
460,200,68814,1,2,0:0:0:0:
430,125,68908,2,2,B|412:90|415:57|415:57|427:75|479:74,1,127.500004863739,2|0,0:0|1:0,0:0:0:0:
411,81,75096,5,0,1:0:0:0:
332,48,75471,1,0,1:0:0:0:
257,89,75846,1,0,1:0:0:0:
179,54,76221,1,0,1:0:0:0:
335,124,76596,5,0,1:0:0:0:
196,224,76971,1,0,1:0:0:0:
356,216,77346,2,0,L|443:206,1,85,0|0,1:0|0:0,0:0:0:0:
374,322,77721,2,0,L|287:312,1,85,0|0,1:0|0:0,0:0:0:0:
196,224,78096,5,0,1:0:0:0:
217,297,78283,1,0,1:0:0:0:
171,358,78471,1,0,1:0:0:0:
86,179,78658,5,8,0:0:0:0:
65,252,78845,1,0,1:0:0:0:
111,313,79033,1,0,1:0:0:0:
217,297,79221,5,0,1:0:0:0:
258,287,79314,1,0,1:0:0:0:
300,290,79408,1,0,1:0:0:0:
339,305,79502,1,0,1:0:0:0:
373,332,79596,6,0,P|398:348|440:357,1,63.7500024318696,8|0,0:0|0:0,0:0:0:0:
411,249,79783,2,2,B|411:208|411:208|408:202|408:202|407:162,1,85,2|0,0:0|0:0,0:0:0:0:
473,105,79971,1,8,0:0:0:0:
325,165,80158,6,2,B|264:157|264:157|218:164|218:164|156:157,1,170,2|0,0:0|0:0,0:0:0:0:
149,163,80533,2,2,P|162:172|165:189,1,21.25,10|0,0:0|0:0,0:0:0:0:
120,295,80721,2,2,L|378:332,1,255,0|0,0:0|0:0,0:0:0:0:
473,343,81096,6,2,B|461:283|461:283|418:241|418:241|411:187,1,170,6|0,1:2|0:0,0:0:0:0:
391,28,81377,2,2,B|401:117|401:117|312:111,1,170,2|0,0:0|0:0,0:0:0:0:
146,97,81658,2,2,B|244:104,1,85,2|0,0:0|0:0,0:0:0:0:
325,199,81846,6,2,P|291:194|249:203,1,63.7500024318696,10|0,0:0|0:0,0:0:0:0:
176,247,82127,6,2,B|173:283|173:283|165:299|165:299|162:335,1,85,2|0,0:0|0:0,0:0:0:0:
355,349,82314,1,2,0:0:0:0:
275,281,82408,2,2,B|272:245|272:245|264:229|264:229|261:193,1,85,2|0,0:0|0:0,0:0:0:0:
230,103,82596,6,2,P|264:98|306:107,1,63.7500024318696,2|0,1:2|0:0,0:0:0:0:
359,176,82877,6,2,P|404:178|445:164,2,85,2|0|0,0:0|0:0|0:0,0:0:0:0:
230,104,83158,2,2,B|187:65|180:24|180:24|177:62|154:93,1,170,2|10,0:0|0:0,0:0:0:0:
123,171,83439,1,2,0:0:0:0:
91,249,83533,1,2,0:0:0:0:
59,327,83627,1,2,0:0:0:0:
168,273,83721,6,2,P|211:271|255:288,1,85,2|0,0:0|0:0,0:0:0:0:
358,354,83908,6,2,L|336:339,1,21.25,2|0,1:2|0:0,0:0:0:0:
274,248,84096,6,2,B|267:187|267:187|231:155|231:155|220:93,1,170,2|0,1:2|0:0,0:0:0:0:
386,65,84377,2,2,B|301:117|301:117|361:171,1,170,2|0,0:0|0:0,0:0:0:0:
512,277,84658,2,2,L|442:227,1,85,2|0,0:0|0:0,0:0:0:0:
414,348,84846,6,2,L|363:311,1,63.7500024318696,10|0,0:0|0:0,0:0:0:0:
274,248,85127,6,2,B|246:247|246:247|219:253|219:253|184:252,1,85,2|0,0:0|0:0,0:0:0:0:
62,250,85314,1,2,0:0:0:0:
156,172,85408,2,2,B|157:144|157:144|151:117|151:117|152:82,1,85,2|0,0:0|0:0,0:0:0:0:
277,156,85596,6,2,P|331:156|269:129,1,170,2|0,1:2|0:0,0:0:0:0:
302,133,85783,6,2,B|348:156|382:153|382:153|399:139|431:142,1,127.500004863739,2|0,0:0|0:0,0:0:0:0:
421,211,85971,6,2,P|482:183|447:77,1,170,2|0,0:0|0:0,0:0:0:0:
405,71,86158,6,2,B|375:67|375:67|363:62|363:62|352:65|321:57,1,85,2|0,0:0|0:0,0:0:0:0:
135,156,86346,2,2,B|164:152|164:152|177:147|177:147|188:150|219:142,1,85,10|0,0:0|0:0,0:0:0:0:
302,133,86533,1,8,3:0:0:0:
270,208,86627,1,8,3:0:0:0:
238,283,86721,6,2,P|271:291|312:278,1,63.75,6|0,0:0|0:0,0:0:0:0:
349,224,87096,6,2,P|377:300|305:364,1,170,2|0,1:2|0:0,0:0:0:0:
108,357,87377,2,2,B|186:358|186:358|130:272,1,170,2|0,0:0|0:0,0:0:0:0:
26,135,87658,2,2,L|78:212,1,85,2|0,0:0|0:0,0:0:0:0:
219,159,87846,6,2,P|191:186|159:197,1,63.7500024318696,10|0,0:0|0:0,0:0:0:0:
131,101,88127,6,2,B|131:64|131:64|123:51|123:51|123:15,1,85,2|0,0:0|0:0,0:0:0:0:
209,79,88314,1,2,0:0:0:0:
350,156,88408,2,2,B|317:137|317:137|310:124|310:124|279:106,1,85,2|0,0:0|0:0,0:0:0:0:
219,159,88596,6,2,L|285:204,1,63.7500024318696,2|0,1:2|0:0,0:0:0:0:
422,204,88877,6,2,P|381:238|329:240,2,85,2|0|0,0:0|0:0|0:0,0:0:0:0:
425,84,89158,2,2,B|394:49|340:43|340:43|372:73|365:118,1,170,2|10,0:0|0:0,0:0:0:0:
282,107,89439,1,2,0:0:0:0:
197,105,89533,1,2,0:0:0:0:
112,103,89627,1,2,0:0:0:0:
225,25,89721,6,2,L|197:105,1,85,2|0,0:0|0:0,0:0:0:0:
158,205,89908,6,2,L|166:181,1,21.25,2|0,0:0|0:0,0:0:0:0:
282,107,90096,6,2,L|224:266,1,170,2|0,1:2|0:0,0:0:0:0:
91,263,90377,2,2,B|185:368|185:368|204:321,1,170,2|0,0:0|0:0,0:0:0:0:
158,205,90658,2,2,P|203:180|263:185,1,85
308,235,90846,2,2,P|349:230|385:207,1,85,10|2,0:0|0:0,0:0:0:0:
419,123,91033,5,2,0:0:0:0:
439,280,91127,2,2,B|449:317|441:383|441:383|452:340|487:315,1,170,2|0,0:0|0:0,0:0:0:0:
501,307,91408,1,2,1:2:0:0:
251,286,91596,5,10,0:0:0:0:
471,197,91783,1,2,0:0:0:0:
202,151,91971,5,2,1:2:0:0:
439,280,92158,1,10,0:0:0:0:
439,280,92533,6,2,L|453:263,1,21.25,10|0,0:0|0:0,0:0:0:0:
439,280,92721,6,2,L|181:285,1,255,2|0,0:0|0:0,0:0:0:0:
50,189,93096,6,2,B|148:180|148:180|209:198|209:198|309:198,1,255,6|0,1:2|0:0,0:0:0:0:
435,159,93471,2,2,P|423:125|409:151,1,85,2|0,0:0|0:0,0:0:0:0:
307,82,93658,2,2,P|279:58|280:88,1,85,2|0,0:0|0:0,0:0:0:0:
170,149,93846,6,2,B|113:50|113:50|105:106,1,170,10|0,0:0|0:0,0:0:0:0:
96,179,94127,1,2,0:0:0:0:
54,243,94221,6,0,P|63:269|63:291,1,42.5
36,323,94408,6,2,B|72:326|72:326|92:333|92:333|126:338,1,85,2|0,0:0|0:0,0:0:0:0:
339,312,94596,6,2,B|218:326|218:326|233:268,1,170,2|0,1:2|0:0,0:0:0:0:
260,148,94877,6,2,L|247:200,1,42.5,2|0,0:0|0:0,0:0:0:0:
249,189,95158,6,2,L|269:106,1,85,2|0,0:0|0:0,0:0:0:0:
446,35,95346,6,2,L|356:45,1,85,10|2,0:0|0:0,0:0:0:0:
88,64,95533,2,2,L|178:74,1,85
496,106,95721,2,2,P|503:151|492:195,1,85,2|0,0:0|0:0,0:0:0:0:
413,303,95908,6,2,L|435:269,1,31.8750012159348,2|0,1:2|0:0,0:0:0:0:
413,303,96096,6,2,B|333:286|333:286|254:325|254:325|168:312,1,255,6|0,1:2|0:0,0:0:0:0:
247,209,96471,2,2,P|266:173|236:190,1,85,2|0,0:0|0:0,0:0:0:0:
165,68,96658,2,2,P|129:65|145:97,1,85,2|0,0:0|0:0,0:0:0:0:
281,70,96846,6,2,B|402:64|402:64|371:104,1,170,10|0,0:0|0:0,0:0:0:0:
314,147,97127,1,2,0:0:0:0:
322,219,97221,6,0,P|344:232|366:236,1,42.5
420,189,97408,6,2,P|434:245|419:284,1,85,2|0,0:0|0:0,0:0:0:0:
294,337,97596,6,2,B|399:336,1,85,2|2,1:2|0:0,0:0:0:0:
157,308,97783,2,2,B|52:307,1,85
237,219,97971,2,2,B|342:218,1,85,2|0,0:0|0:0,0:0:0:0:
160,230,98158,6,2,P|170:178|205:148,1,85,2|0,0:0|0:0,0:0:0:0:
400,207,98346,2,2,P|362:224|321:218,1,85,10|0,0:0|0:0,0:0:0:0:
277,144,98533,1,8,3:0:0:0:
224,77,98627,1,8,3:0:0:0:
138,80,98721,6,0,P|103:80|75:66,1,63.75,6|0,0:0|0:0,0:0:0:0:
31,1,99096,6,2,B|-21:54|0:115|46:141|46:141|19:168|13:195|16:224,1,255,2|0,1:2|0:0,0:0:0:0:
181,347,99471,2,2,P|193:313|156:322,1,85,2|0,0:0|0:0,0:0:0:0:
127,206,99658,2,2,P|93:193|102:231,1,85,2|0,0:0|0:0,0:0:0:0:
236,235,99846,6,2,B|294:224|294:224|342:241|342:241|401:235,1,170,10|0,0:0|0:0,0:0:0:0:
287,303,100127,6,2,B|336:320|336:320|379:314,1,85,2|0,0:0|0:0,0:0:0:0:
354,164,100408,2,2,B|342:143|342:143|344:123,1,42.5,2|0,0:0|0:0,0:0:0:0:
428,116,100596,6,2,P|381:49|289:60,1,170,2|0,1:2|0:0,0:0:0:0:
218,148,100877,6,2,L|246:113,1,42.5,2|0,0:0|0:0,0:0:0:0:
244,114,101158,6,2,L|190:180,1,85,2|0,0:0|0:0,0:0:0:0:
121,346,101346,6,2,B|105:289|105:289|133:251,1,85,10|0,0:0|0:0,0:0:0:0:
198,256,101533,1,2,0:0:0:0:
301,344,101627,2,2,B|354:321|354:321|412:337|412:337|481:313,1,170,10|0,0:0|0:0,0:0:0:0:
406,251,101908,1,2,0:0:0:0:
481,32,102096,6,2,L|266:37,1,212.5,6|0,0:0|0:0,0:0:0:0:
100,123,102658,2,2,L|315:128,1,212.5,10|0,0:0|1:0,0:0:0:0:
481,214,103221,6,2,L|266:219,1,212.5,10|0,0:0|0:0,0:0:0:0:
183,219,103783,1,12,0:0:0:0:
183,219,104346,6,2,P|113:194|182:235,1,223.125008511544,2|0,1:2|0:0,0:0:0:0:
183,219,105096,6,0,P|227:215|272:223,1,85,4|0,0:0|0:0,0:0:0:0:
332,276,105471,1,0,0:0:0:0:
353,193,105658,1,0,0:0:0:0:
311,359,105846,2,0,P|352:360|396:333,1,85,10|0,0:0|0:0,0:0:0:0:
266,221,106221,2,0,P|247:261|252:308,1,85,2|0,0:0|0:0,0:0:0:0:
413,247,106596,6,0,P|387:210|344:191,1,85
191,166,106971,1,2,1:2:0:0:
281,127,107158,1,0,0:0:0:0:
371,88,107346,2,0,P|309:32|219:51,1,170,10|0,0:0|0:0,0:0:0:0:
281,127,108096,6,0,L|287:211,1,85,2|0,1:2|0:0,0:0:0:0:
146,178,108471,2,0,L|152:94,2,85,2|0|8,0:0|0:0|0:0,0:0:0:0:
208,235,109033,1,0,0:0:0:0:
149,297,109221,2,0,P|186:318|238:316,1,85,2|0,0:0|0:0,0:0:0:0:
347,205,109596,6,0,P|310:226|286:272,1,85,2|0,1:2|0:0,0:0:0:0:
310,343,109971,1,2,0:0:0:0:
208,235,110158,1,0,1:0:0:0:
208,235,110252,1,0,1:0:0:0:
208,235,110346,5,10,0:0:0:0:
371,288,110533,1,0,1:0:0:0:
149,297,110721,5,10,0:0:0:0:
390,264,110908,1,0,1:0:0:0:
129,320,111096,6,0,L|125:237,1,85,6|0,1:2|0:0,0:0:0:0:
212,150,111471,2,0,L|207:233,1,85,2|0,0:0|0:0,0:0:0:0:
287,317,111846,2,0,L|296:147,1,170,10|0,0:0|0:0,0:0:0:0:
296,147,112596,6,0,P|339:158|378:148,1,85,2|0,0:0|0:0,0:0:0:0:
254,76,112971,2,0,P|222:107|212:146,1,85,2|0,1:2|0:0,0:0:0:0:
336,75,113346,2,0,P|324:32|295:3,1,85,10|0,0:0|0:0,0:0:0:0:
170,58,113721,1,2,0:0:0:0:
91,25,113908,1,2,0:0:0:0:
127,133,114096,6,0,P|121:182|97:224,1,85,2|0,1:2|0:0,0:0:0:0:
31,256,114471,1,0,1:0:0:0:
52,279,114564,1,0,1:0:0:0:
80,294,114658,1,0,1:0:0:0:
111,298,114752,1,0,1:0:0:0:
142,290,114846,2,0,P|226:266|311:303,1,170,10|2,0:0|0:0,0:0:0:0:
374,356,115408,1,0,1:0:0:0:
413,370,115501,1,0,1:0:0:0:
456,368,115596,6,0,P|482:331|491:292,1,85,10|0,0:0|1:0,0:0:0:0:
374,356,115971,1,0,1:0:0:0:
453,215,116158,1,8,0:0:0:0:
292,218,116346,5,0,1:0:0:0:
263,218,116439,1,0,1:0:0:0:
235,213,116533,1,0,1:0:0:0:
209,204,116627,1,0,1:0:0:0:
184,190,116721,1,8,0:0:0:0:
162,173,116814,1,0,1:0:0:0:
143,152,116908,2,0,P|123:133|107:126,1,42.5,0|0,1:0|0:0,0:0:0:0:
32,118,117096,6,0,P|48:199|31:284,1,170,6|0,1:2|0:0,0:0:0:0:
6,365,117658,1,8,0:0:0:0:
114,289,117846,2,0,L|199:279,1,85
291,342,118221,2,0,L|376:352,1,85,10|0,0:0|0:0,0:0:0:0:
286,257,118596,6,0,L|456:277,1,170,2|0,1:2|0:0,0:0:0:0:
391,153,119158,2,0,L|221:173,1,170,10|0,0:0|0:0,0:0:0:0:
138,187,119721,1,10,0:0:0:0:
138,187,120096,6,0,P|147:130|254:93,1,170,2|0,1:2|0:0,0:0:0:0:
222,172,120658,2,0,P|272:169|310:136,1,85,8|0,0:0|0:0,0:0:0:0:
326,71,121033,1,2,0:0:0:0:
340,221,121221,1,10,0:0:0:0:
241,89,121408,1,2,0:0:0:0:
425,203,121596,6,0,P|404:281|324:307,1,170,2|0,1:2|0:0,0:0:0:0:
340,221,122158,2,0,P|262:246|240:325,1,170,10|0,0:0|0:0,0:0:0:0:
325,307,122721,1,10,0:0:0:0:
96,268,123096,6,0,L|75:95,1,170,2|0,1:2|0:0,0:0:0:0:
230,38,123658,2,0,L|209:206,1,170,10|0,0:0|0:0,0:0:0:0:
197,291,124221,1,10,0:0:0:0:
197,291,124596,6,0,P|273:264|288:176,1,170,2|0,1:2|0:0,0:0:0:0:
223,131,125158,2,0,P|262:103|308:102,1,85,10|0,0:0|0:0,0:0:0:0:
366,150,125533,1,0,0:0:0:0:
462,41,125721,2,0,L|446:132,1,85,10|0,0:0|0:0,0:0:0:0:
374,312,126096,6,0,L|358:221,1,85,2|0,1:2|0:0,0:0:0:0:
366,150,126471,1,2,0:0:0:0:
299,373,126658,2,0,L|267:191,1,170,10|0,0:0|0:0,0:0:0:0:
252,121,127221,1,10,0:0:0:0:
252,121,127596,6,0,P|206:146|187:178,1,85,2|0,1:2|0:0,0:0:0:0:
170,255,127971,1,2,0:0:0:0:
72,85,128158,2,0,L|84:270,1,170,10|0,0:0|0:0,0:0:0:0:
212,328,129096,6,0,L|299:318,1,85,4|0,0:0|0:0,0:0:0:0:
386,240,129658,2,0,L|299:230,1,85,4|0,0:0|0:0,0:0:0:0:
217,218,130221,1,6,0:0:0:0:
256,192,130314,12,2,131721,0:0:0:0:
212,56,132096,6,0,L|299:66,1,85,4|0,0:0|0:0,0:0:0:0:
386,144,132658,2,0,L|299:154,1,85,4|0,0:0|0:0,0:0:0:0:
217,166,133221,1,6,0:0:0:0:
256,192,133314,12,0,134721,0:0:0:0:
195,136,135096,6,0,P|149:175|146:247,2,127.5,2|2|2,0:0|0:0|0:0,0:0:0:0:
195,136,137721,1,2,0:0:0:0:
226,214,138096,6,0,P|282:234|346:200,1,127.5,2|2,0:0|0:0,0:0:0:0:
341,207,139221,2,0,B|327:136|346:58|346:58|317:90|275:106|275:106|249:86|227:45|227:45|215:123|167:186,1,467.5,2|0,0:0|0:0,0:0:0:0:
