osu file format v14

[General]
AudioFilename: audio.mp3
AudioLeadIn: 0
PreviewTime: 117823
Countdown: 0
SampleSet: Soft
StackLeniency: 0.7
Mode: 0
LetterboxInBreaks: 0
EpilepsyWarning: 1
WidescreenStoryboard: 0

[Editor]
Bookmarks: 82012,141448
DistanceSpacing: 1
BeatDivisor: 8
GridSize: 8
TimelineZoom: 1.5

[Metadata]
Title:Magnolia
TitleUnicode:Magnolia
Artist:M2U
ArtistUnicode:M2U
Creator:Ameyy
Version:DROPPED ME BAD
Source:
Tags:
BeatmapID:1694390
BeatmapSetID:807308

[Difficulty]
HPDrainRate:8
CircleSize:4
OverallDifficulty:6
ApproachRate:9.2
SliderMultiplier:1.9
SliderTickRate:1

[Events]
//Background and Video events
0,0,"Konachan.com - 168197 sample.jpg",0,0
//Break Periods
//Storyboard Layer 0 (Background)
//Storyboard Layer 1 (Fail)
//Storyboard Layer 2 (Pass)
//Storyboard Layer 3 (Foreground)
//Storyboard Sound Samples

[TimingPoints]
2512,375,4,2,1,80,1,0
2512,-125,4,2,99,50,0,0
2793,-125,4,2,1,30,0,0
3543,-125,4,2,1,5,0,0
3637,-125,4,2,1,30,0,0
3918,-125,4,2,1,5,0,0
4012,-125,4,2,1,30,0,0
4293,-125,4,2,1,5,0,0
4387,-125,4,2,1,30,0,0
8512,-83.3333333333333,4,3,2,50,0,0
8793,-83.3333333333333,4,3,1,5,0,0
8887,-125,4,3,1,40,0,0
9543,-125,4,3,1,5,0,0
9637,-125,4,3,1,40,0,0
9918,-125,4,3,1,5,0,0
10012,-125,4,3,1,40,0,0
10293,-125,4,3,1,5,0,0
10387,-125,4,3,1,40,0,0
11043,-125,4,3,1,5,0,0
11137,-125,4,3,1,40,0,0
11418,-125,4,3,1,5,0,0
11512,-125,4,3,1,40,0,0
11793,-125,4,3,1,5,0,0
11887,-125,4,3,1,40,0,0
12262,-83.3333333333333,4,3,1,40,0,0
12543,-83.3333333333333,4,3,1,5,0,0
12637,-83.3333333333333,4,3,1,40,0,0
12918,-83.3333333333333,4,3,1,5,0,0
13012,-83.3333333333333,4,3,1,40,0,0
13762,-83.3333333333333,4,3,99,40,0,0
13949,-100,4,3,98,40,0,0
14230,-100,4,3,97,40,0,0
14512,-100,4,3,1,40,0,0
16762,-125,4,3,2,40,0,0
18262,-125,4,3,1,40,0,0
19012,-125,4,3,100,40,0,0
19105,-125,4,3,1,40,0,0
19574,-100,4,3,1,40,0,0
21637,-100,4,3,2,40,0,0
22199,-100,4,3,1,40,0,0
22762,-142.857142857143,4,3,1,50,0,0
23324,-142.857142857143,4,2,1,50,0,0
25012,-200,4,2,2,60,0,0
26512,-200,4,2,1,5,0,0
27637,-100,4,2,1,50,0,0
34293,-100,4,2,1,5,0,0
34387,-100,4,2,1,50,0,0
34668,-100,4,2,1,5,0,0
34762,-100,4,2,1,50,0,0
35043,-100,4,2,1,5,0,0
35137,-100,4,2,1,50,0,0
35418,-100,4,2,1,5,0,0
35512,-100,4,2,1,50,0,0
40012,-83.3333333333333,4,3,2,70,0,0
40762,-83.3333333333333,4,3,1,70,0,0
41793,-83.3333333333333,4,3,1,5,0,0
41887,-83.3333333333333,4,3,2,70,0,0
42168,-83.3333333333333,4,3,2,5,0,0
42262,-83.3333333333333,4,3,1,70,0,0
43012,-83.3333333333333,4,3,2,70,0,0
43762,-83.3333333333333,4,3,1,70,0,0
44887,-83.3333333333333,4,3,2,70,0,0
45262,-83.3333333333333,4,3,1,70,0,0
46012,-83.3333333333333,4,3,2,70,0,0
46293,-83.3333333333333,4,3,2,5,0,0
46387,-83.3333333333333,4,3,2,70,0,0
46668,-83.3333333333333,4,3,2,5,0,0
46762,-83.3333333333333,4,3,1,70,0,0
47043,-83.3333333333333,4,3,1,5,0,0
47137,-83.3333333333333,4,3,1,70,0,0
47887,-83.3333333333333,4,3,2,70,0,0
48262,-83.3333333333333,4,3,1,70,0,0
49012,-83.3333333333333,4,3,2,70,0,0
49762,-83.3333333333333,4,3,1,70,0,0
50887,-83.3333333333333,4,3,2,70,0,0
51262,-83.3333333333333,4,3,1,70,0,0
52012,-71.4285714285714,4,3,2,70,0,0
52574,-83.3333333333333,4,3,1,70,0,0
53137,-83.3333333333333,4,3,1,70,0,0
53512,-71.4285714285714,4,3,2,70,0,0
54074,-71.4285714285714,4,3,1,70,0,0
54637,-83.3333333333333,4,3,1,70,0,0
55012,-71.4285714285714,4,3,2,70,0,0
55574,-83.3333333333333,4,3,1,70,0,0
56137,-83.3333333333333,4,3,1,70,0,0
56512,-71.4285714285714,4,3,2,70,0,0
57074,-83.3333333333333,4,3,1,70,0,0
57637,-100,4,3,1,70,0,0
58012,-71.4285714285714,4,3,2,70,0,0
58574,-83.3333333333333,4,3,1,70,0,0
59137,-100,4,3,1,70,0,0
59512,-71.4285714285714,4,3,2,70,0,0
60074,-83.3333333333333,4,3,1,70,0,0
60637,-100,4,3,1,70,0,0
61012,-71.4285714285714,4,3,2,70,0,0
61293,-71.4285714285714,4,3,2,5,0,0
61387,-71.4285714285714,4,3,1,70,0,0
61855,-71.4285714285714,4,3,1,5,0,0
61949,-71.4285714285714,4,3,1,70,0,0
62137,-83.3333333333333,4,3,1,70,0,0
62512,-71.4285714285714,4,3,2,70,0,0
63074,-142.857142857143,4,3,1,70,0,0
64012,-71.4285714285714,4,3,2,70,0,0
64293,-71.4285714285714,4,3,2,5,0,0
64387,-71.4285714285714,4,3,2,70,0,0
64574,-71.4285714285714,4,3,1,70,0,0
64855,-71.4285714285714,4,3,1,5,0,0
64949,-71.4285714285714,4,3,1,70,0,0
65137,-100,4,3,1,70,0,0
66262,-100,4,3,1,70,0,0
67012,-66.6666666666667,4,3,2,70,0,0
67574,-66.6666666666667,4,3,1,70,0,0
69824,-66.6666666666667,4,3,1,25,0,0
70012,-100,4,3,1,50,0,0
71137,-100,4,3,99,50,0,0
71887,-100,4,3,98,50,0,0
72262,-100,4,3,3,60,0,0
73199,-100,4,3,1,55,0,0
74137,-100,4,3,99,55,0,0
74512,-100,4,3,1,55,0,0
74887,-100,4,3,98,55,0,0
75262,-100,4,3,3,70,0,0
76012,-100,4,3,5,70,0,0
76199,-100,4,3,2,65,0,0
76387,-100,4,3,96,65,0,0
76762,-100,4,3,98,65,0,0
77137,-50,4,3,5,65,0,0
77512,-100,4,3,2,65,0,0
77887,-100,4,3,96,65,0,0
78074,-100,4,3,2,65,0,0
78449,-100,4,3,5,65,0,0
78637,-50,4,3,5,65,0,0
79012,-66.6666666666667,4,3,1,65,0,0
79199,-66.6666666666667,4,3,2,65,0,0
79574,-66.6666666666667,4,3,1,65,0,0
79762,-66.6666666666667,4,3,2,65,0,0
80137,-66.6666666666667,4,3,1,65,0,0
80230,-66.6666666666667,4,3,2,65,0,0
80512,-66.6666666666667,4,3,1,65,0,0
81074,-66.6666666666667,4,3,99,65,0,0
81262,-66.6666666666667,4,3,1,65,0,0
81637,-45.4545454545455,4,3,97,65,0,0
82012,-100,4,3,90,85,0,1
82199,-100,4,3,83,70,0,0
82293,-50,4,3,83,70,0,0
82574,-66.6666666666667,4,3,83,70,0,0
82762,-50,4,3,86,70,0,0
82949,-50,4,3,83,70,0,0
83512,-50,4,3,85,70,0,0
83793,-50,4,3,83,70,0,0
84074,-50,4,3,6,70,0,0
84730,-50,4,3,97,70,0,0
84824,-71.4285714285714,4,3,83,70,0,0
85012,-100,4,3,2,70,0,0
85293,-50,4,3,83,70,0,0
85574,-71.4285714285714,4,3,83,70,0,0
85762,-50,4,3,86,70,0,0
85949,-50,4,3,83,70,0,0
86512,-50,4,3,85,70,0,0
87637,-50,4,3,99,70,0,0
88012,-100,4,3,2,70,0,0
88293,-50,4,3,83,70,0,0
88574,-71.4285714285714,4,3,83,70,0,0
88762,-50,4,3,86,70,0,0
88949,-50,4,3,83,70,0,0
89512,-50,4,3,85,70,0,0
89793,-50,4,3,83,70,0,0
90262,-50,4,3,6,70,0,0
90730,-50,4,3,97,70,0,0
91012,-100,4,3,2,70,0,0
91293,-50,4,3,83,70,0,0
91574,-71.4285714285714,4,3,83,70,0,0
91762,-50,4,3,86,70,0,0
92137,-66.6666666666667,4,3,97,70,0,0
92512,-66.6666666666667,4,3,6,70,0,0
93168,-66.6666666666667,4,3,99,70,0,0
93543,-45.4545454545455,4,3,98,70,0,0
94012,-100,4,3,90,85,0,1
94293,-50,4,3,83,70,0,0
94387,-50,4,3,6,70,0,0
94762,-50,4,3,55,70,0,0
94855,-50,4,3,6,70,0,0
95043,-50,4,3,57,70,0,0
95230,-71.4285714285714,4,3,83,70,0,0
95418,-50,4,3,83,70,0,0
95512,-50,4,3,55,70,0,0
95605,-50,4,3,83,70,0,0
95793,-50,4,3,57,70,0,0
95887,-50,4,3,83,70,0,0
96074,-50,4,3,86,70,0,0
96262,-50,4,3,6,70,0,0
96637,-50,4,3,97,70,0,0
97012,-100,4,3,2,70,0,0
97293,-50,4,3,83,70,0,0
97387,-50,4,3,96,70,0,0
97762,-50,4,3,55,70,0,0
97855,-50,4,3,83,70,0,0
98043,-50,4,3,57,70,0,0
98230,-71.4285714285714,4,3,83,70,0,0
98418,-50,4,3,83,70,0,0
98512,-50,4,3,6,70,0,0
99074,-50,4,3,85,70,0,0
99262,-50,4,3,85,70,0,0
99637,-50,4,3,99,70,0,0
100012,-100,4,3,2,70,0,0
100293,-50,4,3,83,70,0,0
100387,-50,4,3,96,70,0,0
100762,-50,4,3,55,70,0,0
100855,-50,4,3,83,70,0,0
101043,-50,4,3,57,70,0,0
101230,-71.4285714285714,4,3,83,70,0,0
101418,-50,4,3,83,70,0,0
101512,-50,4,3,97,70,0,0
101793,-50,4,3,96,70,0,0
102168,-50,4,3,99,70,0,0
102543,-50,4,3,96,70,0,0
103012,-100,4,3,2,70,0,0
103574,-100,4,3,1,70,0,0
103949,-100,4,3,2,70,0,0
104699,187.5,4,3,1,80,1,0
105261,375,4,3,99,65,1,0
106011,-100,4,3,2,65,0,0
106761,-100,4,3,1,65,0,0
107511,-100,4,3,2,65,0,0
108261,-100,4,3,1,65,0,0
109011,-100,4,3,2,65,0,0
109761,-100,4,3,1,65,0,0
110511,-100,4,3,2,65,0,0
111261,-100,4,3,1,65,0,0
112011,-100,4,3,2,65,0,0
112761,-100,4,3,1,65,0,0
113511,-100,4,3,2,65,0,0
114261,-100,4,3,1,65,0,0
116136,-100,4,3,2,65,0,0
116511,-100,4,3,1,65,0,0
116886,-100,4,3,2,65,0,0
117073,-100,4,3,1,65,0,0
117261,-100,4,3,98,65,0,0
117636,-100,4,3,1,65,0,0
118011,-71.4285714285714,4,3,2,70,0,0
118573,-71.4285714285714,4,3,93,70,0,0
119136,-83.3333333333333,4,3,1,70,0,0
119511,-71.4285714285714,4,3,2,70,0,0
120073,-71.4285714285714,4,3,93,70,0,0
120636,-83.3333333333333,4,3,1,70,0,0
121011,-71.4285714285714,4,3,2,70,0,0
121573,-71.4285714285714,4,3,93,70,0,0
122136,-71.4285714285714,4,3,1,70,0,0
122511,-71.4285714285714,4,3,91,70,0,0
123073,-71.4285714285714,4,3,93,70,0,0
123636,-83.3333333333333,4,3,1,70,0,0
123917,-83.3333333333333,4,3,1,5,0,0
124011,-71.4285714285714,4,3,91,70,0,0
124573,-71.4285714285714,4,3,93,70,0,0
125136,-83.3333333333333,4,3,1,70,0,0
125417,-83.3333333333333,4,3,1,5,0,0
125511,-71.4285714285714,4,3,91,70,0,0
126073,-71.4285714285714,4,3,93,70,0,0
126636,-83.3333333333333,4,3,1,70,0,0
126917,-83.3333333333333,4,3,1,5,0,0
127011,-71.4285714285714,4,3,91,70,0,0
127292,-71.4285714285714,4,3,1,5,0,0
127386,-71.4285714285714,4,3,1,70,0,0
127573,-71.4285714285714,4,3,93,70,0,0
127854,-71.4285714285714,4,3,93,5,0,0
127948,-71.4285714285714,4,3,93,5,0,0
128136,-71.4285714285714,4,3,99,70,0,0
128511,-71.4285714285714,4,3,93,70,0,0
129073,-142.857142857143,4,3,99,70,0,0
130011,-71.4285714285714,4,3,1,70,0,0
130292,-71.4285714285714,4,3,1,5,0,0
130386,-71.4285714285714,4,3,1,70,0,0
130854,-71.4285714285714,4,3,1,5,0,0
130948,-71.4285714285714,4,3,1,70,0,0
131136,-142.857142857143,4,3,99,70,0,0
131886,-142.857142857143,4,3,2,70,0,0
133011,-71.4285714285714,4,3,1,70,0,0
133292,-71.4285714285714,4,3,1,5,0,0
133386,-71.4285714285714,4,3,1,70,0,0
133573,-71.4285714285714,4,3,1,70,0,0
133854,-71.4285714285714,4,3,1,5,0,0
133948,-71.4285714285714,4,3,1,70,0,0
135823,-71.4285714285714,4,3,99,40,0,0
136011,-71.4285714285714,4,2,1,20,0,0
140136,-71.4285714285714,4,2,2,40,0,0
140229,-71.4285714285714,4,2,2,15,0,0
141823,-71.4285714285714,4,2,2,5,0,0

[HitObjects]
56,140,2512,6,0,P|106:140|151:60,1,114,6|0,0:0|0:0,0:0:0:0:
247,125,2887,1,0,0:0:0:0:
281,140,2980,1,0,0:0:0:0:
315,155,3074,1,0,0:0:0:0:
350,169,3168,1,0,0:0:0:0:
384,184,3262,6,0,L|492:235,1,114
384,292,3637,2,0,P|326:261|254:263,1,114
318,351,4012,2,0,P|368:382|449:354,1,114
471,309,4387,1,0,0:0:0:0:
287,265,4574,1,0,0:0:0:0:
287,265,4668,1,0,0:0:0:0:
287,265,4762,2,0,P|205:274|142:247,1,152
241,59,5512,6,0,B|282:70|320:48|320:48|304:84,1,114,2|0,0:0|0:0,0:0:0:0:
221,156,5887,1,0,0:0:0:0:
184,148,5980,1,0,0:0:0:0:
155,122,6074,1,0,0:0:0:0:
138,87,6168,1,0,0:0:0:0:
121,52,6262,2,0,B|66:37|39:8|39:8|80:59|56:93,1,152
221,156,6824,5,0,0:0:0:0:
142,249,7012,2,0,P|188:275|296:254,1,152
388,153,7574,1,0,0:0:0:0:
388,153,7668,1,0,0:0:0:0:
388,153,7762,2,0,B|426:137|440:93|440:93|425:179|452:268,1,228
283,262,8512,6,0,P|262:319|155:331,1,170.999994781494,12|0,0:0|0:0,0:0:0:0:
227,193,8887,1,0,0:0:0:0:
259,174,8980,1,0,0:0:0:0:
296,171,9074,1,0,0:0:0:0:
331,184,9168,1,0,0:0:0:0:
357,211,9262,6,0,L|386:327,1,114,8|0,0:0|0:0,0:0:0:0:
259,174,9637,2,0,P|263:111|296:50,1,114
283,262,10012,2,0,P|226:265|155:236,1,114
357,211,10387,1,0,0:0:0:0:
392,197,10480,1,0,0:0:0:0:
430,193,10574,1,0,0:0:0:0:
467,197,10668,1,0,0:0:0:0:
506,211,10762,6,0,B|497:271|497:271|466:325,1,114,8|0,0:0|0:0,0:0:0:0:
392,197,11137,2,0,B|406:142|406:142|444:82,1,114
379,294,11512,2,0,B|328:307|328:307|242:296,1,114,4|0,0:0|0:0,0:0:0:0:
218,187,11887,1,0,0:0:0:0:
182,175,11980,1,0,0:0:0:0:
144,166,12074,1,0,0:0:0:0:
106,161,12168,1,0,0:0:0:0:
69,150,12262,6,0,B|39:197|37:280|37:280|76:208,1,170.999994781494,8|0,0:0|0:0,0:0:0:0:
182,175,12637,2,0,B|200:108|166:47|166:47|157:115,1,170.999994781494
156,291,13012,2,0,B|237:398|352:287|352:287|287:279|259:210|259:210|271:251|246:352,1,455.999986083985,0|10,0:0|0:0,0:0:0:0:
352,202,13949,1,2,0:0:0:0:
352,202,14043,2,0,L|367:141,1,47.5
256,98,14230,2,0,L|296:62,1,47.5,2|2,0:0|0:0,0:0:0:0:
378,71,14418,1,0,0:0:0:0:
201,175,14512,6,0,P|164:121|176:53,1,95,4|0,0:0|0:0,0:0:0:0:
291,66,14887,1,0,0:0:0:0:
268,267,15074,2,0,P|180:289|98:230,1,190,8|0,0:0|0:0,0:0:0:0:
36,128,15543,1,0,0:0:0:0:
36,128,15637,2,0,L|62:19,1,95,8|0,0:0|0:0,0:0:0:0:
269,268,16012,2,0,P|268:338|249:376,1,95,0|8,0:0|0:0,0:0:0:0:
196,195,16387,1,0,0:0:0:0:
101,236,16574,1,0,0:0:0:0:
261,88,16762,6,0,B|304:67|304:67|441:67,1,152,8|0,0:0|0:0,0:0:0:0:
356,194,17324,1,0,0:0:0:0:
356,194,17418,1,0,0:0:0:0:
356,194,17512,2,0,P|334:252|336:297,1,76,8|0,0:0|0:0,0:0:0:0:
479,203,17887,2,0,P|450:139|427:124,1,76
262,92,18262,5,8,0:0:0:0:
371,135,18449,1,0,0:0:0:0:
351,23,18637,1,0,0:0:0:0:
182,71,18824,2,0,P|185:125|274:175,1,152
262,92,19387,1,0,0:0:0:0:
75,61,19574,2,0,B|51:152|51:152|77:248,1,190,12|0,0:0|0:0,0:0:0:0:
170,257,20043,1,0,0:0:0:0:
201,264,20137,2,0,P|210:313|195:380,1,95,8|0,0:0|0:0,0:0:0:0:
96,332,20512,5,4,0:0:0:0:
234,175,20699,1,0,0:0:0:0:
316,327,20887,2,0,L|324:214,1,95,0|8,0:0|0:0,0:0:0:0:
172,102,21262,1,0,0:0:0:0:
216,86,21355,1,0,0:0:0:0:
263,90,21449,1,0,0:0:0:0:
71,202,21637,6,0,P|46:143|49:95,1,95,8|0,0:0|0:0,0:0:0:0:
216,86,22012,1,0,0:0:0:0:
176,266,22199,2,0,L|163:374,1,95,8|0,0:0|0:0,0:0:0:0:
71,202,22574,1,0,0:0:0:0:
316,262,22762,6,0,B|379:237|440:253|440:253|373:263|393:323,1,199.499993911743,12|0,0:0|0:0,0:0:0:0:
456,338,23512,1,0,0:0:0:0:
316,262,23762,1,0,0:0:0:0:
352,366,24012,1,0,0:0:0:0:
437,253,24262,1,0,0:0:0:0:
226,174,24512,1,0,0:0:0:0:
316,262,24762,1,0,0:0:0:0:
267,98,25012,2,0,B|192:71|139:104|122:184|159:226|159:226|72:258|42:144,1,380,2|0,0:0|0:0,0:0:0:0:
257,194,27637,5,0,0:0:0:0:
375,165,28012,2,0,P|361:266|288:313,1,190,2|0,0:0|0:0,0:0:0:0:
257,194,28574,1,0,0:0:0:0:
321,92,28762,2,0,P|371:48|436:40,1,95
236,277,29137,2,0,P|188:252|172:192,1,95
257,194,29512,5,0,0:0:0:0:
375,164,29699,1,0,0:0:0:0:
236,277,29887,1,0,0:0:0:0:
302,117,30074,1,0,0:0:0:0:
411,332,30262,2,0,L|304:336,1,95
375,164,30637,2,0,L|490:161,1,95
260,192,31012,6,0,B|148:211|117:186|117:186|180:179,1,190,2|0,0:0|0:0,0:0:0:0:
301,113,31574,1,0,0:0:0:0:
323,273,31762,2,0,P|252:314|213:312,1,95
470,162,32137,2,0,P|441:229|422:246,1,95
301,113,32512,1,0,0:0:0:0:
384,56,32699,1,0,0:0:0:0:
426,244,32887,1,0,0:0:0:0:
386,156,33074,1,0,0:0:0:0:
366,354,33262,6,0,L|461:356,1,95
227,286,33637,2,0,L|124:285,1,95
191,143,34012,6,0,P|216:97|293:42,1,142.5,2|0,0:0|0:0,0:0:0:0:
201,156,34387,2,0,P|278:126|350:129,1,142.5
203,171,34762,2,0,P|282:171|340:204,1,142.5
202,188,35137,2,0,P|270:210|309:278,1,142.5
193,203,35512,6,0,P|220:255|226:299,1,95
156,354,35887,1,0,0:0:0:0:
66,182,36074,1,0,0:0:0:0:
144,67,36262,2,0,P|215:52|270:57,1,95
121,252,36637,2,0,P|67:267|10:258,1,95
182,330,37012,6,0,P|77:325|28:263,1,190,2|0,0:0|0:0,0:0:0:0:
121,252,37574,1,0,0:0:0:0:
252,278,37762,2,0,P|266:334|250:381,1,95
134,136,38137,2,0,P|161:83|198:55,1,95
326,195,38512,5,0,0:0:0:0:
289,88,38699,1,0,0:0:0:0:
212,296,38887,1,0,0:0:0:0:
227,195,39074,1,0,0:0:0:0:
370,334,39262,1,0,0:0:0:0:
418,160,39449,1,0,0:0:0:0:
485,367,39637,1,0,0:0:0:0:
485,367,40012,6,0,L|481:251,1,113.999996520996,12|0,0:0|0:0,0:0:0:0:
294,182,40387,2,0,P|266:237|273:302,1,113.999996520996
357,253,40762,1,8,0:0:0:0:
372,121,40949,1,0,0:0:0:0:
481,254,41137,1,0,0:0:0:0:
491,117,41324,1,0,0:0:0:0:
315,39,41512,6,0,L|142:49,1,170.999994781494
148,79,41887,2,0,L|326:68,1,170.999994781494
491,117,42262,1,8,0:0:0:0:
491,117,42637,1,0,0:0:0:0:
422,207,42824,1,0,0:0:0:0:
253,181,43012,6,0,P|236:245|248:303,1,113.999996520996,8|0,0:0|0:0,0:0:0:0:
422,207,43387,2,0,P|404:139|355:99,1,113.999996520996
354,284,43762,1,8,0:0:0:0:
451,337,43949,1,0,0:0:0:0:
423,207,44137,1,0,0:0:0:0:
251,181,44324,1,0,0:0:0:0:
218,370,44512,6,0,L|339:369,1,113.999996520996
251,181,44887,1,0,0:0:0:0:
145,296,45074,1,0,0:0:0:0:
331,369,45262,1,8,0:0:0:0:
384,157,45449,1,0,0:0:0:0:
251,181,45637,1,0,0:0:0:0:
433,280,45824,1,0,0:0:0:0:
352,52,46012,6,0,P|262:60|188:25,1,170.999994781494,12|0,0:0|0:0,0:0:0:0:
185,55,46387,2,0,P|262:88|346:79,1,170.999994781494
343,113,46762,2,0,P|258:122|181:88,1,170.999994781494,8|0,0:0|0:0,0:0:0:0:
51,48,47137,1,0,0:0:0:0:
51,48,47512,6,0,L|49:173,1,113.999996520996
176,214,47887,2,0,L|178:89,1,113.999996520996,8|0,0:0|0:0,0:0:0:0:
88,268,48262,2,0,P|153:313|281:232,1,227.999993041992,8|0,0:0|0:0,0:0:0:0:
428,213,48824,1,0,0:0:0:0:
428,213,48918,1,0,0:0:0:0:
428,213,49012,6,0,P|425:297|395:335,1,113.999996520996,8|0,0:0|0:0,0:0:0:0:
301,141,49387,2,0,P|316:74|351:35,1,113.999996520996
274,253,49762,1,8,0:0:0:0:
199,159,49949,1,0,0:0:0:0:
301,141,50137,1,0,0:0:0:0:
348,333,50324,1,0,0:0:0:0:
161,310,50512,6,0,L|47:311,1,113.999996520996
274,253,50887,1,8,0:0:0:0:
255,360,51074,1,0,0:0:0:0:
131,218,51262,1,8,0:0:0:0:
303,139,51449,1,0,0:0:0:0:
350,335,51637,1,0,0:0:0:0:
397,51,51824,1,0,0:0:0:0:
472,330,52012,6,0,B|354:278|295:387|201:292,1,265.999991882324,12|0,0:0|0:0,0:0:0:0:
302,117,52574,2,0,P|231:171|320:233,1,227.999993041992,8|0,0:0|0:0,0:0:0:0:
457,93,53137,2,0,P|412:54|307:21,1,170.999994781494,8|0,0:0|0:0,0:0:0:0:
88,112,53512,2,0,P|178:125|307:20,1,265.999991882324,8|0,0:0|0:0,0:0:0:0:
88,112,54074,2,0,P|39:183|154:145,1,265.999991882324,8|0,0:0|0:0,0:0:0:0:
88,112,54637,2,0,P|64:163|152:159,1,170.999994781494,8|0,0:0|0:0,0:0:0:0:
268,148,55012,6,0,P|291:234|171:354,1,265.999991882324,12|0,0:0|0:0,0:0:0:0:
147,171,55574,2,0,P|176:71|303:27,1,227.999993041992,8|0,0:0|0:0,0:0:0:0:
382,201,56137,2,0,P|396:138|426:87,1,113.999996520996,8|0,0:0|0:0,0:0:0:0:
454,277,56512,6,0,P|369:301|285:160,1,265.999991882324,8|0,0:0|0:0,0:0:0:0:
454,277,57074,2,0,P|382:323|256:261,1,227.999993041992,8|0,0:0|0:0,0:0:0:0:
454,277,57637,2,0,P|419:342|364:354,1,95,8|0,0:0|0:0,0:0:0:0:
135,320,58012,6,0,P|163:209|261:269,1,265.999991882324,12|0,0:0|0:0,0:0:0:0:
135,320,58574,2,0,P|72:251|98:108,1,227.999993041992,8|0,0:0|0:0,0:0:0:0:
208,89,59137,2,0,P|271:104|339:92,1,95,8|0,0:0|0:0,0:0:0:0:
208,89,59512,6,0,P|280:121|464:78,1,265.999991882324,8|0,0:0|0:0,0:0:0:0:
208,89,60074,2,0,P|294:137|420:131,1,227.999993041992,8|0,0:0|0:0,0:0:0:0:
491,205,60637,2,0,L|482:308,1,95,8|0,0:0|0:0,0:0:0:0:
368,318,61012,6,0,B|292:338|292:338|124:308,1,199.499993911743,8|0,0:0|0:0,0:0:0:0:
146,291,61387,1,0,0:0:0:0:
310,136,61574,2,0,P|336:100|426:185,1,199.499993911743,8|0,0:0|0:0,0:0:0:0:
415,196,61949,1,0,0:0:0:0:
218,192,62137,2,0,P|206:116|232:62,1,113.999996520996,8|0,0:0|0:0,0:0:0:0:
155,320,62512,2,0,P|140:211|230:73,1,265.999991882324,8|0,0:0|0:0,0:0:0:0:
434,95,63074,2,0,P|444:225|371:333,1,265.999991882324,8|0,0:0|0:0,0:0:0:0:
198,282,64012,6,0,P|106:266|-3:288,1,199.499993911743,8|0,0:0|0:0,0:0:0:0:
2,285,64387,1,0,0:0:0:0:
312,230,64574,2,0,B|331:127|331:127|298:37,1,199.499993911743,8|0,0:0|0:0,0:0:0:0:
298,38,64949,1,0,0:0:0:0:
304,312,65137,6,0,P|369:292|395:233,1,95,8|0,0:0|0:0,0:0:0:0:
405,187,65512,1,0,0:0:0:0:
219,224,65699,1,0,0:0:0:0:
361,383,65887,1,0,0:0:0:0:
310,227,66074,1,0,0:0:0:0:
222,338,66262,1,8,0:0:0:0:
469,331,66449,1,0,0:0:0:0:
461,100,66637,1,0,0:0:0:0:
461,100,67012,6,0,P|432:198|258:146,1,285.000010871888,8|0,0:0|0:0,0:0:0:0:
461,100,67574,2,0,P|429:253|284:224,1,285.000010871888,8|0,0:0|0:0,0:0:0:0:
360,124,68137,1,12,0:0:0:0:
256,192,68230,12,0,69824,0:0:0:0:
279,265,70012,5,4,0:0:0:0:
193,237,70199,1,0,0:0:0:0:
193,146,70387,1,0,0:0:0:0:
279,118,70574,1,0,0:0:0:0:
332,192,70762,1,0,0:0:0:0:
279,265,71137,1,2,0:0:0:0:
193,237,71512,1,0,0:0:0:0:
193,146,71887,1,2,0:0:0:0:
279,118,72074,1,0,0:0:0:0:
335,192,72262,5,2,0:0:0:0:
347,206,72355,1,0,0:0:0:0:
359,220,72449,1,2,0:0:0:0:
371,234,72543,1,0,0:0:0:0:
382,249,72637,1,2,0:0:0:0:
394,263,72730,1,0,0:0:0:0:
406,277,72824,1,2,0:0:0:0:
418,291,72918,1,0,0:0:0:0:
429,306,73012,5,2,0:0:0:0:
343,278,73199,1,0,0:0:0:0:
343,188,73387,1,0,0:0:0:0:
429,160,73574,1,2,0:0:0:0:
482,233,73762,1,0,0:0:0:0:
429,306,74137,1,2,0:0:0:0:
345,277,74512,1,4,0:0:0:0:
340,190,74887,1,2,0:0:0:0:
426,162,75074,1,0,0:0:0:0:
481,235,75262,5,2,0:0:0:0:
448,236,75355,1,0,0:0:0:0:
414,237,75449,1,2,0:0:0:0:
380,238,75543,1,0,0:0:0:0:
346,240,75637,1,2,0:0:0:0:
313,241,75730,1,0,0:0:0:0:
279,243,75824,1,2,0:0:0:0:
245,245,75918,1,0,0:0:0:0:
211,247,76012,6,0,L|206:362,1,95,10|0,0:0|0:0,0:0:0:0:
112,171,76387,2,0,L|107:286,1,95,10|0,0:0|0:0,0:0:0:0:
221,51,76762,2,0,L|216:166,1,95,8|0,0:0|0:0,0:0:0:0:
350,145,77137,2,0,L|345:260,1,95,10|0,0:0|0:0,0:0:0:0:
211,247,77324,2,0,L|206:362,1,95,2|0,0:0|0:0,0:0:0:0:
331,321,77512,6,0,P|395:308|422:272,1,95,8|0,0:0|0:0,0:0:0:0:
350,145,77887,2,0,P|286:158|259:194,1,95,10|0,0:0|0:0,0:0:0:0:
455,194,78262,2,0,P|464:128|441:79,1,95,8|2,0:0|0:0,0:0:0:0:
350,145,78637,2,0,P|338:245|354:270,1,95,10|0,0:0|0:0,0:0:0:0:
414,369,78824,2,0,P|426:269|410:244,1,95,2|0,0:0|0:0,0:0:0:0:
314,328,79012,5,12,0:0:0:0:
350,145,79199,1,8,0:0:0:0:
177,200,79387,1,8,0:0:0:0:
430,280,79574,1,8,0:0:0:0:
356,39,79762,1,8,0:0:0:0:
229,334,79949,1,8,0:0:0:0:
454,151,80137,1,8,0:0:0:0:
454,151,80230,1,8,0:0:0:0:
454,151,80324,1,8,0:0:0:0:
454,151,80418,1,8,0:0:0:0:
454,151,80512,5,8,0:0:0:0:
312,326,80699,1,0,0:0:0:0:
207,64,80887,1,8,0:0:0:0:
432,279,81074,1,10,0:0:0:0:
134,291,81262,2,0,L|40:318,1,71.2500027179719,2|0,0:0|0:0,0:0:0:0:
4,220,81449,1,8,0:0:0:0:
255,225,81637,2,0,P|296:135|306:279,1,313.500009567261,2|0,0:0|0:0,0:0:0:0:
383,268,82012,6,0,L|382:392,1,95,14|0,0:0|0:0,0:0:0:0:
217,304,82293,2,0,P|168:208|271:134,1,190,2|0,0:0|0:0,0:0:0:0:
289,47,82574,2,0,L|347:121,1,71.2500027179719,2|0,0:0|0:0,0:0:0:0:
374,219,82762,2,0,P|243:304|189:298,1,190,10|0,0:0|0:0,0:0:0:0:
91,267,83043,2,0,P|65:198|87:146,1,95,2|0,0:0|0:0,0:0:0:0:
162,205,83230,1,2,0:0:0:0:
216,303,83324,2,0,P|157:371|119:381,1,95,2|0,0:0|0:0,0:0:0:0:
162,205,83512,6,0,B|248:214|270:136|270:136|268:228,1,190,10|0,0:0|0:0,0:0:0:0:
331,289,83793,2,0,P|432:312|509:259,1,190,2|0,0:0|0:0,0:0:0:0:
403,185,84074,6,0,P|373:80|351:66,1,95,2|0,0:0|0:0,0:0:0:0:
331,289,84262,2,0,P|320:390|332:408,1,95,2|0,0:0|0:0,0:0:0:0:
501,269,84449,2,0,L|509:136,1,95,2|0,0:0|0:0,0:0:0:0:
268,184,84637,2,0,P|165:193|125:220,1,95,2|2,0:0|0:0,0:0:0:0:
87,359,84824,2,0,L|84:267,1,66.4999979705811
33,176,85012,6,0,P|48:84|72:49,1,95,14|0,0:0|0:0,0:0:0:0:
174,188,85293,2,0,B|187:273|187:273|163:387,1,190,2|0,0:0|0:0,0:0:0:0:
21,241,85574,2,0,L|37:147,1,66.4999979705811,2|0,0:0|0:0,0:0:0:0:
185,88,85762,2,0,B|253:130|315:96|315:96|300:132|327:178,1,190,10|0,0:0|0:0,0:0:0:0:
405,188,86043,2,0,P|407:115|370:60,1,95,2|0,0:0|0:0,0:0:0:0:
313,147,86230,1,2,0:0:0:0:
241,272,86324,2,0,P|334:315|388:297,1,95,2|0,0:0|0:0,0:0:0:0:
158,202,86512,6,0,B|116:306|166:364|166:364|165:291,1,190,10|0,0:0|0:0,0:0:0:0:
241,272,86793,1,2,0:0:0:0:
224,147,86887,2,0,P|131:121|105:132,1,95,2|0,0:0|0:0,0:0:0:0:
10,285,87074,2,0,P|64:198|55:150,1,95,2|0,0:0|0:0,0:0:0:0:
39,22,87262,2,0,P|1:117|11:163,1,95,10|0,0:0|0:0,0:0:0:0:
136,119,87449,2,0,P|175:31|170:2,1,95,2|0,0:0|0:0,0:0:0:0:
191,278,87637,2,0,L|198:348,6,47.5,10|0|0|0|0|0|0,0:0|0:0|0:0|0:0|0:0|0:0|0:0,0:0:0:0:
204,230,88012,6,0,P|306:241|335:231,1,95,14|0,0:0|0:0,0:0:0:0:
466,187,88293,2,0,P|344:117|317:24,1,190,2|0,0:0|0:0,0:0:0:0:
177,89,88574,2,0,P|151:157|151:181,1,66.4999979705811,2|0,0:0|0:0,0:0:0:0:
296,242,88762,2,0,B|389:238|442:295|442:295|389:284,1,190,10|0,0:0|0:0,0:0:0:0:
260,349,89043,2,0,P|157:352|122:335,1,95,2|0,0:0|0:0,0:0:0:0:
204,263,89230,1,2,0:0:0:0:
287,150,89324,2,0,P|290:255|276:277,1,95,2|0,0:0|0:0,0:0:0:0:
105,276,89512,2,0,B|84:176|84:176|104:67,1,190,10|0,0:0|0:0,0:0:0:0:
287,150,89793,6,0,B|344:111|416:204|487:133,1,190,2|0,0:0|0:0,0:0:0:0:
215,107,90074,2,0,P|203:152|248:234,1,95,2|0,0:0|0:0,0:0:0:0:
369,357,90262,2,0,P|377:285|358:234,1,95,10|0,0:0|0:0,0:0:0:0:
121,209,90449,2,0,P|193:288|221:289,1,95,2|0,0:0|0:0,0:0:0:0:
465,227,90637,2,0,P|382:177|342:181,1,95,2|0,0:0|0:0,0:0:0:0:
266,355,90824,2,0,L|281:228,1,95
349,91,91012,6,0,P|385:169|388:212,1,95,14|0,0:0|0:0,0:0:0:0:
277,260,91293,2,0,P|346:313|506:265,1,190,2|0,0:0|0:0,0:0:0:0:
255,163,91574,2,0,L|159:177,1,66.4999979705811
88,300,91762,2,0,B|9:205|74:105|74:105|93:204,1,285,10|0,0:0|0:0,0:0:0:0:
190,275,92137,2,0,P|237:338|348:322,1,142.500005435944,2|0,0:0|0:0,0:0:0:0:
371,222,92418,6,0,L|479:271,1,71.2500027179719,0|10,0:0|0:0,0:0:0:0:
260,102,92605,2,0,P|166:57|144:59,1,71.2500027179719,0|2,0:0|0:0,0:0:0:0:
189,274,92793,2,0,P|189:357|202:391,1,71.2500027179719,0|2,0:0|0:0,0:0:0:0:
371,222,92980,2,0,P|423:162|432:126,1,71.2500027179719,0|10,0:0|0:0,0:0:0:0:
242,192,93168,2,0,L|15:187,1,213.750008153916,2|8,0:0|0:0,0:0:0:0:
86,273,93543,2,0,P|132:182|22:84,1,209.000006378174,2|0,0:0|0:0,0:0:0:0:
231,79,93824,2,0,P|312:89|363:68,1,104.500003189087
418,170,94012,6,0,L|418:308,1,95,14|0,0:0|0:0,0:0:0:0:
309,275,94246,1,0,0:0:0:0:
297,306,94293,2,0,P|230:325|159:303,1,95,2|0,0:0|0:0,0:0:0:0:
44,200,94480,2,0,P|84:184|203:194,1,95,2|0,0:0|0:0,0:0:0:0:
116,347,94668,2,0,P|33:257|56:181,1,190,2|0,0:0|0:0,0:0:0:0:
196,113,94949,2,0,B|263:78|310:149|400:104,1,190
453,224,95230,6,0,P|435:312|421:338,1,66.4999979705811
259,303,95418,2,0,P|358:277|458:295,1,190
259,303,95699,2,0,P|211:214|232:89,1,190
381,111,95980,2,0,L|518:136,1,95,0|2,0:0|0:0,0:0:0:0:
269,44,96168,2,0,L|127:37,1,95,0|10,0:0|0:0,0:0:0:0:
358,218,96355,2,0,L|502:227,1,95,0|2,0:0|0:0,0:0:0:0:
215,127,96543,2,0,L|56:130,1,95,0|2,0:0|0:0,0:0:0:0:
343,316,96730,2,0,L|455:347,1,95,0|2,0:0|0:0,0:0:0:0:
250,351,96918,1,0,0:0:0:0:
183,274,97012,6,0,P|97:263|50:273,1,95,12|0,0:0|0:0,0:0:0:0:
120,128,97246,1,0,0:0:0:0:
147,98,97293,2,0,L|290:100,1,95,0|2,0:0|0:0,0:0:0:0:
347,228,97480,2,0,P|378:132|362:89,1,95,0|2,0:0|0:0,0:0:0:0:
183,274,97668,2,0,B|236:333|333:325|333:325|271:286,1,190
120,128,97949,2,0,P|70:218|87:302,1,190
241,99,98230,6,0,P|217:45|185:8,1,66.4999979705811
244,221,98418,2,0,P|284:215|344:137,1,95,0|10,0:0|0:0,0:0:0:0:
120,128,98605,2,0,P|90:30|98:3,1,95,0|2,0:0|0:0,0:0:0:0:
188,308,98793,2,0,P|235:323|325:282,1,95,0|2,0:0|0:0,0:0:0:0:
97,220,98980,2,0,P|4:246|-10:267,1,95,0|2,0:0|0:0,0:0:0:0:
188,308,99168,5,0,0:0:0:0:
234,320,99262,1,8,0:0:0:0:
280,315,99355,1,0,0:0:0:0:
320,289,99449,1,2,0:0:0:0:
344,248,99543,1,0,0:0:0:0:
353,201,99637,2,0,L|350:135,6,47.5,8|0|0|0|0|0|0,0:0|0:0|0:0|0:0|0:0|0:0|0:0,0:0:0:0:
384,73,100012,6,0,P|420:101|430:177,1,95,12|0,0:0|0:0,0:0:0:0:
229,147,100246,1,0,0:0:0:0:
219,116,100293,2,0,P|254:37|286:11,1,95,0|2,0:0|0:0,0:0:0:0:
352,201,100480,2,0,P|314:297|298:314,1,95,0|2,0:0|0:0,0:0:0:0:
125,282,100668,2,0,P|193:242|211:331,1,190
45,295,100949,2,0,P|72:207|162:160,1,190
276,112,101230,2,0,B|311:117|311:117|382:109,1,66.4999979705811
420,59,101418,1,0,0:0:0:0:
429,157,101512,6,0,L|431:360,1,190,10|0,0:0|0:0,0:0:0:0:
277,301,101793,2,0,L|275:98,1,190,2|0,0:0|0:0,0:0:0:0:
157,73,102074,2,0,L|143:166,1,95,0|2,0:0|0:0,0:0:0:0:
168,328,102262,2,0,B|219:348|316:310|316:310|217:285,1,190,10|0,0:0|0:0,0:0:0:0:
40,183,102543,2,0,B|8:270|32:345|32:345|74:257,1,190,2|0,0:0|0:0,0:0:0:0:
176,251,102824,2,0,P|294:233|303:228,1,95
316,97,103012,5,8,0:0:0:0:
128,100,103199,1,0,0:0:0:0:
176,251,103387,1,0,0:0:0:0:
309,363,103574,2,0,L|318:263,1,95,8|0,0:0|0:0,0:0:0:0:
377,182,103949,1,8,0:0:0:0:
316,97,104137,1,8,0:0:0:0:
317,268,104324,1,0,0:0:0:0:
479,149,104512,1,0,0:0:0:0:
316,97,104699,6,0,L|203:95,1,95,8|0,0:0|0:0,0:0:0:0:
221,95,105261,6,0,P|248:185|154:85,1,380,10|12,0:0|0:0,0:0:0:0:
74,17,106198,1,0,0:0:0:0:
28,106,106386,2,0,P|21:171|30:217,1,95
178,326,106761,2,0,P|180:257|165:207,1,95,8|0,0:0|0:0,0:0:0:0:
3,287,107136,2,0,P|57:288|93:265,1,95
127,145,107511,1,8,0:0:0:0:
267,252,107698,1,0,0:0:0:0:
232,149,107886,1,0,0:0:0:0:
178,328,108073,1,0,0:0:0:0:
325,170,108261,6,0,P|319:112|288:70,1,95,8|0,0:0|0:0,0:0:0:0:
271,343,108636,2,0,P|351:351|399:332,1,95
483,98,109011,6,0,B|440:74|440:74|288:82,1,190,8|0,0:0|0:0,0:0:0:0:
285,187,109573,1,0,0:0:0:0:
480,190,109761,2,0,P|490:127|469:73,1,95,8|0,0:0|0:0,0:0:0:0:
383,247,110136,1,0,0:0:0:0:
299,81,110323,1,0,0:0:0:0:
143,202,110511,6,0,B|133:252|133:252|140:314,1,95,8|0,0:0|0:0,0:0:0:0:
364,145,110886,2,0,B|338:103|338:103|272:66,1,95
285,97,111167,1,0,0:0:0:0:
275,115,111261,1,8,0:0:0:0:
274,290,111448,1,0,0:0:0:0:
148,93,111636,1,0,0:0:0:0:
52,246,111823,1,0,0:0:0:0:
214,351,112011,6,0,P|296:373|354:270,1,190,12|0,0:0|0:0,0:0:0:0:
275,290,112573,1,0,0:0:0:0:
444,336,112761,2,0,B|461:288|461:288|461:136,1,190,8|0,0:0|0:0,0:0:0:0:
331,102,113323,1,0,0:0:0:0:
190,194,113511,6,0,L|186:314,1,95,8|0,0:0|0:0,0:0:0:0:
73,114,113886,2,0,L|65:226,1,95
171,103,114261,1,8,0:0:0:0:
190,194,114448,1,0,0:0:0:0:
73,114,114636,1,0,0:0:0:0:
292,242,114823,1,0,0:0:0:0:
64,324,115011,6,0,P|59:262|69:204,1,95,8|0,0:0|0:0,0:0:0:0:
73,114,115386,1,0,0:0:0:0:
96,118,115479,1,0,0:0:0:0:
119,120,115573,1,0,0:0:0:0:
142,117,115667,1,0,0:0:0:0:
165,112,115761,1,8,0:0:0:0:
116,25,115948,5,0,0:0:0:0:
65,226,116136,1,8,0:0:0:0:
165,112,116323,1,0,0:0:0:0:
213,304,116511,5,8,0:0:0:0:
65,226,116698,1,0,0:0:0:0:
270,177,116886,1,8,0:0:0:0:
171,199,117073,1,8,0:0:0:0:
392,278,117261,1,10,0:0:0:0:
408,261,117354,1,0,0:0:0:0:
420,240,117448,1,0,0:0:0:0:
429,218,117542,1,0,0:0:0:0:
432,194,117636,1,10,0:0:0:0:
431,170,117729,1,0,0:0:0:0:
423,147,117823,2,0,L|362:121,1,47.5
172,191,118011,6,0,P|183:201|380:120,1,265.999991882324,12|0,0:0|0:0,0:0:0:0:
100,113,118573,2,0,P|68:178|195:292,1,265.999991882324,10|0,0:0|0:0,0:0:0:0:
210,96,119136,2,0,P|166:28|120:11,1,113.999996520996,8|0,0:0|0:0,0:0:0:0:
172,191,119511,2,0,B|272:218|311:121|311:121|279:229,1,265.999991882324,8|0,0:0|0:0,0:0:0:0:
310,351,120073,2,0,B|381:339|381:339|481:168,1,265.999991882324,10|0,0:0|0:0,0:0:0:0:
284,209,120636,2,0,P|234:265|222:194,1,170.999994781494,8|0,0:0|0:0,0:0:0:0:
284,209,121011,6,0,P|274:278|116:210,1,265.999991882324,8|0,0:0|0:0,0:0:0:0:
281,115,121573,2,0,P|291:46|449:114,1,265.999991882324,10|0,0:0|0:0,0:0:0:0:
424,263,122136,1,8,0:0:0:0:
446,62,122323,1,0,0:0:0:0:
420,351,122511,6,0,B|314:304|253:410|143:337,1,265.999991882324,10|0,0:0|0:0,0:0:0:0:
229,140,123073,2,0,P|170:237|282:258,1,265.999991882324,10|0,0:0|0:0,0:0:0:0:
304,91,123636,2,0,P|245:50|158:84,1,170.999994781494,8|0,0:0|0:0,0:0:0:0:
304,91,124011,6,0,P|354:167|513:131,1,265.999991882324,10|0,0:0|0:0,0:0:0:0:
422,310,124573,2,0,B|354:285|233:309|233:309|360:339,1,265.999991882324,10|0,0:0|0:0,0:0:0:0:
422,310,125136,2,0,P|280:272|208:286,1,170.999994781494,8|0,0:0|0:0,0:0:0:0:
153,326,125511,6,0,P|125:219|170:57,1,265.999991882324,10|0,0:0|0:0,0:0:0:0:
124,198,126073,2,0,P|50:149|108:0,1,265.999991882324,10|0,0:0|0:0,0:0:0:0:
159,71,126636,2,0,P|245:98|328:76,1,170.999994781494,8|0,0:0|0:0,0:0:0:0:
457,207,127011,2,0,P|376:235|239:206,1,199.499993911743,10|0,0:0|0:0,0:0:0:0:
270,192,127386,1,0,0:0:0:0:
116,353,127573,2,0,B|87:254|87:254|99:128,1,199.499993911743,10|0,0:0|0:0,0:0:0:0:
114,139,127948,1,0,0:0:0:0:
229,327,128136,6,0,L|383:336,1,132.999995941162,10|0,0:0|0:0,0:0:0:0:
184,75,128511,2,0,B|169:204|169:204|233:335,1,265.999991882324,10|0,0:0|0:0,0:0:0:0:
469,293,129073,2,0,B|484:164|484:164|420:33,1,265.999991882324,10|0,0:0|0:0,0:0:0:0:
305,182,130011,6,0,P|242:215|323:272,1,199.499993911743,8|0,0:0|0:0,0:0:0:0:
335,268,130386,1,0,0:0:0:0:
187,142,130573,2,0,P|155:218|191:327,1,199.499993911743,8|0,0:0|0:0,0:0:0:0:
210,338,130948,1,0,0:0:0:0:
97,102,131136,2,0,P|61:225|94:361,1,265.999991882324,10|8,0:0|0:0,0:0:0:0:
189,328,132073,5,0,0:0:0:0:
91,356,132261,1,8,0:0:0:0:
94,99,132448,1,0,0:0:0:0:
186,143,132636,1,8,0:0:0:0:
0,228,132823,1,0,0:0:0:0:
243,225,133011,6,0,B|307:189|360:275|460:219,1,199.499993911743,8|0,0:0|0:0,0:0:0:0:
456,206,133386,1,0,0:0:0:0:
114,321,133573,2,0,L|314:326,1,199.499993911743,8|0,0:0|0:0,0:0:0:0:
338,315,133948,1,0,0:0:0:0:
256,192,134136,12,2,135823,0:0:0:0:
255,194,136011,5,2,0:0:0:0:
165,169,136198,1,0,0:0:0:0:
106,242,136386,1,0,0:0:0:0:
316,268,136573,1,0,0:0:0:0:
409,270,136761,1,0,0:0:0:0:
448,185,136948,1,0,0:0:0:0:
441,165,137042,1,0,0:0:0:0:
434,145,137136,5,0,0:0:0:0:
345,117,137323,1,0,0:0:0:0:
267,169,137511,1,0,0:0:0:0:
182,129,137698,1,0,0:0:0:0:
118,197,137886,1,0,0:0:0:0:
27,174,138073,1,0,0:0:0:0:
29,193,138167,1,0,0:0:0:0:
32,212,138261,1,0,0:0:0:0:
34,231,138354,1,0,0:0:0:0:
37,250,138448,1,0,0:0:0:0:
40,269,138542,1,0,0:0:0:0:
43,288,138636,1,0,0:0:0:0:
195,295,139011,5,2,0:0:0:0:
285,315,139198,1,0,0:0:0:0:
370,277,139386,1,0,0:0:0:0:
144,254,139573,5,0,0:0:0:0:
255,306,139761,1,0,0:0:0:0:
352,245,139948,1,0,0:0:0:0:
241,99,140136,5,2,0:0:0:0:
256,192,140229,12,0,142011,0:0:0:0:
