osu file format v14

[General]
AudioFilename: M2U - Wake Me Up!.mp3
AudioLeadIn: 0
PreviewTime: 61194
Countdown: 1
SampleSet: Drum
StackLeniency: 0.7
Mode: 3
LetterboxInBreaks: 0
SpecialStyle: 0
WidescreenStoryboard: 0

[Editor]
DistanceSpacing: 0.5
BeatDivisor: 4
GridSize: 8
TimelineZoom: 1.9

[Metadata]
Title:M2U Pack
TitleUnicode:M2U Pack
Artist:M2U
ArtistUnicode:M2U
Creator:Kim_GodSSI
Version:Wake Me Up! (feat. Narae) 7K
Source:
Tags:arpia97 lami- buschan ezmmr micleak nabi- ruka takjun roasted chicken murumoo other nicode sherie 約束之歌 guriri 구리리 howling redeye red eye lucy egoist 最後の花弁 나래
BeatmapID:3470143
BeatmapSetID:1572720

[Difficulty]
HPDrainRate:8
CircleSize:7
OverallDifficulty:7
ApproachRate:5
SliderMultiplier:1.4
SliderTickRate:1

[Events]
//Background and Video events
0,0,"M2U - Wake Me Up!.jpg",0,0
//Break Periods
//Storyboard Layer 0 (Background)
//Storyboard Layer 1 (Fail)
//Storyboard Layer 2 (Pass)
//Storyboard Layer 3 (Foreground)
//Storyboard Layer 4 (Overlay)
//Storyboard Sound Samples

[TimingPoints]
563,631.578947368421,4,3,0,0,1,0

[HitObjects]
329,192,563,5,0,0:0:0:0:
36,192,563,1,0,0:0:0:0:
475,192,563,128,0,878:0:0:0:0:
329,192,878,1,0,0:0:0:0:
182,192,1194,1,0,0:0:0:0:
475,192,1194,1,0,0:0:0:0:
36,192,1194,128,0,1510:0:0:0:0:
182,192,1510,1,0,0:0:0:0:
109,192,1826,1,0,0:0:0:0:
402,192,1826,128,0,1984:0:0:0:0:
256,192,1826,128,0,1984:0:0:0:0:
329,192,1984,1,0,0:0:0:0:
475,192,1984,1,0,0:0:0:0:
182,192,2141,128,0,2299:0:0:0:0:
36,192,2141,128,0,2299:0:0:0:0:
109,192,2141,1,0,0:0:0:0:
256,192,2299,1,0,0:0:0:0:
402,192,2299,1,0,0:0:0:0:
182,192,2457,128,0,2615:0:0:0:0:
329,192,2457,128,0,2615:0:0:0:0:
475,192,2457,128,0,2615:0:0:0:0:
109,192,2615,1,0,0:0:0:0:
256,192,2773,1,0,0:0:0:0:
402,192,2773,1,0,0:0:0:0:
36,192,2773,1,0,0:0:0:0:
36,192,3089,128,0,3405:0:0:0:0:
329,192,3089,1,0,0:0:0:0:
475,192,3089,1,0,0:0:0:0:
475,192,3405,1,0,0:0:0:0:
36,192,3720,1,0,0:0:0:0:
182,192,3720,1,0,0:0:0:0:
475,192,3720,128,0,4036:0:0:0:0:
36,192,4036,1,0,0:0:0:0:
109,192,4352,1,0,0:0:0:0:
329,192,4352,128,0,4510:0:0:0:0:
182,192,4352,128,0,4510:0:0:0:0:
402,192,4510,1,0,0:0:0:0:
475,192,4510,1,0,0:0:0:0:
109,192,4668,128,0,4826:0:0:0:0:
256,192,4668,128,0,4826:0:0:0:0:
36,192,4668,1,0,0:0:0:0:
329,192,4826,1,0,0:0:0:0:
402,192,4826,1,0,0:0:0:0:
182,192,4984,128,0,5141:0:0:0:0:
36,192,4984,128,0,5141:0:0:0:0:
256,192,4984,1,0,0:0:0:0:
475,192,5141,1,0,0:0:0:0:
329,192,5299,1,0,0:0:0:0:
36,192,5299,1,0,0:0:0:0:
182,192,5615,1,0,0:0:0:0:
475,192,5615,1,0,0:0:0:0:
329,192,5615,1,0,0:0:0:0:
36,192,5615,128,0,5931:0:0:0:0:
182,192,5931,1,0,0:0:0:0:
182,192,6247,1,0,0:0:0:0:
36,192,6247,1,0,0:0:0:0:
475,192,6247,128,0,6563:0:0:0:0:
329,192,6247,1,0,0:0:0:0:
329,192,6563,1,0,0:0:0:0:
402,192,6878,1,0,0:0:0:0:
256,192,6878,128,0,7036:0:0:0:0:
109,192,6878,128,0,7036:0:0:0:0:
182,192,7036,1,0,0:0:0:0:
36,192,7036,1,0,0:0:0:0:
475,192,7194,1,0,0:0:0:0:
329,192,7194,128,0,7352:0:0:0:0:
182,192,7194,128,0,7352:0:0:0:0:
256,192,7352,1,0,0:0:0:0:
109,192,7352,1,0,0:0:0:0:
36,192,7510,128,0,7668:0:0:0:0:
182,192,7510,128,0,7668:0:0:0:0:
329,192,7510,1,0,0:0:0:0:
402,192,7668,1,0,0:0:0:0:
475,192,7826,1,0,0:0:0:0:
256,192,7826,1,0,0:0:0:0:
109,192,7826,1,0,0:0:0:0:
182,192,8141,1,0,0:0:0:0:
36,192,8141,1,0,0:0:0:0:
329,192,8141,1,0,0:0:0:0:
475,192,8141,128,0,8457:0:0:0:0:
36,192,8457,1,0,0:0:0:0:
329,192,8773,1,0,0:0:0:0:
182,192,8773,1,0,0:0:0:0:
36,192,8773,128,0,9089:0:0:0:0:
475,192,8773,1,0,0:0:0:0:
475,192,9089,1,0,0:0:0:0:
402,192,9247,1,0,0:0:0:0:
329,192,9326,1,0,0:0:0:0:
256,192,9365,1,0,0:0:0:0:
182,192,9405,128,0,9563:0:0:0:0:
36,192,9405,128,0,9563:0:0:0:0:
475,192,9405,1,0,0:0:0:0:
402,192,9563,1,0,0:0:0:0:
329,192,9563,1,0,0:0:0:0:
36,192,9720,1,0,0:0:0:0:
109,192,9720,128,0,9878:0:0:0:0:
256,192,9720,128,0,9878:0:0:0:0:
475,192,9878,1,0,0:0:0:0:
402,192,9878,1,0,0:0:0:0:
182,192,10036,128,0,10194:0:0:0:0:
36,192,10036,1,0,0:0:0:0:
329,192,10036,128,0,10194:0:0:0:0:
402,192,10194,1,0,0:0:0:0:
256,192,10194,1,0,0:0:0:0:
36,192,10352,1,0,0:0:0:0:
182,192,10352,1,0,0:0:0:0:
329,192,10352,1,0,0:0:0:0:
329,192,10510,1,0,0:0:0:0:
475,192,10510,1,0,0:0:0:0:
256,192,10668,1,0,0:0:0:0:
402,192,10668,128,0,10984:0:0:0:0:
109,192,10668,1,0,0:0:0:0:
109,192,10984,1,0,0:0:0:0:
256,192,11299,1,0,0:0:0:0:
402,192,11299,1,0,0:0:0:0:
109,192,11299,128,0,11615:0:0:0:0:
402,192,11615,1,0,0:0:0:0:
475,192,11931,1,0,0:0:0:0:
182,192,11931,128,0,12089:0:0:0:0:
36,192,11931,128,0,12089:0:0:0:0:
402,192,12089,1,0,0:0:0:0:
256,192,12089,1,0,0:0:0:0:
36,192,12247,1,0,0:0:0:0:
329,192,12247,128,0,12405:0:0:0:0:
475,192,12247,128,0,12405:0:0:0:0:
109,192,12405,1,0,0:0:0:0:
256,192,12405,1,0,0:0:0:0:
36,192,12562,1,0,0:0:0:0:
402,192,12562,128,0,12720:0:0:0:0:
475,192,12562,128,0,12720:0:0:0:0:
329,192,12720,1,0,0:0:0:0:
182,192,12720,1,0,0:0:0:0:
109,192,12878,1,0,0:0:0:0:
256,192,12878,1,0,0:0:0:0:
36,192,12878,1,0,0:0:0:0:
256,192,13194,128,0,13510:0:0:0:0:
109,192,13194,1,0,0:0:0:0:
402,192,13194,1,0,0:0:0:0:
402,192,13510,1,0,0:0:0:0:
109,192,13826,1,0,0:0:0:0:
402,192,13826,1,0,0:0:0:0:
256,192,13826,128,0,14141:0:0:0:0:
109,192,14141,1,0,0:0:0:0:
475,192,14457,1,0,0:0:0:0:
402,192,14457,1,0,0:0:0:0:
182,192,14457,128,0,14615:0:0:0:0:
36,192,14457,128,0,14615:0:0:0:0:
256,192,14615,1,0,0:0:0:0:
329,192,14615,1,0,0:0:0:0:
475,192,14773,128,0,14931:0:0:0:0:
329,192,14773,128,0,14931:0:0:0:0:
36,192,14773,1,0,0:0:0:0:
109,192,14773,1,0,0:0:0:0:
182,192,14931,1,0,0:0:0:0:
256,192,14931,1,0,0:0:0:0:
329,192,15089,1,0,0:0:0:0:
475,192,15089,1,0,0:0:0:0:
109,192,15089,128,0,15247:0:0:0:0:
36,192,15089,128,0,15247:0:0:0:0:
182,192,15247,1,0,0:0:0:0:
402,192,15247,1,0,0:0:0:0:
256,192,15247,1,0,0:0:0:0:
109,192,15405,1,0,0:0:0:0:
36,192,15405,1,0,0:0:0:0:
329,192,15405,1,0,0:0:0:0:
475,192,15405,1,0,0:0:0:0:
182,192,15720,1,0,0:0:0:0:
36,192,15720,1,0,0:0:0:0:
475,192,15720,1,0,0:0:0:0:
402,192,15720,128,0,16036:0:0:0:0:
256,192,16036,128,0,16352:0:0:0:0:
182,192,16036,1,0,0:0:0:0:
109,192,16352,128,0,16668:0:0:0:0:
36,192,16352,1,0,0:0:0:0:
329,192,16352,1,0,0:0:0:0:
475,192,16352,1,0,0:0:0:0:
256,192,16668,128,0,16984:0:0:0:0:
329,192,16668,1,0,0:0:0:0:
109,192,16984,1,0,0:0:0:0:
36,192,16984,1,0,0:0:0:0:
402,192,16984,128,0,17141:0:0:0:0:
475,192,16984,1,0,0:0:0:0:
182,192,17141,128,0,17299:0:0:0:0:
329,192,17141,1,0,0:0:0:0:
329,192,17299,128,0,17457:0:0:0:0:
36,192,17299,1,0,0:0:0:0:
475,192,17299,1,0,0:0:0:0:
402,192,17299,1,0,0:0:0:0:
109,192,17299,1,0,0:0:0:0:
109,192,17457,128,0,17615:0:0:0:0:
256,192,17457,1,0,0:0:0:0:
475,192,17615,128,0,18089:0:0:0:0:
182,192,17615,1,0,0:0:0:0:
36,192,17615,1,0,0:0:0:0:
329,192,17615,1,0,0:0:0:0:
402,192,17773,128,0,18089:0:0:0:0:
329,192,17931,128,0,18089:0:0:0:0:
182,192,17931,1,0,0:0:0:0:
329,192,18247,1,0,0:0:0:0:
36,192,18247,128,0,18720:0:0:0:0:
182,192,18247,1,0,0:0:0:0:
475,192,18247,1,0,0:0:0:0:
182,192,18563,128,0,18720:0:0:0:0:
329,192,18563,1,0,0:0:0:0:
475,192,18878,128,0,19352:0:0:0:0:
329,192,18878,1,0,0:0:0:0:
182,192,18878,1,0,0:0:0:0:
36,192,18878,1,0,0:0:0:0:
329,192,19194,128,0,19352:0:0:0:0:
182,192,19194,1,0,0:0:0:0:
182,192,19352,1,0,0:0:0:0:
36,192,19510,1,0,0:0:0:0:
109,192,19510,128,0,19668:0:0:0:0:
256,192,19510,128,0,19668:0:0:0:0:
402,192,19510,128,0,19668:0:0:0:0:
329,192,19668,1,0,0:0:0:0:
182,192,19668,1,0,0:0:0:0:
109,192,19826,128,0,19984:0:0:0:0:
475,192,19826,1,0,0:0:0:0:
36,192,19826,1,0,0:0:0:0:
402,192,19826,128,0,19984:0:0:0:0:
329,192,19984,1,0,0:0:0:0:
182,192,19984,1,0,0:0:0:0:
256,192,20063,1,0,0:0:0:0:
475,192,20141,1,0,0:0:0:0:
109,192,20141,128,0,20299:0:0:0:0:
402,192,20141,128,0,20299:0:0:0:0:
36,192,20141,1,0,0:0:0:0:
182,192,20299,1,0,0:0:0:0:
256,192,20299,1,0,0:0:0:0:
329,192,20299,1,0,0:0:0:0:
36,192,20457,1,0,0:0:0:0:
402,192,20457,1,0,0:0:0:0:
475,192,20457,1,0,0:0:0:0:
109,192,20457,1,0,0:0:0:0:
182,192,20615,1,0,0:0:0:0:
256,192,20694,1,0,0:0:0:0:
36,192,20773,1,0,0:0:0:0:
402,192,20773,1,0,0:0:0:0:
475,192,20773,1,0,0:0:0:0:
329,192,20773,128,0,21247:0:0:0:0:
256,192,20931,1,0,0:0:0:0:
109,192,20931,1,0,0:0:0:0:
182,192,21089,128,0,21405:0:0:0:0:
36,192,21089,1,0,0:0:0:0:
475,192,21247,128,0,21405:0:0:0:0:
402,192,21247,1,0,0:0:0:0:
109,192,21405,128,0,21720:0:0:0:0:
256,192,21405,1,0,0:0:0:0:
36,192,21405,1,0,0:0:0:0:
329,192,21563,1,0,0:0:0:0:
182,192,21720,128,0,22352:0:0:0:0:
36,192,21720,1,0,0:0:0:0:
475,192,21720,128,0,22036:0:0:0:0:
256,192,21878,1,0,0:0:0:0:
402,192,21878,128,0,22036:0:0:0:0:
36,192,22036,1,0,0:0:0:0:
109,192,22036,1,0,0:0:0:0:
329,192,22036,128,0,22194:0:0:0:0:
475,192,22194,128,0,22352:0:0:0:0:
402,192,22194,1,0,0:0:0:0:
36,192,22352,128,0,23141:0:0:0:0:
256,192,22352,128,0,22510:0:0:0:0:
109,192,22352,1,0,0:0:0:0:
329,192,22352,1,0,0:0:0:0:
402,192,22510,128,0,22668:0:0:0:0:
475,192,22668,128,0,23141:0:0:0:0:
256,192,22668,1,0,0:0:0:0:
182,192,22668,1,0,0:0:0:0:
109,192,22826,128,0,23141:0:0:0:0:
329,192,22826,1,0,0:0:0:0:
256,192,22984,128,0,23141:0:0:0:0:
402,192,22984,1,0,0:0:0:0:
182,192,23141,1,0,0:0:0:0:
329,192,23299,128,0,23773:0:0:0:0:
36,192,23299,128,0,23615:0:0:0:0:
402,192,23299,1,0,0:0:0:0:
475,192,23299,1,0,0:0:0:0:
109,192,23299,1,0,0:0:0:0:
256,192,23299,1,0,0:0:0:0:
182,192,23457,1,0,0:0:0:0:
475,192,23615,1,0,0:0:0:0:
256,192,23615,128,0,23773:0:0:0:0:
402,192,23773,128,0,24089:0:0:0:0:
109,192,23773,128,0,24247:0:0:0:0:
36,192,23773,1,0,0:0:0:0:
182,192,23773,1,0,0:0:0:0:
256,192,23931,1,0,0:0:0:0:
475,192,23931,1,0,0:0:0:0:
329,192,24089,128,0,24247:0:0:0:0:
36,192,24089,1,0,0:0:0:0:
182,192,24247,128,0,24878:0:0:0:0:
402,192,24247,1,0,0:0:0:0:
475,192,24247,1,0,0:0:0:0:
36,192,24405,128,0,24878:0:0:0:0:
329,192,24405,1,0,0:0:0:0:
256,192,24563,1,0,0:0:0:0:
109,192,24563,1,0,0:0:0:0:
402,192,24563,128,0,24720:0:0:0:0:
475,192,24563,1,0,0:0:0:0:
329,192,24720,128,0,24878:0:0:0:0:
109,192,24878,128,0,25510:0:0:0:0:
475,192,24878,128,0,25036:0:0:0:0:
256,192,24878,1,0,0:0:0:0:
402,192,25036,128,0,25194:0:0:0:0:
329,192,25036,1,0,0:0:0:0:
475,192,25194,128,0,25668:0:0:0:0:
182,192,25194,1,0,0:0:0:0:
36,192,25194,1,0,0:0:0:0:
402,192,25352,128,0,25668:0:0:0:0:
256,192,25352,1,0,0:0:0:0:
329,192,25510,128,0,25668:0:0:0:0:
36,192,25510,1,0,0:0:0:0:
109,192,25668,1,0,0:0:0:0:
182,192,25668,1,0,0:0:0:0:
36,192,25826,1,0,0:0:0:0:
256,192,25826,1,0,0:0:0:0:
402,192,25826,1,0,0:0:0:0:
475,192,25826,128,0,26457:0:0:0:0:
109,192,25984,128,0,26141:0:0:0:0:
182,192,25984,1,0,0:0:0:0:
402,192,26141,128,0,26457:0:0:0:0:
36,192,26141,1,0,0:0:0:0:
329,192,26141,1,0,0:0:0:0:
256,192,26299,128,0,26457:0:0:0:0:
109,192,26299,1,0,0:0:0:0:
182,192,26457,128,0,26931:0:0:0:0:
36,192,26457,1,0,0:0:0:0:
329,192,26615,128,0,26931:0:0:0:0:
109,192,26615,1,0,0:0:0:0:
402,192,26615,1,0,0:0:0:0:
256,192,26773,1,0,0:0:0:0:
36,192,26931,128,0,27247:0:0:0:0:
109,192,26931,1,0,0:0:0:0:
402,192,26931,1,0,0:0:0:0:
256,192,27089,128,0,27247:0:0:0:0:
475,192,27089,1,0,0:0:0:0:
182,192,27089,1,0,0:0:0:0:
109,192,27247,1,0,0:0:0:0:
402,192,27247,128,0,27720:0:0:0:0:
329,192,27247,128,0,27405:0:0:0:0:
182,192,27405,128,0,27563:0:0:0:0:
36,192,27405,1,0,0:0:0:0:
475,192,27405,1,0,0:0:0:0:
256,192,27563,128,0,27720:0:0:0:0:
109,192,27563,1,0,0:0:0:0:
36,192,27720,128,0,27878:0:0:0:0:
475,192,27720,128,0,27878:0:0:0:0:
182,192,27720,1,0,0:0:0:0:
182,192,27878,128,0,28036:0:0:0:0:
329,192,27878,128,0,28036:0:0:0:0:
109,192,28036,128,0,28352:0:0:0:0:
402,192,28036,128,0,28352:0:0:0:0:
36,192,28036,1,0,0:0:0:0:
475,192,28036,1,0,0:0:0:0:
256,192,28036,1,0,0:0:0:0:
256,192,28194,128,0,28352:0:0:0:0:
182,192,28352,1,0,0:0:0:0:
36,192,28352,1,0,0:0:0:0:
475,192,28352,1,0,0:0:0:0:
329,192,28352,128,0,28826:0:0:0:0:
109,192,28510,1,0,0:0:0:0:
182,192,28668,128,0,28826:0:0:0:0:
36,192,28668,1,0,0:0:0:0:
256,192,28668,128,0,28826:0:0:0:0:
475,192,28826,128,0,29299:0:0:0:0:
402,192,28826,1,0,0:0:0:0:
256,192,28984,1,0,0:0:0:0:
36,192,28984,1,0,0:0:0:0:
329,192,28984,1,0,0:0:0:0:
109,192,29141,128,0,29299:0:0:0:0:
182,192,29141,128,0,29299:0:0:0:0:
402,192,29299,128,0,30563:0:0:0:0:
329,192,29299,1,0,0:0:0:0:
36,192,29299,1,0,0:0:0:0:
256,192,29457,1,0,0:0:0:0:
109,192,29457,1,0,0:0:0:0:
36,192,29615,128,0,29773:0:0:0:0:
182,192,29615,128,0,29773:0:0:0:0:
329,192,29773,1,0,0:0:0:0:
475,192,29773,1,0,0:0:0:0:
256,192,29931,128,0,30089:0:0:0:0:
109,192,29931,128,0,30089:0:0:0:0:
182,192,30089,1,0,0:0:0:0:
329,192,30089,1,0,0:0:0:0:
256,192,30247,128,0,30405:0:0:0:0:
475,192,30247,128,0,30563:0:0:0:0:
36,192,30247,1,0,0:0:0:0:
109,192,30405,128,0,30720:0:0:0:0:
329,192,30405,128,0,30563:0:0:0:0:
182,192,30563,128,0,30720:0:0:0:0:
36,192,30563,1,0,0:0:0:0:
329,192,30720,1,0,0:0:0:0:
402,192,30720,1,0,0:0:0:0:
256,192,30720,128,0,30878:0:0:0:0:
182,192,30878,1,0,0:0:0:0:
475,192,30878,128,0,31194:0:0:0:0:
36,192,30878,128,0,31510:0:0:0:0:
256,192,31036,1,0,0:0:0:0:
329,192,31036,1,0,0:0:0:0:
402,192,31194,128,0,31510:0:0:0:0:
182,192,31194,128,0,31510:0:0:0:0:
109,192,31194,1,0,0:0:0:0:
256,192,31352,1,0,0:0:0:0:
329,192,31510,128,0,31826:0:0:0:0:
475,192,31510,128,0,31984:0:0:0:0:
109,192,31510,1,0,0:0:0:0:
182,192,31668,1,0,0:0:0:0:
256,192,31826,128,0,32141:0:0:0:0:
36,192,31826,1,0,0:0:0:0:
109,192,31826,1,0,0:0:0:0:
402,192,31984,128,0,32299:0:0:0:0:
329,192,31984,1,0,0:0:0:0:
182,192,32141,128,0,32457:0:0:0:0:
36,192,32141,1,0,0:0:0:0:
475,192,32141,1,0,0:0:0:0:
329,192,32299,128,0,32457:0:0:0:0:
256,192,32299,1,0,0:0:0:0:
402,192,32457,1,0,0:0:0:0:
109,192,32457,128,0,32773:0:0:0:0:
475,192,32457,1,0,0:0:0:0:
36,192,32457,1,0,0:0:0:0:
256,192,32615,128,0,32773:0:0:0:0:
329,192,32615,1,0,0:0:0:0:
329,192,32773,128,0,33089:0:0:0:0:
402,192,32773,1,0,0:0:0:0:
475,192,32773,1,0,0:0:0:0:
36,192,32773,1,0,0:0:0:0:
182,192,32931,128,0,33089:0:0:0:0:
109,192,32931,1,0,0:0:0:0:
256,192,33089,1,0,0:0:0:0:
402,192,33089,128,0,33405:0:0:0:0:
36,192,33089,128,0,33405:0:0:0:0:
475,192,33089,1,0,0:0:0:0:
182,192,33247,1,0,0:0:0:0:
182,192,33405,128,0,33563:0:0:0:0:
109,192,33405,1,0,0:0:0:0:
329,192,33405,1,0,0:0:0:0:
475,192,33405,1,0,0:0:0:0:
256,192,33563,128,0,33878:0:0:0:0:
402,192,33563,1,0,0:0:0:0:
109,192,33720,1,0,0:0:0:0:
36,192,33720,1,0,0:0:0:0:
475,192,33720,1,0,0:0:0:0:
329,192,33878,128,0,34036:0:0:0:0:
182,192,33878,1,0,0:0:0:0:
475,192,34036,1,0,0:0:0:0:
36,192,34036,1,0,0:0:0:0:
402,192,34036,1,0,0:0:0:0:
256,192,34194,1,0,0:0:0:0:
109,192,34194,1,0,0:0:0:0:
329,192,34352,128,0,34510:0:0:0:0:
182,192,34352,1,0,0:0:0:0:
475,192,34352,1,0,0:0:0:0:
36,192,34352,1,0,0:0:0:0:
256,192,34510,128,0,34826:0:0:0:0:
109,192,34510,1,0,0:0:0:0:
402,192,34510,1,0,0:0:0:0:
329,192,34668,1,0,0:0:0:0:
475,192,34668,1,0,0:0:0:0:
36,192,34668,1,0,0:0:0:0:
182,192,34826,128,0,34984:0:0:0:0:
402,192,34826,1,0,0:0:0:0:
109,192,34984,128,0,35141:0:0:0:0:
402,192,34984,128,0,35141:0:0:0:0:
36,192,34984,1,0,0:0:0:0:
475,192,34984,1,0,0:0:0:0:
329,192,35141,128,0,35299:0:0:0:0:
256,192,35141,128,0,35299:0:0:0:0:
182,192,35141,1,0,0:0:0:0:
109,192,35299,1,0,0:0:0:0:
402,192,35299,1,0,0:0:0:0:
182,192,35299,128,0,35457:0:0:0:0:
36,192,35299,128,0,35457:0:0:0:0:
475,192,35299,128,0,35457:0:0:0:0:
329,192,35457,128,0,35615:0:0:0:0:
109,192,35615,128,0,35773:0:0:0:0:
256,192,35615,1,0,0:0:0:0:
36,192,35615,1,0,0:0:0:0:
475,192,35615,1,0,0:0:0:0:
256,192,35773,128,0,35931:0:0:0:0:
402,192,35773,1,0,0:0:0:0:
36,192,35931,128,0,36247:0:0:0:0:
475,192,35931,1,0,0:0:0:0:
329,192,35931,1,0,0:0:0:0:
182,192,35931,1,0,0:0:0:0:
109,192,36036,128,0,36247:0:0:0:0:
402,192,36089,1,0,0:0:0:0:
182,192,36141,128,0,36563:0:0:0:0:
329,192,36247,1,0,0:0:0:0:
475,192,36247,1,0,0:0:0:0:
256,192,36405,1,0,0:0:0:0:
402,192,36405,1,0,0:0:0:0:
36,192,36563,1,0,0:0:0:0:
109,192,36563,1,0,0:0:0:0:
475,192,36563,1,0,0:0:0:0:
329,192,36563,128,0,36878:0:0:0:0:
182,192,36720,1,0,0:0:0:0:
256,192,36720,1,0,0:0:0:0:
109,192,36878,128,0,37510:0:0:0:0:
36,192,36878,1,0,0:0:0:0:
402,192,36878,1,0,0:0:0:0:
475,192,36878,1,0,0:0:0:0:
182,192,37036,1,0,0:0:0:0:
329,192,37036,1,0,0:0:0:0:
402,192,37194,128,0,37510:0:0:0:0:
256,192,37194,1,0,0:0:0:0:
36,192,37194,1,0,0:0:0:0:
475,192,37194,1,0,0:0:0:0:
256,192,37352,128,0,37668:0:0:0:0:
182,192,37352,1,0,0:0:0:0:
36,192,37510,128,0,37826:0:0:0:0:
475,192,37510,128,0,37826:0:0:0:0:
329,192,37510,1,0,0:0:0:0:
329,192,37668,128,0,37826:0:0:0:0:
109,192,37668,1,0,0:0:0:0:
402,192,37826,128,0,37984:0:0:0:0:
256,192,37826,1,0,0:0:0:0:
182,192,37826,128,0,38141:0:0:0:0:
329,192,37984,128,0,38141:0:0:0:0:
109,192,37984,1,0,0:0:0:0:
36,192,38141,128,0,38299:0:0:0:0:
475,192,38141,128,0,38299:0:0:0:0:
402,192,38141,1,0,0:0:0:0:
182,192,38299,128,0,38457:0:0:0:0:
256,192,38299,1,0,0:0:0:0:
329,192,38457,128,0,39247:0:0:0:0:
36,192,38457,1,0,0:0:0:0:
475,192,38457,1,0,0:0:0:0:
402,192,38457,1,0,0:0:0:0:
109,192,38457,1,0,0:0:0:0:
36,192,38773,1,0,0:0:0:0:
109,192,38773,1,0,0:0:0:0:
36,192,39089,1,0,0:0:0:0:
109,192,39089,1,0,0:0:0:0:
256,192,39089,128,0,39247:0:0:0:0:
182,192,39247,128,0,39405:0:0:0:0:
475,192,39405,1,0,0:0:0:0:
402,192,39405,128,0,39563:0:0:0:0:
36,192,39405,1,0,0:0:0:0:
256,192,39563,1,0,0:0:0:0:
329,192,39563,128,0,39878:0:0:0:0:
109,192,39563,1,0,0:0:0:0:
475,192,39720,1,0,0:0:0:0:
36,192,39720,1,0,0:0:0:0:
182,192,39720,1,0,0:0:0:0:
182,192,39878,128,0,40194:0:0:0:0:
329,192,40036,1,0,0:0:0:0:
402,192,40036,1,0,0:0:0:0:
475,192,40036,1,0,0:0:0:0:
329,192,40194,128,0,40510:0:0:0:0:
36,192,40352,1,0,0:0:0:0:
109,192,40352,1,0,0:0:0:0:
182,192,40352,1,0,0:0:0:0:
182,192,40510,1,0,0:0:0:0:
109,192,40510,1,0,0:0:0:0:
402,192,40668,1,0,0:0:0:0:
329,192,40668,1,0,0:0:0:0:
475,192,40668,1,0,0:0:0:0:
329,192,40826,1,0,0:0:0:0:
402,192,40826,1,0,0:0:0:0:
256,192,40905,1,0,0:0:0:0:
182,192,40984,1,0,0:0:0:0:
36,192,40984,1,0,0:0:0:0:
475,192,40984,128,0,41457:0:0:0:0:
109,192,40984,1,0,0:0:0:0:
402,192,41141,128,0,41299:0:0:0:0:
329,192,41299,128,0,41457:0:0:0:0:
36,192,41299,1,0,0:0:0:0:
109,192,41299,1,0,0:0:0:0:
402,192,41457,128,0,41615:0:0:0:0:
109,192,41615,1,0,0:0:0:0:
36,192,41615,1,0,0:0:0:0:
475,192,41615,128,0,41773:0:0:0:0:
329,192,41615,128,0,42089:0:0:0:0:
182,192,41615,1,0,0:0:0:0:
402,192,41773,128,0,42247:0:0:0:0:
475,192,41931,128,0,42405:0:0:0:0:
109,192,41931,1,0,0:0:0:0:
182,192,41931,1,0,0:0:0:0:
256,192,42089,1,0,0:0:0:0:
36,192,42247,128,0,42720:0:0:0:0:
182,192,42247,1,0,0:0:0:0:
329,192,42247,1,0,0:0:0:0:
109,192,42405,128,0,42563:0:0:0:0:
182,192,42563,128,0,42720:0:0:0:0:
475,192,42563,1,0,0:0:0:0:
402,192,42563,1,0,0:0:0:0:
109,192,42720,128,0,42878:0:0:0:0:
402,192,42878,1,0,0:0:0:0:
475,192,42878,1,0,0:0:0:0:
36,192,42878,128,0,43036:0:0:0:0:
182,192,42878,128,0,43352:0:0:0:0:
329,192,42878,1,0,0:0:0:0:
109,192,43036,128,0,43510:0:0:0:0:
36,192,43194,128,0,43668:0:0:0:0:
402,192,43194,1,0,0:0:0:0:
329,192,43194,1,0,0:0:0:0:
475,192,43352,1,0,0:0:0:0:
182,192,43510,1,0,0:0:0:0:
402,192,43510,128,0,43984:0:0:0:0:
256,192,43510,1,0,0:0:0:0:
329,192,43510,1,0,0:0:0:0:
329,192,43668,128,0,43826:0:0:0:0:
256,192,43826,128,0,43984:0:0:0:0:
109,192,43826,1,0,0:0:0:0:
36,192,43826,1,0,0:0:0:0:
475,192,43826,1,0,0:0:0:0:
329,192,43984,128,0,44141:0:0:0:0:
109,192,44141,128,0,44615:0:0:0:0:
256,192,44141,1,0,0:0:0:0:
36,192,44141,1,0,0:0:0:0:
475,192,44141,1,0,0:0:0:0:
182,192,44299,128,0,44457:0:0:0:0:
402,192,44457,1,0,0:0:0:0:
256,192,44457,128,0,44615:0:0:0:0:
475,192,44457,1,0,0:0:0:0:
36,192,44457,1,0,0:0:0:0:
182,192,44615,128,0,44773:0:0:0:0:
36,192,44773,1,0,0:0:0:0:
475,192,44773,1,0,0:0:0:0:
402,192,44773,1,0,0:0:0:0:
329,192,44773,1,0,0:0:0:0:
402,192,44931,128,0,45089:0:0:0:0:
256,192,44931,128,0,45089:0:0:0:0:
475,192,45089,1,0,0:0:0:0:
36,192,45089,1,0,0:0:0:0:
182,192,45089,1,0,0:0:0:0:
109,192,45089,1,0,0:0:0:0:
109,192,45247,128,0,45405:0:0:0:0:
256,192,45247,128,0,45405:0:0:0:0:
182,192,45405,128,0,45720:0:0:0:0:
36,192,45405,1,0,0:0:0:0:
329,192,45405,1,0,0:0:0:0:
475,192,45405,1,0,0:0:0:0:
329,192,45563,128,0,45878:0:0:0:0:
256,192,45563,1,0,0:0:0:0:
475,192,45720,1,0,0:0:0:0:
36,192,45720,1,0,0:0:0:0:
109,192,45720,1,0,0:0:0:0:
402,192,45720,128,0,46036:0:0:0:0:
109,192,45878,128,0,46036:0:0:0:0:
182,192,45878,1,0,0:0:0:0:
256,192,46036,128,0,46668:0:0:0:0:
36,192,46036,1,0,0:0:0:0:
475,192,46036,128,0,46510:0:0:0:0:
329,192,46036,1,0,0:0:0:0:
402,192,46194,128,0,46352:0:0:0:0:
109,192,46352,1,0,0:0:0:0:
329,192,46352,128,0,46510:0:0:0:0:
36,192,46352,1,0,0:0:0:0:
402,192,46510,128,0,46668:0:0:0:0:
475,192,46668,128,0,46826:0:0:0:0:
329,192,46668,128,0,47141:0:0:0:0:
36,192,46668,1,0,0:0:0:0:
182,192,46668,1,0,0:0:0:0:
109,192,46668,1,0,0:0:0:0:
402,192,46826,128,0,47299:0:0:0:0:
182,192,46826,128,0,46984:0:0:0:0:
475,192,46984,128,0,47457:0:0:0:0:
109,192,46984,128,0,47141:0:0:0:0:
256,192,46984,1,0,0:0:0:0:
182,192,47141,128,0,47299:0:0:0:0:
36,192,47299,128,0,47773:0:0:0:0:
256,192,47299,128,0,47931:0:0:0:0:
329,192,47299,1,0,0:0:0:0:
109,192,47299,1,0,0:0:0:0:
109,192,47457,128,0,47615:0:0:0:0:
182,192,47615,128,0,47773:0:0:0:0:
402,192,47615,1,0,0:0:0:0:
475,192,47615,1,0,0:0:0:0:
109,192,47773,128,0,47931:0:0:0:0:
36,192,47931,128,0,48089:0:0:0:0:
182,192,47931,128,0,48405:0:0:0:0:
329,192,47931,1,0,0:0:0:0:
402,192,47931,1,0,0:0:0:0:
475,192,47931,1,0,0:0:0:0:
109,192,48089,128,0,48563:0:0:0:0:
329,192,48089,128,0,48247:0:0:0:0:
475,192,48247,1,0,0:0:0:0:
36,192,48247,128,0,48720:0:0:0:0:
402,192,48247,128,0,48405:0:0:0:0:
256,192,48405,128,0,48563:0:0:0:0:
402,192,48563,128,0,49036:0:0:0:0:
182,192,48563,1,0,0:0:0:0:
329,192,48563,1,0,0:0:0:0:
475,192,48563,1,0,0:0:0:0:
329,192,48720,128,0,48878:0:0:0:0:
256,192,48878,128,0,49036:0:0:0:0:
109,192,48878,1,0,0:0:0:0:
36,192,48878,1,0,0:0:0:0:
475,192,48878,1,0,0:0:0:0:
329,192,49036,128,0,49194:0:0:0:0:
36,192,49194,1,0,0:0:0:0:
109,192,49194,128,0,49668:0:0:0:0:
475,192,49194,1,0,0:0:0:0:
402,192,49194,1,0,0:0:0:0:
256,192,49194,1,0,0:0:0:0:
182,192,49352,128,0,49510:0:0:0:0:
256,192,49510,128,0,49668:0:0:0:0:
402,192,49510,1,0,0:0:0:0:
36,192,49510,1,0,0:0:0:0:
475,192,49510,1,0,0:0:0:0:
182,192,49668,128,0,49826:0:0:0:0:
109,192,49826,128,0,50141:0:0:0:0:
329,192,49826,1,0,0:0:0:0:
475,192,49826,1,0,0:0:0:0:
36,192,49826,1,0,0:0:0:0:
402,192,49984,128,0,50299:0:0:0:0:
256,192,49984,1,0,0:0:0:0:
182,192,50141,128,0,50457:0:0:0:0:
36,192,50141,128,0,50457:0:0:0:0:
329,192,50141,1,0,0:0:0:0:
475,192,50141,1,0,0:0:0:0:
256,192,50299,1,0,0:0:0:0:
402,192,50457,1,0,0:0:0:0:
329,192,50457,1,0,0:0:0:0:
475,192,50457,1,0,0:0:0:0:
402,192,50615,128,0,51089:0:0:0:0:
256,192,50615,128,0,51089:0:0:0:0:
109,192,50773,1,0,0:0:0:0:
36,192,50773,1,0,0:0:0:0:
182,192,50773,1,0,0:0:0:0:
109,192,50931,128,0,51089:0:0:0:0:
329,192,51089,128,0,51405:0:0:0:0:
36,192,51089,1,0,0:0:0:0:
402,192,51247,128,0,51563:0:0:0:0:
475,192,51405,128,0,52194:0:0:0:0:
256,192,51405,128,0,51563:0:0:0:0:
36,192,51405,1,0,0:0:0:0:
109,192,51405,1,0,0:0:0:0:
329,192,51563,128,0,51720:0:0:0:0:
402,192,51720,128,0,51878:0:0:0:0:
36,192,51720,1,0,0:0:0:0:
182,192,51720,1,0,0:0:0:0:
109,192,51720,1,0,0:0:0:0:
329,192,51878,128,0,52036:0:0:0:0:
256,192,52036,128,0,52194:0:0:0:0:
402,192,52036,128,0,52352:0:0:0:0:
109,192,52036,1,0,0:0:0:0:
36,192,52036,1,0,0:0:0:0:
329,192,52194,128,0,52510:0:0:0:0:
475,192,52352,128,0,52826:0:0:0:0:
256,192,52352,128,0,52668:0:0:0:0:
36,192,52352,1,0,0:0:0:0:
402,192,52510,128,0,52668:0:0:0:0:
329,192,52668,128,0,52826:0:0:0:0:
36,192,52668,1,0,0:0:0:0:
109,192,52668,1,0,0:0:0:0:
402,192,52826,128,0,52984:0:0:0:0:
256,192,52826,128,0,53141:0:0:0:0:
475,192,52984,128,0,53141:0:0:0:0:
329,192,52984,128,0,53299:0:0:0:0:
36,192,52984,1,0,0:0:0:0:
182,192,52984,1,0,0:0:0:0:
109,192,52984,1,0,0:0:0:0:
402,192,53141,128,0,53457:0:0:0:0:
475,192,53299,128,0,53615:0:0:0:0:
109,192,53299,1,0,0:0:0:0:
36,192,53299,1,0,0:0:0:0:
256,192,53457,1,0,0:0:0:0:
402,192,53615,1,0,0:0:0:0:
182,192,53615,128,0,53931:0:0:0:0:
36,192,53615,1,0,0:0:0:0:
109,192,53773,128,0,54089:0:0:0:0:
36,192,53931,128,0,54720:0:0:0:0:
256,192,53931,128,0,54089:0:0:0:0:
402,192,53931,1,0,0:0:0:0:
475,192,53931,1,0,0:0:0:0:
182,192,54089,128,0,54247:0:0:0:0:
109,192,54247,128,0,54405:0:0:0:0:
329,192,54247,1,0,0:0:0:0:
402,192,54247,1,0,0:0:0:0:
475,192,54247,1,0,0:0:0:0:
182,192,54405,128,0,54563:0:0:0:0:
256,192,54563,128,0,54720:0:0:0:0:
109,192,54563,128,0,54878:0:0:0:0:
402,192,54563,1,0,0:0:0:0:
475,192,54563,1,0,0:0:0:0:
182,192,54720,128,0,55036:0:0:0:0:
36,192,54878,128,0,55352:0:0:0:0:
256,192,54878,128,0,55194:0:0:0:0:
475,192,54878,1,0,0:0:0:0:
109,192,55036,128,0,55194:0:0:0:0:
182,192,55194,128,0,55352:0:0:0:0:
402,192,55194,1,0,0:0:0:0:
475,192,55194,1,0,0:0:0:0:
109,192,55352,128,0,55510:0:0:0:0:
256,192,55352,128,0,55668:0:0:0:0:
329,192,55510,1,0,0:0:0:0:
182,192,55510,128,0,55826:0:0:0:0:
475,192,55510,1,0,0:0:0:0:
402,192,55510,1,0,0:0:0:0:
36,192,55510,128,0,55668:0:0:0:0:
109,192,55668,128,0,55984:0:0:0:0:
402,192,55668,128,0,56141:0:0:0:0:
36,192,55826,128,0,56141:0:0:0:0:
256,192,55826,1,0,0:0:0:0:
329,192,55826,1,0,0:0:0:0:
475,192,55826,1,0,0:0:0:0:
256,192,55984,128,0,56141:0:0:0:0:
329,192,56141,128,0,56615:0:0:0:0:
109,192,56141,1,0,0:0:0:0:
475,192,56141,1,0,0:0:0:0:
256,192,56299,128,0,56457:0:0:0:0:
182,192,56299,1,0,0:0:0:0:
182,192,56457,128,0,56773:0:0:0:0:
36,192,56457,1,0,0:0:0:0:
402,192,56457,1,0,0:0:0:0:
256,192,56615,128,0,56773:0:0:0:0:
475,192,56615,1,0,0:0:0:0:
109,192,56615,1,0,0:0:0:0:
36,192,56773,128,0,57089:0:0:0:0:
475,192,56773,128,0,57089:0:0:0:0:
329,192,56773,1,0,0:0:0:0:
402,192,56773,1,0,0:0:0:0:
182,192,56931,1,0,0:0:0:0:
256,192,56931,1,0,0:0:0:0:
329,192,57089,128,0,57405:0:0:0:0:
182,192,57089,128,0,57405:0:0:0:0:
109,192,57089,1,0,0:0:0:0:
402,192,57089,1,0,0:0:0:0:
256,192,57247,1,0,0:0:0:0:
109,192,57405,128,0,57563:0:0:0:0:
36,192,57405,128,0,57563:0:0:0:0:
475,192,57405,1,0,0:0:0:0:
256,192,57563,1,0,0:0:0:0:
402,192,57563,1,0,0:0:0:0:
109,192,57720,1,0,0:0:0:0:
475,192,57720,128,0,58194:0:0:0:0:
329,192,57720,1,0,0:0:0:0:
182,192,57878,128,0,58036:0:0:0:0:
402,192,57878,128,0,58036:0:0:0:0:
36,192,58036,128,0,58668:0:0:0:0:
109,192,58036,1,0,0:0:0:0:
256,192,58036,1,0,0:0:0:0:
329,192,58036,1,0,0:0:0:0:
109,192,58194,128,0,58352:0:0:0:0:
256,192,58194,128,0,58352:0:0:0:0:
402,192,58352,1,0,0:0:0:0:
182,192,58352,1,0,0:0:0:0:
475,192,58352,128,0,58668:0:0:0:0:
329,192,58352,1,0,0:0:0:0:
256,192,58510,128,0,58668:0:0:0:0:
402,192,58510,128,0,58668:0:0:0:0:
109,192,58668,1,0,0:0:0:0:
182,192,58668,1,0,0:0:0:0:
36,192,58826,128,0,59141:0:0:0:0:
182,192,58826,128,0,59141:0:0:0:0:
329,192,58984,1,0,0:0:0:0:
402,192,58984,1,0,0:0:0:0:
475,192,58984,1,0,0:0:0:0:
256,192,58984,1,0,0:0:0:0:
329,192,59141,128,0,59457:0:0:0:0:
475,192,59141,128,0,59457:0:0:0:0:
109,192,59299,1,0,0:0:0:0:
36,192,59299,1,0,0:0:0:0:
182,192,59299,1,0,0:0:0:0:
256,192,59299,1,0,0:0:0:0:
182,192,59457,128,0,59773:0:0:0:0:
109,192,59457,128,0,59773:0:0:0:0:
475,192,59615,1,0,0:0:0:0:
402,192,59615,1,0,0:0:0:0:
329,192,59615,1,0,0:0:0:0:
256,192,59615,1,0,0:0:0:0:
329,192,59773,128,0,60089:0:0:0:0:
402,192,59773,128,0,60089:0:0:0:0:
182,192,59931,1,0,0:0:0:0:
36,192,59931,1,0,0:0:0:0:
109,192,59931,1,0,0:0:0:0:
256,192,59931,1,0,0:0:0:0:
36,192,60089,128,0,60247:0:0:0:0:
109,192,60089,128,0,60247:0:0:0:0:
329,192,60247,1,0,0:0:0:0:
402,192,60247,1,0,0:0:0:0:
475,192,60247,1,0,0:0:0:0:
256,192,60247,1,0,0:0:0:0:
402,192,60405,128,0,60563:0:0:0:0:
475,192,60405,128,0,60563:0:0:0:0:
109,192,60563,1,0,0:0:0:0:
36,192,60563,1,0,0:0:0:0:
36,192,60720,128,0,60878:0:0:0:0:
109,192,60720,128,0,60878:0:0:0:0:
36,192,61036,1,0,0:0:0:0:
109,192,61036,1,0,0:0:0:0:
402,192,61194,128,0,61668:0:0:0:0:
182,192,61194,128,0,61510:0:0:0:0:
475,192,61194,1,0,0:0:0:0:
256,192,61194,1,0,0:0:0:0:
329,192,61352,1,0,0:0:0:0:
36,192,61352,128,0,61510:0:0:0:0:
109,192,61510,128,0,61668:0:0:0:0:
475,192,61510,1,0,0:0:0:0:
256,192,61668,128,0,61984:0:0:0:0:
36,192,61668,128,0,61826:0:0:0:0:
329,192,61668,128,0,61826:0:0:0:0:
475,192,61826,1,0,0:0:0:0:
182,192,61826,128,0,61984:0:0:0:0:
109,192,61826,1,0,0:0:0:0:
329,192,61984,1,0,0:0:0:0:
402,192,61984,128,0,62141:0:0:0:0:
475,192,62141,1,0,0:0:0:0:
36,192,62141,1,0,0:0:0:0:
109,192,62141,1,0,0:0:0:0:
182,192,62141,128,0,62299:0:0:0:0:
256,192,62299,1,0,0:0:0:0:
329,192,62299,128,0,62457:0:0:0:0:
402,192,62457,1,0,0:0:0:0:
109,192,62457,128,0,63089:0:0:0:0:
475,192,62457,128,0,62615:0:0:0:0:
36,192,62457,1,0,0:0:0:0:
182,192,62457,128,0,62773:0:0:0:0:
329,192,62615,128,0,62773:0:0:0:0:
402,192,62773,128,0,62931:0:0:0:0:
36,192,62773,1,0,0:0:0:0:
256,192,62773,1,0,0:0:0:0:
329,192,62931,1,0,0:0:0:0:
182,192,62931,128,0,63089:0:0:0:0:
475,192,62931,128,0,63089:0:0:0:0:
256,192,63089,128,0,63405:0:0:0:0:
402,192,63089,128,0,63247:0:0:0:0:
36,192,63089,1,0,0:0:0:0:
475,192,63247,128,0,63405:0:0:0:0:
109,192,63247,1,0,0:0:0:0:
329,192,63405,128,0,63563:0:0:0:0:
182,192,63405,1,0,0:0:0:0:
36,192,63405,1,0,0:0:0:0:
402,192,63563,128,0,63720:0:0:0:0:
109,192,63563,1,0,0:0:0:0:
36,192,63720,1,0,0:0:0:0:
475,192,63720,128,0,64510:0:0:0:0:
182,192,63720,128,0,63878:0:0:0:0:
329,192,63878,128,0,64352:0:0:0:0:
256,192,63878,1,0,0:0:0:0:
109,192,63878,128,0,64036:0:0:0:0:
182,192,64036,128,0,64194:0:0:0:0:
36,192,64036,128,0,64194:0:0:0:0:
256,192,64194,128,0,64352:0:0:0:0:
36,192,64352,128,0,64510:0:0:0:0:
109,192,64352,1,0,0:0:0:0:
402,192,64352,128,0,64510:0:0:0:0:
182,192,64510,128,0,64668:0:0:0:0:
256,192,64510,1,0,0:0:0:0:
402,192,64668,1,0,0:0:0:0:
109,192,64668,128,0,65457:0:0:0:0:
36,192,64668,1,0,0:0:0:0:
475,192,64668,128,0,65141:0:0:0:0:
329,192,64668,128,0,64826:0:0:0:0:
256,192,64826,128,0,65299:0:0:0:0:
402,192,64984,128,0,65141:0:0:0:0:
36,192,64984,128,0,65141:0:0:0:0:
182,192,65141,128,0,65299:0:0:0:0:
402,192,65299,128,0,65615:0:0:0:0:
475,192,65299,1,0,0:0:0:0:
36,192,65299,128,0,65457:0:0:0:0:
256,192,65457,128,0,65615:0:0:0:0:
329,192,65457,1,0,0:0:0:0:
109,192,65615,1,0,0:0:0:0:
36,192,65615,1,0,0:0:0:0:
475,192,65615,1,0,0:0:0:0:
182,192,65615,1,0,0:0:0:0:
36,192,65773,128,0,66089:0:0:0:0:
109,192,65773,128,0,66089:0:0:0:0:
256,192,65773,128,0,66247:0:0:0:0:
402,192,65931,1,0,0:0:0:0:
329,192,65931,1,0,0:0:0:0:
475,192,65931,1,0,0:0:0:0:
402,192,66089,128,0,66247:0:0:0:0:
475,192,66089,128,0,66247:0:0:0:0:
182,192,66247,128,0,66562:0:0:0:0:
36,192,66247,1,0,0:0:0:0:
109,192,66405,128,0,66720:0:0:0:0:
329,192,66405,1,0,0:0:0:0:
475,192,66405,128,0,66562:0:0:0:0:
36,192,66562,128,0,66878:0:0:0:0:
256,192,66562,1,0,0:0:0:0:
402,192,66562,128,0,66720:0:0:0:0:
182,192,66720,1,0,0:0:0:0:
475,192,66720,128,0,66878:0:0:0:0:
109,192,66878,1,0,0:0:0:0:
329,192,66878,128,0,67194:0:0:0:0:
36,192,67036,128,0,67194:0:0:0:0:
402,192,67036,128,0,67352:0:0:0:0:
182,192,67036,1,0,0:0:0:0:
256,192,67194,1,0,0:0:0:0:
109,192,67194,128,0,67352:0:0:0:0:
475,192,67194,128,0,67510:0:0:0:0:
329,192,67352,1,0,0:0:0:0:
36,192,67352,128,0,67510:0:0:0:0:
182,192,67510,128,0,67826:0:0:0:0:
109,192,67510,128,0,67668:0:0:0:0:
402,192,67510,128,0,67668:0:0:0:0:
256,192,67668,128,0,68141:0:0:0:0:
329,192,67826,128,0,67984:0:0:0:0:
402,192,67826,1,0,0:0:0:0:
109,192,67826,1,0,0:0:0:0:
36,192,67826,1,0,0:0:0:0:
475,192,67826,1,0,0:0:0:0:
182,192,67984,128,0,68299:0:0:0:0:
329,192,68141,128,0,68457:0:0:0:0:
36,192,68141,128,0,68299:0:0:0:0:
475,192,68141,128,0,68299:0:0:0:0:
402,192,68141,1,0,0:0:0:0:
109,192,68141,1,0,0:0:0:0:
256,192,68299,128,0,68615:0:0:0:0:
182,192,68457,128,0,68773:0:0:0:0:
36,192,68457,1,0,0:0:0:0:
475,192,68457,1,0,0:0:0:0:
402,192,68615,1,0,0:0:0:0:
109,192,68615,1,0,0:0:0:0:
475,192,68773,128,0,69247:0:0:0:0:
36,192,68773,128,0,68931:0:0:0:0:
256,192,68773,1,0,0:0:0:0:
329,192,68773,128,0,68931:0:0:0:0:
256,192,68931,128,0,69089:0:0:0:0:
402,192,68931,128,0,69089:0:0:0:0:
109,192,68931,1,0,0:0:0:0:
36,192,69089,128,0,69247:0:0:0:0:
182,192,69089,128,0,69247:0:0:0:0:
329,192,69089,1,0,0:0:0:0:
329,192,69247,128,0,69405:0:0:0:0:
109,192,69247,1,0,0:0:0:0:
402,192,69405,128,0,69562:0:0:0:0:
256,192,69405,1,0,0:0:0:0:
36,192,69405,128,0,69878:0:0:0:0:
475,192,69405,1,0,0:0:0:0:
182,192,69405,128,0,69562:0:0:0:0:
329,192,69562,128,0,69720:0:0:0:0:
109,192,69562,1,0,0:0:0:0:
256,192,69720,128,0,69878:0:0:0:0:
475,192,69720,128,0,69878:0:0:0:0:
182,192,69720,1,0,0:0:0:0:
182,192,69878,128,0,70036:0:0:0:0:
109,192,69878,1,0,0:0:0:0:
402,192,69878,128,0,70036:0:0:0:0:
329,192,70036,1,0,0:0:0:0:
475,192,70036,1,0,0:0:0:0:
256,192,70036,1,0,0:0:0:0:
36,192,70036,128,0,70352:0:0:0:0:
402,192,70194,128,0,70352:0:0:0:0:
475,192,70194,128,0,70668:0:0:0:0:
182,192,70352,1,0,0:0:0:0:
109,192,70352,1,0,0:0:0:0:
256,192,70352,1,0,0:0:0:0:
109,192,70510,128,0,70984:0:0:0:0:
182,192,70510,128,0,70668:0:0:0:0:
256,192,70668,1,0,0:0:0:0:
329,192,70668,1,0,0:0:0:0:
402,192,70668,1,0,0:0:0:0:
402,192,70826,128,0,71299:0:0:0:0:
329,192,70826,128,0,70984:0:0:0:0:
36,192,70984,1,0,0:0:0:0:
256,192,70984,1,0,0:0:0:0:
182,192,70984,1,0,0:0:0:0:
36,192,71141,128,0,71299:0:0:0:0:
109,192,71141,128,0,71299:0:0:0:0:
182,192,71141,128,0,71299:0:0:0:0:
329,192,71299,128,0,71457:0:0:0:0:
475,192,71299,128,0,72089:0:0:0:0:
256,192,71378,128,0,71536:0:0:0:0:
182,192,71457,128,0,71852:0:0:0:0:
402,192,71615,1,0,0:0:0:0:
329,192,71615,1,0,0:0:0:0:
36,192,71615,1,0,0:0:0:0:
109,192,71773,1,0,0:0:0:0:
256,192,71773,128,0,71931:0:0:0:0:
329,192,71852,128,0,72089:0:0:0:0:
36,192,71931,1,0,0:0:0:0:
402,192,72089,128,0,72247:0:0:0:0:
109,192,72089,128,0,72247:0:0:0:0:
36,192,72247,1,0,0:0:0:0:
475,192,72247,1,0,0:0:0:0:
329,192,72247,1,0,0:0:0:0:
182,192,72247,1,0,0:0:0:0:
256,192,72405,1,0,0:0:0:0:
402,192,72405,128,0,72562:0:0:0:0:
109,192,72405,128,0,72562:0:0:0:0:
182,192,72562,128,0,72720:0:0:0:0:
36,192,72562,128,0,73352:0:0:0:0:
329,192,72562,1,0,0:0:0:0:
475,192,72562,1,0,0:0:0:0:
256,192,72641,128,0,72799:0:0:0:0:
329,192,72720,128,0,73194:0:0:0:0:
475,192,72878,1,0,0:0:0:0:
182,192,72878,1,0,0:0:0:0:
109,192,72878,1,0,0:0:0:0:
402,192,73036,1,0,0:0:0:0:
182,192,73194,128,0,73352:0:0:0:0:
475,192,73194,1,0,0:0:0:0:
256,192,73194,128,0,73352:0:0:0:0:
402,192,73352,128,0,73510:0:0:0:0:
109,192,73352,128,0,73510:0:0:0:0:
182,192,73510,1,0,0:0:0:0:
329,192,73510,1,0,0:0:0:0:
475,192,73510,1,0,0:0:0:0:
36,192,73510,1,0,0:0:0:0:
475,192,73668,128,0,73826:0:0:0:0:
36,192,73668,128,0,73826:0:0:0:0:
256,192,73668,1,0,0:0:0:0:
329,192,73826,128,0,73984:0:0:0:0:
182,192,73826,128,0,73984:0:0:0:0:
109,192,73984,128,0,74141:0:0:0:0:
402,192,73984,128,0,74141:0:0:0:0:
36,192,74141,128,0,74615:0:0:0:0:
475,192,74141,128,0,74615:0:0:0:0:
182,192,74141,1,0,0:0:0:0:
329,192,74141,1,0,0:0:0:0:
402,192,74299,128,0,74457:0:0:0:0:
109,192,74299,128,0,74457:0:0:0:0:
256,192,74299,1,0,0:0:0:0:
329,192,74457,128,0,74615:0:0:0:0:
182,192,74457,128,0,74615:0:0:0:0:
109,192,74615,1,0,0:0:0:0:
402,192,74615,1,0,0:0:0:0:
256,192,74773,128,0,74931:0:0:0:0:
475,192,74773,1,0,0:0:0:0:
36,192,74773,1,0,0:0:0:0:
182,192,74931,128,0,75089:0:0:0:0:
329,192,74931,128,0,75089:0:0:0:0:
109,192,74931,1,0,0:0:0:0:
402,192,74931,1,0,0:0:0:0:
475,192,75089,128,0,75247:0:0:0:0:
256,192,75089,1,0,0:0:0:0:
36,192,75089,128,0,75247:0:0:0:0:
109,192,75247,128,0,75562:0:0:0:0:
402,192,75247,128,0,75562:0:0:0:0:
329,192,75247,1,0,0:0:0:0:
182,192,75247,1,0,0:0:0:0:
256,192,75405,1,0,0:0:0:0:
36,192,75405,1,0,0:0:0:0:
475,192,75405,1,0,0:0:0:0:
182,192,75562,1,0,0:0:0:0:
329,192,75562,1,0,0:0:0:0:
402,192,75720,1,0,0:0:0:0:
329,192,75720,1,0,0:0:0:0:
109,192,75720,1,0,0:0:0:0:
182,192,75720,1,0,0:0:0:0:
475,192,75720,128,0,76352:0:0:0:0:
36,192,75720,1,0,0:0:0:0:
402,192,76036,1,0,0:0:0:0:
329,192,76036,1,0,0:0:0:0:
36,192,76036,128,0,76352:0:0:0:0:
109,192,76036,1,0,0:0:0:0:
182,192,76036,1,0,0:0:0:0:
182,192,76194,128,0,76352:0:0:0:0:
329,192,76352,1,0,0:0:0:0:
109,192,76352,1,0,0:0:0:0:
256,192,76352,1,0,0:0:0:0:
402,192,76510,1,0,0:0:0:0:
475,192,76668,1,0,0:0:0:0:
329,192,76668,128,0,76984:0:0:0:0:
109,192,76668,1,0,0:0:0:0:
36,192,76668,1,0,0:0:0:0:
402,192,76826,128,0,77141:0:0:0:0:
475,192,76984,128,0,77299:0:0:0:0:
182,192,76984,1,0,0:0:0:0:
36,192,76984,1,0,0:0:0:0:
109,192,76984,1,0,0:0:0:0:
36,192,77299,1,0,0:0:0:0:
182,192,77299,128,0,77615:0:0:0:0:
329,192,77299,1,0,0:0:0:0:
109,192,77457,128,0,77773:0:0:0:0:
475,192,77615,1,0,0:0:0:0:
256,192,77615,1,0,0:0:0:0:
36,192,77615,128,0,77931:0:0:0:0:
402,192,77931,1,0,0:0:0:0:
475,192,77931,1,0,0:0:0:0:
182,192,77931,128,0,78247:0:0:0:0:
256,192,78089,128,0,78405:0:0:0:0:
402,192,78247,1,0,0:0:0:0:
475,192,78247,1,0,0:0:0:0:
329,192,78247,128,0,78878:0:0:0:0:
36,192,78247,1,0,0:0:0:0:
109,192,78247,1,0,0:0:0:0:
475,192,78562,1,0,0:0:0:0:
256,192,78562,128,0,78878:0:0:0:0:
109,192,78562,1,0,0:0:0:0:
36,192,78562,1,0,0:0:0:0:
182,192,78720,128,0,78878:0:0:0:0:
36,192,78878,128,0,79036:0:0:0:0:
475,192,78878,128,0,79036:0:0:0:0:
402,192,78878,1,0,0:0:0:0:
109,192,78878,1,0,0:0:0:0:
182,192,79036,1,0,0:0:0:0:
329,192,79036,1,0,0:0:0:0:
182,192,79194,128,0,79352:0:0:0:0:
329,192,79194,128,0,79352:0:0:0:0:
36,192,79194,1,0,0:0:0:0:
475,192,79194,1,0,0:0:0:0:
36,192,79352,1,0,0:0:0:0:
475,192,79352,1,0,0:0:0:0:
109,192,79510,128,0,79668:0:0:0:0:
256,192,79510,128,0,79668:0:0:0:0:
402,192,79510,128,0,79668:0:0:0:0:
182,192,79510,1,0,0:0:0:0:
329,192,79510,1,0,0:0:0:0:
109,192,79826,1,0,0:0:0:0:
256,192,79826,1,0,0:0:0:0:
402,192,79826,1,0,0:0:0:0:
36,192,79826,1,0,0:0:0:0:
475,192,79826,1,0,0:0:0:0:
182,192,79984,128,0,80141:0:0:0:0:
36,192,79984,128,0,80141:0:0:0:0:
329,192,79984,128,0,80141:0:0:0:0:
475,192,79984,128,0,80141:0:0:0:0:
36,192,80299,1,0,0:0:0:0:
182,192,80299,1,0,0:0:0:0:
329,192,80299,1,0,0:0:0:0:
475,192,80299,1,0,0:0:0:0:
402,192,80457,1,0,0:0:0:0:
475,192,80457,1,0,0:0:0:0:
329,192,80536,1,0,0:0:0:0:
256,192,80615,1,0,0:0:0:0:
182,192,80694,1,0,0:0:0:0:
109,192,80773,1,0,0:0:0:0:
36,192,80773,1,0,0:0:0:0:
329,192,80931,1,0,0:0:0:0:
402,192,80931,1,0,0:0:0:0:
182,192,81089,128,0,81326:0:0:0:0:
109,192,81168,128,0,81326:0:0:0:0:
36,192,81247,128,0,81326:0:0:0:0:
475,192,81405,128,0,82036:0:0:0:0:
36,192,81405,1,0,0:0:0:0:
182,192,81405,1,0,0:0:0:0:
329,192,81405,1,0,0:0:0:0:
256,192,81405,1,0,0:0:0:0:
402,192,81720,128,0,82036:0:0:0:0:
329,192,81799,128,0,82036:0:0:0:0:
256,192,81878,128,0,82036:0:0:0:0:
182,192,81957,128,0,82036:0:0:0:0:
36,192,82036,128,0,82194:0:0:0:0:
109,192,82036,1,0,0:0:0:0:
182,192,82194,128,0,82352:0:0:0:0:
329,192,82194,1,0,0:0:0:0:
475,192,82194,1,0,0:0:0:0:
36,192,82352,128,0,82826:0:0:0:0:
109,192,82352,1,0,0:0:0:0:
182,192,82510,128,0,82668:0:0:0:0:
329,192,82510,1,0,0:0:0:0:
475,192,82510,1,0,0:0:0:0:
402,192,82668,128,0,83141:0:0:0:0:
256,192,82668,1,0,0:0:0:0:
329,192,82826,128,0,82984:0:0:0:0:
182,192,82826,1,0,0:0:0:0:
109,192,82984,128,0,83299:0:0:0:0:
36,192,82984,1,0,0:0:0:0:
475,192,82984,1,0,0:0:0:0:
256,192,83141,128,0,83299:0:0:0:0:
182,192,83141,1,0,0:0:0:0:
329,192,83299,1,0,0:0:0:0:
402,192,83299,1,0,0:0:0:0:
475,192,83299,1,0,0:0:0:0:
36,192,83299,1,0,0:0:0:0:
329,192,83378,128,0,83457:0:0:0:0:
256,192,83457,128,0,83536:0:0:0:0:
182,192,83536,128,0,83615:0:0:0:0:
109,192,83615,128,0,83694:0:0:0:0:
402,192,83615,128,0,83694:0:0:0:0:
109,192,83773,128,0,83852:0:0:0:0:
402,192,83773,128,0,83852:0:0:0:0:
182,192,83931,128,0,84405:0:0:0:0:
109,192,83931,1,0,0:0:0:0:
36,192,83931,1,0,0:0:0:0:
329,192,83931,1,0,0:0:0:0:
475,192,83931,1,0,0:0:0:0:
402,192,83931,1,0,0:0:0:0:
329,192,84089,128,0,84247:0:0:0:0:
256,192,84247,1,0,0:0:0:0:
402,192,84247,128,0,84562:0:0:0:0:
475,192,84247,1,0,0:0:0:0:
36,192,84247,1,0,0:0:0:0:
256,192,84405,128,0,84562:0:0:0:0:
109,192,84562,128,0,85036:0:0:0:0:
182,192,84562,1,0,0:0:0:0:
36,192,84562,1,0,0:0:0:0:
329,192,84562,1,0,0:0:0:0:
475,192,84562,1,0,0:0:0:0:
329,192,84720,128,0,84878:0:0:0:0:
182,192,84878,1,0,0:0:0:0:
36,192,84878,1,0,0:0:0:0:
402,192,84878,128,0,85194:0:0:0:0:
475,192,84878,1,0,0:0:0:0:
182,192,85036,128,0,85194:0:0:0:0:
256,192,85194,1,0,0:0:0:0:
475,192,85194,128,0,85510:0:0:0:0:
109,192,85194,1,0,0:0:0:0:
329,192,85194,1,0,0:0:0:0:
36,192,85194,128,0,85510:0:0:0:0:
329,192,85352,128,0,85510:0:0:0:0:
182,192,85352,128,0,85510:0:0:0:0:
109,192,85510,128,0,85668:0:0:0:0:
402,192,85510,128,0,85668:0:0:0:0:
256,192,85510,1,0,0:0:0:0:
182,192,85668,1,0,0:0:0:0:
329,192,85668,1,0,0:0:0:0:
256,192,85668,128,0,85826:0:0:0:0:
109,192,85826,1,0,0:0:0:0:
36,192,85826,1,0,0:0:0:0:
475,192,85826,1,0,0:0:0:0:
402,192,85826,128,0,86141:0:0:0:0:
329,192,85905,128,0,86141:0:0:0:0:
256,192,85984,128,0,86141:0:0:0:0:
182,192,86062,128,0,86141:0:0:0:0:
36,192,86141,128,0,86220:0:0:0:0:
475,192,86141,128,0,86220:0:0:0:0:
182,192,86299,128,0,86378:0:0:0:0:
329,192,86299,128,0,86378:0:0:0:0:
36,192,86457,128,0,86562:0:0:0:0:
256,192,86457,1,0,0:0:0:0:
109,192,86562,128,0,86668:0:0:0:0:
329,192,86562,1,0,0:0:0:0:
182,192,86668,128,0,86773:0:0:0:0:
402,192,86668,1,0,0:0:0:0:
256,192,86773,128,0,86878:0:0:0:0:
475,192,86773,1,0,0:0:0:0:
329,192,86878,128,0,86984:0:0:0:0:
402,192,86984,128,0,87089:0:0:0:0:
182,192,87089,1,0,0:0:0:0:
109,192,87089,1,0,0:0:0:0:
36,192,87089,1,0,0:0:0:0:
475,192,87089,128,0,87405:0:0:0:0:
256,192,87247,1,0,0:0:0:0:
329,192,87405,128,0,87878:0:0:0:0:
182,192,87405,1,0,0:0:0:0:
36,192,87405,1,0,0:0:0:0:
475,192,87562,128,0,87720:0:0:0:0:
256,192,87562,1,0,0:0:0:0:
36,192,87720,128,0,88036:0:0:0:0:
109,192,87799,128,0,88036:0:0:0:0:
182,192,87878,128,0,88036:0:0:0:0:
475,192,87878,128,0,88194:0:0:0:0:
256,192,87957,128,0,88036:0:0:0:0:
329,192,88036,128,0,88194:0:0:0:0:
402,192,88194,1,0,0:0:0:0:
36,192,88352,1,0,0:0:0:0:
475,192,88352,1,0,0:0:0:0:
329,192,88352,1,0,0:0:0:0:
109,192,88352,1,0,0:0:0:0:
182,192,88352,1,0,0:0:0:0:
329,192,88431,128,0,88510:0:0:0:0:
256,192,88510,128,0,88589:0:0:0:0:
182,192,88589,128,0,88668:0:0:0:0:
109,192,88668,128,0,88747:0:0:0:0:
402,192,88668,128,0,88747:0:0:0:0:
109,192,88826,128,0,88905:0:0:0:0:
402,192,88826,128,0,88905:0:0:0:0:
182,192,88984,1,0,0:0:0:0:
36,192,88984,128,0,89141:0:0:0:0:
329,192,88984,128,0,89299:0:0:0:0:
256,192,88984,1,0,0:0:0:0:
402,192,88984,1,0,0:0:0:0:
475,192,88984,1,0,0:0:0:0:
182,192,89141,128,0,89457:0:0:0:0:
109,192,89141,1,0,0:0:0:0:
36,192,89299,128,0,89615:0:0:0:0:
402,192,89299,128,0,89457:0:0:0:0:
256,192,89299,1,0,0:0:0:0:
475,192,89299,1,0,0:0:0:0:
256,192,89457,128,0,89615:0:0:0:0:
109,192,89457,1,0,0:0:0:0:
329,192,89615,1,0,0:0:0:0:
402,192,89615,1,0,0:0:0:0:
475,192,89615,128,0,89773:0:0:0:0:
182,192,89615,128,0,89931:0:0:0:0:
36,192,89773,1,0,0:0:0:0:
329,192,89773,128,0,90089:0:0:0:0:
109,192,89773,1,0,0:0:0:0:
109,192,89931,128,0,90089:0:0:0:0:
475,192,89931,128,0,90247:0:0:0:0:
256,192,89931,1,0,0:0:0:0:
256,192,90089,128,0,90247:0:0:0:0:
36,192,90247,128,0,90720:0:0:0:0:
402,192,90247,128,0,90562:0:0:0:0:
109,192,90247,1,0,0:0:0:0:
182,192,90247,1,0,0:0:0:0:
329,192,90247,1,0,0:0:0:0:
182,192,90405,128,0,90562:0:0:0:0:
475,192,90562,1,0,0:0:0:0:
329,192,90562,128,0,90878:0:0:0:0:
256,192,90562,1,0,0:0:0:0:
182,192,90720,128,0,90878:0:0:0:0:
36,192,90878,1,0,0:0:0:0:
475,192,90878,128,0,91352:0:0:0:0:
109,192,90878,1,0,0:0:0:0:
256,192,90878,1,0,0:0:0:0:
402,192,90957,128,0,91273:0:0:0:0:
329,192,91036,128,0,91194:0:0:0:0:
182,192,91194,128,0,91273:0:0:0:0:
36,192,91194,1,0,0:0:0:0:
256,192,91273,128,0,91352:0:0:0:0:
329,192,91352,128,0,91431:0:0:0:0:
402,192,91431,128,0,91510:0:0:0:0:
36,192,91510,1,0,0:0:0:0:
182,192,91510,1,0,0:0:0:0:
475,192,91510,128,0,92141:0:0:0:0:
402,192,91826,128,0,92141:0:0:0:0:
329,192,91905,128,0,92141:0:0:0:0:
256,192,91984,128,0,92141:0:0:0:0:
182,192,92062,128,0,92141:0:0:0:0:
36,192,92141,1,0,0:0:0:0:
109,192,92141,1,0,0:0:0:0:
475,192,92299,128,0,92773:0:0:0:0:
329,192,92299,128,0,92457:0:0:0:0:
256,192,92299,1,0,0:0:0:0:
36,192,92457,1,0,0:0:0:0:
109,192,92457,1,0,0:0:0:0:
402,192,92615,128,0,93089:0:0:0:0:
329,192,92615,1,0,0:0:0:0:
256,192,92615,128,0,92773:0:0:0:0:
182,192,92773,128,0,92931:0:0:0:0:
36,192,92773,128,0,93247:0:0:0:0:
109,192,92773,1,0,0:0:0:0:
329,192,92931,128,0,93089:0:0:0:0:
256,192,92931,1,0,0:0:0:0:
475,192,93089,128,0,93562:0:0:0:0:
109,192,93089,128,0,93247:0:0:0:0:
182,192,93089,1,0,0:0:0:0:
182,192,93247,128,0,93405:0:0:0:0:
329,192,93247,1,0,0:0:0:0:
329,192,93405,128,0,93562:0:0:0:0:
109,192,93405,128,0,93562:0:0:0:0:
36,192,93405,128,0,93720:0:0:0:0:
256,192,93405,1,0,0:0:0:0:
402,192,93562,128,0,94036:0:0:0:0:
256,192,93720,128,0,94036:0:0:0:0:
182,192,93720,1,0,0:0:0:0:
329,192,94036,128,0,94194:0:0:0:0:
475,192,94036,128,0,94352:0:0:0:0:
36,192,94036,1,0,0:0:0:0:
109,192,94036,1,0,0:0:0:0:
256,192,94194,128,0,94510:0:0:0:0:
182,192,94194,1,0,0:0:0:0:
402,192,94352,128,0,94668:0:0:0:0:
36,192,94352,1,0,0:0:0:0:
109,192,94510,128,0,94668:0:0:0:0:
182,192,94510,1,0,0:0:0:0:
36,192,94668,128,0,94984:0:0:0:0:
182,192,94668,128,0,94826:0:0:0:0:
329,192,94668,1,0,0:0:0:0:
475,192,94668,1,0,0:0:0:0:
256,192,94826,128,0,95141:0:0:0:0:
402,192,94826,1,0,0:0:0:0:
109,192,94984,128,0,95299:0:0:0:0:
329,192,94984,1,0,0:0:0:0:
329,192,95141,128,0,95299:0:0:0:0:
475,192,95141,1,0,0:0:0:0:
182,192,95299,1,0,0:0:0:0:
36,192,95299,1,0,0:0:0:0:
402,192,95299,128,0,95773:0:0:0:0:
256,192,95457,128,0,95615:0:0:0:0:
109,192,95615,128,0,95931:0:0:0:0:
36,192,95615,1,0,0:0:0:0:
475,192,95615,1,0,0:0:0:0:
182,192,95694,128,0,95931:0:0:0:0:
256,192,95773,128,0,95931:0:0:0:0:
402,192,95931,1,0,0:0:0:0:
329,192,95931,1,0,0:0:0:0:
475,192,95931,1,0,0:0:0:0:
329,192,96089,128,0,96405:0:0:0:0:
402,192,96089,128,0,96405:0:0:0:0:
109,192,96247,1,0,0:0:0:0:
36,192,96247,1,0,0:0:0:0:
182,192,96405,1,0,0:0:0:0:
36,192,96562,1,0,0:0:0:0:
475,192,96562,1,0,0:0:0:0:
402,192,96562,128,0,96668:0:0:0:0:
256,192,96562,1,0,0:0:0:0:
109,192,96562,1,0,0:0:0:0:
329,192,96668,128,0,96773:0:0:0:0:
182,192,96668,1,0,0:0:0:0:
256,192,96773,128,0,96878:0:0:0:0:
109,192,96773,1,0,0:0:0:0:
182,192,96878,128,0,96984:0:0:0:0:
36,192,96878,1,0,0:0:0:0:
109,192,96984,128,0,97089:0:0:0:0:
402,192,96984,1,0,0:0:0:0:
36,192,97089,128,0,97194:0:0:0:0:
182,192,97194,1,0,0:0:0:0:
329,192,97194,1,0,0:0:0:0:
475,192,97194,128,0,97510:0:0:0:0:
256,192,97194,128,0,97352:0:0:0:0:
109,192,97352,128,0,97510:0:0:0:0:
329,192,97510,128,0,97826:0:0:0:0:
36,192,97510,1,0,0:0:0:0:
182,192,97510,1,0,0:0:0:0:
402,192,97510,1,0,0:0:0:0:
475,192,97668,128,0,97826:0:0:0:0:
256,192,97668,1,0,0:0:0:0:
109,192,97826,128,0,98141:0:0:0:0:
36,192,97826,128,0,98299:0:0:0:0:
402,192,97826,1,0,0:0:0:0:
182,192,97826,1,0,0:0:0:0:
329,192,97984,128,0,98141:0:0:0:0:
402,192,97984,128,0,98141:0:0:0:0:
256,192,98141,128,0,98457:0:0:0:0:
182,192,98220,128,0,98457:0:0:0:0:
109,192,98299,128,0,98457:0:0:0:0:
36,192,98457,1,0,0:0:0:0:
329,192,98457,1,0,0:0:0:0:
475,192,98457,128,0,98615:0:0:0:0:
402,192,98457,128,0,98615:0:0:0:0:
109,192,98615,1,0,0:0:0:0:
256,192,98615,1,0,0:0:0:0:
182,192,98615,1,0,0:0:0:0:
402,192,98773,1,0,0:0:0:0:
475,192,98773,1,0,0:0:0:0:
36,192,98773,128,0,98931:0:0:0:0:
109,192,98773,128,0,98931:0:0:0:0:
256,192,98931,1,0,0:0:0:0:
329,192,98931,1,0,0:0:0:0:
182,192,98931,1,0,0:0:0:0:
36,192,99089,1,0,0:0:0:0:
109,192,99089,1,0,0:0:0:0:
402,192,99089,1,0,0:0:0:0:
475,192,99089,1,0,0:0:0:0:
329,192,99405,128,0,99510:0:0:0:0:
36,192,99405,1,0,0:0:0:0:
475,192,99510,128,0,99615:0:0:0:0:
256,192,99615,128,0,99720:0:0:0:0:
402,192,99720,128,0,99826:0:0:0:0:
36,192,99720,1,0,0:0:0:0:
182,192,99826,128,0,99931:0:0:0:0:
36,192,99878,1,0,0:0:0:0:
329,192,99931,128,0,100036:0:0:0:0:
109,192,100036,128,0,100141:0:0:0:0:
475,192,100036,1,0,0:0:0:0:
256,192,100141,128,0,100247:0:0:0:0:
36,192,100194,1,0,0:0:0:0:
402,192,100247,128,0,100352:0:0:0:0:
182,192,100352,128,0,100457:0:0:0:0:
36,192,100352,1,0,0:0:0:0:
329,192,100457,128,0,100562:0:0:0:0:
475,192,100510,1,0,0:0:0:0:
109,192,100562,128,0,100668:0:0:0:0:
256,192,100668,128,0,100773:0:0:0:0:
475,192,100668,1,0,0:0:0:0:
36,192,100773,128,0,100878:0:0:0:0:
109,192,100826,1,0,0:0:0:0:
182,192,100878,128,0,100984:0:0:0:0:
329,192,100984,128,0,101089:0:0:0:0:
475,192,100984,1,0,0:0:0:0:
402,192,100984,1,0,0:0:0:0:
109,192,101089,128,0,101194:0:0:0:0:
36,192,101089,1,0,0:0:0:0:
402,192,101194,128,0,101299:0:0:0:0:
329,192,101194,1,0,0:0:0:0:
182,192,101299,128,0,101615:0:0:0:0:
36,192,101299,1,0,0:0:0:0:
256,192,101299,1,0,0:0:0:0:
475,192,101299,1,0,0:0:0:0:
109,192,101457,1,0,0:0:0:0:
329,192,101615,5,0,0:0:0:0:
475,192,101615,128,0,101931:0:0:0:0:
36,192,101615,128,0,101931:0:0:0:0:
329,192,101931,128,0,102247:0:0:0:0:
182,192,101931,1,0,0:0:0:0:
182,192,102247,1,0,0:0:0:0:
36,192,102247,128,0,102562:0:0:0:0:
475,192,102247,128,0,102562:0:0:0:0:
182,192,102562,128,0,102878:0:0:0:0:
329,192,102562,1,0,0:0:0:0:
109,192,102878,1,0,0:0:0:0:
402,192,102878,128,0,103036:0:0:0:0:
256,192,102878,128,0,103036:0:0:0:0:
329,192,103036,1,0,0:0:0:0:
475,192,103036,128,0,103352:0:0:0:0:
256,192,103194,128,0,103352:0:0:0:0:
109,192,103194,128,0,103352:0:0:0:0:
402,192,103194,1,0,0:0:0:0:
36,192,103352,128,0,103668:0:0:0:0:
329,192,103510,128,0,103668:0:0:0:0:
475,192,103510,1,0,0:0:0:0:
182,192,103510,128,0,103668:0:0:0:0:
109,192,103668,1,0,0:0:0:0:
36,192,103826,1,0,0:0:0:0:
256,192,103826,1,0,0:0:0:0:
402,192,103826,1,0,0:0:0:0:
36,192,104141,128,0,104615:0:0:0:0:
329,192,104141,128,0,104615:0:0:0:0:
475,192,104141,1,0,0:0:0:0:
182,192,104141,1,0,0:0:0:0:
475,192,104457,128,0,104615:0:0:0:0:
36,192,104773,1,0,0:0:0:0:
475,192,104773,128,0,105247:0:0:0:0:
182,192,104773,128,0,105247:0:0:0:0:
329,192,104773,1,0,0:0:0:0:
36,192,105089,128,0,105247:0:0:0:0:
109,192,105405,1,0,0:0:0:0:
329,192,105405,128,0,105562:0:0:0:0:
182,192,105405,128,0,105562:0:0:0:0:
402,192,105562,1,0,0:0:0:0:
475,192,105562,128,0,105878:0:0:0:0:
36,192,105720,1,0,0:0:0:0:
109,192,105720,128,0,105878:0:0:0:0:
256,192,105720,128,0,105878:0:0:0:0:
329,192,105878,1,0,0:0:0:0:
402,192,105878,128,0,106194:0:0:0:0:
182,192,106036,128,0,106194:0:0:0:0:
36,192,106036,128,0,106194:0:0:0:0:
256,192,106036,1,0,0:0:0:0:
475,192,106194,1,0,0:0:0:0:
329,192,106352,1,0,0:0:0:0:
36,192,106352,1,0,0:0:0:0:
182,192,106668,1,0,0:0:0:0:
475,192,106668,1,0,0:0:0:0:
36,192,106668,128,0,107141:0:0:0:0:
329,192,106668,128,0,107141:0:0:0:0:
182,192,106984,128,0,107141:0:0:0:0:
329,192,107299,1,0,0:0:0:0:
36,192,107299,1,0,0:0:0:0:
182,192,107299,128,0,107773:0:0:0:0:
475,192,107299,128,0,107773:0:0:0:0:
329,192,107615,128,0,107773:0:0:0:0:
475,192,107931,1,0,0:0:0:0:
256,192,107931,128,0,108089:0:0:0:0:
109,192,107931,128,0,108089:0:0:0:0:
182,192,108089,1,0,0:0:0:0:
36,192,108089,128,0,108405:0:0:0:0:
402,192,108247,1,0,0:0:0:0:
329,192,108247,128,0,108405:0:0:0:0:
182,192,108247,128,0,108405:0:0:0:0:
256,192,108405,1,0,0:0:0:0:
475,192,108405,128,0,108720:0:0:0:0:
329,192,108562,1,0,0:0:0:0:
36,192,108562,128,0,108720:0:0:0:0:
182,192,108562,128,0,108720:0:0:0:0:
402,192,108720,1,0,0:0:0:0:
475,192,108878,1,0,0:0:0:0:
256,192,108878,1,0,0:0:0:0:
109,192,108878,1,0,0:0:0:0:
36,192,109194,1,0,0:0:0:0:
475,192,109194,128,0,109668:0:0:0:0:
329,192,109194,128,0,109668:0:0:0:0:
182,192,109194,128,0,109352:0:0:0:0:
36,192,109510,128,0,109668:0:0:0:0:
475,192,109826,1,0,0:0:0:0:
36,192,109826,128,0,110299:0:0:0:0:
182,192,109826,128,0,110299:0:0:0:0:
329,192,109826,128,0,109984:0:0:0:0:
475,192,110141,128,0,110299:0:0:0:0:
182,192,110457,128,0,110615:0:0:0:0:
36,192,110457,128,0,110615:0:0:0:0:
475,192,110457,1,0,0:0:0:0:
402,192,110615,128,0,110773:0:0:0:0:
329,192,110615,128,0,110773:0:0:0:0:
36,192,110773,1,0,0:0:0:0:
109,192,110773,128,0,110931:0:0:0:0:
256,192,110773,128,0,110931:0:0:0:0:
402,192,110931,128,0,111089:0:0:0:0:
475,192,110931,128,0,111089:0:0:0:0:
36,192,111089,1,0,0:0:0:0:
329,192,111089,128,0,111247:0:0:0:0:
182,192,111089,128,0,111247:0:0:0:0:
402,192,111247,1,0,0:0:0:0:
256,192,111247,1,0,0:0:0:0:
36,192,111405,1,0,0:0:0:0:
329,192,111405,1,0,0:0:0:0:
182,192,111405,128,0,111562:0:0:0:0:
475,192,111562,1,0,0:0:0:0:
329,192,111562,128,0,111720:0:0:0:0:
109,192,111720,1,0,0:0:0:0:
402,192,111720,128,0,112036:0:0:0:0:
256,192,111720,128,0,112036:0:0:0:0:
109,192,112036,128,0,112194:0:0:0:0:
402,192,112352,1,0,0:0:0:0:
109,192,112352,128,0,112668:0:0:0:0:
256,192,112352,128,0,112668:0:0:0:0:
402,192,112668,128,0,112826:0:0:0:0:
475,192,112984,1,0,0:0:0:0:
36,192,112984,1,0,0:0:0:0:
182,192,112984,1,0,0:0:0:0:
256,192,113141,1,0,0:0:0:0:
402,192,113141,1,0,0:0:0:0:
36,192,113299,1,0,0:0:0:0:
475,192,113299,1,0,0:0:0:0:
329,192,113299,1,0,0:0:0:0:
109,192,113457,1,0,0:0:0:0:
256,192,113457,1,0,0:0:0:0:
36,192,113615,1,0,0:0:0:0:
402,192,113615,1,0,0:0:0:0:
475,192,113615,1,0,0:0:0:0:
329,192,113773,1,0,0:0:0:0:
182,192,113773,1,0,0:0:0:0:
109,192,113931,1,0,0:0:0:0:
256,192,113931,1,0,0:0:0:0:
36,192,113931,1,0,0:0:0:0:
109,192,114247,1,0,0:0:0:0:
402,192,114247,1,0,0:0:0:0:
256,192,114247,1,0,0:0:0:0:
402,192,114562,1,0,0:0:0:0:
109,192,114878,1,0,0:0:0:0:
402,192,114878,1,0,0:0:0:0:
256,192,114878,1,0,0:0:0:0:
109,192,115194,1,0,0:0:0:0:
475,192,115510,1,0,0:0:0:0:
182,192,115510,1,0,0:0:0:0:
36,192,115510,1,0,0:0:0:0:
329,192,115668,1,0,0:0:0:0:
36,192,115826,1,0,0:0:0:0:
475,192,115826,1,0,0:0:0:0:
402,192,115826,1,0,0:0:0:0:
182,192,115984,1,0,0:0:0:0:
475,192,116141,1,0,0:0:0:0:
36,192,116141,1,0,0:0:0:0:
402,192,116299,1,0,0:0:0:0:
256,192,116299,1,0,0:0:0:0:
36,192,116457,1,0,0:0:0:0:
475,192,116457,1,0,0:0:0:0:
182,192,116457,1,0,0:0:0:0:
182,192,116773,1,0,0:0:0:0:
36,192,116773,1,0,0:0:0:0:
475,192,116773,1,0,0:0:0:0:
182,192,117089,1,0,0:0:0:0:
36,192,117405,1,0,0:0:0:0:
329,192,117405,1,0,0:0:0:0:
475,192,117405,1,0,0:0:0:0:
329,192,117720,1,0,0:0:0:0:
36,192,118036,1,0,0:0:0:0:
475,192,118036,1,0,0:0:0:0:
329,192,118194,1,0,0:0:0:0:
36,192,118352,1,0,0:0:0:0:
475,192,118352,1,0,0:0:0:0:
256,192,118510,1,0,0:0:0:0:
182,192,118668,1,0,0:0:0:0:
36,192,118668,1,0,0:0:0:0:
329,192,118668,1,0,0:0:0:0:
475,192,118826,1,0,0:0:0:0:
182,192,118984,1,0,0:0:0:0:
402,192,118984,1,0,0:0:0:0:
329,192,119141,1,0,0:0:0:0:
329,192,119299,1,0,0:0:0:0:
182,192,119299,1,0,0:0:0:0:
329,192,119615,1,0,0:0:0:0:
329,192,119931,1,0,0:0:0:0:
182,192,119931,1,0,0:0:0:0:
182,192,120247,1,0,0:0:0:0:
109,192,120562,1,0,0:0:0:0:
402,192,120562,1,0,0:0:0:0:
256,192,120720,1,0,0:0:0:0:
182,192,120878,1,0,0:0:0:0:
329,192,120878,1,0,0:0:0:0:
256,192,121036,1,0,0:0:0:0:
109,192,121194,1,0,0:0:0:0:
402,192,121194,1,0,0:0:0:0:
256,192,121352,1,0,0:0:0:0:
109,192,121510,1,0,0:0:0:0:
402,192,121510,1,0,0:0:0:0:
36,192,121826,1,0,0:0:0:0:
475,192,121826,1,0,0:0:0:0:
