osu file format v14

[General]
AudioFilename: M2U - The Prince of Darkness.mp3
AudioLeadIn: 0
PreviewTime: 24991
Countdown: 0
SampleSet: Soft
StackLeniency: 0.7
Mode: 3
LetterboxInBreaks: 0
SpecialStyle: 0
WidescreenStoryboard: 1

[Editor]
DistanceSpacing: 1.5
BeatDivisor: 4
GridSize: 4
TimelineZoom: 2.7

[Metadata]
Title:M2U Pack
TitleUnicode:M2U Pack
Artist:M2U
ArtistUnicode:M2U
Creator:Kim_GodSSI
Version:The Prince of Darkness 7K
Source:
Tags:arpia97 lami- buschan ezmmr micleak nabi- ruka takjun roasted chicken murumoo other nicode sherie 約束之歌 guriri 구리리 howling redeye red eye lucy egoist 最後の花弁 나래
BeatmapID:3470141
BeatmapSetID:1572720

[Difficulty]
HPDrainRate:8.2
CircleSize:7
OverallDifficulty:7.5
ApproachRate:5
SliderMultiplier:1.4
SliderTickRate:1

[Events]
//Background and Video events
0,0,"M2U - The Prince of Darkness.jpg",0,0
//Break Periods
//Storyboard Layer 0 (Background)
//Storyboard Layer 1 (Fail)
//Storyboard Layer 2 (Pass)
//Storyboard Layer 3 (Foreground)
//Storyboard Layer 4 (Overlay)
//Storyboard Sound Samples

[TimingPoints]
991,375,4,2,0,0,1,0

[HitObjects]
182,192,991,128,0,1084:0:0:0:0:
36,192,991,1,0,0:0:0:0:
475,192,991,1,0,0:0:0:0:
256,192,991,1,0,0:0:0:0:
402,192,1084,1,0,0:0:0:0:
329,192,1178,128,0,1272:0:0:0:0:
109,192,1178,1,0,0:0:0:0:
182,192,1272,1,0,0:0:0:0:
36,192,1366,1,0,0:0:0:0:
475,192,1366,1,0,0:0:0:0:
256,192,1366,128,0,1459:0:0:0:0:
329,192,1459,1,0,0:0:0:0:
402,192,1553,128,0,1647:0:0:0:0:
109,192,1553,1,0,0:0:0:0:
182,192,1647,1,0,0:0:0:0:
475,192,1741,128,0,1834:0:0:0:0:
256,192,1741,1,0,0:0:0:0:
36,192,1741,1,0,0:0:0:0:
329,192,1834,1,0,0:0:0:0:
402,192,1928,128,0,2022:0:0:0:0:
182,192,1928,1,0,0:0:0:0:
256,192,2022,1,0,0:0:0:0:
329,192,2116,128,0,2209:0:0:0:0:
109,192,2116,1,0,0:0:0:0:
475,192,2116,1,0,0:0:0:0:
182,192,2209,1,0,0:0:0:0:
475,192,2303,128,0,2397:0:0:0:0:
256,192,2303,1,0,0:0:0:0:
182,192,2397,1,0,0:0:0:0:
109,192,2491,128,0,2584:0:0:0:0:
329,192,2491,1,0,0:0:0:0:
36,192,2491,1,0,0:0:0:0:
475,192,2491,1,0,0:0:0:0:
256,192,2584,1,0,0:0:0:0:
182,192,2678,128,0,2772:0:0:0:0:
402,192,2678,1,0,0:0:0:0:
329,192,2772,1,0,0:0:0:0:
256,192,2866,128,0,2959:0:0:0:0:
475,192,2866,1,0,0:0:0:0:
36,192,2866,1,0,0:0:0:0:
182,192,2959,1,0,0:0:0:0:
109,192,3053,128,0,3147:0:0:0:0:
402,192,3053,1,0,0:0:0:0:
329,192,3147,1,0,0:0:0:0:
402,192,3241,128,0,3334:0:0:0:0:
256,192,3241,1,0,0:0:0:0:
36,192,3241,1,0,0:0:0:0:
475,192,3241,1,0,0:0:0:0:
109,192,3334,1,0,0:0:0:0:
329,192,3428,128,0,3522:0:0:0:0:
182,192,3428,1,0,0:0:0:0:
402,192,3522,1,0,0:0:0:0:
109,192,3616,1,0,0:0:0:0:
475,192,3616,1,0,0:0:0:0:
256,192,3616,128,0,3709:0:0:0:0:
402,192,3709,1,0,0:0:0:0:
182,192,3803,128,0,3897:0:0:0:0:
36,192,3803,1,0,0:0:0:0:
329,192,3897,1,0,0:0:0:0:
36,192,3991,128,0,4084:0:0:0:0:
475,192,3991,1,0,0:0:0:0:
402,192,3991,1,0,0:0:0:0:
256,192,3991,1,0,0:0:0:0:
109,192,4084,1,0,0:0:0:0:
182,192,4178,128,0,4272:0:0:0:0:
329,192,4178,1,0,0:0:0:0:
402,192,4272,1,0,0:0:0:0:
109,192,4366,128,0,4459:0:0:0:0:
256,192,4366,1,0,0:0:0:0:
475,192,4366,1,0,0:0:0:0:
402,192,4459,1,0,0:0:0:0:
182,192,4553,128,0,4647:0:0:0:0:
329,192,4553,1,0,0:0:0:0:
109,192,4647,1,0,0:0:0:0:
256,192,4741,128,0,4834:0:0:0:0:
402,192,4741,1,0,0:0:0:0:
36,192,4741,1,0,0:0:0:0:
182,192,4834,1,0,0:0:0:0:
329,192,4928,128,0,5022:0:0:0:0:
109,192,4928,1,0,0:0:0:0:
256,192,5022,1,0,0:0:0:0:
402,192,5116,128,0,5209:0:0:0:0:
182,192,5116,1,0,0:0:0:0:
36,192,5116,1,0,0:0:0:0:
329,192,5209,1,0,0:0:0:0:
475,192,5303,128,0,5397:0:0:0:0:
256,192,5303,1,0,0:0:0:0:
329,192,5397,1,0,0:0:0:0:
402,192,5491,128,0,5584:0:0:0:0:
182,192,5491,1,0,0:0:0:0:
36,192,5491,1,0,0:0:0:0:
256,192,5584,1,0,0:0:0:0:
329,192,5678,128,0,5772:0:0:0:0:
109,192,5678,1,0,0:0:0:0:
182,192,5772,1,0,0:0:0:0:
475,192,5866,1,0,0:0:0:0:
256,192,5866,128,0,5959:0:0:0:0:
36,192,5866,1,0,0:0:0:0:
109,192,5959,1,0,0:0:0:0:
182,192,6053,128,0,6147:0:0:0:0:
402,192,6053,1,0,0:0:0:0:
256,192,6147,1,0,0:0:0:0:
109,192,6241,128,0,6334:0:0:0:0:
329,192,6241,1,0,0:0:0:0:
475,192,6241,1,0,0:0:0:0:
256,192,6334,1,0,0:0:0:0:
182,192,6428,128,0,6522:0:0:0:0:
402,192,6428,1,0,0:0:0:0:
329,192,6522,1,0,0:0:0:0:
402,192,6616,128,0,6709:0:0:0:0:
256,192,6616,1,0,0:0:0:0:
36,192,6616,1,0,0:0:0:0:
182,192,6709,1,0,0:0:0:0:
475,192,6803,128,0,6897:0:0:0:0:
329,192,6803,1,0,0:0:0:0:
109,192,6803,1,0,0:0:0:0:
256,192,6991,1,0,0:0:0:0:
36,192,6991,1,0,0:0:0:0:
402,192,6991,1,0,0:0:0:0:
475,192,6991,1,0,0:0:0:0:
182,192,6991,128,0,7084:0:0:0:0:
109,192,7084,128,0,7178:0:0:0:0:
36,192,7178,128,0,7272:0:0:0:0:
329,192,7178,1,0,0:0:0:0:
475,192,7178,1,0,0:0:0:0:
109,192,7272,128,0,7366:0:0:0:0:
256,192,7366,128,0,7459:0:0:0:0:
475,192,7366,1,0,0:0:0:0:
36,192,7366,1,0,0:0:0:0:
402,192,7366,1,0,0:0:0:0:
182,192,7459,128,0,7553:0:0:0:0:
109,192,7553,128,0,7647:0:0:0:0:
329,192,7553,1,0,0:0:0:0:
475,192,7553,1,0,0:0:0:0:
182,192,7647,128,0,7741:0:0:0:0:
36,192,7741,1,0,0:0:0:0:
329,192,7741,128,0,7834:0:0:0:0:
475,192,7741,1,0,0:0:0:0:
109,192,7741,1,0,0:0:0:0:
256,192,7834,128,0,7928:0:0:0:0:
182,192,7928,128,0,8022:0:0:0:0:
36,192,7928,1,0,0:0:0:0:
475,192,7928,1,0,0:0:0:0:
256,192,8022,128,0,8116:0:0:0:0:
109,192,8116,1,0,0:0:0:0:
36,192,8116,1,0,0:0:0:0:
402,192,8116,128,0,8209:0:0:0:0:
475,192,8116,1,0,0:0:0:0:
256,192,8209,128,0,8303:0:0:0:0:
329,192,8303,128,0,8397:0:0:0:0:
182,192,8303,1,0,0:0:0:0:
36,192,8303,1,0,0:0:0:0:
402,192,8397,128,0,8491:0:0:0:0:
109,192,8491,1,0,0:0:0:0:
182,192,8491,1,0,0:0:0:0:
475,192,8491,1,0,0:0:0:0:
36,192,8491,1,0,0:0:0:0:
329,192,8491,128,0,8584:0:0:0:0:
402,192,8584,128,0,8678:0:0:0:0:
475,192,8678,128,0,8772:0:0:0:0:
109,192,8678,1,0,0:0:0:0:
256,192,8678,1,0,0:0:0:0:
402,192,8772,128,0,8866:0:0:0:0:
329,192,8866,128,0,8959:0:0:0:0:
182,192,8866,1,0,0:0:0:0:
36,192,8866,1,0,0:0:0:0:
475,192,8866,1,0,0:0:0:0:
109,192,8866,1,0,0:0:0:0:
256,192,8959,128,0,9053:0:0:0:0:
182,192,9053,128,0,9147:0:0:0:0:
36,192,9053,1,0,0:0:0:0:
475,192,9053,1,0,0:0:0:0:
109,192,9147,128,0,9241:0:0:0:0:
329,192,9241,128,0,9334:0:0:0:0:
182,192,9241,1,0,0:0:0:0:
36,192,9241,1,0,0:0:0:0:
402,192,9241,1,0,0:0:0:0:
475,192,9241,1,0,0:0:0:0:
256,192,9334,128,0,9428:0:0:0:0:
182,192,9428,128,0,9522:0:0:0:0:
402,192,9428,1,0,0:0:0:0:
36,192,9428,1,0,0:0:0:0:
109,192,9522,128,0,9616:0:0:0:0:
36,192,9616,128,0,9709:0:0:0:0:
329,192,9616,1,0,0:0:0:0:
256,192,9616,1,0,0:0:0:0:
402,192,9616,1,0,0:0:0:0:
475,192,9616,1,0,0:0:0:0:
109,192,9709,128,0,9803:0:0:0:0:
182,192,9803,128,0,9897:0:0:0:0:
329,192,9803,1,0,0:0:0:0:
475,192,9803,1,0,0:0:0:0:
256,192,9897,128,0,9991:0:0:0:0:
329,192,9991,1,0,0:0:0:0:
402,192,9991,1,0,0:0:0:0:
109,192,9991,1,0,0:0:0:0:
36,192,9991,1,0,0:0:0:0:
182,192,9991,128,0,10084:0:0:0:0:
475,192,10084,128,0,10178:0:0:0:0:
402,192,10178,128,0,10272:0:0:0:0:
256,192,10178,1,0,0:0:0:0:
109,192,10178,1,0,0:0:0:0:
475,192,10272,128,0,10366:0:0:0:0:
182,192,10366,1,0,0:0:0:0:
109,192,10366,128,0,10459:0:0:0:0:
256,192,10366,1,0,0:0:0:0:
36,192,10366,1,0,0:0:0:0:
329,192,10366,1,0,0:0:0:0:
402,192,10459,128,0,10553:0:0:0:0:
329,192,10553,128,0,10647:0:0:0:0:
182,192,10553,1,0,0:0:0:0:
36,192,10553,1,0,0:0:0:0:
402,192,10647,128,0,10741:0:0:0:0:
256,192,10741,1,0,0:0:0:0:
182,192,10741,1,0,0:0:0:0:
109,192,10741,1,0,0:0:0:0:
475,192,10741,1,0,0:0:0:0:
36,192,10741,128,0,10834:0:0:0:0:
329,192,10834,128,0,10928:0:0:0:0:
256,192,10928,128,0,11022:0:0:0:0:
182,192,10928,1,0,0:0:0:0:
475,192,10928,1,0,0:0:0:0:
329,192,11022,128,0,11116:0:0:0:0:
36,192,11116,128,0,11209:0:0:0:0:
182,192,11116,1,0,0:0:0:0:
402,192,11116,1,0,0:0:0:0:
475,192,11116,1,0,0:0:0:0:
109,192,11209,128,0,11303:0:0:0:0:
182,192,11303,128,0,11397:0:0:0:0:
329,192,11303,1,0,0:0:0:0:
475,192,11303,1,0,0:0:0:0:
256,192,11397,128,0,11491:0:0:0:0:
182,192,11491,128,0,11584:0:0:0:0:
402,192,11491,1,0,0:0:0:0:
36,192,11491,1,0,0:0:0:0:
109,192,11491,1,0,0:0:0:0:
475,192,11491,1,0,0:0:0:0:
256,192,11584,128,0,11678:0:0:0:0:
109,192,11678,1,0,0:0:0:0:
329,192,11678,128,0,11772:0:0:0:0:
475,192,11678,1,0,0:0:0:0:
36,192,11678,1,0,0:0:0:0:
402,192,11772,128,0,11866:0:0:0:0:
329,192,11866,128,0,11959:0:0:0:0:
475,192,11866,1,0,0:0:0:0:
109,192,11866,1,0,0:0:0:0:
36,192,11866,1,0,0:0:0:0:
182,192,11866,1,0,0:0:0:0:
256,192,11959,128,0,12053:0:0:0:0:
329,192,12053,128,0,12147:0:0:0:0:
109,192,12053,1,0,0:0:0:0:
36,192,12053,1,0,0:0:0:0:
402,192,12147,128,0,12241:0:0:0:0:
475,192,12241,128,0,12334:0:0:0:0:
109,192,12241,1,0,0:0:0:0:
36,192,12241,1,0,0:0:0:0:
402,192,12334,128,0,12428:0:0:0:0:
182,192,12334,1,0,0:0:0:0:
256,192,12334,1,0,0:0:0:0:
329,192,12428,128,0,12522:0:0:0:0:
36,192,12428,1,0,0:0:0:0:
109,192,12428,1,0,0:0:0:0:
256,192,12522,128,0,12616:0:0:0:0:
402,192,12522,1,0,0:0:0:0:
475,192,12522,1,0,0:0:0:0:
329,192,12616,128,0,12709:0:0:0:0:
36,192,12616,1,0,0:0:0:0:
109,192,12616,1,0,0:0:0:0:
182,192,12616,128,0,12709:0:0:0:0:
475,192,12709,1,0,0:0:0:0:
402,192,12709,1,0,0:0:0:0:
256,192,12709,128,0,12803:0:0:0:0:
182,192,12803,128,0,12897:0:0:0:0:
109,192,12803,1,0,0:0:0:0:
36,192,12803,1,0,0:0:0:0:
329,192,12897,128,0,12991:0:0:0:0:
402,192,12897,1,0,0:0:0:0:
475,192,12897,1,0,0:0:0:0:
256,192,12991,1,0,0:0:0:0:
109,192,12991,1,0,0:0:0:0:
36,192,12991,128,0,14491:0:0:0:0:
182,192,12991,1,0,0:0:0:0:
182,192,13178,1,0,0:0:0:0:
329,192,13178,1,0,0:0:0:0:
329,192,13366,1,0,0:0:0:0:
475,192,13366,1,0,0:0:0:0:
182,192,13366,1,0,0:0:0:0:
182,192,13553,1,0,0:0:0:0:
402,192,13553,1,0,0:0:0:0:
329,192,13647,1,0,0:0:0:0:
182,192,13741,1,0,0:0:0:0:
402,192,13741,1,0,0:0:0:0:
256,192,13834,1,0,0:0:0:0:
329,192,13928,1,0,0:0:0:0:
475,192,13928,1,0,0:0:0:0:
256,192,14022,1,0,0:0:0:0:
182,192,14116,1,0,0:0:0:0:
329,192,14116,1,0,0:0:0:0:
475,192,14116,1,0,0:0:0:0:
475,192,14303,1,0,0:0:0:0:
182,192,14303,1,0,0:0:0:0:
329,192,14303,1,0,0:0:0:0:
329,192,14491,128,0,14584:0:0:0:0:
475,192,14491,128,0,14584:0:0:0:0:
109,192,14491,1,0,0:0:0:0:
182,192,14491,1,0,0:0:0:0:
329,192,14678,128,0,14772:0:0:0:0:
475,192,14678,128,0,14772:0:0:0:0:
109,192,14678,1,0,0:0:0:0:
182,192,14866,1,0,0:0:0:0:
36,192,14866,1,0,0:0:0:0:
402,192,14866,1,0,0:0:0:0:
329,192,15053,128,0,15147:0:0:0:0:
475,192,15053,128,0,15147:0:0:0:0:
109,192,15053,1,0,0:0:0:0:
256,192,15147,1,0,0:0:0:0:
329,192,15241,1,0,0:0:0:0:
36,192,15241,128,0,15334:0:0:0:0:
475,192,15241,1,0,0:0:0:0:
109,192,15241,1,0,0:0:0:0:
182,192,15241,128,0,15334:0:0:0:0:
256,192,15334,1,0,0:0:0:0:
36,192,15428,128,0,15522:0:0:0:0:
182,192,15428,128,0,15522:0:0:0:0:
402,192,15428,1,0,0:0:0:0:
329,192,15522,1,0,0:0:0:0:
256,192,15616,1,0,0:0:0:0:
109,192,15616,1,0,0:0:0:0:
475,192,15616,1,0,0:0:0:0:
36,192,15803,128,0,15897:0:0:0:0:
182,192,15803,128,0,15897:0:0:0:0:
402,192,15803,1,0,0:0:0:0:
329,192,15897,1,0,0:0:0:0:
36,192,15991,1,0,0:0:0:0:
256,192,15991,1,0,0:0:0:0:
475,192,15991,128,0,16084:0:0:0:0:
402,192,15991,128,0,16084:0:0:0:0:
109,192,15991,1,0,0:0:0:0:
475,192,16178,128,0,16272:0:0:0:0:
402,192,16178,128,0,16272:0:0:0:0:
182,192,16178,1,0,0:0:0:0:
256,192,16272,1,0,0:0:0:0:
36,192,16366,1,0,0:0:0:0:
329,192,16366,1,0,0:0:0:0:
182,192,16366,1,0,0:0:0:0:
402,192,16553,128,0,16647:0:0:0:0:
475,192,16553,128,0,16647:0:0:0:0:
182,192,16553,1,0,0:0:0:0:
256,192,16647,1,0,0:0:0:0:
109,192,16741,128,0,16834:0:0:0:0:
36,192,16741,128,0,16834:0:0:0:0:
329,192,16741,1,0,0:0:0:0:
475,192,16741,1,0,0:0:0:0:
256,192,16834,1,0,0:0:0:0:
109,192,16928,128,0,17022:0:0:0:0:
36,192,16928,128,0,17022:0:0:0:0:
402,192,16928,1,0,0:0:0:0:
329,192,17022,1,0,0:0:0:0:
256,192,17116,1,0,0:0:0:0:
475,192,17116,1,0,0:0:0:0:
109,192,17116,1,0,0:0:0:0:
109,192,17303,128,0,17397:0:0:0:0:
36,192,17303,128,0,17397:0:0:0:0:
402,192,17303,1,0,0:0:0:0:
256,192,17397,1,0,0:0:0:0:
329,192,17491,128,0,17584:0:0:0:0:
475,192,17491,128,0,17584:0:0:0:0:
182,192,17491,1,0,0:0:0:0:
36,192,17491,1,0,0:0:0:0:
329,192,17678,128,0,17772:0:0:0:0:
475,192,17678,128,0,17772:0:0:0:0:
109,192,17678,1,0,0:0:0:0:
182,192,17772,1,0,0:0:0:0:
402,192,17866,1,0,0:0:0:0:
256,192,17866,1,0,0:0:0:0:
36,192,17866,1,0,0:0:0:0:
182,192,17959,1,0,0:0:0:0:
329,192,18053,128,0,18147:0:0:0:0:
475,192,18053,128,0,18147:0:0:0:0:
109,192,18053,1,0,0:0:0:0:
256,192,18147,1,0,0:0:0:0:
402,192,18241,1,0,0:0:0:0:
36,192,18241,128,0,18334:0:0:0:0:
182,192,18241,128,0,18334:0:0:0:0:
329,192,18334,1,0,0:0:0:0:
182,192,18428,128,0,18522:0:0:0:0:
36,192,18428,128,0,18522:0:0:0:0:
475,192,18428,1,0,0:0:0:0:
402,192,18522,1,0,0:0:0:0:
475,192,18616,1,0,0:0:0:0:
329,192,18616,1,0,0:0:0:0:
109,192,18616,1,0,0:0:0:0:
182,192,18803,128,0,18897:0:0:0:0:
36,192,18803,128,0,18897:0:0:0:0:
329,192,18803,1,0,0:0:0:0:
109,192,18991,1,0,0:0:0:0:
36,192,18991,1,0,0:0:0:0:
402,192,18991,128,0,19084:0:0:0:0:
475,192,18991,128,0,19084:0:0:0:0:
256,192,18991,1,0,0:0:0:0:
182,192,19178,1,0,0:0:0:0:
402,192,19178,128,0,19272:0:0:0:0:
475,192,19178,128,0,19272:0:0:0:0:
256,192,19272,1,0,0:0:0:0:
329,192,19366,1,0,0:0:0:0:
109,192,19366,1,0,0:0:0:0:
475,192,19366,1,0,0:0:0:0:
402,192,19553,128,0,19647:0:0:0:0:
475,192,19553,128,0,19647:0:0:0:0:
182,192,19553,1,0,0:0:0:0:
256,192,19647,1,0,0:0:0:0:
36,192,19741,128,0,19834:0:0:0:0:
109,192,19741,128,0,19834:0:0:0:0:
475,192,19741,1,0,0:0:0:0:
402,192,19741,1,0,0:0:0:0:
329,192,19834,1,0,0:0:0:0:
36,192,19928,128,0,20022:0:0:0:0:
256,192,19928,1,0,0:0:0:0:
109,192,19928,128,0,20022:0:0:0:0:
402,192,20022,1,0,0:0:0:0:
329,192,20116,1,0,0:0:0:0:
182,192,20116,1,0,0:0:0:0:
36,192,20116,1,0,0:0:0:0:
109,192,20303,128,0,20397:0:0:0:0:
36,192,20303,128,0,20397:0:0:0:0:
329,192,20303,1,0,0:0:0:0:
182,192,20397,1,0,0:0:0:0:
256,192,20491,128,0,20584:0:0:0:0:
402,192,20491,128,0,20584:0:0:0:0:
36,192,20491,1,0,0:0:0:0:
475,192,20491,1,0,0:0:0:0:
109,192,20584,1,0,0:0:0:0:
256,192,20678,128,0,20772:0:0:0:0:
402,192,20678,128,0,20772:0:0:0:0:
182,192,20678,1,0,0:0:0:0:
109,192,20772,1,0,0:0:0:0:
182,192,20866,1,0,0:0:0:0:
329,192,20866,1,0,0:0:0:0:
36,192,20866,1,0,0:0:0:0:
256,192,21053,128,0,21147:0:0:0:0:
402,192,21053,128,0,21147:0:0:0:0:
109,192,21053,1,0,0:0:0:0:
182,192,21147,1,0,0:0:0:0:
109,192,21241,128,0,21334:0:0:0:0:
256,192,21241,128,0,21334:0:0:0:0:
475,192,21241,1,0,0:0:0:0:
402,192,21334,1,0,0:0:0:0:
329,192,21428,1,0,0:0:0:0:
109,192,21428,128,0,21522:0:0:0:0:
256,192,21428,128,0,21522:0:0:0:0:
402,192,21522,1,0,0:0:0:0:
182,192,21616,1,0,0:0:0:0:
36,192,21616,1,0,0:0:0:0:
475,192,21616,1,0,0:0:0:0:
109,192,21803,128,0,21897:0:0:0:0:
402,192,21803,1,0,0:0:0:0:
256,192,21803,128,0,21897:0:0:0:0:
329,192,21897,1,0,0:0:0:0:
402,192,21991,128,0,22084:0:0:0:0:
36,192,21991,1,0,0:0:0:0:
475,192,21991,128,0,22084:0:0:0:0:
182,192,21991,1,0,0:0:0:0:
109,192,21991,1,0,0:0:0:0:
402,192,22178,128,0,22272:0:0:0:0:
475,192,22178,128,0,22272:0:0:0:0:
109,192,22178,1,0,0:0:0:0:
182,192,22272,1,0,0:0:0:0:
36,192,22366,1,0,0:0:0:0:
256,192,22366,1,0,0:0:0:0:
402,192,22366,1,0,0:0:0:0:
402,192,22553,128,0,22647:0:0:0:0:
475,192,22553,128,0,22647:0:0:0:0:
182,192,22553,1,0,0:0:0:0:
256,192,22647,1,0,0:0:0:0:
36,192,22741,128,0,22834:0:0:0:0:
329,192,22741,1,0,0:0:0:0:
109,192,22741,128,0,22834:0:0:0:0:
475,192,22741,1,0,0:0:0:0:
402,192,22834,1,0,0:0:0:0:
109,192,22928,128,0,23022:0:0:0:0:
36,192,22928,128,0,23022:0:0:0:0:
256,192,22928,1,0,0:0:0:0:
329,192,23022,1,0,0:0:0:0:
182,192,23116,1,0,0:0:0:0:
36,192,23116,1,0,0:0:0:0:
475,192,23116,1,0,0:0:0:0:
109,192,23303,128,0,23397:0:0:0:0:
36,192,23303,128,0,23397:0:0:0:0:
329,192,23303,1,0,0:0:0:0:
182,192,23397,1,0,0:0:0:0:
256,192,23491,128,0,23584:0:0:0:0:
402,192,23491,128,0,23584:0:0:0:0:
109,192,23491,1,0,0:0:0:0:
36,192,23491,1,0,0:0:0:0:
182,192,23584,1,0,0:0:0:0:
256,192,23678,128,0,23772:0:0:0:0:
402,192,23678,128,0,23772:0:0:0:0:
109,192,23678,1,0,0:0:0:0:
36,192,23678,1,0,0:0:0:0:
182,192,23772,1,0,0:0:0:0:
109,192,23866,1,0,0:0:0:0:
329,192,23866,1,0,0:0:0:0:
475,192,23866,1,0,0:0:0:0:
182,192,23959,1,0,0:0:0:0:
109,192,24053,1,0,0:0:0:0:
36,192,24053,1,0,0:0:0:0:
402,192,24053,128,0,24147:0:0:0:0:
256,192,24053,128,0,24147:0:0:0:0:
182,192,24147,1,0,0:0:0:0:
36,192,24241,1,0,0:0:0:0:
475,192,24241,1,0,0:0:0:0:
109,192,24241,1,0,0:0:0:0:
402,192,24241,1,0,0:0:0:0:
256,192,24334,1,0,0:0:0:0:
329,192,24334,1,0,0:0:0:0:
36,192,24428,1,0,0:0:0:0:
402,192,24428,1,0,0:0:0:0:
475,192,24428,1,0,0:0:0:0:
109,192,24522,1,0,0:0:0:0:
182,192,24522,1,0,0:0:0:0:
256,192,24616,1,0,0:0:0:0:
329,192,24616,1,0,0:0:0:0:
475,192,24616,1,0,0:0:0:0:
36,192,24616,128,0,25084:0:0:0:0:
182,192,24709,1,0,0:0:0:0:
109,192,24709,1,0,0:0:0:0:
329,192,24803,1,0,0:0:0:0:
475,192,24803,1,0,0:0:0:0:
402,192,24803,1,0,0:0:0:0:
109,192,24897,1,0,0:0:0:0:
182,192,24897,1,0,0:0:0:0:
475,192,24991,128,0,26303:0:0:0:0:
256,192,24991,1,0,0:0:0:0:
329,192,24991,1,0,0:0:0:0:
402,192,24991,1,0,0:0:0:0:
36,192,25178,128,0,25647:0:0:0:0:
182,192,25178,1,0,0:0:0:0:
329,192,25178,1,0,0:0:0:0:
109,192,25366,128,0,25647:0:0:0:0:
329,192,25366,1,0,0:0:0:0:
402,192,25366,1,0,0:0:0:0:
182,192,25366,1,0,0:0:0:0:
182,192,25553,128,0,25928:0:0:0:0:
256,192,25553,1,0,0:0:0:0:
402,192,25553,1,0,0:0:0:0:
109,192,25741,1,0,0:0:0:0:
36,192,25741,1,0,0:0:0:0:
402,192,25741,1,0,0:0:0:0:
256,192,25928,128,0,26491:0:0:0:0:
36,192,25928,1,0,0:0:0:0:
329,192,25928,1,0,0:0:0:0:
402,192,26116,128,0,26303:0:0:0:0:
182,192,26116,1,0,0:0:0:0:
36,192,26116,128,0,26491:0:0:0:0:
329,192,26116,1,0,0:0:0:0:
109,192,26116,1,0,0:0:0:0:
182,192,26303,128,0,26491:0:0:0:0:
329,192,26303,1,0,0:0:0:0:
329,192,26491,128,0,27053:0:0:0:0:
109,192,26491,128,0,26678:0:0:0:0:
402,192,26491,1,0,0:0:0:0:
475,192,26491,1,0,0:0:0:0:
182,192,26678,128,0,26866:0:0:0:0:
256,192,26678,1,0,0:0:0:0:
402,192,26678,1,0,0:0:0:0:
36,192,26866,128,0,27241:0:0:0:0:
256,192,26866,1,0,0:0:0:0:
475,192,26866,1,0,0:0:0:0:
402,192,26866,1,0,0:0:0:0:
256,192,27053,1,0,0:0:0:0:
402,192,27053,128,0,27616:0:0:0:0:
109,192,27053,128,0,27241:0:0:0:0:
256,192,27241,128,0,27616:0:0:0:0:
182,192,27241,1,0,0:0:0:0:
329,192,27241,1,0,0:0:0:0:
475,192,27241,1,0,0:0:0:0:
109,192,27428,1,0,0:0:0:0:
475,192,27616,128,0,27991:0:0:0:0:
109,192,27616,1,0,0:0:0:0:
36,192,27616,1,0,0:0:0:0:
329,192,27616,1,0,0:0:0:0:
182,192,27803,1,0,0:0:0:0:
329,192,27803,1,0,0:0:0:0:
256,192,27991,1,0,0:0:0:0:
402,192,27991,128,0,28178:0:0:0:0:
109,192,27991,1,0,0:0:0:0:
182,192,27991,1,0,0:0:0:0:
36,192,27991,128,0,29116:0:0:0:0:
329,192,28178,128,0,28741:0:0:0:0:
182,192,28178,1,0,0:0:0:0:
475,192,28178,1,0,0:0:0:0:
109,192,28366,1,0,0:0:0:0:
256,192,28366,1,0,0:0:0:0:
475,192,28366,1,0,0:0:0:0:
402,192,28366,128,0,28741:0:0:0:0:
475,192,28553,128,0,28741:0:0:0:0:
182,192,28553,1,0,0:0:0:0:
182,192,28741,128,0,28928:0:0:0:0:
256,192,28741,1,0,0:0:0:0:
109,192,28741,1,0,0:0:0:0:
256,192,28928,128,0,29116:0:0:0:0:
329,192,28928,1,0,0:0:0:0:
475,192,28928,1,0,0:0:0:0:
329,192,29116,128,0,29303:0:0:0:0:
402,192,29116,1,0,0:0:0:0:
475,192,29116,1,0,0:0:0:0:
109,192,29116,1,0,0:0:0:0:
109,192,29303,128,0,29397:0:0:0:0:
402,192,29303,128,0,29491:0:0:0:0:
256,192,29303,1,0,0:0:0:0:
182,192,29397,128,0,29491:0:0:0:0:
329,192,29491,1,0,0:0:0:0:
475,192,29491,128,0,30053:0:0:0:0:
256,192,29491,1,0,0:0:0:0:
36,192,29491,128,0,30147:0:0:0:0:
182,192,29678,1,0,0:0:0:0:
329,192,29678,1,0,0:0:0:0:
182,192,29866,1,0,0:0:0:0:
109,192,29866,1,0,0:0:0:0:
329,192,29866,1,0,0:0:0:0:
402,192,30053,128,0,30616:0:0:0:0:
109,192,30053,1,0,0:0:0:0:
256,192,30053,1,0,0:0:0:0:
36,192,30241,128,0,30897:0:0:0:0:
182,192,30241,1,0,0:0:0:0:
329,192,30241,1,0,0:0:0:0:
475,192,30241,1,0,0:0:0:0:
256,192,30428,1,0,0:0:0:0:
109,192,30428,1,0,0:0:0:0:
329,192,30616,128,0,30897:0:0:0:0:
256,192,30616,1,0,0:0:0:0:
109,192,30616,1,0,0:0:0:0:
475,192,30616,1,0,0:0:0:0:
182,192,30803,1,0,0:0:0:0:
402,192,30803,1,0,0:0:0:0:
36,192,30991,128,0,32116:0:0:0:0:
329,192,30991,1,0,0:0:0:0:
182,192,30991,128,0,31178:0:0:0:0:
475,192,30991,128,0,31553:0:0:0:0:
402,192,30991,1,0,0:0:0:0:
256,192,31178,128,0,31366:0:0:0:0:
109,192,31178,1,0,0:0:0:0:
402,192,31178,1,0,0:0:0:0:
329,192,31366,128,0,31553:0:0:0:0:
109,192,31366,1,0,0:0:0:0:
182,192,31366,1,0,0:0:0:0:
402,192,31366,1,0,0:0:0:0:
402,192,31553,128,0,31741:0:0:0:0:
182,192,31553,1,0,0:0:0:0:
475,192,31741,128,0,31928:0:0:0:0:
256,192,31741,1,0,0:0:0:0:
109,192,31741,1,0,0:0:0:0:
329,192,31741,1,0,0:0:0:0:
402,192,31928,128,0,32116:0:0:0:0:
182,192,31928,1,0,0:0:0:0:
329,192,31928,1,0,0:0:0:0:
475,192,32116,128,0,32491:0:0:0:0:
256,192,32116,128,0,32303:0:0:0:0:
182,192,32116,1,0,0:0:0:0:
109,192,32116,1,0,0:0:0:0:
329,192,32116,1,0,0:0:0:0:
329,192,32303,128,0,32491:0:0:0:0:
109,192,32303,1,0,0:0:0:0:
36,192,32303,1,0,0:0:0:0:
109,192,32491,1,0,0:0:0:0:
402,192,32491,128,0,32678:0:0:0:0:
36,192,32491,1,0,0:0:0:0:
256,192,32491,1,0,0:0:0:0:
182,192,32491,128,0,33053:0:0:0:0:
329,192,32678,128,0,32866:0:0:0:0:
36,192,32678,1,0,0:0:0:0:
475,192,32678,1,0,0:0:0:0:
402,192,32866,128,0,33053:0:0:0:0:
256,192,32866,1,0,0:0:0:0:
36,192,32866,1,0,0:0:0:0:
475,192,32866,1,0,0:0:0:0:
109,192,33053,128,0,33616:0:0:0:0:
256,192,33053,128,0,33241:0:0:0:0:
329,192,33053,1,0,0:0:0:0:
475,192,33053,1,0,0:0:0:0:
329,192,33241,128,0,33428:0:0:0:0:
475,192,33241,1,0,0:0:0:0:
402,192,33241,1,0,0:0:0:0:
36,192,33241,1,0,0:0:0:0:
402,192,33428,128,0,33616:0:0:0:0:
182,192,33428,1,0,0:0:0:0:
475,192,33428,1,0,0:0:0:0:
256,192,33616,1,0,0:0:0:0:
182,192,33616,1,0,0:0:0:0:
36,192,33616,128,0,33991:0:0:0:0:
475,192,33616,128,0,33803:0:0:0:0:
329,192,33616,1,0,0:0:0:0:
329,192,33803,128,0,33991:0:0:0:0:
182,192,33803,1,0,0:0:0:0:
109,192,33991,128,0,34459:0:0:0:0:
402,192,33991,128,0,34178:0:0:0:0:
256,192,33991,1,0,0:0:0:0:
182,192,33991,1,0,0:0:0:0:
475,192,33991,1,0,0:0:0:0:
329,192,34178,128,0,34366:0:0:0:0:
182,192,34178,1,0,0:0:0:0:
402,192,34366,128,0,34459:0:0:0:0:
256,192,34366,1,0,0:0:0:0:
36,192,34366,1,0,0:0:0:0:
475,192,34366,1,0,0:0:0:0:
109,192,34553,128,0,34647:0:0:0:0:
256,192,34553,1,0,0:0:0:0:
402,192,34553,1,0,0:0:0:0:
182,192,34647,128,0,34741:0:0:0:0:
329,192,34741,128,0,35022:0:0:0:0:
36,192,34741,1,0,0:0:0:0:
109,192,34741,128,0,34834:0:0:0:0:
475,192,34741,1,0,0:0:0:0:
256,192,34741,1,0,0:0:0:0:
36,192,34928,128,0,35022:0:0:0:0:
402,192,34928,128,0,35209:0:0:0:0:
182,192,34928,1,0,0:0:0:0:
109,192,35116,128,0,35209:0:0:0:0:
475,192,35116,128,0,35397:0:0:0:0:
256,192,35116,1,0,0:0:0:0:
36,192,35303,1,0,0:0:0:0:
182,192,35303,128,0,35397:0:0:0:0:
329,192,35303,128,0,35397:0:0:0:0:
402,192,35491,128,0,36053:0:0:0:0:
36,192,35491,128,0,36147:0:0:0:0:
109,192,35491,1,0,0:0:0:0:
256,192,35491,1,0,0:0:0:0:
475,192,35491,1,0,0:0:0:0:
182,192,35678,1,0,0:0:0:0:
329,192,35678,1,0,0:0:0:0:
109,192,35866,1,0,0:0:0:0:
182,192,35866,1,0,0:0:0:0:
475,192,35866,1,0,0:0:0:0:
256,192,35866,1,0,0:0:0:0:
329,192,36053,128,0,36147:0:0:0:0:
182,192,36053,1,0,0:0:0:0:
256,192,36147,128,0,36241:0:0:0:0:
329,192,36241,128,0,36616:0:0:0:0:
36,192,36241,128,0,36616:0:0:0:0:
109,192,36241,1,0,0:0:0:0:
475,192,36241,1,0,0:0:0:0:
402,192,36241,1,0,0:0:0:0:
182,192,36428,1,0,0:0:0:0:
402,192,36428,1,0,0:0:0:0:
109,192,36616,128,0,36803:0:0:0:0:
256,192,36616,1,0,0:0:0:0:
402,192,36616,1,0,0:0:0:0:
475,192,36616,1,0,0:0:0:0:
182,192,36709,128,0,36897:0:0:0:0:
256,192,36803,128,0,36991:0:0:0:0:
329,192,36897,128,0,36991:0:0:0:0:
182,192,36991,1,0,0:0:0:0:
109,192,36991,1,0,0:0:0:0:
475,192,36991,1,0,0:0:0:0:
402,192,36991,128,0,37928:0:0:0:0:
36,192,36991,128,0,37178:0:0:0:0:
109,192,37178,128,0,37928:0:0:0:0:
256,192,37178,1,0,0:0:0:0:
475,192,37178,1,0,0:0:0:0:
329,192,37366,1,0,0:0:0:0:
182,192,37366,128,0,37553:0:0:0:0:
475,192,37366,1,0,0:0:0:0:
36,192,37366,1,0,0:0:0:0:
329,192,37553,1,0,0:0:0:0:
256,192,37553,128,0,37928:0:0:0:0:
36,192,37741,1,0,0:0:0:0:
475,192,37741,1,0,0:0:0:0:
182,192,37741,1,0,0:0:0:0:
329,192,37928,128,0,38116:0:0:0:0:
182,192,37928,1,0,0:0:0:0:
475,192,37928,1,0,0:0:0:0:
475,192,38116,128,0,38491:0:0:0:0:
36,192,38116,128,0,38491:0:0:0:0:
402,192,38116,1,0,0:0:0:0:
109,192,38116,1,0,0:0:0:0:
256,192,38116,1,0,0:0:0:0:
182,192,38303,128,0,38491:0:0:0:0:
329,192,38303,1,0,0:0:0:0:
402,192,38491,128,0,39053:0:0:0:0:
256,192,38491,128,0,38678:0:0:0:0:
329,192,38491,1,0,0:0:0:0:
182,192,38678,128,0,38866:0:0:0:0:
36,192,38678,1,0,0:0:0:0:
36,192,38866,128,0,39241:0:0:0:0:
109,192,38866,1,0,0:0:0:0:
329,192,38866,1,0,0:0:0:0:
475,192,38866,1,0,0:0:0:0:
109,192,39053,128,0,39241:0:0:0:0:
329,192,39053,128,0,39616:0:0:0:0:
475,192,39053,1,0,0:0:0:0:
182,192,39053,1,0,0:0:0:0:
182,192,39241,128,0,39616:0:0:0:0:
256,192,39241,1,0,0:0:0:0:
475,192,39241,1,0,0:0:0:0:
402,192,39241,1,0,0:0:0:0:
109,192,39428,1,0,0:0:0:0:
36,192,39428,1,0,0:0:0:0:
256,192,39616,128,0,39991:0:0:0:0:
109,192,39616,1,0,0:0:0:0:
36,192,39616,1,0,0:0:0:0:
402,192,39616,1,0,0:0:0:0:
475,192,39616,1,0,0:0:0:0:
329,192,39803,1,0,0:0:0:0:
402,192,39803,1,0,0:0:0:0:
182,192,39991,1,0,0:0:0:0:
329,192,39991,128,0,40366:0:0:0:0:
36,192,39991,128,0,40366:0:0:0:0:
402,192,39991,1,0,0:0:0:0:
475,192,39991,1,0,0:0:0:0:
109,192,39991,1,0,0:0:0:0:
182,192,40178,1,0,0:0:0:0:
475,192,40178,1,0,0:0:0:0:
109,192,40366,128,0,40553:0:0:0:0:
402,192,40366,128,0,40459:0:0:0:0:
182,192,40366,1,0,0:0:0:0:
256,192,40366,1,0,0:0:0:0:
475,192,40459,128,0,40553:0:0:0:0:
182,192,40553,128,0,40741:0:0:0:0:
329,192,40553,128,0,40647:0:0:0:0:
36,192,40553,1,0,0:0:0:0:
402,192,40647,128,0,40741:0:0:0:0:
36,192,40741,128,0,40928:0:0:0:0:
256,192,40741,1,0,0:0:0:0:
329,192,40741,128,0,41116:0:0:0:0:
475,192,40741,1,0,0:0:0:0:
109,192,40741,1,0,0:0:0:0:
182,192,40928,128,0,41116:0:0:0:0:
256,192,40928,1,0,0:0:0:0:
475,192,40928,1,0,0:0:0:0:
256,192,41116,1,0,0:0:0:0:
36,192,41116,1,0,0:0:0:0:
402,192,41116,128,0,41491:0:0:0:0:
109,192,41116,128,0,41303:0:0:0:0:
475,192,41116,1,0,0:0:0:0:
256,192,41303,128,0,41491:0:0:0:0:
329,192,41303,1,0,0:0:0:0:
475,192,41491,128,0,42616:0:0:0:0:
329,192,41491,1,0,0:0:0:0:
182,192,41491,128,0,41678:0:0:0:0:
36,192,41491,1,0,0:0:0:0:
109,192,41491,1,0,0:0:0:0:
402,192,41678,1,0,0:0:0:0:
36,192,41678,128,0,41866:0:0:0:0:
256,192,41678,1,0,0:0:0:0:
109,192,41866,128,0,42053:0:0:0:0:
402,192,41866,1,0,0:0:0:0:
182,192,41866,1,0,0:0:0:0:
329,192,41866,1,0,0:0:0:0:
256,192,42053,128,0,42241:0:0:0:0:
182,192,42053,1,0,0:0:0:0:
402,192,42053,1,0,0:0:0:0:
329,192,42241,128,0,42428:0:0:0:0:
36,192,42241,1,0,0:0:0:0:
109,192,42241,1,0,0:0:0:0:
402,192,42241,1,0,0:0:0:0:
182,192,42428,128,0,42616:0:0:0:0:
109,192,42428,1,0,0:0:0:0:
36,192,42616,128,0,42991:0:0:0:0:
256,192,42616,128,0,42803:0:0:0:0:
329,192,42616,1,0,0:0:0:0:
402,192,42616,1,0,0:0:0:0:
329,192,42803,128,0,42991:0:0:0:0:
475,192,42803,1,0,0:0:0:0:
402,192,42991,128,0,43459:0:0:0:0:
109,192,42991,128,0,43459:0:0:0:0:
182,192,42991,1,0,0:0:0:0:
475,192,42991,1,0,0:0:0:0:
256,192,42991,1,0,0:0:0:0:
256,192,43178,1,0,0:0:0:0:
256,192,43366,1,0,0:0:0:0:
36,192,43366,1,0,0:0:0:0:
475,192,43366,1,0,0:0:0:0:
329,192,43366,1,0,0:0:0:0:
402,192,43553,128,0,43647:0:0:0:0:
109,192,43553,1,0,0:0:0:0:
402,192,43741,128,0,43928:0:0:0:0:
36,192,43741,1,0,0:0:0:0:
182,192,43741,1,0,0:0:0:0:
329,192,43741,1,0,0:0:0:0:
475,192,43741,1,0,0:0:0:0:
475,192,43928,128,0,44022:0:0:0:0:
256,192,43928,1,0,0:0:0:0:
402,192,44022,128,0,44116:0:0:0:0:
182,192,44022,1,0,0:0:0:0:
109,192,44116,1,0,0:0:0:0:
329,192,44116,128,0,44209:0:0:0:0:
475,192,44116,1,0,0:0:0:0:
36,192,44116,1,0,0:0:0:0:
256,192,44303,128,0,44397:0:0:0:0:
109,192,44303,1,0,0:0:0:0:
475,192,44491,1,0,0:0:0:0:
182,192,44491,1,0,0:0:0:0:
329,192,44491,128,0,44959:0:0:0:0:
109,192,44491,128,0,44959:0:0:0:0:
36,192,44491,1,0,0:0:0:0:
402,192,44491,1,0,0:0:0:0:
256,192,44678,1,0,0:0:0:0:
36,192,44866,1,0,0:0:0:0:
475,192,44866,1,0,0:0:0:0:
402,192,44866,1,0,0:0:0:0:
182,192,44866,1,0,0:0:0:0:
329,192,45053,128,0,45147:0:0:0:0:
109,192,45053,1,0,0:0:0:0:
36,192,45241,1,0,0:0:0:0:
182,192,45241,1,0,0:0:0:0:
475,192,45241,1,0,0:0:0:0:
402,192,45241,1,0,0:0:0:0:
329,192,45241,128,0,45428:0:0:0:0:
402,192,45428,128,0,45522:0:0:0:0:
182,192,45428,1,0,0:0:0:0:
329,192,45522,128,0,45616:0:0:0:0:
109,192,45522,1,0,0:0:0:0:
256,192,45616,128,0,45709:0:0:0:0:
36,192,45616,1,0,0:0:0:0:
182,192,45616,1,0,0:0:0:0:
475,192,45616,1,0,0:0:0:0:
182,192,45803,128,0,45897:0:0:0:0:
402,192,45803,1,0,0:0:0:0:
256,192,45991,128,0,46553:0:0:0:0:
475,192,45991,1,0,0:0:0:0:
182,192,45991,1,0,0:0:0:0:
329,192,45991,1,0,0:0:0:0:
36,192,45991,1,0,0:0:0:0:
109,192,46178,1,0,0:0:0:0:
402,192,46178,1,0,0:0:0:0:
36,192,46366,128,0,46459:0:0:0:0:
182,192,46366,1,0,0:0:0:0:
329,192,46366,1,0,0:0:0:0:
475,192,46366,1,0,0:0:0:0:
109,192,46459,128,0,46553:0:0:0:0:
329,192,46553,128,0,46647:0:0:0:0:
475,192,46553,1,0,0:0:0:0:
256,192,46647,128,0,46741:0:0:0:0:
182,192,46647,1,0,0:0:0:0:
329,192,46741,1,0,0:0:0:0:
109,192,46741,128,0,46834:0:0:0:0:
475,192,46741,1,0,0:0:0:0:
36,192,46741,1,0,0:0:0:0:
402,192,46834,128,0,46928:0:0:0:0:
256,192,46928,128,0,47022:0:0:0:0:
109,192,46928,1,0,0:0:0:0:
182,192,47022,128,0,47116:0:0:0:0:
256,192,47116,1,0,0:0:0:0:
329,192,47116,128,0,47209:0:0:0:0:
475,192,47116,1,0,0:0:0:0:
36,192,47116,1,0,0:0:0:0:
109,192,47209,128,0,47303:0:0:0:0:
402,192,47303,128,0,47397:0:0:0:0:
182,192,47303,1,0,0:0:0:0:
329,192,47397,128,0,47491:0:0:0:0:
256,192,47491,128,0,48053:0:0:0:0:
182,192,47491,1,0,0:0:0:0:
36,192,47491,1,0,0:0:0:0:
109,192,47491,1,0,0:0:0:0:
475,192,47491,1,0,0:0:0:0:
109,192,47678,1,0,0:0:0:0:
402,192,47678,1,0,0:0:0:0:
182,192,47866,1,0,0:0:0:0:
36,192,47866,1,0,0:0:0:0:
475,192,47866,128,0,47959:0:0:0:0:
329,192,47866,1,0,0:0:0:0:
402,192,47959,128,0,48053:0:0:0:0:
182,192,48053,128,0,48147:0:0:0:0:
36,192,48053,1,0,0:0:0:0:
329,192,48053,1,0,0:0:0:0:
256,192,48147,128,0,48241:0:0:0:0:
402,192,48147,1,0,0:0:0:0:
182,192,48241,1,0,0:0:0:0:
475,192,48241,1,0,0:0:0:0:
109,192,48241,128,0,48616:0:0:0:0:
36,192,48241,1,0,0:0:0:0:
329,192,48241,1,0,0:0:0:0:
329,192,48428,1,0,0:0:0:0:
475,192,48428,1,0,0:0:0:0:
256,192,48428,1,0,0:0:0:0:
182,192,48616,1,0,0:0:0:0:
36,192,48616,1,0,0:0:0:0:
256,192,48616,1,0,0:0:0:0:
329,192,48709,1,0,0:0:0:0:
402,192,48709,1,0,0:0:0:0:
475,192,48709,1,0,0:0:0:0:
182,192,48803,1,0,0:0:0:0:
36,192,48803,1,0,0:0:0:0:
109,192,48803,1,0,0:0:0:0:
329,192,48897,1,0,0:0:0:0:
402,192,48897,1,0,0:0:0:0:
256,192,48991,1,0,0:0:0:0:
109,192,48991,1,0,0:0:0:0:
36,192,48991,1,0,0:0:0:0:
475,192,48991,1,0,0:0:0:0:
182,192,48991,1,0,0:0:0:0:
402,192,49084,1,0,0:0:0:0:
329,192,49084,1,0,0:0:0:0:
182,192,49178,1,0,0:0:0:0:
36,192,49178,1,0,0:0:0:0:
329,192,49272,1,0,0:0:0:0:
475,192,49272,1,0,0:0:0:0:
256,192,49366,1,0,0:0:0:0:
109,192,49366,1,0,0:0:0:0:
36,192,49366,1,0,0:0:0:0:
182,192,49366,1,0,0:0:0:0:
329,192,49459,1,0,0:0:0:0:
475,192,49459,1,0,0:0:0:0:
182,192,49553,1,0,0:0:0:0:
36,192,49553,1,0,0:0:0:0:
109,192,49553,1,0,0:0:0:0:
256,192,49647,1,0,0:0:0:0:
402,192,49647,1,0,0:0:0:0:
329,192,49741,1,0,0:0:0:0:
36,192,49741,1,0,0:0:0:0:
182,192,49741,1,0,0:0:0:0:
475,192,49741,1,0,0:0:0:0:
109,192,49834,1,0,0:0:0:0:
256,192,49834,1,0,0:0:0:0:
329,192,49928,1,0,0:0:0:0:
475,192,49928,1,0,0:0:0:0:
182,192,50022,1,0,0:0:0:0:
36,192,50022,1,0,0:0:0:0:
256,192,50116,1,0,0:0:0:0:
402,192,50116,1,0,0:0:0:0:
475,192,50116,1,0,0:0:0:0:
329,192,50116,1,0,0:0:0:0:
182,192,50209,1,0,0:0:0:0:
36,192,50209,1,0,0:0:0:0:
329,192,50303,1,0,0:0:0:0:
475,192,50303,1,0,0:0:0:0:
402,192,50303,1,0,0:0:0:0:
256,192,50397,1,0,0:0:0:0:
109,192,50397,1,0,0:0:0:0:
36,192,50491,1,0,0:0:0:0:
182,192,50491,1,0,0:0:0:0:
475,192,50491,1,0,0:0:0:0:
329,192,50491,1,0,0:0:0:0:
256,192,50584,1,0,0:0:0:0:
402,192,50584,1,0,0:0:0:0:
182,192,50678,1,0,0:0:0:0:
36,192,50678,1,0,0:0:0:0:
329,192,50772,1,0,0:0:0:0:
475,192,50772,1,0,0:0:0:0:
109,192,50866,1,0,0:0:0:0:
36,192,50866,1,0,0:0:0:0:
256,192,50866,1,0,0:0:0:0:
182,192,50866,1,0,0:0:0:0:
329,192,50959,1,0,0:0:0:0:
475,192,50959,1,0,0:0:0:0:
109,192,51053,1,0,0:0:0:0:
182,192,51053,1,0,0:0:0:0:
36,192,51053,1,0,0:0:0:0:
256,192,51147,1,0,0:0:0:0:
329,192,51147,1,0,0:0:0:0:
36,192,51241,1,0,0:0:0:0:
402,192,51241,1,0,0:0:0:0:
475,192,51241,1,0,0:0:0:0:
109,192,51241,1,0,0:0:0:0:
182,192,51334,1,0,0:0:0:0:
329,192,51334,1,0,0:0:0:0:
256,192,51428,1,0,0:0:0:0:
109,192,51428,1,0,0:0:0:0:
182,192,51522,1,0,0:0:0:0:
329,192,51522,1,0,0:0:0:0:
256,192,51616,1,0,0:0:0:0:
402,192,51616,1,0,0:0:0:0:
36,192,51616,1,0,0:0:0:0:
475,192,51616,1,0,0:0:0:0:
109,192,51709,1,0,0:0:0:0:
329,192,51709,1,0,0:0:0:0:
182,192,51803,1,0,0:0:0:0:
402,192,51803,1,0,0:0:0:0:
256,192,51897,1,0,0:0:0:0:
329,192,51991,1,0,0:0:0:0:
475,192,51991,1,0,0:0:0:0:
109,192,51991,1,0,0:0:0:0:
36,192,51991,1,0,0:0:0:0:
402,192,51991,1,0,0:0:0:0:
182,192,52084,1,0,0:0:0:0:
256,192,52084,1,0,0:0:0:0:
329,192,52178,1,0,0:0:0:0:
475,192,52178,1,0,0:0:0:0:
182,192,52272,1,0,0:0:0:0:
36,192,52272,1,0,0:0:0:0:
256,192,52366,1,0,0:0:0:0:
329,192,52366,1,0,0:0:0:0:
475,192,52366,1,0,0:0:0:0:
402,192,52366,1,0,0:0:0:0:
182,192,52459,1,0,0:0:0:0:
36,192,52459,1,0,0:0:0:0:
475,192,52553,1,0,0:0:0:0:
329,192,52553,1,0,0:0:0:0:
402,192,52553,1,0,0:0:0:0:
256,192,52647,1,0,0:0:0:0:
109,192,52647,1,0,0:0:0:0:
182,192,52741,1,0,0:0:0:0:
36,192,52741,1,0,0:0:0:0:
475,192,52741,1,0,0:0:0:0:
402,192,52741,1,0,0:0:0:0:
329,192,52834,1,0,0:0:0:0:
256,192,52834,1,0,0:0:0:0:
182,192,52928,1,0,0:0:0:0:
36,192,52928,1,0,0:0:0:0:
329,192,53022,1,0,0:0:0:0:
475,192,53022,1,0,0:0:0:0:
256,192,53116,1,0,0:0:0:0:
182,192,53116,1,0,0:0:0:0:
36,192,53116,1,0,0:0:0:0:
109,192,53116,1,0,0:0:0:0:
329,192,53209,1,0,0:0:0:0:
475,192,53209,1,0,0:0:0:0:
182,192,53303,1,0,0:0:0:0:
36,192,53303,1,0,0:0:0:0:
109,192,53303,1,0,0:0:0:0:
256,192,53397,1,0,0:0:0:0:
402,192,53397,1,0,0:0:0:0:
329,192,53491,1,0,0:0:0:0:
36,192,53491,1,0,0:0:0:0:
109,192,53491,1,0,0:0:0:0:
475,192,53491,1,0,0:0:0:0:
402,192,53584,1,0,0:0:0:0:
256,192,53584,1,0,0:0:0:0:
36,192,53678,1,0,0:0:0:0:
182,192,53678,1,0,0:0:0:0:
329,192,53772,1,0,0:0:0:0:
475,192,53772,1,0,0:0:0:0:
182,192,53866,1,0,0:0:0:0:
36,192,53866,1,0,0:0:0:0:
109,192,53866,1,0,0:0:0:0:
256,192,53866,1,0,0:0:0:0:
329,192,53959,1,0,0:0:0:0:
475,192,53959,1,0,0:0:0:0:
256,192,54053,1,0,0:0:0:0:
109,192,54053,1,0,0:0:0:0:
36,192,54053,1,0,0:0:0:0:
329,192,54147,1,0,0:0:0:0:
182,192,54147,1,0,0:0:0:0:
36,192,54241,1,0,0:0:0:0:
256,192,54241,1,0,0:0:0:0:
402,192,54241,1,0,0:0:0:0:
475,192,54241,1,0,0:0:0:0:
109,192,54334,1,0,0:0:0:0:
329,192,54334,1,0,0:0:0:0:
402,192,54428,1,0,0:0:0:0:
182,192,54428,1,0,0:0:0:0:
109,192,54522,1,0,0:0:0:0:
329,192,54522,1,0,0:0:0:0:
36,192,54616,1,0,0:0:0:0:
256,192,54616,1,0,0:0:0:0:
475,192,54616,1,0,0:0:0:0:
402,192,54616,1,0,0:0:0:0:
329,192,54709,1,0,0:0:0:0:
109,192,54709,1,0,0:0:0:0:
402,192,54803,1,0,0:0:0:0:
182,192,54803,1,0,0:0:0:0:
256,192,54897,1,0,0:0:0:0:
36,192,54897,1,0,0:0:0:0:
329,192,54991,128,0,55084:0:0:0:0:
475,192,54991,128,0,55084:0:0:0:0:
402,192,54991,128,0,55084:0:0:0:0:
109,192,54991,128,0,55084:0:0:0:0:
182,192,55084,128,0,55178:0:0:0:0:
36,192,55084,128,0,55178:0:0:0:0:
402,192,55178,128,0,55272:0:0:0:0:
475,192,55178,128,0,55272:0:0:0:0:
256,192,55178,128,0,55272:0:0:0:0:
36,192,55272,128,0,55366:0:0:0:0:
109,192,55272,128,0,55366:0:0:0:0:
475,192,55366,128,0,55459:0:0:0:0:
329,192,55366,128,0,55459:0:0:0:0:
256,192,55366,128,0,55459:0:0:0:0:
402,192,55366,128,0,55459:0:0:0:0:
182,192,55459,128,0,55553:0:0:0:0:
36,192,55459,128,0,55553:0:0:0:0:
402,192,55553,128,0,55647:0:0:0:0:
475,192,55553,128,0,55647:0:0:0:0:
256,192,55553,128,0,55647:0:0:0:0:
109,192,55647,128,0,55741:0:0:0:0:
36,192,55647,128,0,55741:0:0:0:0:
182,192,55741,128,0,55834:0:0:0:0:
329,192,55741,128,0,55834:0:0:0:0:
475,192,55741,128,0,55834:0:0:0:0:
256,192,55741,128,0,55834:0:0:0:0:
109,192,55834,128,0,55928:0:0:0:0:
36,192,55834,128,0,55928:0:0:0:0:
402,192,55928,128,0,56022:0:0:0:0:
256,192,55928,128,0,56022:0:0:0:0:
475,192,55928,128,0,56022:0:0:0:0:
182,192,56022,128,0,56116:0:0:0:0:
36,192,56022,128,0,56116:0:0:0:0:
329,192,56116,128,0,56209:0:0:0:0:
402,192,56116,128,0,56209:0:0:0:0:
475,192,56116,128,0,56209:0:0:0:0:
256,192,56116,128,0,56209:0:0:0:0:
36,192,56209,128,0,56303:0:0:0:0:
109,192,56209,128,0,56303:0:0:0:0:
475,192,56303,128,0,56397:0:0:0:0:
329,192,56303,128,0,56397:0:0:0:0:
36,192,56397,128,0,56491:0:0:0:0:
182,192,56397,128,0,56491:0:0:0:0:
402,192,56491,128,0,56584:0:0:0:0:
475,192,56491,128,0,56584:0:0:0:0:
256,192,56491,128,0,56584:0:0:0:0:
329,192,56491,128,0,56584:0:0:0:0:
36,192,56584,128,0,56678:0:0:0:0:
109,192,56584,128,0,56678:0:0:0:0:
182,192,56678,128,0,56772:0:0:0:0:
329,192,56678,128,0,56772:0:0:0:0:
475,192,56678,128,0,56772:0:0:0:0:
109,192,56772,128,0,56866:0:0:0:0:
36,192,56772,128,0,56866:0:0:0:0:
256,192,56866,128,0,56959:0:0:0:0:
402,192,56866,128,0,56959:0:0:0:0:
475,192,56866,128,0,56959:0:0:0:0:
329,192,56866,128,0,56959:0:0:0:0:
182,192,56959,128,0,57053:0:0:0:0:
36,192,56959,128,0,57053:0:0:0:0:
329,192,57053,128,0,57147:0:0:0:0:
475,192,57053,128,0,57147:0:0:0:0:
256,192,57147,128,0,57241:0:0:0:0:
109,192,57147,128,0,57241:0:0:0:0:
475,192,57241,128,0,57334:0:0:0:0:
182,192,57241,128,0,57334:0:0:0:0:
36,192,57241,128,0,57334:0:0:0:0:
402,192,57241,128,0,57334:0:0:0:0:
329,192,57334,128,0,57428:0:0:0:0:
256,192,57334,128,0,57428:0:0:0:0:
182,192,57428,128,0,57522:0:0:0:0:
475,192,57428,128,0,57522:0:0:0:0:
109,192,57522,128,0,57616:0:0:0:0:
329,192,57522,128,0,57616:0:0:0:0:
402,192,57616,128,0,57709:0:0:0:0:
256,192,57616,128,0,57709:0:0:0:0:
36,192,57616,128,0,57709:0:0:0:0:
475,192,57616,128,0,57709:0:0:0:0:
182,192,57709,128,0,57803:0:0:0:0:
109,192,57803,128,0,57897:0:0:0:0:
329,192,57803,128,0,57897:0:0:0:0:
475,192,57803,128,0,57897:0:0:0:0:
256,192,57897,128,0,57991:0:0:0:0:
182,192,57991,128,0,58084:0:0:0:0:
36,192,57991,128,0,58084:0:0:0:0:
109,192,57991,128,0,58084:0:0:0:0:
475,192,57991,128,0,58084:0:0:0:0:
329,192,57991,128,0,58084:0:0:0:0:
256,192,58084,128,0,58178:0:0:0:0:
402,192,58084,128,0,58178:0:0:0:0:
182,192,58178,128,0,58272:0:0:0:0:
36,192,58178,128,0,58272:0:0:0:0:
329,192,58272,128,0,58366:0:0:0:0:
475,192,58272,128,0,58366:0:0:0:0:
109,192,58366,128,0,58459:0:0:0:0:
256,192,58366,128,0,58459:0:0:0:0:
182,192,58366,128,0,58459:0:0:0:0:
36,192,58366,128,0,58459:0:0:0:0:
475,192,58459,128,0,58553:0:0:0:0:
329,192,58459,128,0,58553:0:0:0:0:
109,192,58553,128,0,58647:0:0:0:0:
36,192,58553,128,0,58647:0:0:0:0:
256,192,58647,128,0,58741:0:0:0:0:
402,192,58647,128,0,58741:0:0:0:0:
182,192,58741,128,0,58834:0:0:0:0:
36,192,58741,128,0,58834:0:0:0:0:
329,192,58741,128,0,58834:0:0:0:0:
109,192,58741,128,0,58834:0:0:0:0:
402,192,58834,128,0,58928:0:0:0:0:
475,192,58834,128,0,58928:0:0:0:0:
182,192,58928,128,0,59022:0:0:0:0:
256,192,58928,128,0,59022:0:0:0:0:
36,192,58928,128,0,59022:0:0:0:0:
402,192,59022,128,0,59116:0:0:0:0:
475,192,59022,128,0,59116:0:0:0:0:
36,192,59116,128,0,59209:0:0:0:0:
182,192,59116,128,0,59209:0:0:0:0:
329,192,59116,128,0,59209:0:0:0:0:
109,192,59116,128,0,59209:0:0:0:0:
256,192,59209,128,0,59303:0:0:0:0:
402,192,59209,128,0,59303:0:0:0:0:
182,192,59303,128,0,59397:0:0:0:0:
36,192,59303,128,0,59397:0:0:0:0:
329,192,59397,128,0,59491:0:0:0:0:
475,192,59397,128,0,59491:0:0:0:0:
36,192,59491,128,0,59584:0:0:0:0:
109,192,59491,128,0,59584:0:0:0:0:
256,192,59491,128,0,59584:0:0:0:0:
402,192,59491,128,0,59584:0:0:0:0:
182,192,59584,128,0,59678:0:0:0:0:
329,192,59584,128,0,59678:0:0:0:0:
475,192,59678,128,0,59772:0:0:0:0:
36,192,59678,128,0,59772:0:0:0:0:
329,192,59772,128,0,59866:0:0:0:0:
182,192,59772,128,0,59866:0:0:0:0:
36,192,59866,128,0,59959:0:0:0:0:
402,192,59866,128,0,59959:0:0:0:0:
109,192,59866,128,0,59959:0:0:0:0:
256,192,59866,128,0,59959:0:0:0:0:
475,192,59866,128,0,59959:0:0:0:0:
329,192,59959,128,0,60053:0:0:0:0:
475,192,60053,128,0,60147:0:0:0:0:
402,192,60053,128,0,60147:0:0:0:0:
182,192,60053,128,0,60147:0:0:0:0:
109,192,60147,128,0,60241:0:0:0:0:
36,192,60147,128,0,60241:0:0:0:0:
256,192,60147,128,0,60241:0:0:0:0:
182,192,60241,1,0,0:0:0:0:
475,192,60241,1,0,0:0:0:0:
329,192,60241,128,0,60334:0:0:0:0:
256,192,60334,128,0,60428:0:0:0:0:
402,192,60334,1,0,0:0:0:0:
109,192,60334,1,0,0:0:0:0:
36,192,60428,1,0,0:0:0:0:
475,192,60428,1,0,0:0:0:0:
182,192,60428,128,0,60522:0:0:0:0:
256,192,60522,128,0,60616:0:0:0:0:
402,192,60522,1,0,0:0:0:0:
109,192,60616,128,0,60709:0:0:0:0:
329,192,60616,1,0,0:0:0:0:
475,192,60616,1,0,0:0:0:0:
36,192,60616,1,0,0:0:0:0:
182,192,60709,128,0,60803:0:0:0:0:
402,192,60709,1,0,0:0:0:0:
256,192,60803,128,0,60897:0:0:0:0:
475,192,60803,1,0,0:0:0:0:
36,192,60803,1,0,0:0:0:0:
329,192,60897,128,0,60991:0:0:0:0:
109,192,60897,1,0,0:0:0:0:
36,192,60991,1,0,0:0:0:0:
402,192,60991,1,0,0:0:0:0:
475,192,60991,1,0,0:0:0:0:
182,192,60991,128,0,61178:0:0:0:0:
329,192,61178,128,0,61272:0:0:0:0:
475,192,61178,1,0,0:0:0:0:
182,192,61272,128,0,61366:0:0:0:0:
36,192,61366,1,0,0:0:0:0:
256,192,61366,128,0,61459:0:0:0:0:
475,192,61366,1,0,0:0:0:0:
329,192,61366,1,0,0:0:0:0:
402,192,61553,128,0,61647:0:0:0:0:
109,192,61553,1,0,0:0:0:0:
256,192,61553,1,0,0:0:0:0:
256,192,61741,128,0,61834:0:0:0:0:
402,192,61741,1,0,0:0:0:0:
402,192,61928,128,0,62022:0:0:0:0:
182,192,61928,1,0,0:0:0:0:
329,192,62022,128,0,62116:0:0:0:0:
402,192,62116,128,0,62209:0:0:0:0:
36,192,62116,1,0,0:0:0:0:
109,192,62116,1,0,0:0:0:0:
475,192,62209,128,0,62303:0:0:0:0:
402,192,62303,128,0,62397:0:0:0:0:
109,192,62303,1,0,0:0:0:0:
182,192,62303,1,0,0:0:0:0:
329,192,62397,128,0,62491:0:0:0:0:
182,192,62491,128,0,62584:0:0:0:0:
109,192,62491,1,0,0:0:0:0:
36,192,62491,1,0,0:0:0:0:
475,192,62491,1,0,0:0:0:0:
256,192,62584,128,0,62678:0:0:0:0:
329,192,62678,128,0,62772:0:0:0:0:
36,192,62678,1,0,0:0:0:0:
402,192,62772,128,0,62866:0:0:0:0:
329,192,62866,128,0,62959:0:0:0:0:
182,192,62866,1,0,0:0:0:0:
109,192,62866,1,0,0:0:0:0:
475,192,62866,1,0,0:0:0:0:
402,192,62959,128,0,63053:0:0:0:0:
329,192,63053,128,0,63147:0:0:0:0:
109,192,63053,1,0,0:0:0:0:
36,192,63053,1,0,0:0:0:0:
182,192,63147,128,0,63241:0:0:0:0:
256,192,63241,128,0,63334:0:0:0:0:
36,192,63241,1,0,0:0:0:0:
329,192,63241,1,0,0:0:0:0:
475,192,63241,1,0,0:0:0:0:
36,192,63428,128,0,63522:0:0:0:0:
402,192,63428,1,0,0:0:0:0:
182,192,63522,128,0,63616:0:0:0:0:
109,192,63616,1,0,0:0:0:0:
329,192,63616,1,0,0:0:0:0:
402,192,63616,1,0,0:0:0:0:
475,192,63616,1,0,0:0:0:0:
109,192,63709,1,0,0:0:0:0:
182,192,63803,128,0,63897:0:0:0:0:
329,192,63803,1,0,0:0:0:0:
475,192,63803,1,0,0:0:0:0:
36,192,63803,1,0,0:0:0:0:
256,192,63897,128,0,63991:0:0:0:0:
402,192,63897,1,0,0:0:0:0:
329,192,63991,128,0,64084:0:0:0:0:
109,192,63991,1,0,0:0:0:0:
182,192,63991,1,0,0:0:0:0:
36,192,63991,1,0,0:0:0:0:
475,192,63991,1,0,0:0:0:0:
402,192,64084,128,0,64178:0:0:0:0:
329,192,64178,128,0,64272:0:0:0:0:
109,192,64178,1,0,0:0:0:0:
256,192,64272,128,0,64366:0:0:0:0:
329,192,64366,128,0,64459:0:0:0:0:
109,192,64366,1,0,0:0:0:0:
475,192,64366,1,0,0:0:0:0:
36,192,64366,1,0,0:0:0:0:
256,192,64459,128,0,64553:0:0:0:0:
182,192,64553,128,0,64647:0:0:0:0:
402,192,64553,1,0,0:0:0:0:
475,192,64553,1,0,0:0:0:0:
109,192,64647,128,0,64741:0:0:0:0:
182,192,64741,128,0,64834:0:0:0:0:
329,192,64741,1,0,0:0:0:0:
36,192,64741,1,0,0:0:0:0:
475,192,64741,1,0,0:0:0:0:
256,192,64834,128,0,64928:0:0:0:0:
182,192,64928,128,0,65022:0:0:0:0:
402,192,64928,1,0,0:0:0:0:
109,192,65022,128,0,65116:0:0:0:0:
182,192,65116,128,0,65209:0:0:0:0:
329,192,65116,1,0,0:0:0:0:
475,192,65116,1,0,0:0:0:0:
36,192,65116,1,0,0:0:0:0:
256,192,65209,128,0,65303:0:0:0:0:
329,192,65303,128,0,65397:0:0:0:0:
109,192,65303,1,0,0:0:0:0:
36,192,65303,1,0,0:0:0:0:
402,192,65397,128,0,65491:0:0:0:0:
36,192,65491,1,0,0:0:0:0:
475,192,65491,1,0,0:0:0:0:
329,192,65491,128,0,65584:0:0:0:0:
182,192,65491,1,0,0:0:0:0:
256,192,65584,128,0,65678:0:0:0:0:
329,192,65678,128,0,65772:0:0:0:0:
109,192,65678,1,0,0:0:0:0:
256,192,65772,128,0,65866:0:0:0:0:
402,192,65866,128,0,65959:0:0:0:0:
36,192,65866,1,0,0:0:0:0:
475,192,65866,1,0,0:0:0:0:
182,192,65866,1,0,0:0:0:0:
329,192,65959,128,0,66053:0:0:0:0:
182,192,66053,1,0,0:0:0:0:
475,192,66053,128,0,66147:0:0:0:0:
109,192,66053,1,0,0:0:0:0:
402,192,66147,128,0,66241:0:0:0:0:
256,192,66241,1,0,0:0:0:0:
36,192,66241,1,0,0:0:0:0:
109,192,66241,1,0,0:0:0:0:
329,192,66287,1,0,0:0:0:0:
402,192,66334,128,0,66428:0:0:0:0:
329,192,66428,128,0,66522:0:0:0:0:
109,192,66428,1,0,0:0:0:0:
36,192,66428,1,0,0:0:0:0:
256,192,66522,128,0,66616:0:0:0:0:
402,192,66616,128,0,66709:0:0:0:0:
182,192,66616,1,0,0:0:0:0:
36,192,66616,1,0,0:0:0:0:
475,192,66616,1,0,0:0:0:0:
109,192,66709,128,0,66803:0:0:0:0:
256,192,66709,1,0,0:0:0:0:
36,192,66803,1,0,0:0:0:0:
329,192,66803,128,0,66897:0:0:0:0:
475,192,66803,1,0,0:0:0:0:
182,192,66897,128,0,66991:0:0:0:0:
402,192,66897,1,0,0:0:0:0:
256,192,66991,1,0,0:0:0:0:
36,192,66991,1,0,0:0:0:0:
109,192,66991,1,0,0:0:0:0:
475,192,66991,128,0,67084:0:0:0:0:
109,192,67178,128,0,67272:0:0:0:0:
329,192,67178,1,0,0:0:0:0:
256,192,67272,128,0,67366:0:0:0:0:
475,192,67366,1,0,0:0:0:0:
329,192,67366,1,0,0:0:0:0:
109,192,67366,1,0,0:0:0:0:
182,192,67366,128,0,67459:0:0:0:0:
36,192,67459,128,0,67553:0:0:0:0:
256,192,67553,128,0,67647:0:0:0:0:
402,192,67553,1,0,0:0:0:0:
109,192,67647,128,0,67741:0:0:0:0:
329,192,67741,128,0,67834:0:0:0:0:
182,192,67741,1,0,0:0:0:0:
36,192,67741,1,0,0:0:0:0:
402,192,67741,1,0,0:0:0:0:
475,192,67834,128,0,67928:0:0:0:0:
256,192,67928,128,0,68022:0:0:0:0:
109,192,67928,1,0,0:0:0:0:
402,192,68022,128,0,68116:0:0:0:0:
109,192,68116,1,0,0:0:0:0:
36,192,68116,1,0,0:0:0:0:
329,192,68116,128,0,68209:0:0:0:0:
475,192,68116,1,0,0:0:0:0:
182,192,68209,128,0,68303:0:0:0:0:
402,192,68303,128,0,68397:0:0:0:0:
329,192,68303,1,0,0:0:0:0:
256,192,68397,128,0,68491:0:0:0:0:
109,192,68491,128,0,68584:0:0:0:0:
402,192,68491,1,0,0:0:0:0:
475,192,68491,1,0,0:0:0:0:
36,192,68491,1,0,0:0:0:0:
329,192,68584,128,0,68678:0:0:0:0:
182,192,68678,128,0,68772:0:0:0:0:
109,192,68678,1,0,0:0:0:0:
402,192,68772,128,0,68866:0:0:0:0:
256,192,68866,128,0,68959:0:0:0:0:
182,192,68866,1,0,0:0:0:0:
36,192,68866,1,0,0:0:0:0:
475,192,68866,1,0,0:0:0:0:
109,192,68959,128,0,69053:0:0:0:0:
402,192,69053,128,0,69147:0:0:0:0:
329,192,69053,1,0,0:0:0:0:
256,192,69147,128,0,69241:0:0:0:0:
109,192,69241,128,0,69334:0:0:0:0:
402,192,69241,1,0,0:0:0:0:
475,192,69241,1,0,0:0:0:0:
36,192,69241,1,0,0:0:0:0:
256,192,69334,128,0,69428:0:0:0:0:
402,192,69428,128,0,69522:0:0:0:0:
109,192,69428,1,0,0:0:0:0:
182,192,69522,128,0,69616:0:0:0:0:
36,192,69616,1,0,0:0:0:0:
329,192,69616,128,0,69709:0:0:0:0:
475,192,69616,1,0,0:0:0:0:
402,192,69616,1,0,0:0:0:0:
109,192,69709,128,0,69803:0:0:0:0:
256,192,69803,128,0,69897:0:0:0:0:
182,192,69803,1,0,0:0:0:0:
402,192,69897,128,0,69991:0:0:0:0:
109,192,69991,1,0,0:0:0:0:
329,192,69991,128,0,70084:0:0:0:0:
475,192,69991,1,0,0:0:0:0:
36,192,69991,1,0,0:0:0:0:
182,192,70084,128,0,70178:0:0:0:0:
402,192,70178,128,0,70272:0:0:0:0:
109,192,70178,1,0,0:0:0:0:
256,192,70272,128,0,70366:0:0:0:0:
329,192,70366,128,0,70459:0:0:0:0:
182,192,70366,1,0,0:0:0:0:
36,192,70366,1,0,0:0:0:0:
402,192,70366,1,0,0:0:0:0:
475,192,70459,128,0,70553:0:0:0:0:
182,192,70553,128,0,70647:0:0:0:0:
329,192,70553,1,0,0:0:0:0:
402,192,70647,128,0,70741:0:0:0:0:
182,192,70741,128,0,70834:0:0:0:0:
36,192,70741,1,0,0:0:0:0:
256,192,70741,1,0,0:0:0:0:
475,192,70741,1,0,0:0:0:0:
329,192,70834,128,0,70928:0:0:0:0:
109,192,70928,128,0,71022:0:0:0:0:
402,192,70928,1,0,0:0:0:0:
256,192,71022,128,0,71116:0:0:0:0:
182,192,71116,128,0,71209:0:0:0:0:
329,192,71116,1,0,0:0:0:0:
475,192,71116,1,0,0:0:0:0:
109,192,71116,1,0,0:0:0:0:
36,192,71209,128,0,71303:0:0:0:0:
329,192,71303,128,0,71397:0:0:0:0:
256,192,71303,1,0,0:0:0:0:
109,192,71397,128,0,71491:0:0:0:0:
256,192,71491,1,0,0:0:0:0:
402,192,71491,128,0,71584:0:0:0:0:
475,192,71491,1,0,0:0:0:0:
36,192,71491,1,0,0:0:0:0:
182,192,71584,128,0,71678:0:0:0:0:
109,192,71584,1,0,0:0:0:0:
36,192,71678,1,0,0:0:0:0:
475,192,71678,1,0,0:0:0:0:
329,192,71678,128,0,71772:0:0:0:0:
109,192,71772,128,0,71866:0:0:0:0:
402,192,71772,1,0,0:0:0:0:
256,192,71866,128,0,71959:0:0:0:0:
182,192,71866,1,0,0:0:0:0:
36,192,71866,1,0,0:0:0:0:
475,192,71866,1,0,0:0:0:0:
402,192,71959,128,0,72053:0:0:0:0:
329,192,71959,1,0,0:0:0:0:
182,192,72053,128,0,72147:0:0:0:0:
36,192,72053,1,0,0:0:0:0:
329,192,72147,128,0,72241:0:0:0:0:
402,192,72147,1,0,0:0:0:0:
182,192,72241,128,0,72334:0:0:0:0:
36,192,72241,128,0,72334:0:0:0:0:
475,192,72241,1,0,0:0:0:0:
109,192,72241,1,0,0:0:0:0:
256,192,72334,128,0,72428:0:0:0:0:
402,192,72334,1,0,0:0:0:0:
475,192,72428,1,0,0:0:0:0:
329,192,72428,128,0,72522:0:0:0:0:
36,192,72428,1,0,0:0:0:0:
182,192,72522,128,0,72616:0:0:0:0:
402,192,72522,1,0,0:0:0:0:
109,192,72522,1,0,0:0:0:0:
475,192,72616,128,0,72709:0:0:0:0:
329,192,72616,128,0,72709:0:0:0:0:
36,192,72616,1,0,0:0:0:0:
256,192,72709,128,0,72803:0:0:0:0:
109,192,72709,1,0,0:0:0:0:
36,192,72803,1,0,0:0:0:0:
475,192,72803,1,0,0:0:0:0:
182,192,72803,128,0,72897:0:0:0:0:
329,192,72897,128,0,72991:0:0:0:0:
402,192,72897,1,0,0:0:0:0:
182,192,72991,1,0,0:0:0:0:
36,192,72991,1,0,0:0:0:0:
475,192,72991,1,0,0:0:0:0:
109,192,72991,1,0,0:0:0:0:
402,192,73178,1,0,0:0:0:0:
475,192,73178,1,0,0:0:0:0:
182,192,73366,1,0,0:0:0:0:
109,192,73366,1,0,0:0:0:0:
36,192,73366,1,0,0:0:0:0:
402,192,73553,1,0,0:0:0:0:
475,192,73553,1,0,0:0:0:0:
109,192,73741,1,0,0:0:0:0:
256,192,73741,1,0,0:0:0:0:
182,192,73741,1,0,0:0:0:0:
329,192,73741,1,0,0:0:0:0:
475,192,73928,1,0,0:0:0:0:
402,192,73928,1,0,0:0:0:0:
256,192,74116,1,0,0:0:0:0:
402,192,74116,1,0,0:0:0:0:
329,192,74116,1,0,0:0:0:0:
475,192,74116,1,0,0:0:0:0:
36,192,74303,1,0,0:0:0:0:
109,192,74303,1,0,0:0:0:0:
182,192,74397,1,0,0:0:0:0:
402,192,74397,1,0,0:0:0:0:
329,192,74397,1,0,0:0:0:0:
256,192,74397,1,0,0:0:0:0:
182,192,74491,1,0,0:0:0:0:
256,192,74491,1,0,0:0:0:0:
329,192,74491,1,0,0:0:0:0:
402,192,74491,1,0,0:0:0:0:
109,192,74678,1,0,0:0:0:0:
36,192,74678,1,0,0:0:0:0:
182,192,74866,1,0,0:0:0:0:
256,192,74866,1,0,0:0:0:0:
329,192,74866,1,0,0:0:0:0:
402,192,74866,1,0,0:0:0:0:
109,192,75053,1,0,0:0:0:0:
36,192,75053,1,0,0:0:0:0:
109,192,75241,1,0,0:0:0:0:
182,192,75241,1,0,0:0:0:0:
329,192,75241,1,0,0:0:0:0:
256,192,75241,1,0,0:0:0:0:
109,192,75428,1,0,0:0:0:0:
36,192,75428,1,0,0:0:0:0:
329,192,75616,1,0,0:0:0:0:
402,192,75616,1,0,0:0:0:0:
475,192,75616,1,0,0:0:0:0:
256,192,75616,1,0,0:0:0:0:
402,192,75803,1,0,0:0:0:0:
475,192,75803,1,0,0:0:0:0:
182,192,75897,1,0,0:0:0:0:
109,192,75897,1,0,0:0:0:0:
256,192,75897,1,0,0:0:0:0:
329,192,75897,1,0,0:0:0:0:
329,192,75991,1,0,0:0:0:0:
256,192,75991,1,0,0:0:0:0:
182,192,75991,1,0,0:0:0:0:
109,192,75991,1,0,0:0:0:0:
475,192,76178,1,0,0:0:0:0:
402,192,76178,1,0,0:0:0:0:
182,192,76366,1,0,0:0:0:0:
109,192,76366,1,0,0:0:0:0:
329,192,76366,1,0,0:0:0:0:
256,192,76366,1,0,0:0:0:0:
475,192,76553,1,0,0:0:0:0:
402,192,76553,1,0,0:0:0:0:
109,192,76741,1,0,0:0:0:0:
36,192,76741,1,0,0:0:0:0:
182,192,76741,1,0,0:0:0:0:
256,192,76741,1,0,0:0:0:0:
475,192,76928,1,0,0:0:0:0:
402,192,76928,1,0,0:0:0:0:
256,192,77116,1,0,0:0:0:0:
329,192,77116,1,0,0:0:0:0:
402,192,77116,1,0,0:0:0:0:
182,192,77116,1,0,0:0:0:0:
329,192,77303,1,0,0:0:0:0:
402,192,77303,1,0,0:0:0:0:
182,192,77397,1,0,0:0:0:0:
109,192,77397,1,0,0:0:0:0:
256,192,77397,1,0,0:0:0:0:
36,192,77397,1,0,0:0:0:0:
256,192,77491,1,0,0:0:0:0:
182,192,77491,1,0,0:0:0:0:
36,192,77491,1,0,0:0:0:0:
109,192,77491,1,0,0:0:0:0:
329,192,77584,1,0,0:0:0:0:
475,192,77678,1,0,0:0:0:0:
402,192,77678,1,0,0:0:0:0:
329,192,77772,1,0,0:0:0:0:
182,192,77866,1,0,0:0:0:0:
109,192,77866,1,0,0:0:0:0:
36,192,77866,1,0,0:0:0:0:
256,192,77866,1,0,0:0:0:0:
402,192,77959,1,0,0:0:0:0:
475,192,77959,1,0,0:0:0:0:
182,192,78053,1,0,0:0:0:0:
256,192,78053,1,0,0:0:0:0:
329,192,78147,1,0,0:0:0:0:
402,192,78147,1,0,0:0:0:0:
182,192,78241,1,0,0:0:0:0:
109,192,78241,1,0,0:0:0:0:
36,192,78241,1,0,0:0:0:0:
256,192,78241,1,0,0:0:0:0:
329,192,78334,1,0,0:0:0:0:
402,192,78428,1,0,0:0:0:0:
182,192,78428,1,0,0:0:0:0:
36,192,78428,1,0,0:0:0:0:
329,192,78522,1,0,0:0:0:0:
109,192,78522,1,0,0:0:0:0:
256,192,78616,1,0,0:0:0:0:
182,192,78616,1,0,0:0:0:0:
402,192,78616,1,0,0:0:0:0:
475,192,78616,1,0,0:0:0:0:
329,192,78709,1,0,0:0:0:0:
109,192,78709,1,0,0:0:0:0:
256,192,78803,1,0,0:0:0:0:
36,192,78803,1,0,0:0:0:0:
402,192,78803,1,0,0:0:0:0:
475,192,78803,1,0,0:0:0:0:
329,192,78897,1,0,0:0:0:0:
182,192,78897,1,0,0:0:0:0:
36,192,78991,1,0,0:0:0:0:
475,192,78991,1,0,0:0:0:0:
256,192,78991,1,0,0:0:0:0:
109,192,78991,1,0,0:0:0:0:
402,192,78991,128,0,79084:0:0:0:0:
182,192,79084,128,0,79178:0:0:0:0:
475,192,79178,1,0,0:0:0:0:
329,192,79178,128,0,79272:0:0:0:0:
36,192,79178,1,0,0:0:0:0:
109,192,79272,128,0,79366:0:0:0:0:
256,192,79272,1,0,0:0:0:0:
402,192,79366,128,0,79459:0:0:0:0:
329,192,79366,1,0,0:0:0:0:
36,192,79366,1,0,0:0:0:0:
475,192,79366,1,0,0:0:0:0:
182,192,79459,128,0,79553:0:0:0:0:
329,192,79553,128,0,79647:0:0:0:0:
36,192,79553,1,0,0:0:0:0:
256,192,79553,1,0,0:0:0:0:
109,192,79647,128,0,79741:0:0:0:0:
475,192,79647,1,0,0:0:0:0:
256,192,79741,128,0,79834:0:0:0:0:
182,192,79741,1,0,0:0:0:0:
402,192,79741,1,0,0:0:0:0:
36,192,79834,128,0,79928:0:0:0:0:
329,192,79928,128,0,80022:0:0:0:0:
109,192,79928,1,0,0:0:0:0:
475,192,79928,1,0,0:0:0:0:
182,192,80022,128,0,80116:0:0:0:0:
256,192,80022,1,0,0:0:0:0:
402,192,80116,128,0,80209:0:0:0:0:
36,192,80116,1,0,0:0:0:0:
329,192,80116,1,0,0:0:0:0:
475,192,80116,1,0,0:0:0:0:
109,192,80209,128,0,80303:0:0:0:0:
182,192,80303,128,0,80397:0:0:0:0:
256,192,80303,1,0,0:0:0:0:
475,192,80303,1,0,0:0:0:0:
329,192,80397,1,0,0:0:0:0:
329,192,80491,1,0,0:0:0:0:
475,192,80491,128,0,80584:0:0:0:0:
182,192,80491,1,0,0:0:0:0:
36,192,80491,1,0,0:0:0:0:
402,192,80584,128,0,80678:0:0:0:0:
109,192,80584,1,0,0:0:0:0:
256,192,80678,128,0,80772:0:0:0:0:
36,192,80678,1,0,0:0:0:0:
475,192,80678,1,0,0:0:0:0:
329,192,80772,128,0,80866:0:0:0:0:
109,192,80772,1,0,0:0:0:0:
402,192,80866,128,0,80959:0:0:0:0:
256,192,80866,1,0,0:0:0:0:
36,192,80866,1,0,0:0:0:0:
475,192,80866,1,0,0:0:0:0:
182,192,80959,128,0,81053:0:0:0:0:
36,192,81053,1,0,0:0:0:0:
402,192,81053,1,0,0:0:0:0:
256,192,81053,128,0,81147:0:0:0:0:
329,192,81147,128,0,81241:0:0:0:0:
109,192,81147,1,0,0:0:0:0:
182,192,81241,128,0,81334:0:0:0:0:
36,192,81241,1,0,0:0:0:0:
475,192,81241,1,0,0:0:0:0:
402,192,81241,1,0,0:0:0:0:
109,192,81334,128,0,81428:0:0:0:0:
402,192,81428,1,0,0:0:0:0:
475,192,81428,1,0,0:0:0:0:
256,192,81428,128,0,81522:0:0:0:0:
182,192,81522,128,0,81616:0:0:0:0:
109,192,81522,1,0,0:0:0:0:
256,192,81616,1,0,0:0:0:0:
36,192,81616,1,0,0:0:0:0:
402,192,81616,128,0,81709:0:0:0:0:
475,192,81616,1,0,0:0:0:0:
109,192,81709,128,0,81803:0:0:0:0:
329,192,81803,128,0,81897:0:0:0:0:
256,192,81803,1,0,0:0:0:0:
475,192,81803,1,0,0:0:0:0:
182,192,81897,128,0,81991:0:0:0:0:
109,192,81897,1,0,0:0:0:0:
256,192,81991,128,0,82084:0:0:0:0:
36,192,81991,1,0,0:0:0:0:
402,192,81991,1,0,0:0:0:0:
475,192,81991,1,0,0:0:0:0:
329,192,82084,128,0,82178:0:0:0:0:
109,192,82084,1,0,0:0:0:0:
402,192,82178,128,0,82272:0:0:0:0:
182,192,82178,1,0,0:0:0:0:
475,192,82178,1,0,0:0:0:0:
256,192,82272,128,0,82366:0:0:0:0:
36,192,82272,1,0,0:0:0:0:
475,192,82366,128,0,82459:0:0:0:0:
109,192,82366,1,0,0:0:0:0:
182,192,82366,1,0,0:0:0:0:
329,192,82459,128,0,82553:0:0:0:0:
402,192,82553,128,0,82647:0:0:0:0:
256,192,82553,1,0,0:0:0:0:
109,192,82553,1,0,0:0:0:0:
182,192,82647,128,0,82741:0:0:0:0:
256,192,82741,128,0,82834:0:0:0:0:
329,192,82741,1,0,0:0:0:0:
36,192,82741,1,0,0:0:0:0:
475,192,82741,1,0,0:0:0:0:
182,192,82834,128,0,82928:0:0:0:0:
402,192,82834,1,0,0:0:0:0:
109,192,82928,128,0,83022:0:0:0:0:
329,192,82928,1,0,0:0:0:0:
36,192,82928,1,0,0:0:0:0:
256,192,83022,128,0,83116:0:0:0:0:
475,192,83022,1,0,0:0:0:0:
402,192,83116,1,0,0:0:0:0:
36,192,83116,128,0,83209:0:0:0:0:
109,192,83116,1,0,0:0:0:0:
329,192,83116,1,0,0:0:0:0:
182,192,83209,128,0,83303:0:0:0:0:
475,192,83209,1,0,0:0:0:0:
109,192,83303,128,0,83397:0:0:0:0:
256,192,83303,1,0,0:0:0:0:
402,192,83303,1,0,0:0:0:0:
329,192,83397,128,0,83491:0:0:0:0:
182,192,83491,128,0,83584:0:0:0:0:
402,192,83491,128,0,83584:0:0:0:0:
36,192,83491,128,0,83584:0:0:0:0:
109,192,83491,1,0,0:0:0:0:
475,192,83491,1,0,0:0:0:0:
256,192,83584,128,0,83678:0:0:0:0:
109,192,83678,128,0,83772:0:0:0:0:
329,192,83678,128,0,83772:0:0:0:0:
475,192,83678,1,0,0:0:0:0:
182,192,83772,128,0,83866:0:0:0:0:
329,192,83866,1,0,0:0:0:0:
475,192,83866,128,0,83959:0:0:0:0:
402,192,83866,128,0,83959:0:0:0:0:
256,192,83866,128,0,83959:0:0:0:0:
109,192,83959,128,0,84053:0:0:0:0:
36,192,83959,128,0,84053:0:0:0:0:
256,192,84053,128,0,84147:0:0:0:0:
402,192,84053,128,0,84147:0:0:0:0:
475,192,84053,1,0,0:0:0:0:
182,192,84147,128,0,84241:0:0:0:0:
109,192,84241,128,0,84803:0:0:0:0:
36,192,84241,128,0,84803:0:0:0:0:
329,192,84241,1,0,0:0:0:0:
402,192,84241,1,0,0:0:0:0:
475,192,84241,1,0,0:0:0:0:
256,192,84334,1,0,0:0:0:0:
182,192,84428,1,0,0:0:0:0:
402,192,84428,1,0,0:0:0:0:
475,192,84428,1,0,0:0:0:0:
329,192,84522,1,0,0:0:0:0:
402,192,84616,128,0,84991:0:0:0:0:
475,192,84616,128,0,84991:0:0:0:0:
256,192,84616,1,0,0:0:0:0:
182,192,84616,1,0,0:0:0:0:
329,192,84709,1,0,0:0:0:0:
182,192,84803,1,0,0:0:0:0:
256,192,84803,1,0,0:0:0:0:
329,192,84897,1,0,0:0:0:0:
182,192,84991,1,0,0:0:0:0:
109,192,84991,1,0,0:0:0:0:
36,192,84991,1,0,0:0:0:0:
256,192,84991,1,0,0:0:0:0:
109,192,85178,1,0,0:0:0:0:
182,192,85178,1,0,0:0:0:0:
256,192,85178,1,0,0:0:0:0:
329,192,85178,1,0,0:0:0:0:
256,192,85366,1,0,0:0:0:0:
402,192,85366,1,0,0:0:0:0:
182,192,85366,1,0,0:0:0:0:
329,192,85366,1,0,0:0:0:0:
256,192,85553,1,0,0:0:0:0:
329,192,85553,1,0,0:0:0:0:
402,192,85553,1,0,0:0:0:0:
475,192,85553,1,0,0:0:0:0:
402,192,85741,128,0,85834:0:0:0:0:
256,192,85741,128,0,85834:0:0:0:0:
109,192,85741,1,0,0:0:0:0:
36,192,85741,1,0,0:0:0:0:
475,192,85741,1,0,0:0:0:0:
182,192,85834,128,0,85928:0:0:0:0:
329,192,85834,128,0,85928:0:0:0:0:
256,192,85928,128,0,86022:0:0:0:0:
109,192,85928,128,0,86022:0:0:0:0:
182,192,86022,128,0,86116:0:0:0:0:
36,192,86022,128,0,86116:0:0:0:0:
329,192,86116,128,0,86209:0:0:0:0:
475,192,86116,128,0,86209:0:0:0:0:
109,192,86116,1,0,0:0:0:0:
402,192,86209,128,0,86303:0:0:0:0:
256,192,86209,128,0,86303:0:0:0:0:
329,192,86303,128,0,86397:0:0:0:0:
182,192,86303,128,0,86397:0:0:0:0:
256,192,86397,128,0,86491:0:0:0:0:
109,192,86397,128,0,86491:0:0:0:0:
182,192,86491,1,0,0:0:0:0:
36,192,86491,1,0,0:0:0:0:
475,192,86491,1,0,0:0:0:0:
402,192,86491,1,0,0:0:0:0:
182,192,86678,1,0,0:0:0:0:
109,192,86678,1,0,0:0:0:0:
329,192,86678,1,0,0:0:0:0:
256,192,86678,1,0,0:0:0:0:
182,192,86866,1,0,0:0:0:0:
256,192,86866,1,0,0:0:0:0:
402,192,86866,1,0,0:0:0:0:
329,192,86866,1,0,0:0:0:0:
329,192,87053,1,0,0:0:0:0:
402,192,87053,1,0,0:0:0:0:
109,192,87053,1,0,0:0:0:0:
475,192,87053,1,0,0:0:0:0:
329,192,87241,128,0,87334:0:0:0:0:
475,192,87241,1,0,0:0:0:0:
36,192,87241,1,0,0:0:0:0:
182,192,87241,128,0,87334:0:0:0:0:
402,192,87241,1,0,0:0:0:0:
256,192,87334,128,0,87428:0:0:0:0:
109,192,87334,128,0,87428:0:0:0:0:
182,192,87428,128,0,87522:0:0:0:0:
36,192,87428,128,0,87522:0:0:0:0:
109,192,87522,128,0,87616:0:0:0:0:
256,192,87522,128,0,87616:0:0:0:0:
182,192,87616,128,0,87709:0:0:0:0:
329,192,87616,128,0,87709:0:0:0:0:
36,192,87616,1,0,0:0:0:0:
475,192,87616,1,0,0:0:0:0:
402,192,87709,128,0,87803:0:0:0:0:
256,192,87709,128,0,87803:0:0:0:0:
329,192,87803,128,0,87897:0:0:0:0:
475,192,87803,128,0,87897:0:0:0:0:
256,192,87897,128,0,87991:0:0:0:0:
402,192,87897,128,0,87991:0:0:0:0:
36,192,87991,1,0,0:0:0:0:
109,192,87991,1,0,0:0:0:0:
475,192,87991,1,0,0:0:0:0:
182,192,87991,1,0,0:0:0:0:
256,192,88178,1,0,0:0:0:0:
329,192,88178,1,0,0:0:0:0:
109,192,88178,1,0,0:0:0:0:
182,192,88178,1,0,0:0:0:0:
256,192,88366,1,0,0:0:0:0:
182,192,88366,1,0,0:0:0:0:
402,192,88366,1,0,0:0:0:0:
329,192,88366,1,0,0:0:0:0:
329,192,88553,1,0,0:0:0:0:
402,192,88553,1,0,0:0:0:0:
256,192,88553,1,0,0:0:0:0:
475,192,88553,1,0,0:0:0:0:
256,192,88741,128,0,88834:0:0:0:0:
402,192,88741,128,0,88834:0:0:0:0:
109,192,88741,1,0,0:0:0:0:
36,192,88741,1,0,0:0:0:0:
475,192,88741,1,0,0:0:0:0:
329,192,88834,128,0,88928:0:0:0:0:
182,192,88834,128,0,88928:0:0:0:0:
256,192,88928,128,0,89022:0:0:0:0:
109,192,88928,128,0,89022:0:0:0:0:
182,192,89022,128,0,89116:0:0:0:0:
36,192,89022,128,0,89116:0:0:0:0:
329,192,89116,128,0,89209:0:0:0:0:
475,192,89116,128,0,89209:0:0:0:0:
109,192,89116,1,0,0:0:0:0:
402,192,89209,128,0,89303:0:0:0:0:
256,192,89209,128,0,89303:0:0:0:0:
329,192,89303,128,0,89397:0:0:0:0:
182,192,89303,128,0,89397:0:0:0:0:
256,192,89397,128,0,89491:0:0:0:0:
109,192,89397,128,0,89491:0:0:0:0:
475,192,89491,1,0,0:0:0:0:
402,192,89491,1,0,0:0:0:0:
36,192,89491,1,0,0:0:0:0:
182,192,89491,128,0,89584:0:0:0:0:
256,192,89584,128,0,89678:0:0:0:0:
329,192,89678,128,0,89772:0:0:0:0:
109,192,89678,1,0,0:0:0:0:
36,192,89678,1,0,0:0:0:0:
402,192,89772,128,0,89866:0:0:0:0:
182,192,89866,128,0,89959:0:0:0:0:
36,192,89866,1,0,0:0:0:0:
329,192,89866,1,0,0:0:0:0:
475,192,89866,1,0,0:0:0:0:
109,192,89866,1,0,0:0:0:0:
256,192,89959,128,0,90053:0:0:0:0:
109,192,90053,1,0,0:0:0:0:
182,192,90053,1,0,0:0:0:0:
329,192,90053,128,0,90147:0:0:0:0:
402,192,90147,128,0,90241:0:0:0:0:
475,192,90241,128,0,90334:0:0:0:0:
329,192,90241,1,0,0:0:0:0:
109,192,90241,128,0,90334:0:0:0:0:
256,192,90241,1,0,0:0:0:0:
36,192,90241,1,0,0:0:0:0:
182,192,90334,128,0,90428:0:0:0:0:
256,192,90428,128,0,90522:0:0:0:0:
402,192,90428,1,0,0:0:0:0:
475,192,90428,1,0,0:0:0:0:
329,192,90522,128,0,90616:0:0:0:0:
182,192,90616,128,0,90709:0:0:0:0:
36,192,90616,1,0,0:0:0:0:
109,192,90616,1,0,0:0:0:0:
475,192,90616,1,0,0:0:0:0:
402,192,90616,1,0,0:0:0:0:
256,192,90709,128,0,90803:0:0:0:0:
329,192,90803,128,0,90897:0:0:0:0:
182,192,90803,1,0,0:0:0:0:
109,192,90803,1,0,0:0:0:0:
402,192,90897,128,0,90991:0:0:0:0:
36,192,90991,128,0,91084:0:0:0:0:
182,192,90991,1,0,0:0:0:0:
256,192,90991,1,0,0:0:0:0:
329,192,90991,1,0,0:0:0:0:
475,192,90991,1,0,0:0:0:0:
109,192,91084,128,0,91178:0:0:0:0:
182,192,91178,128,0,91272:0:0:0:0:
329,192,91178,1,0,0:0:0:0:
402,192,91178,1,0,0:0:0:0:
256,192,91272,128,0,91366:0:0:0:0:
109,192,91366,128,0,91459:0:0:0:0:
402,192,91366,1,0,0:0:0:0:
329,192,91366,1,0,0:0:0:0:
36,192,91366,1,0,0:0:0:0:
475,192,91366,1,0,0:0:0:0:
182,192,91459,128,0,91553:0:0:0:0:
256,192,91553,128,0,91647:0:0:0:0:
402,192,91553,1,0,0:0:0:0:
475,192,91553,1,0,0:0:0:0:
329,192,91647,128,0,91741:0:0:0:0:
36,192,91741,1,0,0:0:0:0:
256,192,91741,1,0,0:0:0:0:
475,192,91741,1,0,0:0:0:0:
402,192,91741,1,0,0:0:0:0:
109,192,91741,128,0,91834:0:0:0:0:
182,192,91834,128,0,91928:0:0:0:0:
256,192,91928,128,0,92022:0:0:0:0:
402,192,91928,1,0,0:0:0:0:
475,192,91928,1,0,0:0:0:0:
329,192,92022,128,0,92116:0:0:0:0:
182,192,92116,128,0,92209:0:0:0:0:
402,192,92116,128,0,92209:0:0:0:0:
109,192,92116,1,0,0:0:0:0:
475,192,92116,1,0,0:0:0:0:
36,192,92116,1,0,0:0:0:0:
256,192,92209,128,0,92303:0:0:0:0:
329,192,92303,128,0,92397:0:0:0:0:
109,192,92303,1,0,0:0:0:0:
36,192,92303,1,0,0:0:0:0:
402,192,92397,128,0,92491:0:0:0:0:
36,192,92491,1,0,0:0:0:0:
109,192,92491,1,0,0:0:0:0:
475,192,92491,1,0,0:0:0:0:
329,192,92491,1,0,0:0:0:0:
182,192,92491,128,0,92584:0:0:0:0:
256,192,92584,128,0,92678:0:0:0:0:
329,192,92678,128,0,92772:0:0:0:0:
109,192,92678,1,0,0:0:0:0:
182,192,92678,1,0,0:0:0:0:
402,192,92772,128,0,92866:0:0:0:0:
256,192,92866,128,0,92959:0:0:0:0:
182,192,92866,1,0,0:0:0:0:
109,192,92866,1,0,0:0:0:0:
36,192,92866,1,0,0:0:0:0:
475,192,92866,1,0,0:0:0:0:
329,192,92959,128,0,93053:0:0:0:0:
402,192,93053,128,0,93147:0:0:0:0:
182,192,93053,1,0,0:0:0:0:
109,192,93053,1,0,0:0:0:0:
329,192,93147,128,0,93241:0:0:0:0:
109,192,93241,128,0,93334:0:0:0:0:
256,192,93241,1,0,0:0:0:0:
36,192,93241,1,0,0:0:0:0:
402,192,93241,1,0,0:0:0:0:
475,192,93241,1,0,0:0:0:0:
182,192,93334,128,0,93428:0:0:0:0:
475,192,93428,1,0,0:0:0:0:
256,192,93428,128,0,93522:0:0:0:0:
402,192,93428,1,0,0:0:0:0:
329,192,93522,128,0,93616:0:0:0:0:
182,192,93616,128,0,93709:0:0:0:0:
402,192,93616,1,0,0:0:0:0:
475,192,93616,1,0,0:0:0:0:
109,192,93616,1,0,0:0:0:0:
36,192,93616,1,0,0:0:0:0:
256,192,93709,128,0,93803:0:0:0:0:
36,192,93803,1,0,0:0:0:0:
329,192,93803,128,0,93897:0:0:0:0:
109,192,93803,1,0,0:0:0:0:
402,192,93897,128,0,93991:0:0:0:0:
36,192,93991,128,0,94084:0:0:0:0:
182,192,93991,1,0,0:0:0:0:
256,192,93991,1,0,0:0:0:0:
475,192,93991,1,0,0:0:0:0:
329,192,93991,1,0,0:0:0:0:
109,192,94084,128,0,94178:0:0:0:0:
402,192,94178,1,0,0:0:0:0:
182,192,94178,128,0,94272:0:0:0:0:
329,192,94178,1,0,0:0:0:0:
256,192,94272,128,0,94366:0:0:0:0:
109,192,94366,128,0,94459:0:0:0:0:
329,192,94366,1,0,0:0:0:0:
402,192,94366,1,0,0:0:0:0:
475,192,94366,1,0,0:0:0:0:
36,192,94366,1,0,0:0:0:0:
182,192,94459,128,0,94553:0:0:0:0:
402,192,94553,1,0,0:0:0:0:
475,192,94553,1,0,0:0:0:0:
256,192,94553,128,0,94647:0:0:0:0:
329,192,94647,128,0,94741:0:0:0:0:
109,192,94741,128,0,94834:0:0:0:0:
256,192,94741,1,0,0:0:0:0:
36,192,94741,1,0,0:0:0:0:
402,192,94741,1,0,0:0:0:0:
475,192,94741,1,0,0:0:0:0:
182,192,94834,128,0,94928:0:0:0:0:
402,192,94928,1,0,0:0:0:0:
475,192,94928,1,0,0:0:0:0:
256,192,94928,128,0,95022:0:0:0:0:
329,192,95022,128,0,95116:0:0:0:0:
109,192,95116,1,0,0:0:0:0:
36,192,95116,1,0,0:0:0:0:
402,192,95116,128,0,95209:0:0:0:0:
182,192,95116,128,0,95209:0:0:0:0:
475,192,95116,1,0,0:0:0:0:
256,192,95209,128,0,95303:0:0:0:0:
329,192,95303,128,0,95397:0:0:0:0:
109,192,95303,1,0,0:0:0:0:
182,192,95303,1,0,0:0:0:0:
402,192,95397,128,0,95491:0:0:0:0:
182,192,95491,128,0,95584:0:0:0:0:
36,192,95491,1,0,0:0:0:0:
475,192,95491,1,0,0:0:0:0:
109,192,95491,1,0,0:0:0:0:
256,192,95584,128,0,95678:0:0:0:0:
402,192,95584,1,0,0:0:0:0:
329,192,95678,128,0,95772:0:0:0:0:
36,192,95678,1,0,0:0:0:0:
475,192,95678,1,0,0:0:0:0:
402,192,95772,128,0,95866:0:0:0:0:
109,192,95772,1,0,0:0:0:0:
256,192,95866,128,0,95959:0:0:0:0:
182,192,95866,1,0,0:0:0:0:
475,192,95866,1,0,0:0:0:0:
329,192,95959,128,0,96053:0:0:0:0:
109,192,95959,1,0,0:0:0:0:
36,192,96053,1,0,0:0:0:0:
475,192,96053,1,0,0:0:0:0:
402,192,96053,128,0,96147:0:0:0:0:
329,192,96147,128,0,96241:0:0:0:0:
182,192,96147,1,0,0:0:0:0:
36,192,96241,1,0,0:0:0:0:
109,192,96241,1,0,0:0:0:0:
475,192,96241,128,0,96334:0:0:0:0:
256,192,96241,1,0,0:0:0:0:
402,192,96334,128,0,96428:0:0:0:0:
182,192,96334,1,0,0:0:0:0:
329,192,96428,128,0,96522:0:0:0:0:
109,192,96428,1,0,0:0:0:0:
36,192,96428,1,0,0:0:0:0:
475,192,96428,1,0,0:0:0:0:
182,192,96522,128,0,96616:0:0:0:0:
256,192,96522,1,0,0:0:0:0:
36,192,96616,1,0,0:0:0:0:
402,192,96616,128,0,96709:0:0:0:0:
475,192,96616,1,0,0:0:0:0:
109,192,96616,1,0,0:0:0:0:
329,192,96709,128,0,96803:0:0:0:0:
182,192,96709,1,0,0:0:0:0:
256,192,96803,128,0,96897:0:0:0:0:
36,192,96803,1,0,0:0:0:0:
475,192,96803,1,0,0:0:0:0:
402,192,96803,1,0,0:0:0:0:
329,192,96897,1,0,0:0:0:0:
109,192,96897,128,0,96991:0:0:0:0:
182,192,96991,128,0,97084:0:0:0:0:
36,192,96991,1,0,0:0:0:0:
475,192,96991,1,0,0:0:0:0:
256,192,96991,1,0,0:0:0:0:
402,192,97084,1,0,0:0:0:0:
329,192,97178,128,0,97272:0:0:0:0:
109,192,97178,1,0,0:0:0:0:
182,192,97272,1,0,0:0:0:0:
475,192,97366,1,0,0:0:0:0:
256,192,97366,128,0,97459:0:0:0:0:
36,192,97366,1,0,0:0:0:0:
329,192,97459,1,0,0:0:0:0:
402,192,97553,128,0,97647:0:0:0:0:
109,192,97553,1,0,0:0:0:0:
182,192,97647,1,0,0:0:0:0:
475,192,97741,128,0,97834:0:0:0:0:
256,192,97741,1,0,0:0:0:0:
36,192,97741,1,0,0:0:0:0:
329,192,97834,1,0,0:0:0:0:
402,192,97928,128,0,98022:0:0:0:0:
182,192,97928,1,0,0:0:0:0:
256,192,98022,1,0,0:0:0:0:
329,192,98116,128,0,98209:0:0:0:0:
109,192,98116,1,0,0:0:0:0:
475,192,98116,1,0,0:0:0:0:
182,192,98209,1,0,0:0:0:0:
475,192,98303,128,0,98397:0:0:0:0:
256,192,98303,1,0,0:0:0:0:
182,192,98397,1,0,0:0:0:0:
109,192,98491,128,0,98584:0:0:0:0:
329,192,98491,1,0,0:0:0:0:
36,192,98491,1,0,0:0:0:0:
475,192,98491,1,0,0:0:0:0:
256,192,98584,1,0,0:0:0:0:
182,192,98678,128,0,98772:0:0:0:0:
402,192,98678,1,0,0:0:0:0:
329,192,98772,1,0,0:0:0:0:
256,192,98866,128,0,98959:0:0:0:0:
475,192,98866,1,0,0:0:0:0:
36,192,98866,1,0,0:0:0:0:
182,192,98959,1,0,0:0:0:0:
109,192,99053,128,0,99147:0:0:0:0:
402,192,99053,1,0,0:0:0:0:
329,192,99147,1,0,0:0:0:0:
36,192,99241,1,0,0:0:0:0:
402,192,99241,128,0,99334:0:0:0:0:
256,192,99241,1,0,0:0:0:0:
475,192,99241,1,0,0:0:0:0:
109,192,99334,1,0,0:0:0:0:
329,192,99428,128,0,99522:0:0:0:0:
182,192,99428,1,0,0:0:0:0:
402,192,99522,1,0,0:0:0:0:
256,192,99616,128,0,99709:0:0:0:0:
109,192,99616,1,0,0:0:0:0:
475,192,99616,1,0,0:0:0:0:
402,192,99709,1,0,0:0:0:0:
182,192,99803,128,0,99897:0:0:0:0:
36,192,99803,1,0,0:0:0:0:
329,192,99897,1,0,0:0:0:0:
36,192,99991,128,0,100084:0:0:0:0:
475,192,99991,1,0,0:0:0:0:
402,192,99991,1,0,0:0:0:0:
256,192,99991,1,0,0:0:0:0:
109,192,100084,1,0,0:0:0:0:
182,192,100178,128,0,100272:0:0:0:0:
329,192,100178,1,0,0:0:0:0:
402,192,100272,1,0,0:0:0:0:
256,192,100366,1,0,0:0:0:0:
475,192,100366,1,0,0:0:0:0:
109,192,100366,128,0,100459:0:0:0:0:
402,192,100459,1,0,0:0:0:0:
182,192,100553,128,0,100647:0:0:0:0:
329,192,100553,1,0,0:0:0:0:
109,192,100647,1,0,0:0:0:0:
256,192,100741,128,0,100834:0:0:0:0:
402,192,100741,1,0,0:0:0:0:
36,192,100741,1,0,0:0:0:0:
182,192,100834,1,0,0:0:0:0:
329,192,100928,128,0,101022:0:0:0:0:
109,192,100928,1,0,0:0:0:0:
256,192,101022,1,0,0:0:0:0:
402,192,101116,128,0,101209:0:0:0:0:
182,192,101116,1,0,0:0:0:0:
36,192,101116,1,0,0:0:0:0:
329,192,101209,1,0,0:0:0:0:
475,192,101303,128,0,101397:0:0:0:0:
256,192,101303,1,0,0:0:0:0:
329,192,101397,1,0,0:0:0:0:
402,192,101491,128,0,101584:0:0:0:0:
182,192,101491,1,0,0:0:0:0:
36,192,101491,1,0,0:0:0:0:
256,192,101584,1,0,0:0:0:0:
329,192,101678,128,0,101772:0:0:0:0:
109,192,101678,1,0,0:0:0:0:
182,192,101772,1,0,0:0:0:0:
256,192,101866,128,0,101959:0:0:0:0:
36,192,101866,1,0,0:0:0:0:
475,192,101866,1,0,0:0:0:0:
109,192,101959,1,0,0:0:0:0:
182,192,102053,128,0,102147:0:0:0:0:
402,192,102053,1,0,0:0:0:0:
256,192,102147,1,0,0:0:0:0:
475,192,102241,1,0,0:0:0:0:
109,192,102241,128,0,102334:0:0:0:0:
329,192,102241,1,0,0:0:0:0:
256,192,102334,1,0,0:0:0:0:
182,192,102428,128,0,102522:0:0:0:0:
402,192,102428,1,0,0:0:0:0:
329,192,102522,1,0,0:0:0:0:
402,192,102616,128,0,102709:0:0:0:0:
256,192,102616,1,0,0:0:0:0:
36,192,102616,1,0,0:0:0:0:
182,192,102709,1,0,0:0:0:0:
475,192,102803,128,0,102897:0:0:0:0:
329,192,102803,1,0,0:0:0:0:
109,192,102803,1,0,0:0:0:0:
182,192,102991,128,0,103366:0:0:0:0:
402,192,102991,1,0,0:0:0:0:
36,192,102991,1,0,0:0:0:0:
475,192,102991,1,0,0:0:0:0:
256,192,102991,1,0,0:0:0:0:
109,192,103084,128,0,103178:0:0:0:0:
36,192,103178,128,0,103272:0:0:0:0:
329,192,103178,1,0,0:0:0:0:
475,192,103178,1,0,0:0:0:0:
109,192,103272,128,0,103366:0:0:0:0:
256,192,103366,128,0,103741:0:0:0:0:
36,192,103366,1,0,0:0:0:0:
402,192,103366,1,0,0:0:0:0:
475,192,103366,1,0,0:0:0:0:
182,192,103459,128,0,103553:0:0:0:0:
109,192,103553,128,0,103647:0:0:0:0:
329,192,103553,1,0,0:0:0:0:
475,192,103553,1,0,0:0:0:0:
182,192,103647,128,0,103741:0:0:0:0:
329,192,103741,128,0,104116:0:0:0:0:
36,192,103741,1,0,0:0:0:0:
109,192,103741,1,0,0:0:0:0:
475,192,103741,1,0,0:0:0:0:
256,192,103834,128,0,103928:0:0:0:0:
182,192,103928,128,0,104022:0:0:0:0:
36,192,103928,1,0,0:0:0:0:
475,192,103928,1,0,0:0:0:0:
256,192,104022,128,0,104116:0:0:0:0:
402,192,104116,128,0,104303:0:0:0:0:
109,192,104116,1,0,0:0:0:0:
36,192,104116,1,0,0:0:0:0:
475,192,104116,1,0,0:0:0:0:
256,192,104209,128,0,104491:0:0:0:0:
329,192,104303,128,0,104397:0:0:0:0:
182,192,104303,1,0,0:0:0:0:
36,192,104303,1,0,0:0:0:0:
402,192,104397,128,0,104491:0:0:0:0:
329,192,104491,128,0,104772:0:0:0:0:
182,192,104491,1,0,0:0:0:0:
109,192,104491,1,0,0:0:0:0:
36,192,104491,1,0,0:0:0:0:
475,192,104491,1,0,0:0:0:0:
402,192,104584,128,0,104678:0:0:0:0:
475,192,104678,128,0,104772:0:0:0:0:
109,192,104678,1,0,0:0:0:0:
256,192,104678,1,0,0:0:0:0:
402,192,104772,128,0,104866:0:0:0:0:
329,192,104866,128,0,105147:0:0:0:0:
182,192,104866,1,0,0:0:0:0:
36,192,104866,1,0,0:0:0:0:
475,192,104866,1,0,0:0:0:0:
109,192,104866,1,0,0:0:0:0:
256,192,104959,128,0,105053:0:0:0:0:
475,192,105053,1,0,0:0:0:0:
182,192,105053,128,0,105147:0:0:0:0:
36,192,105053,1,0,0:0:0:0:
109,192,105147,128,0,105241:0:0:0:0:
329,192,105241,128,0,105522:0:0:0:0:
182,192,105241,1,0,0:0:0:0:
36,192,105241,1,0,0:0:0:0:
402,192,105241,1,0,0:0:0:0:
475,192,105241,1,0,0:0:0:0:
256,192,105334,128,0,105428:0:0:0:0:
36,192,105428,1,0,0:0:0:0:
182,192,105428,128,0,105522:0:0:0:0:
402,192,105428,1,0,0:0:0:0:
109,192,105522,128,0,105616:0:0:0:0:
36,192,105616,128,0,105897:0:0:0:0:
329,192,105616,1,0,0:0:0:0:
256,192,105616,1,0,0:0:0:0:
402,192,105616,1,0,0:0:0:0:
475,192,105616,1,0,0:0:0:0:
109,192,105709,128,0,105803:0:0:0:0:
475,192,105803,1,0,0:0:0:0:
182,192,105803,128,0,105897:0:0:0:0:
329,192,105803,1,0,0:0:0:0:
256,192,105897,128,0,105991:0:0:0:0:
182,192,105991,128,0,106272:0:0:0:0:
402,192,105991,1,0,0:0:0:0:
329,192,105991,1,0,0:0:0:0:
36,192,105991,1,0,0:0:0:0:
109,192,105991,1,0,0:0:0:0:
475,192,106084,128,0,106178:0:0:0:0:
402,192,106178,128,0,106272:0:0:0:0:
256,192,106178,1,0,0:0:0:0:
109,192,106178,1,0,0:0:0:0:
475,192,106272,128,0,106366:0:0:0:0:
109,192,106366,128,0,106647:0:0:0:0:
182,192,106366,1,0,0:0:0:0:
256,192,106366,1,0,0:0:0:0:
329,192,106366,1,0,0:0:0:0:
36,192,106366,1,0,0:0:0:0:
402,192,106459,128,0,106553:0:0:0:0:
182,192,106553,1,0,0:0:0:0:
36,192,106553,1,0,0:0:0:0:
329,192,106553,128,0,106647:0:0:0:0:
402,192,106647,128,0,106741:0:0:0:0:
256,192,106741,1,0,0:0:0:0:
475,192,106741,1,0,0:0:0:0:
36,192,106741,128,0,107022:0:0:0:0:
182,192,106741,1,0,0:0:0:0:
109,192,106741,1,0,0:0:0:0:
329,192,106834,128,0,106928:0:0:0:0:
256,192,106928,128,0,107022:0:0:0:0:
182,192,106928,1,0,0:0:0:0:
475,192,106928,1,0,0:0:0:0:
329,192,107022,128,0,107116:0:0:0:0:
36,192,107116,128,0,107397:0:0:0:0:
182,192,107116,1,0,0:0:0:0:
402,192,107116,1,0,0:0:0:0:
475,192,107116,1,0,0:0:0:0:
109,192,107209,128,0,107303:0:0:0:0:
182,192,107303,128,0,107397:0:0:0:0:
329,192,107303,1,0,0:0:0:0:
475,192,107303,1,0,0:0:0:0:
256,192,107397,128,0,107491:0:0:0:0:
109,192,107491,128,0,107584:0:0:0:0:
329,192,107491,1,0,0:0:0:0:
36,192,107491,1,0,0:0:0:0:
475,192,107491,1,0,0:0:0:0:
182,192,107584,128,0,107678:0:0:0:0:
402,192,107584,1,0,0:0:0:0:
256,192,107678,128,0,107772:0:0:0:0:
36,192,107678,1,0,0:0:0:0:
475,192,107678,1,0,0:0:0:0:
329,192,107772,128,0,107866:0:0:0:0:
402,192,107772,1,0,0:0:0:0:
256,192,107866,128,0,107959:0:0:0:0:
475,192,107866,1,0,0:0:0:0:
36,192,107866,1,0,0:0:0:0:
109,192,107866,1,0,0:0:0:0:
182,192,107959,128,0,108053:0:0:0:0:
402,192,107959,1,0,0:0:0:0:
256,192,108053,128,0,108147:0:0:0:0:
36,192,108053,1,0,0:0:0:0:
475,192,108053,1,0,0:0:0:0:
329,192,108147,128,0,108241:0:0:0:0:
109,192,108147,1,0,0:0:0:0:
182,192,108241,1,0,0:0:0:0:
36,192,108241,1,0,0:0:0:0:
475,192,108241,1,0,0:0:0:0:
402,192,108241,128,0,108334:0:0:0:0:
329,192,108334,128,0,108428:0:0:0:0:
109,192,108334,1,0,0:0:0:0:
256,192,108428,128,0,108522:0:0:0:0:
36,192,108428,1,0,0:0:0:0:
475,192,108428,1,0,0:0:0:0:
329,192,108522,128,0,108616:0:0:0:0:
182,192,108522,1,0,0:0:0:0:
475,192,108616,128,0,108709:0:0:0:0:
36,192,108616,1,0,0:0:0:0:
109,192,108616,1,0,0:0:0:0:
256,192,108709,1,0,0:0:0:0:
329,192,108709,1,0,0:0:0:0:
402,192,108709,128,0,108803:0:0:0:0:
36,192,108803,1,0,0:0:0:0:
182,192,108803,128,0,108897:0:0:0:0:
109,192,108803,1,0,0:0:0:0:
475,192,108897,1,0,0:0:0:0:
329,192,108897,128,0,108991:0:0:0:0:
402,192,108897,1,0,0:0:0:0:
109,192,108991,1,0,0:0:0:0:
256,192,108991,1,0,0:0:0:0:
182,192,108991,1,0,0:0:0:0:
36,192,108991,1,0,0:0:0:0:
