osu file format v14

[General]
AudioFilename: M2U & Nicode - Stellar.mp3
AudioLeadIn: 0
PreviewTime: 23270
Countdown: 0
SampleSet: Soft
StackLeniency: 0.7
Mode: 3
LetterboxInBreaks: 0
SpecialStyle: 0
WidescreenStoryboard: 1

[Editor]
DistanceSpacing: 1
BeatDivisor: 4
GridSize: 4
TimelineZoom: 2.7

[Metadata]
Title:M2U Pack
TitleUnicode:M2U Pack
Artist:M2U
ArtistUnicode:M2U
Creator:Kim_GodSSI
Version:Stellar 7K
Source:
Tags:arpia97 lami- buschan ezmmr micleak nabi- ruka takjun roasted chicken murumoo other nicode sherie 約束之歌 guriri 구리리 howling redeye red eye lucy egoist 最後の花弁 나래
BeatmapID:3470138
BeatmapSetID:1572720

[Difficulty]
HPDrainRate:8
CircleSize:7
OverallDifficulty:7
ApproachRate:5
SliderMultiplier:1.4
SliderTickRate:1

[Events]
//Background and Video events
0,0,"M2U & Nicode - Stellar.jpg",0,0
//Break Periods
//Storyboard Layer 0 (Background)
//Storyboard Layer 1 (Fail)
//Storyboard Layer 2 (Pass)
//Storyboard Layer 3 (Foreground)
//Storyboard Layer 4 (Overlay)
//Storyboard Sound Samples

[TimingPoints]
1670,600,4,2,1,25,1,0
80870,-100,4,2,1,25,0,1
94370,-100,4,2,1,25,0,0

[HitObjects]
475,192,1670,128,0,2570:0:0:0:56:D#6S_Eb6S_s.wav
329,192,1670,128,0,2570:0:0:0:41:G#4S_Ab4S_s.wav
36,192,1670,1,0,0:0:0:49:G6S_s.wav
182,192,1670,1,0,0:0:0:55:D7S_s.wav
182,192,1970,128,0,2570:0:0:0:54:D#5S_Eb5S_s.wav
36,192,1970,128,0,2570:0:0:0:70:C7S_s.wav
109,192,2570,128,0,3170:0:0:0:55:A#6S_Bb6S_s.wav
256,192,2570,128,0,3170:0:0:0:57:D#6S_Eb6S_s.wav
329,192,2870,128,0,3470:0:0:0:77:G#6S_Ab6S_s.wav
475,192,2870,128,0,3470:0:0:0:55:G#5S_Ab5S_s.wav
36,192,3170,1,0,0:0:0:49:C7S_s.wav
182,192,3320,1,0,0:0:0:80:D#7S_Eb7S_s.wav
402,192,3470,128,0,3770:0:0:0:59:D#6S_Eb6S_s.wav
36,192,3470,1,0,0:0:0:59:D7S_s.wav
256,192,3470,128,0,3770:0:0:0:61:G6S_s.wav
36,192,3770,128,0,4370:0:0:0:59:D#5S_Eb5S_s.wav
182,192,3770,128,0,4370:0:0:0:65:C7S_s.wav
329,192,4070,1,0,0:0:0:48:D6S_s.wav
475,192,4220,1,0,0:0:0:63:C7S_s.wav
329,192,4370,1,0,0:0:0:52:F#6S_Gb6S_s.wav
109,192,4370,1,0,0:0:0:52:C6S_s.wav
402,192,4370,128,0,5270:0:0:0:62:A#6S_Bb6S_s.wav
256,192,4670,128,0,5270:0:0:0:77:A6S_s.wav
182,192,4670,1,0,0:0:0:59:D6S_s.wav
109,192,4970,128,0,5270:0:0:0:65:F#6S_Gb6S_s.wav
36,192,4970,1,0,0:0:0:0:
36,192,5270,1,0,0:0:0:0:
182,192,5270,1,0,0:0:0:0:
475,192,5270,128,0,5570:0:0:0:74:C7S_s.wav
329,192,5270,128,0,5870:0:0:0:50:G4S_s.wav
182,192,5570,128,0,6170:0:0:0:65:A#6S_Bb6S_s.wav
36,192,5570,128,0,6170:0:0:0:64:A#5S_Bb5S_s.wav
475,192,5720,128,0,5870:0:0:0:48:F6S_s.wav
402,192,5870,128,0,6020:0:0:0:59:D#6S_Eb6S_s.wav
329,192,6020,128,0,6170:0:0:0:56:D6S_s.wav
109,192,6170,1,0,0:0:0:52:G5S_s.wav
402,192,6170,128,0,6470:0:0:0:60:D#6S_Eb6S_s.wav
475,192,6170,128,0,6470:0:0:0:61:A#5S_Bb5S_s.wav
329,192,6470,1,0,0:0:0:64:F6S_s.wav
109,192,6470,128,0,6770:0:0:0:57:D#5S_Eb5S_s.wav
36,192,6470,128,0,6770:0:0:0:55:A#4S_Bb4S_s.wav
256,192,6620,1,0,0:0:0:0:
402,192,6770,1,0,0:0:0:64:G#6S_Ab6S_s.wav
329,192,6920,1,0,0:0:0:0:
475,192,7070,128,0,7370:0:0:0:62:G6S_s.wav
182,192,7070,128,0,7220:0:0:0:52:F4S_s.wav
36,192,7070,1,0,0:0:0:0:
256,192,7220,128,0,7370:0:0:0:68:C6S_s.wav
109,192,7370,128,0,7520:0:0:0:77:G#6S_Ab6S_s.wav
402,192,7370,128,0,7970:0:0:0:52:G5S_s.wav
329,192,7370,1,0,0:0:0:65:C5S_s.wav
36,192,7370,1,0,0:0:0:0:
182,192,7520,128,0,7670:0:0:0:62:G6S_s.wav
36,192,7670,128,0,7820:0:0:0:62:D6S_s.wav
256,192,7670,1,0,0:0:0:0:
109,192,7820,128,0,7970:0:0:0:46:C6S_s.wav
475,192,7970,128,0,8720:0:0:0:49:G4S_s.wav
329,192,7970,1,0,0:0:0:54:F5S_s.wav
36,192,7970,1,0,0:0:0:54:D6S_s.wav
329,192,8270,128,0,8720:0:0:0:52:B5S_s.wav
182,192,8270,1,0,0:0:0:0:
182,192,8570,128,0,8720:0:0:0:62:G5S_s.wav
36,192,8570,1,0,0:0:0:0:
402,192,8870,128,0,9470:0:0:0:51:D#6S_Eb6S_s.wav
256,192,8870,128,0,9470:0:0:0:51:G5S_s.wav
36,192,8870,128,0,9170:0:0:0:51:C4S_s.wav
329,192,8870,1,0,0:0:0:0:
475,192,8870,1,0,0:0:0:0:
109,192,9170,128,0,9470:0:0:0:54:D#5S_Eb5S_s.wav
182,192,9470,128,0,10070:0:0:0:48:C6S_s.wav
329,192,9720,128,0,10070:0:0:0:0:
36,192,9770,1,0,0:0:0:61:D6S_s.wav
475,192,9770,128,0,10070:0:0:0:41:F5S_s.wav
256,192,10070,128,0,10370:0:0:0:63:D#6S_Eb6S_s.wav
402,192,10070,128,0,10370:0:0:0:63:G5S_s.wav
109,192,10070,1,0,0:0:0:46:G4S_s.wav
329,192,10370,128,0,10670:0:0:0:63:F6S_s.wav
36,192,10670,128,0,10970:0:0:0:55:C6S_s.wav
182,192,10670,1,0,0:0:0:55:A#4S_Bb4S_s.wav
475,192,10670,1,0,0:0:0:59:G6S_s.wav
475,192,10970,128,0,11270:0:0:0:58:D#6S_Eb6S_s.wav
256,192,10970,1,0,0:0:0:43:A#5S_Bb5S_s.wav
182,192,11270,1,0,0:0:0:70:G6S_s.wav
36,192,11270,1,0,0:0:0:0:
329,192,11270,1,0,0:0:0:0:
329,192,11570,128,0,11870:0:0:0:59:G6S_s.wav
475,192,11570,128,0,11870:0:0:0:61:C6S_s.wav
109,192,11570,1,0,0:0:0:55:A4S_s.wav
256,192,11570,1,0,0:0:0:0:
182,192,11870,128,0,12170:0:0:0:44:F6S_s.wav
36,192,11870,128,0,12170:0:0:0:44:C5S_s.wav
402,192,11870,1,0,0:0:0:0:
256,192,12170,128,0,12470:0:0:0:50:F5S_s.wav
402,192,12470,128,0,12770:0:0:0:41:G#5S_Ab5S_s.wav
475,192,12470,128,0,12770:0:0:0:50:G#4S_Ab4S_s.wav
36,192,12470,1,0,0:0:0:52:F6S_s.wav
182,192,12470,1,0,0:0:0:0:
329,192,12770,128,0,13070:0:0:0:59:D#6S_Eb6S_s.wav
256,192,12770,128,0,13070:0:0:0:50:F5S_s.wav
109,192,12770,1,0,0:0:0:0:
182,192,13070,128,0,13370:0:0:0:65:D6S_s.wav
402,192,13070,1,0,0:0:0:0:
329,192,13370,128,0,13670:0:0:0:63:D#6S_Eb6S_s.wav
475,192,13370,128,0,13670:0:0:0:63:G4S_s.wav
36,192,13370,1,0,0:0:0:0:
109,192,13370,1,0,0:0:0:0:
182,192,13670,128,0,13970:0:0:0:52:D#5S_Eb5S_s.wav
36,192,13670,128,0,13970:0:0:0:52:D6S_s.wav
402,192,13670,1,0,0:0:0:52:C5S_s.wav
256,192,13970,128,0,14270:0:0:0:70:C6S_s.wav
329,192,14270,128,0,14870:0:0:0:62:D6S_s.wav
182,192,14270,1,0,0:0:0:62:D4S_s.wav
36,192,14270,1,0,0:0:0:0:
475,192,14270,1,0,0:0:0:0:
109,192,14570,128,0,15170:0:0:0:67:D#5S_Eb5S_s.wav
402,192,14570,128,0,15170:0:0:0:67:F#4S_Gb4S_s.wav
256,192,14870,128,0,15170:0:0:0:65:C6S_s.wav
36,192,15170,128,0,15320:0:0:0:48:D5S_s.wav
182,192,15170,128,0,15320:0:0:0:48:B5S_s.wav
329,192,15170,1,0,0:0:0:48:G3S_s.wav
475,192,15170,1,0,0:0:0:48:G4S_s.wav
256,192,15470,128,0,15620:0:0:0:47:A3S_s.wav
402,192,15470,1,0,0:0:0:47:C6S_s.wav
109,192,15470,128,0,15620:0:0:0:47:A4S_s.wav
182,192,15770,128,0,15920:0:0:0:47:F5S_s.wav
329,192,15770,128,0,15920:0:0:0:55:D6S_s.wav
402,192,16070,128,0,16670:0:0:0:49:D#6S_Eb6S_s.wav
475,192,16070,128,0,16670:0:0:0:49:G5S_s.wav
36,192,16070,1,0,0:0:0:49:C4S_s.wav
109,192,16070,1,0,0:0:0:0:
256,192,16070,1,0,0:0:0:0:
182,192,16370,1,0,0:0:0:51:D#5S_Eb5S_s.wav
329,192,16370,1,0,0:0:0:51:G4S_s.wav
36,192,16520,128,0,16670:0:0:0:44:C6S_s.wav
109,192,16670,128,0,16820:0:0:0:61:D#6S_Eb6S_s.wav
182,192,16820,128,0,16970:0:0:0:61:G#6S_Ab6S_s.wav
36,192,16970,128,0,17570:0:0:0:59:G6S_s.wav
109,192,16970,128,0,17570:0:0:0:38:F5S_s.wav
329,192,16970,1,0,0:0:0:48:B3S_s.wav
475,192,16970,1,0,0:0:0:44:B5S_s.wav
256,192,17270,128,0,17570:0:0:0:61:F#6S_Gb6S_s.wav
402,192,17270,128,0,17570:0:0:0:61:G5S_s.wav
329,192,17570,128,0,17870:0:0:0:61:G6S_s.wav
475,192,17570,128,0,17870:0:0:0:0:
36,192,17870,128,0,18170:0:0:0:52:A#4S_Bb4S_s.wav
182,192,17870,128,0,18170:0:0:0:56:G6S_s.wav
109,192,17870,1,0,0:0:0:52:C6S_s.wav
402,192,17870,1,0,0:0:0:34:G5S_s.wav
256,192,18170,128,0,18470:0:0:0:51:D#5S_Eb5S_s.wav
402,192,18170,128,0,18470:0:0:0:51:A#5S_Bb5S_s.wav
329,192,18170,1,0,0:0:0:60:C7S_s.wav
109,192,18470,128,0,18770:0:0:0:67:G6S_s.wav
36,192,18470,128,0,18770:0:0:0:0:
475,192,18470,1,0,0:0:0:0:
182,192,18770,1,0,0:0:0:57:G6S_s.wav
256,192,18770,1,0,0:0:0:59:C6S_s.wav
475,192,18770,1,0,0:0:0:52:A4S_s.wav
329,192,18920,128,0,19070:0:0:0:0:
402,192,19070,128,0,19220:0:0:0:42:F6S_s.wav
475,192,19070,128,0,19220:0:0:0:41:C5S_s.wav
329,192,19220,128,0,19370:0:0:0:0:
256,192,19220,128,0,19370:0:0:0:0:
182,192,19370,128,0,19520:0:0:0:48:F5S_s.wav
109,192,19370,128,0,19520:0:0:0:0:
402,192,19520,128,0,19670:0:0:0:0:
475,192,19520,128,0,19670:0:0:0:0:
36,192,19670,128,0,20270:0:0:0:41:G#5S_Ab5S_s.wav
329,192,19670,128,0,19820:0:0:0:50:G#4S_Ab4S_s.wav
256,192,19670,1,0,0:0:0:58:F6S_s.wav
182,192,19820,128,0,19970:0:0:0:38:C6S_s.wav
475,192,19970,128,0,20120:0:0:0:47:F6S_s.wav
329,192,20120,128,0,20270:0:0:0:60:C7S_s.wav
182,192,20270,128,0,20420:0:0:0:77:G#6S_Ab6S_s.wav
36,192,20420,128,0,20570:0:0:0:24:G#4S_Ab4S_s.wav
475,192,20570,128,0,21170:0:0:0:55:D#6S_Eb6S_s.wav
182,192,20570,128,0,20720:0:0:0:48:G4S_s.wav
402,192,20570,1,0,0:0:0:0:
256,192,20570,1,0,0:0:0:0:
329,192,20720,128,0,20870:0:0:0:49:C6S_s.wav
36,192,20870,128,0,21020:0:0:0:54:D#6S_Eb6S_s.wav
182,192,21020,128,0,21170:0:0:0:59:C7S_s.wav
329,192,21170,128,0,21320:0:0:0:74:G6S_s.wav
475,192,21320,128,0,21470:0:0:0:72:D6S_s.wav
36,192,21470,128,0,22070:0:0:0:64:C6S_s.wav
109,192,21470,128,0,22070:0:0:0:58:G3S_s.wav
256,192,21470,128,0,21620:0:0:0:0:
182,192,21470,1,0,0:0:0:0:
402,192,21620,128,0,21770:0:0:0:55:G5S_s.wav
182,192,21770,128,0,21920:0:0:0:64:D#5S_Eb5S_s.wav
475,192,21770,1,0,0:0:0:52:C6S_s.wav
329,192,21920,128,0,22070:0:0:0:80:G6S_s.wav
256,192,22070,128,0,22220:0:0:0:68:D6S_s.wav
402,192,22070,1,0,0:0:0:68:D5S_s.wav
182,192,22220,128,0,22370:0:0:0:61:B5S_s.wav
475,192,22370,128,0,22670:0:0:0:63:C6S_s.wav
329,192,22370,128,0,22670:0:0:0:60:C4S_s.wav
109,192,22370,1,0,0:0:0:0:
36,192,22520,128,0,22670:0:0:0:64:C7S_s.wav
256,192,22670,128,0,22970:0:0:0:74:G6S_s.wav
402,192,22670,128,0,22970:0:0:0:51:G5S_s.wav
109,192,22820,128,0,22970:0:0:0:72:C7S_s.wav
329,192,22970,128,0,23270:0:0:0:50:E5S_s.wav
475,192,22970,128,0,23270:0:0:0:44:G5S_s.wav
182,192,23120,128,0,23270:0:0:0:76:C7S_s.wav
36,192,23270,128,0,23870:0:0:0:70:cymbol.wav
109,192,23270,1,0,0:0:0:68:C6S_s.wav
402,192,23270,1,0,0:0:0:0:
329,192,23420,128,0,23570:0:0:0:61:C7S_s.wav
256,192,23420,1,0,0:0:0:0:
182,192,23570,128,0,23870:0:0:0:63:A#6S_Bb6S_s.wav
109,192,23570,1,0,0:0:0:59:D#5S_Eb5S_s.wav
475,192,23720,128,0,23870:0:0:0:54:C7S_s.wav
402,192,23720,1,0,0:0:0:0:
329,192,23870,128,0,24170:0:0:0:58:G#5S_Ab5S_s.wav
256,192,23870,1,0,0:0:0:65:C5S_s.wav
36,192,24020,128,0,24170:0:0:0:55:C7S_s.wav
109,192,24020,1,0,0:0:0:0:
402,192,24170,128,0,24470:0:0:0:70:G3S_s.wav
475,192,24170,1,0,0:0:0:59:G6S_s.wav
256,192,24170,1,0,0:0:0:0:
109,192,24320,128,0,24470:0:0:0:52:C7S_s.wav
182,192,24320,1,0,0:0:0:0:
256,192,24470,128,0,24770:0:0:0:69:F6S_s.wav
329,192,24470,1,0,0:0:0:62:G4S_s.wav
402,192,24620,128,0,24770:0:0:0:51:C7S_s.wav
475,192,24620,1,0,0:0:0:0:
109,192,24770,128,0,25070:0:0:0:65:D#5S_Eb5S_s.wav
36,192,24770,1,0,0:0:0:77:D#6S_Eb6S_s.wav
256,192,24920,128,0,25070:0:0:0:73:C7S_s.wav
182,192,24920,1,0,0:0:0:0:
475,192,25070,128,0,25520:0:0:0:70:big bass.wav
402,192,25070,1,0,0:0:0:72:D6S_s.wav
36,192,25070,1,0,0:0:0:63:G3S_s.wav
329,192,25220,128,0,25520:0:0:0:63:B6S_s.wav
256,192,25220,1,0,0:0:0:0:
36,192,25370,128,0,25670:0:0:0:49:D#6S_Eb6S_s.wav
109,192,25370,1,0,0:0:0:54:F5S_s.wav
182,192,25520,128,0,25670:0:0:0:70:big bass.wav
256,192,25520,1,0,0:0:0:60:B6S_s.wav
402,192,25670,128,0,25970:0:0:0:55:F5S_s.wav
475,192,25670,1,0,0:0:0:59:B5S_s.wav
256,192,25820,128,0,25970:0:0:0:70:big bass.wav
329,192,25820,1,0,0:0:0:59:B6S_s.wav
109,192,25970,1,0,0:0:0:66:C4S_s.wav
475,192,25970,1,0,0:0:0:74:G6S_s.wav
36,192,25970,128,0,26270:0:0:0:70:big bass.wav
182,192,26120,128,0,26270:0:0:0:59:C7S_s.wav
402,192,26120,1,0,0:0:0:0:
256,192,26270,128,0,26420:0:0:0:64:E6S_s.wav
329,192,26270,1,0,0:0:0:44:G5S_s.wav
182,192,26420,128,0,26570:0:0:0:58:G6S_s.wav
402,192,26570,128,0,26870:0:0:0:82:C#7S_Db7S_s.wav
36,192,26570,1,0,0:0:0:51:C6S_s.wav
329,192,26720,128,0,26870:0:0:0:63:C7S_s.wav
109,192,26720,1,0,0:0:0:0:
182,192,26870,1,0,0:0:0:70:cymbol.wav
475,192,26870,1,0,0:0:0:68:C6S_s.wav
36,192,26870,128,0,27470:0:0:0:61:F3S_s.wav
256,192,27020,128,0,27170:0:0:0:61:C7S_s.wav
329,192,27020,1,0,0:0:0:0:
109,192,27170,128,0,27470:0:0:0:54:A#5S_Bb5S_s.wav
475,192,27170,1,0,0:0:0:59:D#5S_Eb5S_s.wav
329,192,27320,128,0,27470:0:0:0:54:C7S_s.wav
402,192,27320,1,0,0:0:0:0:
182,192,27470,128,0,27770:0:0:0:62:G#6S_Ab6S_s.wav
256,192,27470,1,0,0:0:0:58:D#5S_Eb5S_s.wav
402,192,27620,128,0,27770:0:0:0:55:C7S_s.wav
475,192,27620,1,0,0:0:0:0:
475,192,27770,128,0,28370:0:0:0:70:big bass.wav
36,192,27770,1,0,0:0:0:70:G3S_s.wav
109,192,27770,1,0,0:0:0:59:G6S_s.wav
256,192,27920,1,0,0:0:0:52:C7S_s.wav
329,192,27920,128,0,28070:0:0:0:0:
402,192,28070,128,0,28370:0:0:0:69:F6S_s.wav
36,192,28070,1,0,0:0:0:62:G4S_s.wav
256,192,28220,128,0,28370:0:0:0:51:C7S_s.wav
182,192,28220,1,0,0:0:0:0:
329,192,28370,128,0,28670:0:0:0:77:D#6S_Eb6S_s.wav
36,192,28370,1,0,0:0:0:47:A#4S_Bb4S_s.wav
182,192,28520,128,0,28670:0:0:0:73:C7S_s.wav
109,192,28520,1,0,0:0:0:0:
36,192,28670,128,0,28970:0:0:0:70:big bass.wav
475,192,28670,128,0,28970:0:0:0:72:D6S_s.wav
182,192,28820,128,0,28970:0:0:0:63:B6S_s.wav
329,192,28820,128,0,28970:0:0:0:0:
256,192,28970,128,0,29270:0:0:0:59:D#5S_Eb5S_s.wav
36,192,29120,128,0,29270:0:0:0:70:big bass.wav
475,192,29120,128,0,29270:0:0:0:60:B6S_s.wav
109,192,29270,128,0,29570:0:0:0:70:D6S_s.wav
402,192,29270,128,0,29570:0:0:0:55:F4S_s.wav
182,192,29420,128,0,29570:0:0:0:70:big bass.wav
329,192,29420,128,0,29570:0:0:0:59:B6S_s.wav
256,192,29570,1,0,0:0:0:0:
36,192,29570,128,0,29870:0:0:0:70:big bass.wav
475,192,29570,128,0,29870:0:0:0:75:C4S_s.wav
256,192,29720,128,0,29870:0:0:0:64:G6S_s.wav
109,192,29870,128,0,30170:0:0:0:74:C7S_s.wav
402,192,29870,128,0,30170:0:0:0:62:E5S_s.wav
182,192,30020,128,0,30170:0:0:0:72:C8S_s.wav
329,192,30020,128,0,30170:0:0:0:0:
36,192,30170,128,0,30470:0:0:0:70:big bass.wav
475,192,30170,128,0,30470:0:0:0:61:C6S_s.wav
256,192,30320,128,0,30470:0:0:0:70:big bass.wav
329,192,30470,128,0,30620:0:0:0:70:cymbol.wav
402,192,30470,128,0,30620:0:0:0:68:C7S_s.wav
182,192,30620,128,0,30770:0:0:0:61:C8S_s.wav
109,192,30620,128,0,30770:0:0:0:0:
36,192,30620,1,0,0:0:0:0:
402,192,30770,128,0,30920:0:0:0:54:A#6S_Bb6S_s.wav
475,192,30770,128,0,30920:0:0:0:59:D#6S_Eb6S_s.wav
329,192,30770,1,0,0:0:0:0:
109,192,30920,1,0,0:0:0:0:
256,192,30920,128,0,31070:0:0:0:54:C8S_s.wav
182,192,30920,128,0,31070:0:0:0:0:
402,192,31070,128,0,31220:0:0:0:62:G#7S_Ab7S_s.wav
475,192,31070,128,0,31220:0:0:0:51:C6S_s.wav
329,192,31220,128,0,31370:0:0:0:55:C8S_s.wav
256,192,31220,128,0,31370:0:0:0:0:
182,192,31370,128,0,31520:0:0:0:51:G4S_s.wav
36,192,31370,1,0,0:0:0:59:G7S_s.wav
109,192,31370,128,0,31520:0:0:0:70:big bass.wav
475,192,31520,1,0,0:0:0:0:
329,192,31520,128,0,31670:0:0:0:52:C8S_s.wav
402,192,31520,128,0,31670:0:0:0:0:
182,192,31670,1,0,0:0:0:0:
36,192,31670,128,0,31820:0:0:0:69:F7S_s.wav
109,192,31670,128,0,31820:0:0:0:48:G5S_s.wav
256,192,31820,128,0,31970:0:0:0:51:C8S_s.wav
329,192,31820,128,0,31970:0:0:0:0:
402,192,31820,1,0,0:0:0:0:
36,192,31970,128,0,32120:0:0:0:51:D#6S_Eb6S_s.wav
109,192,31970,128,0,32120:0:0:0:77:D#7S_Eb7S_s.wav
182,192,32120,128,0,32270:0:0:0:73:C8S_s.wav
256,192,32120,128,0,32270:0:0:0:0:
329,192,32270,128,0,32420:0:0:0:70:big bass.wav
475,192,32270,128,0,32420:0:0:0:72:D7S_s.wav
402,192,32270,1,0,0:0:0:0:
36,192,32420,128,0,32570:0:0:0:63:B7S_s.wav
182,192,32420,128,0,32570:0:0:0:0:
109,192,32420,1,0,0:0:0:0:
256,192,32570,128,0,32720:0:0:0:66:D#7S_Eb7S_s.wav
402,192,32570,128,0,32720:0:0:0:40:F5S_s.wav
329,192,32570,1,0,0:0:0:57:B5S_s.wav
109,192,32720,128,0,32870:0:0:0:70:big bass.wav
36,192,32720,128,0,32870:0:0:0:60:B7S_s.wav
182,192,32720,1,0,0:0:0:0:
329,192,32870,128,0,33020:0:0:0:70:big bass.wav
475,192,32870,128,0,33020:0:0:0:41:F5S_s.wav
182,192,33020,128,0,33170:0:0:0:70:big bass.wav
36,192,33020,128,0,33170:0:0:0:59:B7S_s.wav
475,192,33170,128,0,33320:0:0:0:70:big bass.wav
109,192,33170,1,0,0:0:0:66:C5S_s.wav
402,192,33170,1,0,0:0:0:74:G7S_s.wav
329,192,33320,128,0,33470:0:0:0:59:C8S_s.wav
256,192,33320,1,0,0:0:0:0:
402,192,33470,128,0,33695:0:0:0:51:C#7S_Db7S_s.wav
475,192,33470,128,0,33695:0:0:0:64:E7S_s.wav
36,192,33470,1,0,0:0:0:55:E6S_s.wav
182,192,33470,1,0,0:0:0:0:
109,192,33770,128,0,33995:0:0:0:51:C7S_s.wav
36,192,33770,128,0,33995:0:0:0:59:C#8S_Db8S_s.wav
475,192,33770,1,0,0:0:0:0:
329,192,33770,1,0,0:0:0:47:E6S_s.wav
402,192,34070,128,0,34370:0:0:0:70:cymbol.wav
36,192,34070,1,0,0:0:0:68:C7S_s.wav
475,192,34070,1,0,0:0:0:61:F5S_s.wav
109,192,34070,128,0,34220:0:0:0:0:
256,192,34220,128,0,34370:0:0:0:61:C8S_s.wav
475,192,34370,128,0,34670:0:0:0:54:A#6S_Bb6S_s.wav
182,192,34370,1,0,0:0:0:63:A#7S_Bb7S_s.wav
36,192,34370,128,0,34520:0:0:0:62:C6S_s.wav
329,192,34520,128,0,34670:0:0:0:54:C8S_s.wav
402,192,34670,128,0,34970:0:0:0:41:G#6S_Ab6S_s.wav
256,192,34670,1,0,0:0:0:62:G#7S_Ab7S_s.wav
109,192,34670,128,0,34820:0:0:0:48:C6S_s.wav
475,192,34820,128,0,34970:0:0:0:55:C8S_s.wav
256,192,34970,128,0,35270:0:0:0:70:big bass.wav
182,192,34970,1,0,0:0:0:59:G7S_s.wav
329,192,34970,1,0,0:0:0:70:G4S_s.wav
36,192,34970,128,0,35120:0:0:0:0:
402,192,35120,128,0,35270:0:0:0:52:C8S_s.wav
182,192,35270,128,0,35570:0:0:0:59:A#5S_Bb5S_s.wav
36,192,35270,1,0,0:0:0:65:F6S_s.wav
475,192,35270,128,0,35420:0:0:0:69:F7S_s.wav
329,192,35420,128,0,35570:0:0:0:51:C8S_s.wav
256,192,35570,1,0,0:0:0:77:D#7S_Eb7S_s.wav
36,192,35570,1,0,0:0:0:63:A#5S_Bb5S_s.wav
109,192,35570,128,0,35870:0:0:0:65:D#6S_Eb6S_s.wav
475,192,35570,128,0,35720:0:0:0:0:
402,192,35720,128,0,35870:0:0:0:73:C8S_s.wav
36,192,35870,128,0,36170:0:0:0:70:big bass.wav
182,192,35870,1,0,0:0:0:72:D7S_s.wav
329,192,35870,1,0,0:0:0:63:G4S_s.wav
475,192,35870,128,0,36170:0:0:0:0:
256,192,36020,128,0,36170:0:0:0:63:B7S_s.wav
182,192,36170,128,0,36620:0:0:0:59:D#6S_Eb6S_s.wav
402,192,36170,1,0,0:0:0:66:G7S_s.wav
109,192,36170,1,0,0:0:0:71:B5S_s.wav
329,192,36320,1,0,0:0:0:70:big bass.wav
36,192,36470,1,0,0:0:0:70:D6S_s.wav
475,192,36470,1,0,0:0:0:55:F5S_s.wav
256,192,36470,1,0,0:0:0:70:D#7S_Eb7S_s.wav
109,192,36620,128,0,36770:0:0:0:70:big bass.wav
402,192,36620,1,0,0:0:0:59:D7S_s.wav
36,192,36770,128,0,37520:0:0:0:51:D#6S_Eb6S_s.wav
329,192,36770,1,0,0:0:0:54:G6S_s.wav
182,192,36920,128,0,37370:0:0:0:63:A#6S_Bb6S_s.wav
402,192,36920,1,0,0:0:0:0:
329,192,37070,128,0,37220:0:0:0:55:F6S_s.wav
475,192,37070,1,0,0:0:0:0:
475,192,37220,128,0,37670:0:0:0:61:D#6S_Eb6S_s.wav
329,192,37370,128,0,37670:0:0:0:52:D6S_s.wav
182,192,37520,128,0,37670:0:0:0:66:D#6S_Eb6S_s.wav
256,192,37670,1,0,0:0:0:68:D#4S_Eb4S_s.wav
402,192,37670,1,0,0:0:0:74:A#6S_Bb6S_s.wav
36,192,37670,1,0,0:0:0:0:
109,192,37670,1,0,0:0:0:0:
36,192,37970,128,0,38270:0:0:0:62:D#6S_Eb6S_s.wav
182,192,37970,128,0,38270:0:0:0:64:A#4S_Bb4S_s.wav
402,192,37970,1,0,0:0:0:0:
256,192,38120,1,0,0:0:0:68:A#5S_Bb5S_s.wav
475,192,38270,128,0,38570:0:0:0:0:
109,192,38270,1,0,0:0:0:0:
329,192,38270,128,0,38570:0:0:0:58:D#6S_Eb6S_s.wav
182,192,38420,1,0,0:0:0:65:A#6S_Bb6S_s.wav
256,192,38570,128,0,38720:0:0:0:75:G#6S_Ab6S_s.wav
402,192,38570,128,0,38720:0:0:0:64:D4S_s.wav
36,192,38570,1,0,0:0:0:0:
182,192,38870,128,0,39020:0:0:0:56:G#4S_Ab4S_s.wav
329,192,38870,1,0,0:0:0:0:
36,192,38870,128,0,39020:0:0:0:56:A#4S_Bb4S_s.wav
475,192,39170,128,0,39320:0:0:0:0:
109,192,39170,1,0,0:0:0:0:
329,192,39170,128,0,39320:0:0:0:55:D6S_s.wav
256,192,39320,128,0,39470:0:0:0:65:G#6S_Ab6S_s.wav
402,192,39470,128,0,39620:0:0:0:74:G6S_s.wav
475,192,39470,128,0,39620:0:0:0:64:C4S_s.wav
182,192,39470,1,0,0:0:0:0:
109,192,39620,128,0,39770:0:0:0:59:A#5S_Bb5S_s.wav
36,192,39620,128,0,39770:0:0:0:0:
329,192,39770,128,0,39920:0:0:0:70:G#6S_Ab6S_s.wav
475,192,39770,128,0,39920:0:0:0:56:G5S_s.wav
36,192,39920,128,0,40070:0:0:0:61:G6S_s.wav
182,192,39920,128,0,40070:0:0:0:0:
256,192,40070,128,0,40220:0:0:0:72:D#6S_Eb6S_s.wav
402,192,40070,128,0,40220:0:0:0:62:F5S_s.wav
475,192,40070,1,0,0:0:0:0:
36,192,40220,1,0,0:0:0:69:F6S_s.wav
109,192,40270,1,0,0:0:0:68:D#6S_Eb6S_s.wav
182,192,40320,1,0,0:0:0:67:F6S_s.wav
329,192,40370,1,0,0:0:0:64:A#3S_Bb3S_s.wav
475,192,40370,1,0,0:0:0:77:D#6S_Eb6S_s.wav
256,192,40370,1,0,0:0:0:0:
402,192,40370,1,0,0:0:0:0:
475,192,40670,128,0,40970:0:0:0:62:D#5S_Eb5S_s.wav
402,192,40670,128,0,40970:0:0:0:62:F5S_s.wav
182,192,40670,1,0,0:0:0:66:D6S_s.wav
36,192,40670,1,0,0:0:0:0:
36,192,40970,128,0,41270:0:0:0:61:A#4S_Bb4S_s.wav
109,192,40970,128,0,41270:0:0:0:52:F5S_s.wav
329,192,40970,1,0,0:0:0:67:D5S_s.wav
402,192,41270,1,0,0:0:0:66:G#3S_Ab3S_s.wav
475,192,41270,1,0,0:0:0:0:
182,192,41270,128,0,41570:0:0:0:66:D#6S_Eb6S_s.wav
329,192,41420,128,0,41870:0:0:0:0:
36,192,41570,128,0,41870:0:0:0:69:D#5S_Eb5S_s.wav
182,192,41720,128,0,41870:0:0:0:55:D#6S_Eb6S_s.wav
475,192,41870,128,0,42170:0:0:0:69:A#6S_Bb6S_s.wav
256,192,41870,1,0,0:0:0:0:
109,192,42170,128,0,42620:0:0:0:70:D#6S_Eb6S_s.wav
36,192,42170,1,0,0:0:0:56:G3S_s.wav
402,192,42170,1,0,0:0:0:0:
329,192,42170,1,0,0:0:0:0:
256,192,42320,128,0,42620:0:0:0:0:
36,192,42470,128,0,42620:0:0:0:70:A#5S_Bb5S_s.wav
182,192,42620,128,0,42920:0:0:0:60:F6S_s.wav
329,192,42770,128,0,42920:0:0:0:65:D#6S_Eb6S_s.wav
475,192,42920,128,0,43070:0:0:0:75:A#6S_Bb6S_s.wav
402,192,43070,128,0,43220:0:0:0:74:F6S_s.wav
36,192,43070,1,0,0:0:0:63:F4S_s.wav
256,192,43070,1,0,0:0:0:0:
182,192,43220,128,0,43370:0:0:0:52:A5S_s.wav
256,192,43370,128,0,43520:0:0:0:65:F5S_s.wav
36,192,43370,1,0,0:0:0:59:C6S_s.wav
475,192,43520,128,0,43670:0:0:0:70:F6S_s.wav
402,192,43595,128,0,43670:0:0:0:0:
329,192,43670,128,0,43820:0:0:0:79:F6S_s.wav
109,192,43670,1,0,0:0:0:0:
256,192,43820,128,0,43970:0:0:0:76:D#6S_Eb6S_s.wav
36,192,43970,128,0,44270:0:0:0:62:G3S_s.wav
182,192,43970,128,0,44270:0:0:0:74:D6S_s.wav
402,192,43970,1,0,0:0:0:0:
475,192,43970,1,0,0:0:0:0:
329,192,44120,1,0,0:0:0:51:G5S_s.wav
109,192,44270,128,0,44420:0:0:0:66:D#5S_Eb5S_s.wav
256,192,44270,128,0,44420:0:0:0:70:B5S_s.wav
475,192,44270,1,0,0:0:0:0:
402,192,44420,1,0,0:0:0:62:G5S_s.wav
182,192,44570,128,0,44720:0:0:0:81:G#6S_Ab6S_s.wav
329,192,44570,128,0,44720:0:0:0:56:D5S_s.wav
475,192,44570,128,0,44870:0:0:0:0:
36,192,44570,1,0,0:0:0:0:
256,192,44720,128,0,44870:0:0:0:69:F#6S_Gb6S_s.wav
109,192,44720,1,0,0:0:0:0:
402,192,44870,1,0,0:0:0:66:G5S_s.wav
36,192,44870,128,0,45470:0:0:0:66:G6S_s.wav
182,192,44870,1,0,0:0:0:66:C4S_s.wav
329,192,45020,1,0,0:0:0:77:C6S_s.wav
256,192,45170,1,0,0:0:0:81:D#7S_Eb7S_s.wav
109,192,45170,1,0,0:0:0:69:D#5S_Eb5S_s.wav
475,192,45170,128,0,46070:0:0:0:69:G4S_s.wav
402,192,45320,1,0,0:0:0:66:G6S_s.wav
329,192,45470,1,0,0:0:0:73:C6S_s.wav
256,192,45620,1,0,0:0:0:72:D#7S_Eb7S_s.wav
36,192,45770,128,0,46670:0:0:0:92:D7S_s.wav
182,192,45770,1,0,0:0:0:62:B5S_s.wav
402,192,45770,1,0,0:0:0:65:B3S_s.wav
109,192,45770,1,0,0:0:0:0:
329,192,45920,1,0,0:0:0:65:G6S_s.wav
256,192,46070,1,0,0:0:0:77:D6S_s.wav
182,192,46220,1,0,0:0:0:69:D7S_s.wav
402,192,46370,1,0,0:0:0:0:
475,192,46370,128,0,46520:0:0:0:86:G6S_s.wav
109,192,46370,1,0,0:0:0:0:
329,192,46520,1,0,0:0:0:77:D6S_s.wav
256,192,46670,1,0,0:0:0:70:A#4S_Bb4S_s.wav
475,192,46670,128,0,47270:0:0:0:74:G6S_s.wav
109,192,46670,1,0,0:0:0:51:G5S_s.wav
182,192,46670,1,0,0:0:0:0:
329,192,46820,1,0,0:0:0:70:C6S_s.wav
36,192,46970,128,0,47870:0:0:0:74:D#6S_Eb6S_s.wav
402,192,46970,1,0,0:0:0:69:A#5S_Bb5S_s.wav
182,192,46970,1,0,0:0:0:74:C7S_s.wav
256,192,47120,1,0,0:0:0:69:G6S_s.wav
329,192,47270,1,0,0:0:0:66:C6S_s.wav
402,192,47420,1,0,0:0:0:73:C7S_s.wav
475,192,47570,128,0,48470:0:0:0:70:A4S_s.wav
109,192,47570,1,0,0:0:0:85:G6S_s.wav
256,192,47570,1,0,0:0:0:0:
182,192,47720,1,0,0:0:0:70:C6S_s.wav
256,192,47870,1,0,0:0:0:77:C7S_s.wav
329,192,48020,1,0,0:0:0:85:F6S_s.wav
402,192,48170,1,0,0:0:0:63:C6S_s.wav
36,192,48170,1,0,0:0:0:65:F5S_s.wav
109,192,48320,1,0,0:0:0:64:C7S_s.wav
182,192,48470,1,0,0:0:0:56:G#5S_Ab5S_s.wav
256,192,48470,1,0,0:0:0:65:G#4S_Ab4S_s.wav
329,192,48470,1,0,0:0:0:73:F6S_s.wav
36,192,48470,128,0,49070:0:0:0:0:
402,192,48620,1,0,0:0:0:52:C6S_s.wav
329,192,48770,1,0,0:0:0:62:F6S_s.wav
182,192,48770,128,0,49070:0:0:0:65:F5S_s.wav
475,192,48920,1,0,0:0:0:75:C7S_s.wav
402,192,49070,128,0,49220:0:0:0:81:G#6S_Ab6S_s.wav
109,192,49220,128,0,49370:0:0:0:59:C6S_s.wav
256,192,49370,1,0,0:0:0:70:D#6S_Eb6S_s.wav
182,192,49370,1,0,0:0:0:63:G4S_s.wav
329,192,49370,1,0,0:0:0:0:
475,192,49370,128,0,49970:0:0:0:0:
109,192,49520,1,0,0:0:0:64:C6S_s.wav
182,192,49670,1,0,0:0:0:69:D#6S_Eb6S_s.wav
329,192,49670,128,0,49970:0:0:0:52:C5S_s.wav
36,192,49820,1,0,0:0:0:65:C7S_s.wav
109,192,49970,128,0,50120:0:0:0:77:G6S_s.wav
402,192,50120,128,0,50270:0:0:0:65:D6S_s.wav
182,192,50270,1,0,0:0:0:74:C6S_s.wav
329,192,50270,1,0,0:0:0:77:G3S_s.wav
256,192,50270,1,0,0:0:0:0:
109,192,50420,1,0,0:0:0:55:G5S_s.wav
36,192,50420,1,0,0:0:0:0:
402,192,50570,1,0,0:0:0:64:F4S_s.wav
256,192,50570,1,0,0:0:0:64:B4S_s.wav
329,192,50570,1,0,0:0:0:0:
36,192,50720,1,0,0:0:0:0:
182,192,50720,1,0,0:0:0:80:G6S_s.wav
109,192,50720,1,0,0:0:0:0:
329,192,50870,1,0,0:0:0:68:D6S_s.wav
402,192,50870,1,0,0:0:0:68:D5S_s.wav
475,192,50870,1,0,0:0:0:68:F4S_s.wav
256,192,51020,1,0,0:0:0:61:B5S_s.wav
182,192,51020,1,0,0:0:0:0:
109,192,51020,1,0,0:0:0:0:
36,192,51170,1,0,0:0:0:75:C4S_s.wav
475,192,51170,1,0,0:0:0:77:C6S_s.wav
402,192,51170,1,0,0:0:0:0:
329,192,51320,1,0,0:0:0:64:C7S_s.wav
182,192,51320,1,0,0:0:0:0:
109,192,51470,1,0,0:0:0:68:C#6S_Db6S_s.wav
36,192,51470,1,0,0:0:0:74:G6S_s.wav
402,192,51470,1,0,0:0:0:70:E5S_s.wav
475,192,51470,1,0,0:0:0:77:C3S_s.wav
182,192,51620,1,0,0:0:0:72:C7S_s.wav
329,192,51620,1,0,0:0:0:0:
256,192,51620,1,0,0:0:0:0:
109,192,51770,1,0,0:0:0:52:C6S_s.wav
36,192,51770,1,0,0:0:0:77:G6S_s.wav
475,192,51770,1,0,0:0:0:52:E5S_s.wav
402,192,51770,1,0,0:0:0:48:G5S_s.wav
256,192,51920,1,0,0:0:0:73:C7S_s.wav
36,192,52070,128,0,52670:0:0:0:68:C6S_s.wav
329,192,52070,1,0,0:0:0:76:F3S_s.wav
475,192,52070,1,0,0:0:0:0:
182,192,52220,128,0,52370:0:0:0:61:C7S_s.wav
256,192,52220,1,0,0:0:0:0:
109,192,52370,128,0,52970:0:0:0:63:A#6S_Bb6S_s.wav
402,192,52370,1,0,0:0:0:59:D#5S_Eb5S_s.wav
475,192,52370,1,0,0:0:0:0:
256,192,52520,128,0,52670:0:0:0:54:C7S_s.wav
329,192,52520,1,0,0:0:0:0:
182,192,52670,128,0,53270:0:0:0:62:G#6S_Ab6S_s.wav
475,192,52670,1,0,0:0:0:62:D#5S_Eb5S_s.wav
402,192,52820,128,0,52970:0:0:0:55:C7S_s.wav
329,192,52820,1,0,0:0:0:0:
475,192,52970,128,0,53570:0:0:0:70:G3S_s.wav
36,192,52970,1,0,0:0:0:59:G6S_s.wav
329,192,53120,128,0,53270:0:0:0:52:C7S_s.wav
256,192,53120,1,0,0:0:0:0:
402,192,53270,128,0,53870:0:0:0:69:F6S_s.wav
36,192,53270,1,0,0:0:0:65:F5S_s.wav
109,192,53270,1,0,0:0:0:0:
256,192,53420,128,0,53570:0:0:0:51:C7S_s.wav
182,192,53420,1,0,0:0:0:0:
329,192,53570,128,0,54170:0:0:0:63:A#4S_Bb4S_s.wav
36,192,53570,1,0,0:0:0:77:D#6S_Eb6S_s.wav
182,192,53720,128,0,53870:0:0:0:73:C7S_s.wav
109,192,53720,1,0,0:0:0:0:
36,192,53870,128,0,54170:0:0:0:72:D6S_s.wav
475,192,53870,1,0,0:0:0:63:G3S_s.wav
402,192,54020,1,0,0:0:0:63:B6S_s.wav
182,192,54170,128,0,54770:0:0:0:54:B5S_s.wav
475,192,54170,1,0,0:0:0:54:F5S_s.wav
256,192,54320,1,0,0:0:0:60:B6S_s.wav
329,192,54470,128,0,54770:0:0:0:52:F6S_s.wav
36,192,54470,128,0,54770:0:0:0:55:F5S_s.wav
402,192,54470,1,0,0:0:0:52:D6S_s.wav
475,192,54470,1,0,0:0:0:0:
256,192,54620,1,0,0:0:0:59:B6S_s.wav
475,192,54770,128,0,55520:0:0:0:66:C4S_s.wav
109,192,54770,1,0,0:0:0:74:G6S_s.wav
402,192,54770,1,0,0:0:0:0:
182,192,54920,1,0,0:0:0:59:C7S_s.wav
256,192,55070,128,0,55220:0:0:0:51:C#6S_Db6S_s.wav
36,192,55070,1,0,0:0:0:55:E5S_s.wav
109,192,55220,1,0,0:0:0:58:G6S_s.wav
329,192,55370,128,0,55520:0:0:0:75:C#7S_Db7S_s.wav
182,192,55370,1,0,0:0:0:51:C6S_s.wav
402,192,55370,1,0,0:0:0:48:G5S_s.wav
256,192,55520,1,0,0:0:0:63:C7S_s.wav
109,192,55520,1,0,0:0:0:0:
475,192,55670,128,0,56270:0:0:0:61:F3S_s.wav
182,192,55670,1,0,0:0:0:68:C6S_s.wav
36,192,55670,1,0,0:0:0:0:
329,192,55820,128,0,55970:0:0:0:61:C7S_s.wav
256,192,55820,1,0,0:0:0:0:
36,192,55970,1,0,0:0:0:0:
402,192,55970,128,0,56570:0:0:0:59:D#5S_Eb5S_s.wav
109,192,55970,1,0,0:0:0:54:A#5S_Bb5S_s.wav
256,192,56120,128,0,56270:0:0:0:54:C7S_s.wav
182,192,56120,1,0,0:0:0:0:
329,192,56270,128,0,56870:0:0:0:58:D#5S_Eb5S_s.wav
36,192,56270,1,0,0:0:0:54:G#5S_Ab5S_s.wav
109,192,56420,128,0,56570:0:0:0:55:C7S_s.wav
182,192,56420,1,0,0:0:0:0:
36,192,56570,128,0,57170:0:0:0:59:G6S_s.wav
475,192,56570,1,0,0:0:0:70:G3S_s.wav
182,192,56720,128,0,56870:0:0:0:52:C7S_s.wav
256,192,56720,1,0,0:0:0:0:
109,192,56870,128,0,57470:0:0:0:59:A#4S_Bb4S_s.wav
475,192,56870,1,0,0:0:0:69:F6S_s.wav
402,192,56870,1,0,0:0:0:0:
256,192,57020,128,0,57170:0:0:0:51:C7S_s.wav
329,192,57020,1,0,0:0:0:0:
182,192,57170,128,0,57770:0:0:0:47:A#4S_Bb4S_s.wav
475,192,57170,1,0,0:0:0:47:G4S_s.wav
329,192,57320,128,0,57470:0:0:0:73:C7S_s.wav
402,192,57320,1,0,0:0:0:0:
475,192,57470,128,0,58370:0:0:0:63:G3S_s.wav
36,192,57470,1,0,0:0:0:72:D6S_s.wav
109,192,57620,1,0,0:0:0:63:B6S_s.wav
329,192,57770,128,0,58070:0:0:0:66:D#6S_Eb6S_s.wav
256,192,57770,1,0,0:0:0:54:F4S_s.wav
402,192,57770,1,0,0:0:0:71:B4S_s.wav
36,192,57770,1,0,0:0:0:0:
182,192,57920,1,0,0:0:0:60:B6S_s.wav
109,192,58070,128,0,58370:0:0:0:55:F4S_s.wav
36,192,58070,1,0,0:0:0:59:B4S_s.wav
402,192,58070,1,0,0:0:0:52:D5S_s.wav
329,192,58220,1,0,0:0:0:59:B6S_s.wav
36,192,58370,1,0,0:0:0:0:
182,192,58370,1,0,0:0:0:75:C4S_s.wav
402,192,58370,1,0,0:0:0:0:
256,192,58370,128,0,58520:0:0:0:0:
329,192,58520,128,0,58670:0:0:0:64:G6S_s.wav
109,192,58520,1,0,0:0:0:0:
402,192,58670,128,0,58820:0:0:0:60:C#6S_Db6S_s.wav
182,192,58670,1,0,0:0:0:74:C7S_s.wav
475,192,58820,128,0,59270:0:0:0:72:C8S_s.wav
256,192,58820,1,0,0:0:0:0:
402,192,58970,128,0,59270:0:0:0:61:C6S_s.wav
182,192,58970,1,0,0:0:0:77:G7S_s.wav
329,192,59120,128,0,59270:0:0:0:83:G6S_s.wav
182,192,59270,1,0,0:0:0:68:C7S_s.wav
109,192,59270,1,0,0:0:0:61:F4S_s.wav
36,192,59270,128,0,60020:0:0:0:0:
329,192,59420,1,0,0:0:0:61:C8S_s.wav
402,192,59420,1,0,0:0:0:0:
182,192,59570,1,0,0:0:0:54:A#6S_Bb6S_s.wav
109,192,59570,1,0,0:0:0:63:A#7S_Bb7S_s.wav
256,192,59570,128,0,59870:0:0:0:59:D#6S_Eb6S_s.wav
475,192,59720,1,0,0:0:0:54:C8S_s.wav
402,192,59720,128,0,59870:0:0:0:0:
109,192,59870,1,0,0:0:0:44:G#6S_Ab6S_s.wav
182,192,59870,128,0,60170:0:0:0:62:G#7S_Ab7S_s.wav
475,192,60020,1,0,0:0:0:55:C8S_s.wav
329,192,60020,128,0,60170:0:0:0:0:
402,192,60170,1,0,0:0:0:51:G4S_s.wav
256,192,60170,128,0,60470:0:0:0:59:G7S_s.wav
475,192,60170,128,0,60920:0:0:0:0:
36,192,60170,1,0,0:0:0:0:
109,192,60320,128,0,60470:0:0:0:52:C8S_s.wav
182,192,60320,1,0,0:0:0:0:
329,192,60470,128,0,60770:0:0:0:44:A#5S_Bb5S_s.wav
402,192,60470,1,0,0:0:0:51:F6S_s.wav
182,192,60620,1,0,0:0:0:51:C8S_s.wav
36,192,60620,128,0,60770:0:0:0:0:
109,192,60770,1,0,0:0:0:51:D#6S_Eb6S_s.wav
402,192,60770,1,0,0:0:0:77:D#7S_Eb7S_s.wav
256,192,60770,128,0,61070:0:0:0:49:A#5S_Bb5S_s.wav
182,192,60920,1,0,0:0:0:73:C8S_s.wav
109,192,61070,128,0,61370:0:0:0:63:G4S_s.wav
402,192,61070,128,0,61370:0:0:0:72:D7S_s.wav
475,192,61070,1,0,0:0:0:0:
36,192,61070,1,0,0:0:0:0:
256,192,61220,1,0,0:0:0:63:B7S_s.wav
182,192,61370,1,0,0:0:0:57:B5S_s.wav
329,192,61370,1,0,0:0:0:40:F5S_s.wav
36,192,61370,128,0,61670:0:0:0:66:D#7S_Eb7S_s.wav
475,192,61370,128,0,61670:0:0:0:44:D#6S_Eb6S_s.wav
256,192,61520,1,0,0:0:0:60:B7S_s.wav
182,192,61670,128,0,61970:0:0:0:70:F7S_s.wav
329,192,61670,128,0,61970:0:0:0:55:D6S_s.wav
109,192,61670,1,0,0:0:0:62:B5S_s.wav
402,192,61670,1,0,0:0:0:41:F5S_s.wav
256,192,61820,1,0,0:0:0:59:B7S_s.wav
36,192,61970,128,0,62720:0:0:0:66:C5S_s.wav
475,192,61970,128,0,62420:0:0:0:74:G7S_s.wav
109,192,61970,1,0,0:0:0:0:
402,192,61970,1,0,0:0:0:0:
182,192,62120,1,0,0:0:0:59:C8S_s.wav
329,192,62270,128,0,62420:0:0:0:51:C#7S_Db7S_s.wav
109,192,62270,1,0,0:0:0:64:E7S_s.wav
256,192,62420,1,0,0:0:0:58:G7S_s.wav
182,192,62570,128,0,62720:0:0:0:72:C#8S_Db8S_s.wav
402,192,62570,1,0,0:0:0:51:C7S_s.wav
256,192,62720,1,0,0:0:0:63:C8S_s.wav
329,192,62870,128,0,63170:0:0:0:68:C7S_s.wav
402,192,62870,1,0,0:0:0:61:F5S_s.wav
475,192,62870,128,0,63020:0:0:0:0:
182,192,62870,1,0,0:0:0:0:
109,192,63020,1,0,0:0:0:61:C8S_s.wav
36,192,63020,128,0,63170:0:0:0:0:
256,192,63170,1,0,0:0:0:63:A#7S_Bb7S_s.wav
182,192,63170,128,0,63320:0:0:0:59:D#6S_Eb6S_s.wav
475,192,63170,128,0,63470:0:0:0:54:A#6S_Bb6S_s.wav
109,192,63320,1,0,0:0:0:54:C8S_s.wav
36,192,63320,128,0,63470:0:0:0:0:
402,192,63470,128,0,63770:0:0:0:41:G#6S_Ab6S_s.wav
329,192,63470,1,0,0:0:0:62:G#7S_Ab7S_s.wav
256,192,63470,128,0,63620:0:0:0:44:D#6S_Eb6S_s.wav
109,192,63620,1,0,0:0:0:55:C8S_s.wav
182,192,63620,1,0,0:0:0:0:
256,192,63770,128,0,64070:0:0:0:70:G4S_s.wav
109,192,63770,1,0,0:0:0:59:G7S_s.wav
36,192,63770,1,0,0:0:0:0:
475,192,63920,1,0,0:0:0:52:C8S_s.wav
402,192,63920,128,0,64070:0:0:0:0:
182,192,64070,128,0,64370:0:0:0:59:A#5S_Bb5S_s.wav
36,192,64070,1,0,0:0:0:65:F6S_s.wav
109,192,64070,1,0,0:0:0:69:F7S_s.wav
402,192,64220,1,0,0:0:0:51:C8S_s.wav
329,192,64220,128,0,64370:0:0:0:0:
36,192,64370,1,0,0:0:0:77:D#7S_Eb7S_s.wav
475,192,64370,1,0,0:0:0:63:A#5S_Bb5S_s.wav
109,192,64370,128,0,64670:0:0:0:65:D#6S_Eb6S_s.wav
329,192,64520,1,0,0:0:0:73:C8S_s.wav
256,192,64520,128,0,64670:0:0:0:0:
475,192,64670,1,0,0:0:0:72:D7S_s.wav
402,192,64670,128,0,64970:0:0:0:63:G4S_s.wav
36,192,64670,128,0,64820:0:0:0:0:
329,192,64820,1,0,0:0:0:0:
256,192,64820,1,0,0:0:0:0:
36,192,64970,1,0,0:0:0:59:D#6S_Eb6S_s.wav
475,192,64970,1,0,0:0:0:66:G7S_s.wav
182,192,64970,128,0,65120:0:0:0:71:B5S_s.wav
402,192,65120,1,0,0:0:0:60:G6S_s.wav
329,192,65120,128,0,65420:0:0:0:0:
36,192,65270,1,0,0:0:0:70:D#7S_Eb7S_s.wav
475,192,65270,1,0,0:0:0:70:D6S_s.wav
256,192,65270,128,0,65420:0:0:0:59:G3S_s.wav
109,192,65420,1,0,0:0:0:59:D7S_s.wav
182,192,65420,128,0,65570:0:0:0:0:
36,192,65570,1,0,0:0:0:51:D#6S_Eb6S_s.wav
329,192,65570,1,0,0:0:0:54:G6S_s.wav
475,192,65570,1,0,0:0:0:62:C7S_s.wav
402,192,65570,1,0,0:0:0:40:G5S_s.wav
329,192,65870,128,0,66470:0:0:0:51:G5S_s.wav
182,192,66170,1,0,0:0:0:71:C6S_s.wav
36,192,66320,1,0,0:0:0:55:G5S_s.wav
475,192,66470,128,0,67070:0:0:0:59:C6S_s.wav
109,192,66470,128,0,66620:0:0:0:77:G6S_s.wav
256,192,66470,128,0,66620:0:0:0:66:C4S_s.wav
36,192,66770,128,0,67070:0:0:0:69:D#5S_Eb5S_s.wav
182,192,66770,128,0,67070:0:0:0:69:G4S_s.wav
329,192,66920,128,0,67070:0:0:0:68:C6S_s.wav
402,192,67070,128,0,67220:0:0:0:62:D#6S_Eb6S_s.wav
475,192,67220,128,0,67370:0:0:0:62:G#6S_Ab6S_s.wav
329,192,67370,128,0,67820:0:0:0:72:G6S_s.wav
109,192,67370,128,0,67520:0:0:0:65:B3S_s.wav
256,192,67370,128,0,67520:0:0:0:0:
36,192,67670,128,0,67970:0:0:0:61:G5S_s.wav
182,192,67670,128,0,67970:0:0:0:61:B4S_s.wav
402,192,67820,128,0,67970:0:0:0:59:B5S_s.wav
475,192,67970,128,0,68120:0:0:0:65:D6S_s.wav
329,192,68120,128,0,68270:0:0:0:70:G#6S_Ab6S_s.wav
402,192,68270,128,0,68570:0:0:0:70:A#4S_Bb4S_s.wav
36,192,68270,128,0,68420:0:0:0:77:G6S_s.wav
182,192,68270,128,0,68420:0:0:0:51:G5S_s.wav
109,192,68570,128,0,68870:0:0:0:51:A#5S_Bb5S_s.wav
256,192,68570,128,0,68870:0:0:0:51:D#5S_Eb5S_s.wav
402,192,68720,128,0,68870:0:0:0:55:G6S_s.wav
475,192,68870,128,0,69020:0:0:0:77:C7S_s.wav
329,192,69020,128,0,69170:0:0:0:60:G6S_s.wav
36,192,69170,128,0,69320:0:0:0:51:C6S_s.wav
109,192,69170,128,0,69320:0:0:0:70:A4S_s.wav
402,192,69170,128,0,69470:0:0:0:71:G6S_s.wav
182,192,69470,128,0,69620:0:0:0:59:C5S_s.wav
256,192,69470,128,0,69620:0:0:0:0:
402,192,69620,128,0,69770:0:0:0:52:G6S_s.wav
475,192,69770,128,0,69920:0:0:0:65:F5S_s.wav
109,192,69770,128,0,70070:0:0:0:0:
402,192,69920,128,0,70070:0:0:0:66:G6S_s.wav
36,192,70070,128,0,70220:0:0:0:67:F6S_s.wav
329,192,70070,128,0,70370:0:0:0:56:G#5S_Ab5S_s.wav
182,192,70070,128,0,70220:0:0:0:65:G#4S_Ab4S_s.wav
182,192,70370,128,0,70670:0:0:0:62:C6S_s.wav
36,192,70370,128,0,70670:0:0:0:65:F5S_s.wav
329,192,70520,128,0,70670:0:0:0:60:F6S_s.wav
402,192,70670,128,0,70820:0:0:0:69:C7S_s.wav
329,192,70820,128,0,70970:0:0:0:62:F6S_s.wav
256,192,70970,128,0,71270:0:0:0:71:D#6S_Eb6S_s.wav
109,192,70970,128,0,71120:0:0:0:63:G4S_s.wav
36,192,70970,128,0,71120:0:0:0:0:
329,192,71270,128,0,71720:0:0:0:52:D#5S_Eb5S_s.wav
475,192,71270,128,0,71720:0:0:0:69:G5S_s.wav
109,192,71420,128,0,71570:0:0:0:56:C6S_s.wav
256,192,71570,128,0,71720:0:0:0:72:G6S_s.wav
109,192,71720,128,0,71870:0:0:0:65:C6S_s.wav
182,192,71870,128,0,72170:0:0:0:77:D6S_s.wav
402,192,71870,128,0,72020:0:0:0:62:D4S_s.wav
475,192,71870,128,0,72020:0:0:0:0:
402,192,72170,128,0,72470:0:0:0:67:D#5S_Eb5S_s.wav
475,192,72170,128,0,72470:0:0:0:67:F#4S_Gb4S_s.wav
182,192,72320,128,0,72470:0:0:0:62:D6S_s.wav
109,192,72470,128,0,72770:0:0:0:65:C6S_s.wav
256,192,72470,128,0,72770:0:0:0:65:D5S_s.wav
329,192,72470,128,0,72620:0:0:0:79:F#6S_Gb6S_s.wav
475,192,72620,128,0,72770:0:0:0:69:C7S_s.wav
36,192,72770,128,0,72920:0:0:0:83:B6S_s.wav
182,192,72770,128,0,72920:0:0:0:70:B5S_s.wav
329,192,72770,128,0,72920:0:0:0:70:G4S_s.wav
475,192,72920,128,0,73070:0:0:0:77:G6S_s.wav
402,192,73070,128,0,73220:0:0:0:68:A3S_s.wav
109,192,73070,128,0,73220:0:0:0:77:G7S_s.wav
256,192,73070,128,0,73220:0:0:0:68:C6S_s.wav
36,192,73220,128,0,73370:0:0:0:77:G6S_s.wav
182,192,73370,128,0,73520:0:0:0:77:G7S_s.wav
329,192,73370,128,0,73520:0:0:0:76:D6S_s.wav
475,192,73370,128,0,73520:0:0:0:76:B4S_s.wav
109,192,73520,128,0,73670:0:0:0:77:G5S_s.wav
402,192,73670,128,0,73820:0:0:0:66:G5S_s.wav
475,192,73670,128,0,73820:0:0:0:66:C4S_s.wav
36,192,73670,128,0,74270:0:0:0:84:G6S_s.wav
256,192,73820,128,0,73970:0:0:0:77:C6S_s.wav
329,192,73970,128,0,74120:0:0:0:69:D#5S_Eb5S_s.wav
182,192,73970,128,0,74270:0:0:0:68:G6S_s.wav
475,192,74120,128,0,74270:0:0:0:62:D#7S_Eb7S_s.wav
402,192,74270,128,0,74420:0:0:0:62:D7S_s.wav
256,192,74420,128,0,74570:0:0:0:72:B6S_s.wav
475,192,74570,128,0,75020:0:0:0:77:G6S_s.wav
109,192,74570,128,0,74720:0:0:0:65:B3S_s.wav
36,192,74570,128,0,74720:0:0:0:0:
256,192,74720,128,0,74870:0:0:0:69:B5S_s.wav
182,192,74870,128,0,75020:0:0:0:61:G5S_s.wav
402,192,74870,128,0,75020:0:0:0:61:B4S_s.wav
36,192,74870,128,0,75320:0:0:0:0:
329,192,75020,128,0,75470:0:0:0:77:D#7S_Eb7S_s.wav
182,192,75170,128,0,75320:0:0:0:77:D7S_s.wav
109,192,75320,128,0,75470:0:0:0:70:B6S_s.wav
36,192,75470,128,0,76220:0:0:0:70:A#4S_Bb4S_s.wav
402,192,75470,128,0,75620:0:0:0:73:G6S_s.wav
256,192,75620,128,0,75770:0:0:0:61:F#6S_Gb6S_s.wav
329,192,75770,128,0,75920:0:0:0:69:A#5S_Bb5S_s.wav
182,192,75770,128,0,76220:0:0:0:68:G6S_s.wav
475,192,75920,128,0,76070:0:0:0:76:G7S_s.wav
402,192,76070,128,0,76220:0:0:0:68:C7S_s.wav
329,192,76220,128,0,76370:0:0:0:60:G6S_s.wav
182,192,76370,128,0,76520:0:0:0:70:G6S_s.wav
36,192,76370,128,0,76520:0:0:0:70:A4S_s.wav
475,192,76370,128,0,76970:0:0:0:0:
329,192,76520,128,0,76670:0:0:0:76:C6S_s.wav
109,192,76670,128,0,76820:0:0:0:77:F6S_s.wav
256,192,76670,128,0,76820:0:0:0:59:C5S_s.wav
402,192,76820,128,0,76970:0:0:0:81:F7S_s.wav
182,192,76970,128,0,77270:0:0:0:75:C7S_s.wav
36,192,76970,128,0,77270:0:0:0:65:F5S_s.wav
329,192,77120,128,0,77270:0:0:0:66:G6S_s.wav
402,192,77270,128,0,77420:0:0:0:56:G#5S_Ab5S_s.wav
109,192,77270,1,0,0:0:0:65:G#4S_Ab4S_s.wav
475,192,77270,1,0,0:0:0:73:F6S_s.wav
256,192,77420,128,0,77570:0:0:0:52:C6S_s.wav
182,192,77420,1,0,0:0:0:0:
329,192,77570,128,0,77720:0:0:0:62:F6S_s.wav
36,192,77570,1,0,0:0:0:65:F5S_s.wav
475,192,77720,128,0,77870:0:0:0:75:C7S_s.wav
109,192,77720,1,0,0:0:0:0:
402,192,77870,128,0,78020:0:0:0:74:G#6S_Ab6S_s.wav
182,192,77870,1,0,0:0:0:0:
329,192,78020,128,0,78170:0:0:0:38:G#4S_Ab4S_s.wav
109,192,78020,1,0,0:0:0:59:C6S_s.wav
182,192,78170,128,0,78320:0:0:0:70:D#6S_Eb6S_s.wav
402,192,78170,1,0,0:0:0:63:G4S_s.wav
475,192,78170,1,0,0:0:0:0:
36,192,78320,128,0,78470:0:0:0:64:C6S_s.wav
329,192,78320,1,0,0:0:0:0:
109,192,78470,128,0,78620:0:0:0:69:D#6S_Eb6S_s.wav
402,192,78470,1,0,0:0:0:52:D#5S_Eb5S_s.wav
256,192,78620,128,0,78770:0:0:0:65:C7S_s.wav
475,192,78620,1,0,0:0:0:0:
182,192,78770,128,0,78920:0:0:0:77:G6S_s.wav
402,192,78770,1,0,0:0:0:0:
109,192,78920,128,0,79070:0:0:0:65:D6S_s.wav
329,192,78920,1,0,0:0:0:0:
256,192,79070,1,0,0:0:0:74:C6S_s.wav
36,192,79070,1,0,0:0:0:71:G3S_s.wav
329,192,79220,1,0,0:0:0:55:G5S_s.wav
402,192,79220,1,0,0:0:0:0:
475,192,79220,1,0,0:0:0:0:
182,192,79220,1,0,0:0:0:0:
36,192,79370,1,0,0:0:0:52:C6S_s.wav
109,192,79370,1,0,0:0:0:64:F4S_s.wav
256,192,79520,1,0,0:0:0:80:G6S_s.wav
329,192,79520,1,0,0:0:0:0:
402,192,79520,1,0,0:0:0:0:
475,192,79520,1,0,0:0:0:0:
182,192,79670,1,0,0:0:0:68:F4S_s.wav
109,192,79670,1,0,0:0:0:68:D6S_s.wav
36,192,79670,1,0,0:0:0:68:D5S_s.wav
329,192,79820,1,0,0:0:0:61:B5S_s.wav
402,192,79820,1,0,0:0:0:0:
475,192,79820,1,0,0:0:0:0:
256,192,79970,1,0,0:0:0:75:C4S_s.wav
182,192,79970,1,0,0:0:0:77:C6S_s.wav
109,192,79970,1,0,0:0:0:0:
36,192,79970,1,0,0:0:0:0:
402,192,80120,1,0,0:0:0:64:C7S_s.wav
329,192,80270,1,0,0:0:0:64:C#6S_Db6S_s.wav
36,192,80270,1,0,0:0:0:74:G6S_s.wav
109,192,80270,1,0,0:0:0:66:E5S_s.wav
475,192,80270,1,0,0:0:0:54:G5S_s.wav
402,192,80420,1,0,0:0:0:0:
182,192,80420,1,0,0:0:0:0:
256,192,80570,1,0,0:0:0:77:G6S_s.wav
36,192,80570,1,0,0:0:0:75:C3S_s.wav
475,192,80570,1,0,0:0:0:60:E5S_s.wav
329,192,80720,1,0,0:0:0:83:C7S_s.wav
475,192,80870,1,0,0:0:0:76:F3S_s.wav
256,192,80870,1,0,0:0:0:68:C6S_s.wav
36,192,80870,128,0,81170:0:0:0:0:
109,192,80870,1,0,0:0:0:0:
329,192,80970,1,0,0:0:0:68:F6S_s.wav
402,192,81070,1,0,0:0:0:69:C7S_s.wav
182,192,81170,128,0,81470:0:0:0:54:A#5S_Bb5S_s.wav
475,192,81170,1,0,0:0:0:63:A#6S_Bb6S_s.wav
109,192,81170,1,0,0:0:0:0:
329,192,81270,1,0,0:0:0:65:C6S_s.wav
402,192,81370,1,0,0:0:0:75:C7S_s.wav
109,192,81470,128,0,81770:0:0:0:58:G#5S_Ab5S_s.wav
475,192,81470,1,0,0:0:0:62:G#6S_Ab6S_s.wav
36,192,81470,1,0,0:0:0:0:
256,192,81570,1,0,0:0:0:65:C6S_s.wav
329,192,81670,1,0,0:0:0:56:C7S_s.wav
36,192,81770,128,0,82070:0:0:0:70:G3S_s.wav
475,192,81770,128,0,82070:0:0:0:59:G6S_s.wav
256,192,81770,1,0,0:0:0:0:
402,192,81770,1,0,0:0:0:0:
182,192,81870,1,0,0:0:0:52:C6S_s.wav
109,192,81970,1,0,0:0:0:52:C7S_s.wav
329,192,82070,128,0,82370:0:0:0:69:F6S_s.wav
256,192,82070,1,0,0:0:0:0:
402,192,82070,1,0,0:0:0:59:A#4S_Bb4S_s.wav
182,192,82170,1,0,0:0:0:58:C6S_s.wav
109,192,82270,1,0,0:0:0:64:C7S_s.wav
402,192,82370,128,0,82670:0:0:0:65:D#5S_Eb5S_s.wav
36,192,82370,1,0,0:0:0:72:D#6S_Eb6S_s.wav
256,192,82370,1,0,0:0:0:0:
182,192,82470,1,0,0:0:0:63:C6S_s.wav
109,192,82570,1,0,0:0:0:68:C7S_s.wav
36,192,82670,128,0,82970:0:0:0:63:G3S_s.wav
256,192,82670,1,0,0:0:0:0:
475,192,82670,128,0,82970:0:0:0:72:D6S_s.wav
329,192,82770,1,0,0:0:0:62:G5S_s.wav
402,192,82870,1,0,0:0:0:63:G6S_s.wav
109,192,82970,128,0,83270:0:0:0:58:D#5S_Eb5S_s.wav
256,192,82970,1,0,0:0:0:64:F6S_s.wav
329,192,83070,1,0,0:0:0:62:G5S_s.wav
402,192,83170,1,0,0:0:0:60:G6S_s.wav
182,192,83270,128,0,83570:0:0:0:70:F5S_s.wav
475,192,83270,1,0,0:0:0:64:D6S_s.wav
36,192,83270,1,0,0:0:0:61:D5S_s.wav
256,192,83270,1,0,0:0:0:0:
329,192,83370,1,0,0:0:0:64:G5S_s.wav
402,192,83470,1,0,0:0:0:59:G6S_s.wav
329,192,83570,128,0,84170:0:0:0:66:C4S_s.wav
475,192,83570,1,0,0:0:0:74:C6S_s.wav
36,192,83570,1,0,0:0:0:0:
182,192,83670,1,0,0:0:0:77:G5S_s.wav
109,192,83770,1,0,0:0:0:59:C7S_s.wav
36,192,83870,1,0,0:0:0:64:E6S_s.wav
475,192,83870,1,0,0:0:0:44:G5S_s.wav
256,192,83970,1,0,0:0:0:58:G6S_s.wav
182,192,84070,1,0,0:0:0:75:C7S_s.wav
109,192,84170,1,0,0:0:0:77:C6S_s.wav
36,192,84170,1,0,0:0:0:75:G5S_s.wav
475,192,84170,1,0,0:0:0:0:
182,192,84270,1,0,0:0:0:68:G6S_s.wav
256,192,84370,1,0,0:0:0:67:C7S_s.wav
36,192,84470,1,0,0:0:0:76:F3S_s.wav
329,192,84470,1,0,0:0:0:68:C6S_s.wav
475,192,84470,128,0,84770:0:0:0:0:
109,192,84470,1,0,0:0:0:0:
256,192,84570,1,0,0:0:0:68:F6S_s.wav
182,192,84670,1,0,0:0:0:69:C7S_s.wav
329,192,84770,128,0,85070:0:0:0:54:A#5S_Bb5S_s.wav
109,192,84770,1,0,0:0:0:63:A#6S_Bb6S_s.wav
402,192,84770,1,0,0:0:0:0:
256,192,84870,1,0,0:0:0:65:C6S_s.wav
182,192,84970,1,0,0:0:0:75:C7S_s.wav
402,192,85070,128,0,85370:0:0:0:66:G#5S_Ab5S_s.wav
109,192,85070,1,0,0:0:0:62:G#6S_Ab6S_s.wav
475,192,85070,1,0,0:0:0:0:
36,192,85170,1,0,0:0:0:65:C6S_s.wav
109,192,85270,1,0,0:0:0:56:C7S_s.wav
475,192,85370,128,0,85670:0:0:0:70:G3S_s.wav
36,192,85370,128,0,85670:0:0:0:59:G6S_s.wav
256,192,85370,1,0,0:0:0:0:
182,192,85370,1,0,0:0:0:0:
329,192,85470,1,0,0:0:0:52:C6S_s.wav
402,192,85570,1,0,0:0:0:52:C7S_s.wav
182,192,85670,128,0,85970:0:0:0:69:F6S_s.wav
256,192,85670,1,0,0:0:0:0:
109,192,85670,1,0,0:0:0:59:A#4S_Bb4S_s.wav
329,192,85770,1,0,0:0:0:58:C6S_s.wav
402,192,85870,1,0,0:0:0:64:C7S_s.wav
475,192,85970,1,0,0:0:0:72:D#6S_Eb6S_s.wav
256,192,85970,1,0,0:0:0:0:
109,192,85970,128,0,86270:0:0:0:65:D#5S_Eb5S_s.wav
329,192,86070,1,0,0:0:0:63:C6S_s.wav
402,192,86170,1,0,0:0:0:68:C7S_s.wav
475,192,86270,128,0,86570:0:0:0:63:G3S_s.wav
256,192,86270,1,0,0:0:0:0:
36,192,86270,128,0,86570:0:0:0:72:D6S_s.wav
182,192,86370,1,0,0:0:0:62:G5S_s.wav
109,192,86470,1,0,0:0:0:63:G6S_s.wav
402,192,86570,128,0,86870:0:0:0:66:D#5S_Eb5S_s.wav
256,192,86570,1,0,0:0:0:64:F6S_s.wav
182,192,86670,1,0,0:0:0:62:G5S_s.wav
109,192,86770,1,0,0:0:0:60:G6S_s.wav
329,192,86870,128,0,87170:0:0:0:61:F5S_s.wav
36,192,86870,1,0,0:0:0:64:D6S_s.wav
475,192,86870,1,0,0:0:0:60:D5S_s.wav
256,192,86870,1,0,0:0:0:0:
182,192,86970,1,0,0:0:0:64:G5S_s.wav
109,192,87070,1,0,0:0:0:59:G6S_s.wav
182,192,87170,128,0,87770:0:0:0:66:C4S_s.wav
36,192,87170,1,0,0:0:0:74:C6S_s.wav
475,192,87170,1,0,0:0:0:0:
256,192,87270,1,0,0:0:0:77:G5S_s.wav
329,192,87370,1,0,0:0:0:59:C7S_s.wav
402,192,87470,1,0,0:0:0:51:C#6S_Db6S_s.wav
36,192,87470,1,0,0:0:0:64:E6S_s.wav
256,192,87570,1,0,0:0:0:58:G6S_s.wav
329,192,87670,1,0,0:0:0:75:C7S_s.wav
402,192,87770,1,0,0:0:0:69:C6S_s.wav
475,192,87770,1,0,0:0:0:63:G6S_s.wav
36,192,87770,1,0,0:0:0:0:
329,192,87870,1,0,0:0:0:68:C7S_s.wav
256,192,87970,1,0,0:0:0:79:C8S_s.wav
36,192,88070,1,0,0:0:0:68:C7S_s.wav
475,192,88070,128,0,88970:0:0:0:70:F4S_s.wav
402,192,88070,1,0,0:0:0:0:
182,192,88070,1,0,0:0:0:0:
329,192,88170,1,0,0:0:0:68:F7S_s.wav
109,192,88170,1,0,0:0:0:0:
256,192,88270,1,0,0:0:0:69:C8S_s.wav
109,192,88370,1,0,0:0:0:63:A#7S_Bb7S_s.wav
36,192,88370,1,0,0:0:0:48:A#6S_Bb6S_s.wav
402,192,88370,1,0,0:0:0:0:
182,192,88470,1,0,0:0:0:65:C7S_s.wav
329,192,88470,1,0,0:0:0:0:
256,192,88570,1,0,0:0:0:75:C8S_s.wav
36,192,88570,1,0,0:0:0:0:
329,192,88670,1,0,0:0:0:61:G#6S_Ab6S_s.wav
109,192,88670,1,0,0:0:0:65:D#6S_Eb6S_s.wav
182,192,88770,1,0,0:0:0:65:C7S_s.wav
402,192,88770,1,0,0:0:0:0:
109,192,88870,1,0,0:0:0:56:C8S_s.wav
329,192,88870,1,0,0:0:0:0:
256,192,88970,1,0,0:0:0:0:
36,192,88970,128,0,89870:0:0:0:64:G4S_s.wav
402,192,88970,1,0,0:0:0:59:G7S_s.wav
182,192,89070,1,0,0:0:0:52:C7S_s.wav
475,192,89070,1,0,0:0:0:0:
109,192,89170,1,0,0:0:0:52:C8S_s.wav
329,192,89170,1,0,0:0:0:0:
402,192,89270,1,0,0:0:0:69:F7S_s.wav
182,192,89270,1,0,0:0:0:60:F6S_s.wav
475,192,89370,1,0,0:0:0:58:C7S_s.wav
256,192,89370,1,0,0:0:0:0:
329,192,89470,1,0,0:0:0:64:C8S_s.wav
109,192,89470,1,0,0:0:0:0:
256,192,89570,1,0,0:0:0:72:D#7S_Eb7S_s.wav
475,192,89570,1,0,0:0:0:59:D#6S_Eb6S_s.wav
182,192,89670,1,0,0:0:0:63:C7S_s.wav
402,192,89670,1,0,0:0:0:0:
109,192,89770,1,0,0:0:0:68:C8S_s.wav
329,192,89770,1,0,0:0:0:0:
475,192,89870,128,0,90770:0:0:0:72:D7S_s.wav
256,192,89870,1,0,0:0:0:0:
402,192,89870,1,0,0:0:0:0:
182,192,89970,1,0,0:0:0:62:G6S_s.wav
109,192,90070,1,0,0:0:0:63:G7S_s.wav
329,192,90070,1,0,0:0:0:0:
36,192,90170,1,0,0:0:0:44:D#6S_Eb6S_s.wav
256,192,90170,1,0,0:0:0:32:F5S_s.wav
109,192,90270,1,0,0:0:0:62:G6S_s.wav
329,192,90270,1,0,0:0:0:0:
182,192,90370,1,0,0:0:0:60:G7S_s.wav
402,192,90370,1,0,0:0:0:0:
256,192,90470,1,0,0:0:0:48:F6S_s.wav
36,192,90470,1,0,0:0:0:64:D7S_s.wav
329,192,90570,1,0,0:0:0:64:G6S_s.wav
109,192,90570,1,0,0:0:0:0:
402,192,90670,1,0,0:0:0:59:G7S_s.wav
182,192,90670,1,0,0:0:0:0:
36,192,90770,128,0,91070:0:0:0:74:C7S_s.wav
256,192,90770,1,0,0:0:0:0:
109,192,90770,1,0,0:0:0:0:
329,192,90870,1,0,0:0:0:65:G6S_s.wav
402,192,90970,1,0,0:0:0:59:C8S_s.wav
182,192,90970,1,0,0:0:0:0:
256,192,91070,1,0,0:0:0:64:E7S_s.wav
109,192,91070,1,0,0:0:0:0:
475,192,91070,1,0,0:0:0:0:
329,192,91170,1,0,0:0:0:58:G7S_s.wav
402,192,91270,1,0,0:0:0:75:C8S_s.wav
256,192,91370,1,0,0:0:0:62:C7S_s.wav
475,192,91370,1,0,0:0:0:63:G7S_s.wav
36,192,91370,1,0,0:0:0:0:
182,192,91470,1,0,0:0:0:68:C8S_s.wav
109,192,91570,1,0,0:0:0:77:G7S_s.wav
475,192,91670,128,0,92570:0:0:0:68:C7S_s.wav
36,192,91670,1,0,0:0:0:59:F4S_s.wav
402,192,91670,1,0,0:0:0:0:
256,192,91670,1,0,0:0:0:0:
182,192,91770,1,0,0:0:0:68:F7S_s.wav
109,192,91870,1,0,0:0:0:69:C8S_s.wav
329,192,91870,1,0,0:0:0:0:
36,192,91970,1,0,0:0:0:54:A#6S_Bb6S_s.wav
256,192,91970,1,0,0:0:0:59:D#6S_Eb6S_s.wav
182,192,92070,1,0,0:0:0:65:C7S_s.wav
329,192,92070,1,0,0:0:0:0:
109,192,92170,1,0,0:0:0:75:C8S_s.wav
402,192,92170,1,0,0:0:0:0:
36,192,92270,1,0,0:0:0:50:G#6S_Ab6S_s.wav
256,192,92270,1,0,0:0:0:57:C6S_s.wav
109,192,92370,1,0,0:0:0:65:C7S_s.wav
329,192,92370,1,0,0:0:0:0:
402,192,92470,1,0,0:0:0:56:C8S_s.wav
182,192,92470,1,0,0:0:0:0:
109,192,92570,1,0,0:0:0:0:
256,192,92570,1,0,0:0:0:0:
36,192,92570,128,0,93470:0:0:0:59:G7S_s.wav
329,192,92670,1,0,0:0:0:52:C7S_s.wav
475,192,92670,1,0,0:0:0:0:
402,192,92770,1,0,0:0:0:52:C8S_s.wav
182,192,92770,1,0,0:0:0:0:
475,192,92870,1,0,0:0:0:69:F7S_s.wav
256,192,92870,1,0,0:0:0:49:F6S_s.wav
329,192,92970,1,0,0:0:0:58:C7S_s.wav
109,192,92970,1,0,0:0:0:0:
402,192,93070,1,0,0:0:0:64:C8S_s.wav
182,192,93070,1,0,0:0:0:0:
475,192,93170,1,0,0:0:0:72:D#7S_Eb7S_s.wav
256,192,93170,1,0,0:0:0:48:D#6S_Eb6S_s.wav
182,192,93270,1,0,0:0:0:63:C7S_s.wav
402,192,93270,1,0,0:0:0:0:
109,192,93370,1,0,0:0:0:68:C8S_s.wav
329,192,93370,1,0,0:0:0:0:
256,192,93470,1,0,0:0:0:63:G4S_s.wav
475,192,93470,1,0,0:0:0:72:D7S_s.wav
402,192,93470,1,0,0:0:0:0:
36,192,93620,1,0,0:0:0:63:B7S_s.wav
182,192,93620,1,0,0:0:0:0:
329,192,93770,1,0,0:0:0:54:F5S_s.wav
256,192,93770,1,0,0:0:0:59:D#6S_Eb6S_s.wav
475,192,93770,1,0,0:0:0:71:B5S_s.wav
402,192,93770,1,0,0:0:0:66:G7S_s.wav
182,192,93920,1,0,0:0:0:60:G6S_s.wav
36,192,93920,1,0,0:0:0:0:
109,192,94070,1,0,0:0:0:70:D#7S_Eb7S_s.wav
256,192,94070,1,0,0:0:0:64:D6S_s.wav
402,192,94070,1,0,0:0:0:55:F5S_s.wav
475,192,94070,1,0,0:0:0:59:G3S_s.wav
182,192,94220,1,0,0:0:0:59:D7S_s.wav
329,192,94220,1,0,0:0:0:0:
109,192,94370,1,0,0:0:0:51:D#6S_Eb6S_s.wav
402,192,94370,1,0,0:0:0:54:G6S_s.wav
475,192,94370,1,0,0:0:0:62:C7S_s.wav
36,192,94370,1,0,0:0:0:0:
256,192,94370,128,0,95270:0:0:0:0:
402,192,94670,128,0,95270:0:0:0:38:G6S_s.wav
109,192,94970,128,0,95270:0:0:0:62:D#7S_Eb7S_s.wav
36,192,95270,128,0,95570:0:0:0:56:D#6S_Eb6S_s.wav
182,192,95270,1,0,0:0:0:41:G#4S_Ab4S_s.wav
475,192,95270,128,0,95570:0:0:0:55:D7S_s.wav
329,192,95570,128,0,96170:0:0:0:54:D#5S_Eb5S_s.wav
109,192,95720,128,0,95870:0:0:0:0:
256,192,95870,128,0,96020:0:0:0:0:
109,192,96020,128,0,96170:0:0:0:0:
475,192,96120,1,0,0:0:0:43:B5S_s.wav
402,192,96170,1,0,0:0:0:55:A#6S_Bb6S_s.wav
182,192,96170,1,0,0:0:0:57:D#6S_Eb6S_s.wav
36,192,96170,128,0,96470:0:0:0:52:C#4S_Db4S_s.wav
109,192,96470,1,0,0:0:0:77:G#6S_Ab6S_s.wav
256,192,96470,1,0,0:0:0:55:G#5S_Ab5S_s.wav
402,192,96470,128,0,96770:0:0:0:57:D#5S_Eb5S_s.wav
182,192,96620,128,0,96770:0:0:0:48:D#6S_Eb6S_s.wav
329,192,96770,128,0,96920:0:0:0:49:C7S_s.wav
475,192,96920,128,0,97070:0:0:0:80:D#7S_Eb7S_s.wav
109,192,97070,128,0,97370:0:0:0:59:D#6S_Eb6S_s.wav
36,192,97070,1,0,0:0:0:59:D7S_s.wav
256,192,97070,1,0,0:0:0:61:G6S_s.wav
402,192,97070,1,0,0:0:0:40:A4S_s.wav
402,192,97370,128,0,97670:0:0:0:59:D#5S_Eb5S_s.wav
182,192,97370,1,0,0:0:0:61:G5S_s.wav
329,192,97370,1,0,0:0:0:65:C7S_s.wav
475,192,97370,1,0,0:0:0:0:
182,192,97670,128,0,97820:0:0:0:48:D6S_s.wav
329,192,97820,128,0,97970:0:0:0:63:C7S_s.wav
182,192,97970,128,0,98870:0:0:0:62:A#6S_Bb6S_s.wav
36,192,97970,1,0,0:0:0:52:F#6S_Gb6S_s.wav
475,192,97970,1,0,0:0:0:52:C6S_s.wav
256,192,97970,1,0,0:0:0:60:D5S_s.wav
109,192,98270,128,0,98870:0:0:0:77:A6S_s.wav
402,192,98270,1,0,0:0:0:52:C6S_s.wav
36,192,98570,128,0,98870:0:0:0:65:F#6S_Gb6S_s.wav
329,192,98570,1,0,0:0:0:0:
402,192,98870,128,0,99020:0:0:0:74:C7S_s.wav
475,192,98870,128,0,99020:0:0:0:50:G4S_s.wav
36,192,99170,1,0,0:0:0:60:D5S_s.wav
475,192,99170,1,0,0:0:0:59:F5S_s.wav
182,192,99170,128,0,99470:0:0:0:65:A#6S_Bb6S_s.wav
329,192,99170,1,0,0:0:0:64:A#5S_Bb5S_s.wav
402,192,99320,128,0,99470:0:0:0:48:F6S_s.wav
329,192,99470,128,0,99620:0:0:0:59:D#6S_Eb6S_s.wav
256,192,99620,128,0,99770:0:0:0:56:D6S_s.wav
36,192,99620,1,0,0:0:0:0:
109,192,99695,1,0,0:0:0:52:G5S_s.wav
182,192,99770,1,0,0:0:0:60:D#6S_Eb6S_s.wav
402,192,99770,1,0,0:0:0:61:A#5S_Bb5S_s.wav
475,192,99770,128,0,100070:0:0:0:65:C4S_s.wav
329,192,100070,128,0,100520:0:0:0:57:D#5S_Eb5S_s.wav
109,192,100220,128,0,100370:0:0:0:0:
182,192,100370,128,0,100670:0:0:0:64:G#6S_Ab6S_s.wav
402,192,100520,128,0,100670:0:0:0:0:
256,192,100670,128,0,100820:0:0:0:62:G6S_s.wav
36,192,100670,128,0,100970:0:0:0:52:F4S_s.wav
182,192,100820,128,0,100970:0:0:0:68:C6S_s.wav
329,192,100970,128,0,101120:0:0:0:76:G#6S_Ab6S_s.wav
475,192,100970,128,0,101570:0:0:0:52:G5S_s.wav
256,192,101120,128,0,101270:0:0:0:62:G6S_s.wav
182,192,101270,128,0,101420:0:0:0:62:C6S_s.wav
109,192,101420,128,0,101570:0:0:0:67:D6S_s.wav
36,192,101570,128,0,102470:0:0:0:59:D#6S_Eb6S_s.wav
256,192,101570,1,0,0:0:0:40:B5S_s.wav
402,192,101570,1,0,0:0:0:49:F5S_s.wav
329,192,101870,1,0,0:0:0:52:D6S_s.wav
182,192,102170,1,0,0:0:0:62:G5S_s.wav
329,192,102470,1,0,0:0:0:52:G#3S_Ab3S_s.wav
182,192,102470,1,0,0:0:0:59:D6S_s.wav
475,192,102470,128,0,105470:0:0:0:0:
329,192,102770,128,0,103670:0:0:0:49:D#4S_Eb4S_s.wav
36,192,103070,128,0,104120:0:0:0:51:A#4S_Bb4S_s.wav
182,192,103370,128,0,105170:0:0:0:55:A#5S_Bb5S_s.wav
402,192,103670,128,0,104720:0:0:0:62:F5S_s.wav
256,192,103970,128,0,104420:0:0:0:48:D#5S_Eb5S_s.wav
36,192,104270,128,0,105170:0:0:0:40:G#3S_Ab3S_s.wav
256,192,104570,128,0,105470:0:0:0:40:D#4S_Eb4S_s.wav
402,192,104870,128,0,105470:0:0:0:46:A#4S_Bb4S_s.wav
109,192,105170,128,0,105470:0:0:0:28:C5S_s.wav
36,192,105470,128,0,106070:0:0:0:38:F4S_s.wav
256,192,105882,1,0,0:0:0:36:A#7S_Bb7S_s.wav
329,192,105920,1,0,0:0:0:32:F7S_s.wav
402,192,105995,1,0,0:0:0:36:D#7S_Eb7S_s.wav
182,192,106070,1,0,0:0:0:18:D#4S_Eb4S_s.wav
256,192,106070,1,0,0:0:0:59:D7S_s.wav
