osu file format v14

[General]
AudioFilename: M2U - Saigo no Hanabira.mp3
AudioLeadIn: 0
PreviewTime: 69824
Countdown: 0
SampleSet: Soft
StackLeniency: 0.7
Mode: 3
LetterboxInBreaks: 0
SpecialStyle: 0
WidescreenStoryboard: 0

[Editor]
Bookmarks: 624,98424,191424
DistanceSpacing: 1.7
BeatDivisor: 6
GridSize: 16
TimelineZoom: 2.6

[Metadata]
Title:M2U Pack
TitleUnicode:M2U Pack
Artist:M2U
ArtistUnicode:M2U
Creator:Kim_GodSSI
Version:Saigo no Hanabira // Collabo with ruka 7K
Source:
Tags:arpia97 lami- buschan ezmmr micleak nabi- ruka takjun roasted chicken murumoo other nicode sherie 約束之歌 guriri 구리리 howling redeye red eye lucy egoist 最後の花弁 나래
BeatmapID:3470136
BeatmapSetID:1572720

[Difficulty]
HPDrainRate:7
CircleSize:7
OverallDifficulty:5
ApproachRate:5
SliderMultiplier:1.4
SliderTickRate:1

[Events]
//Background and Video events
0,0,"M2U - Saigo no Hanabira.jpg",0,0
//Break Periods
//Storyboard Layer 0 (Background)
//Storyboard Layer 1 (Fail)
//Storyboard Layer 2 (Pass)
//Storyboard Layer 3 (Foreground)
//Storyboard Layer 4 (Overlay)
//Storyboard Sound Samples

[TimingPoints]
2624,400,4,2,0,0,1,0

[HitObjects]
109,192,2624,128,0,3024:0:0:0:0:
402,192,2624,1,0,0:0:0:0:
256,192,2624,1,0,0:0:0:0:
475,192,2624,1,0,0:0:0:0:
36,192,2624,1,0,0:0:0:0:
36,192,3024,128,0,3424:0:0:0:0:
402,192,3224,1,0,0:0:0:0:
182,192,3424,128,0,3824:0:0:0:0:
402,192,3424,1,0,0:0:0:0:
329,192,3424,1,0,0:0:0:0:
329,192,3824,128,0,4224:0:0:0:0:
475,192,4224,128,0,5024:0:0:0:0:
256,192,4624,1,0,0:0:0:0:
109,192,4824,1,0,0:0:0:0:
402,192,5024,128,0,5824:0:0:0:0:
182,192,5024,1,0,0:0:0:0:
109,192,5024,1,0,0:0:0:0:
182,192,5824,128,0,6224:0:0:0:0:
475,192,5824,1,0,0:0:0:0:
256,192,5849,1,0,0:0:0:0:
36,192,6224,128,0,6624:0:0:0:0:
402,192,6424,1,0,0:0:0:0:
329,192,6624,1,0,0:0:0:0:
109,192,6624,128,0,7024:0:0:0:0:
402,192,6624,1,0,0:0:0:0:
256,192,7024,128,0,7424:0:0:0:0:
402,192,7424,128,0,8224:0:0:0:0:
36,192,7424,1,0,0:0:0:0:
182,192,7624,1,0,0:0:0:0:
329,192,7824,1,0,0:0:0:0:
109,192,8024,1,0,0:0:0:0:
329,192,8224,128,0,9024:0:0:0:0:
109,192,8224,1,0,0:0:0:0:
182,192,8224,1,0,0:0:0:0:
402,192,8974,1,0,0:0:0:0:
475,192,9024,128,0,9424:0:0:0:0:
36,192,9024,1,0,0:0:0:0:
402,192,9424,128,0,9824:0:0:0:0:
109,192,9624,1,0,0:0:0:0:
329,192,9824,128,0,10224:0:0:0:0:
109,192,9824,1,0,0:0:0:0:
182,192,9824,1,0,0:0:0:0:
36,192,10224,128,0,10624:0:0:0:0:
402,192,10624,128,0,11024:0:0:0:0:
36,192,10824,1,0,0:0:0:0:
256,192,11024,128,0,11424:0:0:0:0:
109,192,11024,1,0,0:0:0:0:
402,192,11224,1,0,0:0:0:0:
402,192,11424,1,0,0:0:0:0:
475,192,11424,1,0,0:0:0:0:
109,192,11424,128,0,11824:0:0:0:0:
182,192,11624,1,0,0:0:0:0:
329,192,11824,128,0,12224:0:0:0:0:
402,192,12174,1,0,0:0:0:0:
475,192,12224,128,0,13024:0:0:0:0:
182,192,12224,1,0,0:0:0:0:
329,192,12624,1,0,0:0:0:0:
109,192,12824,1,0,0:0:0:0:
256,192,13024,128,0,13824:0:0:0:0:
109,192,13024,1,0,0:0:0:0:
36,192,13024,1,0,0:0:0:0:
182,192,13424,1,0,0:0:0:0:
402,192,13624,1,0,0:0:0:0:
36,192,13824,128,0,14624:0:0:0:0:
475,192,13824,1,0,0:0:0:0:
109,192,13849,1,0,0:0:0:0:
329,192,14024,1,0,0:0:0:0:
182,192,14224,1,0,0:0:0:0:
329,192,14424,1,0,0:0:0:0:
402,192,14624,128,0,15424:0:0:0:0:
182,192,14624,1,0,0:0:0:0:
475,192,14624,1,0,0:0:0:0:
256,192,14824,1,0,0:0:0:0:
329,192,15024,1,0,0:0:0:0:
109,192,15224,1,0,0:0:0:0:
109,192,15424,128,0,18524:0:0:0:0:
475,192,15424,1,0,0:0:0:0:
256,192,15449,1,0,0:0:0:0:
402,192,15624,1,0,0:0:0:0:
182,192,15824,1,0,0:0:0:0:
329,192,16024,1,0,0:0:0:0:
329,192,16224,1,0,0:0:0:0:
402,192,16224,1,0,0:0:0:0:
182,192,16424,1,0,0:0:0:0:
329,192,16624,128,0,17024:0:0:0:0:
36,192,16624,1,0,0:0:0:0:
256,192,16824,1,0,0:0:0:0:
36,192,17024,128,0,18524:0:0:0:0:
402,192,17024,1,0,0:0:0:0:
182,192,17224,1,0,0:0:0:0:
329,192,17424,1,0,0:0:0:0:
256,192,17624,1,0,0:0:0:0:
402,192,17624,1,0,0:0:0:0:
182,192,17824,1,0,0:0:0:0:
475,192,17824,1,0,0:0:0:0:
402,192,17824,1,0,0:0:0:0:
329,192,18024,1,0,0:0:0:0:
256,192,18224,1,0,0:0:0:0:
402,192,18424,1,0,0:0:0:0:
109,192,18624,1,0,0:0:0:0:
36,192,18624,1,0,0:0:0:0:
182,192,18624,1,0,0:0:0:0:
329,192,18824,1,0,0:0:0:0:
256,192,19024,1,0,0:0:0:0:
36,192,19224,1,0,0:0:0:0:
329,192,19224,1,0,0:0:0:0:
402,192,19424,1,0,0:0:0:0:
36,192,19424,1,0,0:0:0:0:
109,192,19424,128,0,20924:0:0:0:0:
182,192,19624,1,0,0:0:0:0:
329,192,19824,1,0,0:0:0:0:
36,192,19824,1,0,0:0:0:0:
402,192,20024,5,0,0:0:0:0:
182,192,20024,1,0,0:0:0:0:
256,192,20124,1,0,0:0:0:0:
329,192,20174,1,0,0:0:0:0:
402,192,20199,1,0,0:0:0:0:
475,192,20224,1,0,0:0:0:0:
36,192,20224,1,0,0:0:0:0:
36,192,20424,1,0,0:0:0:0:
256,192,20624,1,0,0:0:0:0:
182,192,20624,1,0,0:0:0:0:
182,192,21024,1,0,0:0:0:0:
109,192,21024,1,0,0:0:0:0:
402,192,21024,128,0,21724:0:0:0:0:
475,192,21224,1,0,0:0:0:0:
329,192,21324,1,0,0:0:0:0:
182,192,21424,128,0,21724:0:0:0:0:
109,192,21524,1,0,0:0:0:0:
256,192,21624,1,0,0:0:0:0:
329,192,21724,1,0,0:0:0:0:
109,192,21824,1,0,0:0:0:0:
182,192,21824,1,0,0:0:0:0:
36,192,21824,128,0,22524:0:0:0:0:
475,192,21824,128,0,22024:0:0:0:0:
402,192,21824,1,0,0:0:0:0:
109,192,22024,1,0,0:0:0:0:
329,192,22024,128,0,22224:0:0:0:0:
256,192,22124,1,0,0:0:0:0:
475,192,22224,1,0,0:0:0:0:
182,192,22224,128,0,22424:0:0:0:0:
402,192,22224,1,0,0:0:0:0:
109,192,22324,1,0,0:0:0:0:
256,192,22424,1,0,0:0:0:0:
329,192,22524,1,0,0:0:0:0:
475,192,22524,1,0,0:0:0:0:
329,192,22624,128,0,23024:0:0:0:0:
475,192,22624,128,0,23024:0:0:0:0:
109,192,22624,128,0,22674:0:0:0:0:
36,192,22624,128,0,22674:0:0:0:0:
182,192,22624,1,0,0:0:0:0:
182,192,22824,128,0,22874:0:0:0:0:
256,192,23024,128,0,23424:0:0:0:0:
402,192,23024,128,0,23424:0:0:0:0:
109,192,23024,1,0,0:0:0:0:
36,192,23024,128,0,23074:0:0:0:0:
109,192,23424,128,0,24124:0:0:0:0:
36,192,23424,1,0,0:0:0:0:
475,192,23424,1,0,0:0:0:0:
329,192,23424,128,0,23624:0:0:0:0:
402,192,23624,1,0,0:0:0:0:
182,192,23624,128,0,23824:0:0:0:0:
256,192,23724,1,0,0:0:0:0:
36,192,23824,1,0,0:0:0:0:
475,192,23824,1,0,0:0:0:0:
329,192,23824,128,0,24024:0:0:0:0:
402,192,23924,1,0,0:0:0:0:
182,192,24024,1,0,0:0:0:0:
256,192,24124,1,0,0:0:0:0:
402,192,24124,1,0,0:0:0:0:
402,192,24224,128,0,24624:0:0:0:0:
475,192,24224,128,0,24274:0:0:0:0:
256,192,24224,128,0,24624:0:0:0:0:
109,192,24224,128,0,24274:0:0:0:0:
36,192,24224,128,0,24274:0:0:0:0:
36,192,24424,1,0,0:0:0:0:
329,192,24624,128,0,25024:0:0:0:0:
182,192,24624,128,0,25024:0:0:0:0:
475,192,24624,1,0,0:0:0:0:
36,192,24624,128,0,24674:0:0:0:0:
109,192,24824,1,0,0:0:0:0:
402,192,24824,128,0,24874:0:0:0:0:
402,192,25024,1,0,0:0:0:0:
36,192,25024,1,0,0:0:0:0:
475,192,25024,128,0,25824:0:0:0:0:
256,192,25124,1,0,0:0:0:0:
182,192,25224,1,0,0:0:0:0:
329,192,25324,1,0,0:0:0:0:
256,192,25424,128,0,25824:0:0:0:0:
36,192,25424,1,0,0:0:0:0:
109,192,25424,1,0,0:0:0:0:
402,192,25424,1,0,0:0:0:0:
329,192,25524,1,0,0:0:0:0:
182,192,25624,1,0,0:0:0:0:
109,192,25724,1,0,0:0:0:0:
36,192,25724,1,0,0:0:0:0:
109,192,25824,128,0,26224:0:0:0:0:
36,192,25824,128,0,26224:0:0:0:0:
402,192,25824,128,0,26024:0:0:0:0:
329,192,25824,1,0,0:0:0:0:
329,192,26024,128,0,26224:0:0:0:0:
182,192,26024,1,0,0:0:0:0:
256,192,26224,128,0,26624:0:0:0:0:
475,192,26224,1,0,0:0:0:0:
402,192,26224,1,0,0:0:0:0:
475,192,26424,128,0,26624:0:0:0:0:
36,192,26424,1,0,0:0:0:0:
182,192,26424,1,0,0:0:0:0:
402,192,26624,128,0,27874:0:0:0:0:
329,192,26624,1,0,0:0:0:0:
109,192,26624,128,0,26674:0:0:0:0:
36,192,26624,128,0,26674:0:0:0:0:
475,192,26824,1,0,0:0:0:0:
36,192,26924,1,0,0:0:0:0:
182,192,26924,1,0,0:0:0:0:
36,192,27024,128,0,27224:0:0:0:0:
182,192,27024,128,0,27224:0:0:0:0:
256,192,27024,1,0,0:0:0:0:
329,192,27024,1,0,0:0:0:0:
475,192,27124,1,0,0:0:0:0:
329,192,27224,1,0,0:0:0:0:
109,192,27324,1,0,0:0:0:0:
182,192,27324,1,0,0:0:0:0:
109,192,27424,128,0,27724:0:0:0:0:
182,192,27424,128,0,27724:0:0:0:0:
329,192,27424,128,0,27474:0:0:0:0:
475,192,27424,128,0,27474:0:0:0:0:
36,192,27424,1,0,0:0:0:0:
256,192,27774,1,0,0:0:0:0:
329,192,27799,128,0,28074:0:0:0:0:
36,192,27824,1,0,0:0:0:0:
109,192,27824,1,0,0:0:0:0:
475,192,27824,1,0,0:0:0:0:
256,192,28024,128,0,28274:0:0:0:0:
109,192,28024,1,0,0:0:0:0:
402,192,28049,1,0,0:0:0:0:
36,192,28224,128,0,28274:0:0:0:0:
329,192,28249,1,0,0:0:0:0:
182,192,28324,1,0,0:0:0:0:
402,192,28424,1,0,0:0:0:0:
109,192,28524,1,0,0:0:0:0:
256,192,28624,1,0,0:0:0:0:
182,192,28724,1,0,0:0:0:0:
329,192,28824,128,0,28874:0:0:0:0:
256,192,28924,1,0,0:0:0:0:
402,192,29024,128,0,29074:0:0:0:0:
329,192,29124,1,0,0:0:0:0:
475,192,29224,128,0,29274:0:0:0:0:
256,192,29324,128,0,29374:0:0:0:0:
402,192,29424,1,0,0:0:0:0:
182,192,29524,128,0,29574:0:0:0:0:
329,192,29624,1,0,0:0:0:0:
256,192,29724,1,0,0:0:0:0:
36,192,29824,5,0,0:0:0:0:
402,192,29824,128,0,30524:0:0:0:0:
182,192,29924,1,0,0:0:0:0:
36,192,30024,1,0,0:0:0:0:
182,192,30124,1,0,0:0:0:0:
36,192,30224,1,0,0:0:0:0:
182,192,30324,1,0,0:0:0:0:
36,192,30424,1,0,0:0:0:0:
182,192,30524,1,0,0:0:0:0:
256,192,30574,1,0,0:0:0:0:
329,192,30599,1,0,0:0:0:0:
402,192,30624,1,0,0:0:0:0:
36,192,30624,1,0,0:0:0:0:
475,192,30674,1,0,0:0:0:0:
109,192,30724,1,0,0:0:0:0:
402,192,30774,1,0,0:0:0:0:
182,192,30824,1,0,0:0:0:0:
329,192,30874,1,0,0:0:0:0:
256,192,30924,1,0,0:0:0:0:
182,192,30974,1,0,0:0:0:0:
329,192,31024,1,0,0:0:0:0:
109,192,31074,1,0,0:0:0:0:
402,192,31124,1,0,0:0:0:0:
36,192,31174,1,0,0:0:0:0:
475,192,31224,1,0,0:0:0:0:
109,192,31274,1,0,0:0:0:0:
402,192,31324,1,0,0:0:0:0:
182,192,31374,1,0,0:0:0:0:
329,192,31424,1,0,0:0:0:0:
475,192,31424,128,0,32224:0:0:0:0:
256,192,31474,1,0,0:0:0:0:
109,192,31624,1,0,0:0:0:0:
36,192,31824,1,0,0:0:0:0:
402,192,31824,1,0,0:0:0:0:
182,192,31824,1,0,0:0:0:0:
256,192,32024,128,0,32324:0:0:0:0:
402,192,32224,128,0,33024:0:0:0:0:
329,192,32224,1,0,0:0:0:0:
109,192,32224,1,0,0:0:0:0:
36,192,32224,1,0,0:0:0:0:
182,192,32424,1,0,0:0:0:0:
256,192,32624,1,0,0:0:0:0:
36,192,32624,1,0,0:0:0:0:
475,192,32624,1,0,0:0:0:0:
182,192,32824,128,0,33124:0:0:0:0:
329,192,33024,128,0,33824:0:0:0:0:
256,192,33024,1,0,0:0:0:0:
36,192,33024,1,0,0:0:0:0:
182,192,33224,1,0,0:0:0:0:
402,192,33424,1,0,0:0:0:0:
109,192,33624,128,0,33924:0:0:0:0:
256,192,33824,128,0,34624:0:0:0:0:
182,192,33824,1,0,0:0:0:0:
475,192,33824,1,0,0:0:0:0:
402,192,33824,1,0,0:0:0:0:
109,192,34024,1,0,0:0:0:0:
329,192,34224,1,0,0:0:0:0:
475,192,34224,1,0,0:0:0:0:
402,192,34424,128,0,34724:0:0:0:0:
182,192,34624,128,0,35424:0:0:0:0:
329,192,34624,1,0,0:0:0:0:
36,192,34624,1,0,0:0:0:0:
402,192,34824,1,0,0:0:0:0:
256,192,35024,1,0,0:0:0:0:
329,192,35224,128,0,35524:0:0:0:0:
402,192,35424,1,0,0:0:0:0:
475,192,35424,128,0,36224:0:0:0:0:
36,192,35424,1,0,0:0:0:0:
109,192,35424,1,0,0:0:0:0:
329,192,35624,1,0,0:0:0:0:
109,192,35624,1,0,0:0:0:0:
256,192,35824,128,0,36624:0:0:0:0:
329,192,35824,1,0,0:0:0:0:
109,192,35824,1,0,0:0:0:0:
36,192,36224,128,0,37024:0:0:0:0:
402,192,36224,1,0,0:0:0:0:
182,192,36224,1,0,0:0:0:0:
329,192,36424,1,0,0:0:0:0:
109,192,36624,1,0,0:0:0:0:
182,192,36624,1,0,0:0:0:0:
329,192,36799,1,0,0:0:0:0:
402,192,36824,1,0,0:0:0:0:
475,192,36849,1,0,0:0:0:0:
182,192,37024,1,0,0:0:0:0:
109,192,37024,1,0,0:0:0:0:
329,192,37224,1,0,0:0:0:0:
109,192,37424,1,0,0:0:0:0:
256,192,37424,1,0,0:0:0:0:
402,192,37624,1,0,0:0:0:0:
109,192,37824,1,0,0:0:0:0:
36,192,37824,128,0,38624:0:0:0:0:
475,192,37824,1,0,0:0:0:0:
256,192,37824,1,0,0:0:0:0:
329,192,38024,1,0,0:0:0:0:
182,192,38224,1,0,0:0:0:0:
475,192,38224,1,0,0:0:0:0:
329,192,38424,128,0,38724:0:0:0:0:
475,192,38624,128,0,39424:0:0:0:0:
402,192,38624,1,0,0:0:0:0:
182,192,38624,1,0,0:0:0:0:
109,192,38624,1,0,0:0:0:0:
329,192,38824,1,0,0:0:0:0:
109,192,38824,1,0,0:0:0:0:
329,192,39024,1,0,0:0:0:0:
36,192,39024,1,0,0:0:0:0:
109,192,39024,1,0,0:0:0:0:
256,192,39224,128,0,39524:0:0:0:0:
402,192,39424,128,0,40224:0:0:0:0:
329,192,39424,1,0,0:0:0:0:
109,192,39424,1,0,0:0:0:0:
256,192,39624,1,0,0:0:0:0:
475,192,39824,1,0,0:0:0:0:
36,192,39824,1,0,0:0:0:0:
109,192,39824,1,0,0:0:0:0:
182,192,40024,128,0,40324:0:0:0:0:
329,192,40224,128,0,41024:0:0:0:0:
256,192,40224,1,0,0:0:0:0:
36,192,40224,1,0,0:0:0:0:
475,192,40224,1,0,0:0:0:0:
182,192,40424,1,0,0:0:0:0:
402,192,40624,1,0,0:0:0:0:
36,192,40624,1,0,0:0:0:0:
109,192,40624,1,0,0:0:0:0:
475,192,40824,128,0,41124:0:0:0:0:
182,192,40824,1,0,0:0:0:0:
402,192,41024,1,0,0:0:0:0:
256,192,41024,128,0,41824:0:0:0:0:
36,192,41024,1,0,0:0:0:0:
109,192,41024,1,0,0:0:0:0:
475,192,41224,1,0,0:0:0:0:
182,192,41224,1,0,0:0:0:0:
329,192,41424,1,0,0:0:0:0:
402,192,41624,128,0,41924:0:0:0:0:
109,192,41624,1,0,0:0:0:0:
36,192,41824,128,0,42724:0:0:0:0:
475,192,41824,1,0,0:0:0:0:
182,192,41824,1,0,0:0:0:0:
402,192,42024,1,0,0:0:0:0:
182,192,42024,1,0,0:0:0:0:
182,192,42224,1,0,0:0:0:0:
329,192,42224,128,0,43024:0:0:0:0:
402,192,42224,1,0,0:0:0:0:
109,192,42424,1,0,0:0:0:0:
475,192,42624,1,0,0:0:0:0:
182,192,42624,128,0,43424:0:0:0:0:
256,192,42624,1,0,0:0:0:0:
402,192,42824,1,0,0:0:0:0:
36,192,42824,1,0,0:0:0:0:
256,192,42924,1,0,0:0:0:0:
109,192,43024,1,0,0:0:0:0:
475,192,43024,1,0,0:0:0:0:
329,192,43124,1,0,0:0:0:0:
475,192,43224,1,0,0:0:0:0:
256,192,43324,1,0,0:0:0:0:
402,192,43424,1,0,0:0:0:0:
36,192,43424,1,0,0:0:0:0:
109,192,43424,1,0,0:0:0:0:
329,192,43449,1,0,0:0:0:0:
182,192,43624,1,0,0:0:0:0:
402,192,43724,1,0,0:0:0:0:
256,192,43824,1,0,0:0:0:0:
109,192,43824,1,0,0:0:0:0:
329,192,44024,1,0,0:0:0:0:
256,192,44224,1,0,0:0:0:0:
475,192,44224,128,0,44924:0:0:0:0:
36,192,44224,1,0,0:0:0:0:
109,192,44224,1,0,0:0:0:0:
402,192,44224,1,0,0:0:0:0:
182,192,44424,1,0,0:0:0:0:
329,192,44624,1,0,0:0:0:0:
182,192,44824,1,0,0:0:0:0:
36,192,45024,128,0,45724:0:0:0:0:
475,192,45024,1,0,0:0:0:0:
256,192,45024,1,0,0:0:0:0:
402,192,45024,1,0,0:0:0:0:
109,192,45024,1,0,0:0:0:0:
329,192,45224,1,0,0:0:0:0:
329,192,45424,1,0,0:0:0:0:
182,192,45424,1,0,0:0:0:0:
109,192,45624,1,0,0:0:0:0:
402,192,45824,128,0,46524:0:0:0:0:
36,192,45824,1,0,0:0:0:0:
475,192,45824,1,0,0:0:0:0:
256,192,45824,1,0,0:0:0:0:
182,192,45824,1,0,0:0:0:0:
329,192,46024,1,0,0:0:0:0:
109,192,46224,1,0,0:0:0:0:
182,192,46424,1,0,0:0:0:0:
256,192,46624,128,0,47124:0:0:0:0:
402,192,46624,1,0,0:0:0:0:
109,192,46624,1,0,0:0:0:0:
36,192,46624,1,0,0:0:0:0:
329,192,46824,1,0,0:0:0:0:
475,192,47024,1,0,0:0:0:0:
256,192,47224,1,0,0:0:0:0:
109,192,47224,128,0,47324:0:0:0:0:
109,192,47424,128,0,48124:0:0:0:0:
475,192,47424,1,0,0:0:0:0:
402,192,47424,1,0,0:0:0:0:
329,192,47424,1,0,0:0:0:0:
36,192,47424,1,0,0:0:0:0:
182,192,47624,1,0,0:0:0:0:
329,192,47824,1,0,0:0:0:0:
182,192,48024,1,0,0:0:0:0:
36,192,48224,128,0,48924:0:0:0:0:
109,192,48224,1,0,0:0:0:0:
475,192,48224,1,0,0:0:0:0:
402,192,48224,1,0,0:0:0:0:
256,192,48224,1,0,0:0:0:0:
329,192,48424,1,0,0:0:0:0:
329,192,48624,1,0,0:0:0:0:
109,192,48624,1,0,0:0:0:0:
182,192,48824,1,0,0:0:0:0:
256,192,49024,1,0,0:0:0:0:
402,192,49024,128,0,49724:0:0:0:0:
475,192,49024,1,0,0:0:0:0:
109,192,49024,1,0,0:0:0:0:
36,192,49024,1,0,0:0:0:0:
329,192,49224,1,0,0:0:0:0:
109,192,49424,1,0,0:0:0:0:
182,192,49624,1,0,0:0:0:0:
256,192,49824,128,0,50324:0:0:0:0:
402,192,49824,1,0,0:0:0:0:
109,192,49824,1,0,0:0:0:0:
36,192,49824,1,0,0:0:0:0:
329,192,50024,1,0,0:0:0:0:
475,192,50224,1,0,0:0:0:0:
109,192,50424,128,0,50524:0:0:0:0:
256,192,50424,1,0,0:0:0:0:
109,192,50624,128,0,51324:0:0:0:0:
402,192,50624,1,0,0:0:0:0:
475,192,50624,1,0,0:0:0:0:
329,192,50624,1,0,0:0:0:0:
182,192,50824,1,0,0:0:0:0:
36,192,50924,128,0,51324:0:0:0:0:
256,192,51024,1,0,0:0:0:0:
402,192,51224,1,0,0:0:0:0:
329,192,51424,128,0,52124:0:0:0:0:
36,192,51424,1,0,0:0:0:0:
109,192,51424,1,0,0:0:0:0:
475,192,51424,1,0,0:0:0:0:
256,192,51424,1,0,0:0:0:0:
182,192,51624,1,0,0:0:0:0:
182,192,51824,1,0,0:0:0:0:
402,192,51824,1,0,0:0:0:0:
475,192,52024,1,0,0:0:0:0:
329,192,52224,1,0,0:0:0:0:
36,192,52224,1,0,0:0:0:0:
182,192,52224,128,0,52924:0:0:0:0:
256,192,52224,1,0,0:0:0:0:
402,192,52224,1,0,0:0:0:0:
109,192,52424,1,0,0:0:0:0:
402,192,52624,1,0,0:0:0:0:
329,192,52824,1,0,0:0:0:0:
109,192,53024,128,0,53724:0:0:0:0:
182,192,53024,1,0,0:0:0:0:
256,192,53024,1,0,0:0:0:0:
402,192,53024,1,0,0:0:0:0:
475,192,53024,1,0,0:0:0:0:
329,192,53224,1,0,0:0:0:0:
182,192,53424,1,0,0:0:0:0:
402,192,53624,1,0,0:0:0:0:
256,192,53824,1,0,0:0:0:0:
36,192,53824,128,0,54524:0:0:0:0:
329,192,53824,1,0,0:0:0:0:
475,192,53824,1,0,0:0:0:0:
109,192,53824,1,0,0:0:0:0:
182,192,54024,1,0,0:0:0:0:
402,192,54224,1,0,0:0:0:0:
329,192,54224,1,0,0:0:0:0:
256,192,54424,1,0,0:0:0:0:
109,192,54624,1,0,0:0:0:0:
402,192,54624,1,0,0:0:0:0:
329,192,54624,128,0,55324:0:0:0:0:
36,192,54624,1,0,0:0:0:0:
475,192,54624,1,0,0:0:0:0:
182,192,54824,1,0,0:0:0:0:
182,192,55024,1,0,0:0:0:0:
36,192,55024,1,0,0:0:0:0:
402,192,55224,1,0,0:0:0:0:
256,192,55424,128,0,56124:0:0:0:0:
329,192,55424,1,0,0:0:0:0:
109,192,55424,1,0,0:0:0:0:
36,192,55424,1,0,0:0:0:0:
475,192,55524,1,0,0:0:0:0:
182,192,55624,1,0,0:0:0:0:
329,192,55724,1,0,0:0:0:0:
109,192,55824,1,0,0:0:0:0:
475,192,55924,1,0,0:0:0:0:
329,192,56024,1,0,0:0:0:0:
475,192,56224,128,0,56924:0:0:0:0:
256,192,56224,1,0,0:0:0:0:
36,192,56224,1,0,0:0:0:0:
402,192,56224,1,0,0:0:0:0:
182,192,56224,1,0,0:0:0:0:
109,192,56324,1,0,0:0:0:0:
329,192,56424,1,0,0:0:0:0:
182,192,56524,1,0,0:0:0:0:
36,192,56624,1,0,0:0:0:0:
256,192,56724,1,0,0:0:0:0:
402,192,56824,1,0,0:0:0:0:
182,192,56924,1,0,0:0:0:0:
256,192,57024,1,0,0:0:0:0:
36,192,57024,128,0,57724:0:0:0:0:
475,192,57024,1,0,0:0:0:0:
402,192,57024,1,0,0:0:0:0:
109,192,57024,1,0,0:0:0:0:
329,192,57224,1,0,0:0:0:0:
182,192,57424,1,0,0:0:0:0:
256,192,57424,1,0,0:0:0:0:
329,192,57624,1,0,0:0:0:0:
475,192,57824,128,0,58524:0:0:0:0:
36,192,57824,1,0,0:0:0:0:
256,192,57824,1,0,0:0:0:0:
109,192,57824,1,0,0:0:0:0:
402,192,57824,1,0,0:0:0:0:
329,192,57924,1,0,0:0:0:0:
182,192,58024,1,0,0:0:0:0:
402,192,58124,128,0,58524:0:0:0:0:
329,192,58224,1,0,0:0:0:0:
182,192,58224,1,0,0:0:0:0:
109,192,58324,1,0,0:0:0:0:
256,192,58424,1,0,0:0:0:0:
109,192,58624,128,0,59324:0:0:0:0:
475,192,58624,1,0,0:0:0:0:
36,192,58624,1,0,0:0:0:0:
256,192,58624,1,0,0:0:0:0:
329,192,58624,1,0,0:0:0:0:
402,192,58724,1,0,0:0:0:0:
182,192,58824,1,0,0:0:0:0:
329,192,58924,1,0,0:0:0:0:
256,192,59024,1,0,0:0:0:0:
475,192,59024,1,0,0:0:0:0:
329,192,59224,1,0,0:0:0:0:
109,192,59424,1,0,0:0:0:0:
402,192,59424,1,0,0:0:0:0:
475,192,59424,1,0,0:0:0:0:
256,192,59424,128,0,60124:0:0:0:0:
182,192,59624,1,0,0:0:0:0:
329,192,59824,1,0,0:0:0:0:
402,192,59824,1,0,0:0:0:0:
109,192,60024,1,0,0:0:0:0:
402,192,60224,128,0,60924:0:0:0:0:
36,192,60224,1,0,0:0:0:0:
182,192,60224,1,0,0:0:0:0:
256,192,60224,1,0,0:0:0:0:
475,192,60224,1,0,0:0:0:0:
329,192,60424,1,0,0:0:0:0:
182,192,60624,1,0,0:0:0:0:
109,192,60624,1,0,0:0:0:0:
329,192,60824,1,0,0:0:0:0:
475,192,61024,128,0,61724:0:0:0:0:
402,192,61024,1,0,0:0:0:0:
36,192,61024,1,0,0:0:0:0:
109,192,61024,1,0,0:0:0:0:
256,192,61024,1,0,0:0:0:0:
182,192,61224,1,0,0:0:0:0:
182,192,61424,1,0,0:0:0:0:
402,192,61424,1,0,0:0:0:0:
329,192,61624,1,0,0:0:0:0:
475,192,61824,1,0,0:0:0:0:
36,192,61824,1,0,0:0:0:0:
109,192,61824,128,0,62524:0:0:0:0:
402,192,61824,1,0,0:0:0:0:
256,192,61824,1,0,0:0:0:0:
182,192,62024,1,0,0:0:0:0:
402,192,62224,1,0,0:0:0:0:
256,192,62224,1,0,0:0:0:0:
329,192,62424,1,0,0:0:0:0:
109,192,62624,1,0,0:0:0:0:
402,192,62624,1,0,0:0:0:0:
475,192,62624,1,0,0:0:0:0:
256,192,62624,128,0,63324:0:0:0:0:
36,192,62624,1,0,0:0:0:0:
182,192,62824,1,0,0:0:0:0:
329,192,63024,1,0,0:0:0:0:
475,192,63024,1,0,0:0:0:0:
109,192,63224,1,0,0:0:0:0:
402,192,63424,128,0,64124:0:0:0:0:
36,192,63424,1,0,0:0:0:0:
256,192,63424,1,0,0:0:0:0:
475,192,63424,1,0,0:0:0:0:
182,192,63424,1,0,0:0:0:0:
329,192,63624,1,0,0:0:0:0:
256,192,63824,1,0,0:0:0:0:
109,192,63824,1,0,0:0:0:0:
109,192,64024,1,0,0:0:0:0:
402,192,64224,1,0,0:0:0:0:
475,192,64224,1,0,0:0:0:0:
256,192,64224,1,0,0:0:0:0:
36,192,64224,1,0,0:0:0:0:
182,192,64224,128,0,64924:0:0:0:0:
109,192,64324,1,0,0:0:0:0:
329,192,64424,1,0,0:0:0:0:
109,192,64524,1,0,0:0:0:0:
329,192,64624,1,0,0:0:0:0:
475,192,64624,1,0,0:0:0:0:
256,192,64724,1,0,0:0:0:0:
36,192,64824,1,0,0:0:0:0:
402,192,64824,1,0,0:0:0:0:
329,192,65024,128,0,65724:0:0:0:0:
475,192,65024,1,0,0:0:0:0:
109,192,65024,1,0,0:0:0:0:
256,192,65024,1,0,0:0:0:0:
182,192,65024,1,0,0:0:0:0:
402,192,65124,1,0,0:0:0:0:
182,192,65224,1,0,0:0:0:0:
36,192,65224,1,0,0:0:0:0:
256,192,65324,1,0,0:0:0:0:
402,192,65424,1,0,0:0:0:0:
109,192,65424,1,0,0:0:0:0:
182,192,65624,1,0,0:0:0:0:
475,192,65624,1,0,0:0:0:0:
402,192,65824,128,0,66524:0:0:0:0:
329,192,65824,1,0,0:0:0:0:
256,192,65824,1,0,0:0:0:0:
109,192,65824,1,0,0:0:0:0:
36,192,65824,1,0,0:0:0:0:
182,192,66024,1,0,0:0:0:0:
256,192,66224,1,0,0:0:0:0:
329,192,66224,1,0,0:0:0:0:
109,192,66424,1,0,0:0:0:0:
182,192,66424,1,0,0:0:0:0:
182,192,66624,1,0,0:0:0:0:
402,192,66624,1,0,0:0:0:0:
256,192,66624,128,0,68924:0:0:0:0:
36,192,66624,1,0,0:0:0:0:
475,192,66624,128,0,67324:0:0:0:0:
329,192,66824,1,0,0:0:0:0:
109,192,67024,1,0,0:0:0:0:
182,192,67024,1,0,0:0:0:0:
329,192,67224,1,0,0:0:0:0:
402,192,67424,1,0,0:0:0:0:
475,192,67424,1,0,0:0:0:0:
36,192,67424,1,0,0:0:0:0:
109,192,67424,1,0,0:0:0:0:
182,192,67624,1,0,0:0:0:0:
329,192,67824,1,0,0:0:0:0:
475,192,67824,1,0,0:0:0:0:
36,192,67824,1,0,0:0:0:0:
182,192,68024,1,0,0:0:0:0:
329,192,68224,1,0,0:0:0:0:
402,192,68224,1,0,0:0:0:0:
109,192,68224,1,0,0:0:0:0:
36,192,68424,1,0,0:0:0:0:
182,192,68524,1,0,0:0:0:0:
475,192,68624,128,0,68924:0:0:0:0:
402,192,68624,128,0,68674:0:0:0:0:
109,192,68624,1,0,0:0:0:0:
329,192,68824,1,0,0:0:0:0:
109,192,68824,128,0,68874:0:0:0:0:
36,192,68824,128,0,69224:0:0:0:0:
256,192,69024,1,0,0:0:0:0:
475,192,69024,1,0,0:0:0:0:
402,192,69074,1,0,0:0:0:0:
329,192,69124,1,0,0:0:0:0:
109,192,69124,1,0,0:0:0:0:
182,192,69224,1,0,0:0:0:0:
475,192,69224,1,0,0:0:0:0:
36,192,69324,1,0,0:0:0:0:
329,192,69324,1,0,0:0:0:0:
256,192,69374,1,0,0:0:0:0:
182,192,69424,128,0,69524:0:0:0:0:
329,192,69524,1,0,0:0:0:0:
475,192,69524,1,0,0:0:0:0:
109,192,69624,1,0,0:0:0:0:
182,192,69624,1,0,0:0:0:0:
329,192,69724,1,0,0:0:0:0:
402,192,69724,1,0,0:0:0:0:
475,192,69824,128,0,70124:0:0:0:0:
256,192,69824,128,0,70024:0:0:0:0:
109,192,69824,1,0,0:0:0:0:
36,192,69824,128,0,71324:0:0:0:0:
402,192,69924,1,0,0:0:0:0:
182,192,69924,128,0,69974:0:0:0:0:
329,192,70024,128,0,70324:0:0:0:0:
109,192,70024,128,0,70124:0:0:0:0:
256,192,70124,1,0,0:0:0:0:
402,192,70124,128,0,70174:0:0:0:0:
182,192,70224,128,0,70524:0:0:0:0:
475,192,70224,1,0,0:0:0:0:
109,192,70224,1,0,0:0:0:0:
402,192,70324,128,0,70624:0:0:0:0:
256,192,70324,128,0,70374:0:0:0:0:
329,192,70424,1,0,0:0:0:0:
475,192,70424,128,0,70474:0:0:0:0:
256,192,70524,128,0,70824:0:0:0:0:
109,192,70524,128,0,70574:0:0:0:0:
475,192,70624,128,0,70924:0:0:0:0:
182,192,70624,1,0,0:0:0:0:
329,192,70624,128,0,70674:0:0:0:0:
109,192,70724,128,0,71024:0:0:0:0:
402,192,70724,1,0,0:0:0:0:
329,192,70824,1,0,0:0:0:0:
182,192,70824,128,0,70874:0:0:0:0:
402,192,70924,1,0,0:0:0:0:
182,192,71024,128,0,71324:0:0:0:0:
475,192,71024,128,0,71324:0:0:0:0:
329,192,71024,128,0,71074:0:0:0:0:
256,192,71024,1,0,0:0:0:0:
109,192,71124,1,0,0:0:0:0:
402,192,71124,128,0,71174:0:0:0:0:
329,192,71224,128,0,71324:0:0:0:0:
256,192,71224,1,0,0:0:0:0:
36,192,71424,128,0,71724:0:0:0:0:
475,192,71424,128,0,72924:0:0:0:0:
256,192,71424,128,0,71624:0:0:0:0:
402,192,71424,1,0,0:0:0:0:
109,192,71524,1,0,0:0:0:0:
182,192,71524,128,0,71574:0:0:0:0:
329,192,71624,128,0,71924:0:0:0:0:
402,192,71624,128,0,71724:0:0:0:0:
256,192,71724,1,0,0:0:0:0:
109,192,71724,128,0,71774:0:0:0:0:
182,192,71824,128,0,72124:0:0:0:0:
36,192,71824,1,0,0:0:0:0:
402,192,71824,1,0,0:0:0:0:
256,192,71924,128,0,71974:0:0:0:0:
109,192,71924,128,0,72124:0:0:0:0:
329,192,72024,1,0,0:0:0:0:
36,192,72024,128,0,72074:0:0:0:0:
256,192,72124,128,0,72524:0:0:0:0:
402,192,72124,128,0,72174:0:0:0:0:
36,192,72224,128,0,72924:0:0:0:0:
182,192,72224,1,0,0:0:0:0:
109,192,72224,128,0,72274:0:0:0:0:
329,192,72224,128,0,72324:0:0:0:0:
402,192,72324,128,0,72624:0:0:0:0:
329,192,72424,1,0,0:0:0:0:
109,192,72424,1,0,0:0:0:0:
182,192,72424,128,0,72524:0:0:0:0:
182,192,72624,128,0,72924:0:0:0:0:
256,192,72624,1,0,0:0:0:0:
329,192,72624,128,0,72674:0:0:0:0:
402,192,72724,1,0,0:0:0:0:
109,192,72724,128,0,72774:0:0:0:0:
329,192,72824,128,0,72924:0:0:0:0:
256,192,72824,128,0,72924:0:0:0:0:
256,192,73024,128,0,73224:0:0:0:0:
402,192,73024,128,0,73324:0:0:0:0:
109,192,73024,128,0,74524:0:0:0:0:
36,192,73024,1,0,0:0:0:0:
329,192,73024,1,0,0:0:0:0:
475,192,73124,1,0,0:0:0:0:
182,192,73124,128,0,73174:0:0:0:0:
329,192,73224,128,0,73524:0:0:0:0:
36,192,73224,128,0,73324:0:0:0:0:
256,192,73324,1,0,0:0:0:0:
475,192,73324,128,0,73374:0:0:0:0:
182,192,73424,128,0,73724:0:0:0:0:
402,192,73424,1,0,0:0:0:0:
36,192,73424,1,0,0:0:0:0:
475,192,73524,128,0,73824:0:0:0:0:
256,192,73524,128,0,73574:0:0:0:0:
329,192,73624,1,0,0:0:0:0:
402,192,73624,128,0,73674:0:0:0:0:
256,192,73724,128,0,74024:0:0:0:0:
36,192,73724,128,0,73774:0:0:0:0:
329,192,73824,128,0,73874:0:0:0:0:
402,192,73824,128,0,74124:0:0:0:0:
182,192,73824,1,0,0:0:0:0:
36,192,73924,128,0,74224:0:0:0:0:
475,192,73924,1,0,0:0:0:0:
329,192,74024,1,0,0:0:0:0:
182,192,74024,128,0,74074:0:0:0:0:
475,192,74124,1,0,0:0:0:0:
402,192,74224,128,0,74524:0:0:0:0:
182,192,74224,128,0,74524:0:0:0:0:
329,192,74224,128,0,74324:0:0:0:0:
256,192,74224,1,0,0:0:0:0:
36,192,74324,1,0,0:0:0:0:
475,192,74324,128,0,74374:0:0:0:0:
329,192,74424,1,0,0:0:0:0:
256,192,74424,1,0,0:0:0:0:
256,192,74624,128,0,74824:0:0:0:0:
36,192,74624,128,0,74924:0:0:0:0:
402,192,74624,128,0,76124:0:0:0:0:
109,192,74624,1,0,0:0:0:0:
475,192,74724,1,0,0:0:0:0:
329,192,74724,128,0,74774:0:0:0:0:
182,192,74824,128,0,75124:0:0:0:0:
109,192,74824,128,0,74924:0:0:0:0:
256,192,74924,1,0,0:0:0:0:
475,192,74924,128,0,74974:0:0:0:0:
329,192,75024,128,0,75324:0:0:0:0:
36,192,75024,1,0,0:0:0:0:
109,192,75024,1,0,0:0:0:0:
256,192,75124,128,0,75174:0:0:0:0:
475,192,75124,128,0,75324:0:0:0:0:
182,192,75224,1,0,0:0:0:0:
36,192,75224,128,0,75274:0:0:0:0:
256,192,75324,128,0,75724:0:0:0:0:
109,192,75324,128,0,75374:0:0:0:0:
36,192,75424,128,0,76124:0:0:0:0:
329,192,75424,1,0,0:0:0:0:
475,192,75424,128,0,75474:0:0:0:0:
182,192,75424,128,0,75524:0:0:0:0:
109,192,75524,128,0,75824:0:0:0:0:
182,192,75624,1,0,0:0:0:0:
475,192,75624,1,0,0:0:0:0:
329,192,75624,128,0,75724:0:0:0:0:
329,192,75824,128,0,76124:0:0:0:0:
256,192,75824,1,0,0:0:0:0:
182,192,75824,128,0,75874:0:0:0:0:
109,192,75924,1,0,0:0:0:0:
475,192,75924,128,0,75974:0:0:0:0:
256,192,76024,128,0,76124:0:0:0:0:
182,192,76024,1,0,0:0:0:0:
475,192,76224,128,0,76924:0:0:0:0:
329,192,76224,128,0,76274:0:0:0:0:
109,192,76224,1,0,0:0:0:0:
36,192,76224,128,0,76274:0:0:0:0:
256,192,76224,128,0,76424:0:0:0:0:
402,192,76324,128,0,76374:0:0:0:0:
182,192,76324,128,0,76524:0:0:0:0:
329,192,76424,128,0,76474:0:0:0:0:
109,192,76424,128,0,76524:0:0:0:0:
256,192,76524,128,0,76574:0:0:0:0:
36,192,76524,1,0,0:0:0:0:
329,192,76624,128,0,77324:0:0:0:0:
402,192,76624,1,0,0:0:0:0:
182,192,76624,128,0,76674:0:0:0:0:
109,192,76624,128,0,76824:0:0:0:0:
256,192,76724,128,0,76774:0:0:0:0:
36,192,76724,128,0,76924:0:0:0:0:
402,192,76824,128,0,76924:0:0:0:0:
182,192,76824,128,0,76874:0:0:0:0:
109,192,76924,128,0,76974:0:0:0:0:
182,192,77024,128,0,77724:0:0:0:0:
256,192,77024,1,0,0:0:0:0:
36,192,77024,128,0,77074:0:0:0:0:
475,192,77024,128,0,77074:0:0:0:0:
402,192,77124,128,0,77174:0:0:0:0:
109,192,77124,128,0,77174:0:0:0:0:
475,192,77224,128,0,77524:0:0:0:0:
36,192,77224,128,0,77274:0:0:0:0:
256,192,77224,128,0,77324:0:0:0:0:
402,192,77324,1,0,0:0:0:0:
36,192,77424,128,0,78024:0:0:0:0:
109,192,77424,1,0,0:0:0:0:
329,192,77424,128,0,77474:0:0:0:0:
256,192,77424,128,0,77474:0:0:0:0:
402,192,77524,128,0,77574:0:0:0:0:
109,192,77624,128,0,77724:0:0:0:0:
475,192,77624,1,0,0:0:0:0:
256,192,77624,128,0,77674:0:0:0:0:
329,192,77724,128,0,77774:0:0:0:0:
475,192,77824,1,0,0:0:0:0:
402,192,77824,128,0,78524:0:0:0:0:
182,192,77824,128,0,77874:0:0:0:0:
109,192,77824,1,0,0:0:0:0:
256,192,77824,128,0,77874:0:0:0:0:
329,192,77924,128,0,78124:0:0:0:0:
109,192,78024,1,0,0:0:0:0:
256,192,78024,1,0,0:0:0:0:
475,192,78124,128,0,78224:0:0:0:0:
182,192,78124,1,0,0:0:0:0:
109,192,78224,128,0,78274:0:0:0:0:
256,192,78224,128,0,78924:0:0:0:0:
329,192,78224,128,0,78324:0:0:0:0:
36,192,78224,128,0,78274:0:0:0:0:
182,192,78324,128,0,78524:0:0:0:0:
475,192,78324,1,0,0:0:0:0:
109,192,78424,1,0,0:0:0:0:
329,192,78424,1,0,0:0:0:0:
36,192,78524,1,0,0:0:0:0:
475,192,78524,128,0,78824:0:0:0:0:
329,192,78624,1,0,0:0:0:0:
402,192,78624,128,0,78674:0:0:0:0:
109,192,78624,128,0,79224:0:0:0:0:
182,192,78624,128,0,78724:0:0:0:0:
36,192,78724,128,0,78924:0:0:0:0:
402,192,78824,1,0,0:0:0:0:
182,192,78824,1,0,0:0:0:0:
475,192,78924,1,0,0:0:0:0:
329,192,78924,1,0,0:0:0:0:
475,192,79024,128,0,79324:0:0:0:0:
36,192,79024,1,0,0:0:0:0:
256,192,79024,1,0,0:0:0:0:
329,192,79024,128,0,79324:0:0:0:0:
182,192,79124,1,0,0:0:0:0:
256,192,79224,128,0,79524:0:0:0:0:
402,192,79224,1,0,0:0:0:0:
36,192,79224,1,0,0:0:0:0:
109,192,79324,1,0,0:0:0:0:
402,192,79424,128,0,80074:0:0:0:0:
182,192,79424,1,0,0:0:0:0:
36,192,79424,128,0,79474:0:0:0:0:
329,192,79424,128,0,79524:0:0:0:0:
475,192,79424,128,0,79524:0:0:0:0:
109,192,79524,128,0,79574:0:0:0:0:
36,192,79624,1,0,0:0:0:0:
475,192,79624,1,0,0:0:0:0:
182,192,79624,128,0,79674:0:0:0:0:
256,192,79724,128,0,79774:0:0:0:0:
329,192,79824,128,0,79874:0:0:0:0:
475,192,79824,1,0,0:0:0:0:
109,192,79824,1,0,0:0:0:0:
36,192,79824,128,0,79924:0:0:0:0:
182,192,79824,128,0,80474:0:0:0:0:
256,192,79924,128,0,79974:0:0:0:0:
109,192,80024,128,0,80074:0:0:0:0:
475,192,80024,128,0,80074:0:0:0:0:
329,192,80024,1,0,0:0:0:0:
36,192,80124,128,0,80174:0:0:0:0:
109,192,80224,128,0,80274:0:0:0:0:
329,192,80224,128,0,80874:0:0:0:0:
402,192,80224,1,0,0:0:0:0:
475,192,80224,128,0,80324:0:0:0:0:
256,192,80324,128,0,80374:0:0:0:0:
402,192,80424,128,0,80474:0:0:0:0:
109,192,80424,128,0,80474:0:0:0:0:
36,192,80424,1,0,0:0:0:0:
475,192,80524,128,0,80574:0:0:0:0:
182,192,80624,1,0,0:0:0:0:
36,192,80624,128,0,80724:0:0:0:0:
109,192,80624,128,0,81274:0:0:0:0:
402,192,80624,128,0,80674:0:0:0:0:
256,192,80724,128,0,80774:0:0:0:0:
182,192,80824,128,0,80874:0:0:0:0:
402,192,80824,128,0,80874:0:0:0:0:
475,192,80824,1,0,0:0:0:0:
36,192,80924,128,0,80974:0:0:0:0:
256,192,81024,128,0,82824:0:0:0:0:
182,192,81024,1,0,0:0:0:0:
402,192,81024,1,0,0:0:0:0:
329,192,81024,1,0,0:0:0:0:
475,192,81024,128,0,81224:0:0:0:0:
402,192,81224,128,0,81324:0:0:0:0:
182,192,81224,128,0,81274:0:0:0:0:
36,192,81224,128,0,81274:0:0:0:0:
329,192,81324,128,0,81424:0:0:0:0:
182,192,81424,1,0,0:0:0:0:
109,192,81424,1,0,0:0:0:0:
475,192,81424,1,0,0:0:0:0:
36,192,81424,128,0,81624:0:0:0:0:
402,192,81524,1,0,0:0:0:0:
329,192,81624,1,0,0:0:0:0:
475,192,81624,1,0,0:0:0:0:
109,192,81624,128,0,81724:0:0:0:0:
182,192,81724,128,0,81824:0:0:0:0:
329,192,81824,1,0,0:0:0:0:
402,192,81824,1,0,0:0:0:0:
36,192,81824,1,0,0:0:0:0:
475,192,81824,128,0,82024:0:0:0:0:
109,192,81924,1,0,0:0:0:0:
182,192,82024,1,0,0:0:0:0:
36,192,82024,1,0,0:0:0:0:
402,192,82024,128,0,82124:0:0:0:0:
329,192,82124,128,0,82224:0:0:0:0:
109,192,82224,1,0,0:0:0:0:
182,192,82224,1,0,0:0:0:0:
475,192,82224,1,0,0:0:0:0:
36,192,82224,1,0,0:0:0:0:
402,192,82324,1,0,0:0:0:0:
329,192,82424,1,0,0:0:0:0:
182,192,82524,1,0,0:0:0:0:
329,192,82624,128,0,82724:0:0:0:0:
475,192,82624,128,0,82824:0:0:0:0:
36,192,82624,128,0,82674:0:0:0:0:
109,192,82674,128,0,82724:0:0:0:0:
402,192,82724,128,0,82924:0:0:0:0:
182,192,82724,128,0,83224:0:0:0:0:
329,192,82824,1,0,0:0:0:0:
109,192,82824,128,0,82924:0:0:0:0:
475,192,82924,128,0,83124:0:0:0:0:
36,192,82924,128,0,83224:0:0:0:0:
256,192,82924,128,0,82974:0:0:0:0:
329,192,82974,128,0,83024:0:0:0:0:
402,192,83024,128,0,83224:0:0:0:0:
109,192,83024,1,0,0:0:0:0:
256,192,83124,128,0,83724:0:0:0:0:
329,192,83224,128,0,83324:0:0:0:0:
475,192,83224,128,0,83424:0:0:0:0:
109,192,83224,128,0,83324:0:0:0:0:
182,192,83324,128,0,83424:0:0:0:0:
402,192,83324,1,0,0:0:0:0:
36,192,83324,1,0,0:0:0:0:
329,192,83424,128,0,83474:0:0:0:0:
109,192,83424,128,0,83624:0:0:0:0:
402,192,83474,128,0,83524:0:0:0:0:
182,192,83524,1,0,0:0:0:0:
475,192,83524,128,0,84324:0:0:0:0:
36,192,83524,128,0,83724:0:0:0:0:
329,192,83624,128,0,83774:0:0:0:0:
402,192,83724,128,0,83824:0:0:0:0:
109,192,83724,1,0,0:0:0:0:
182,192,83774,1,0,0:0:0:0:
36,192,83824,128,0,84124:0:0:0:0:
256,192,83824,1,0,0:0:0:0:
329,192,83874,1,0,0:0:0:0:
402,192,83924,1,0,0:0:0:0:
109,192,83924,128,0,84124:0:0:0:0:
329,192,84024,1,0,0:0:0:0:
182,192,84024,128,0,84124:0:0:0:0:
402,192,84124,128,0,84224:0:0:0:0:
256,192,84124,1,0,0:0:0:0:
329,192,84224,128,0,84524:0:0:0:0:
36,192,84224,128,0,84424:0:0:0:0:
109,192,84224,128,0,85724:0:0:0:0:
182,192,84224,1,0,0:0:0:0:
402,192,84324,1,0,0:0:0:0:
256,192,84324,128,0,84424:0:0:0:0:
182,192,84424,128,0,84724:0:0:0:0:
475,192,84424,128,0,84474:0:0:0:0:
256,192,84524,1,0,0:0:0:0:
36,192,84524,128,0,84624:0:0:0:0:
402,192,84624,1,0,0:0:0:0:
329,192,84624,128,0,84674:0:0:0:0:
36,192,84724,1,0,0:0:0:0:
475,192,84724,1,0,0:0:0:0:
256,192,84724,1,0,0:0:0:0:
329,192,84824,1,0,0:0:0:0:
182,192,84824,128,0,84874:0:0:0:0:
36,192,84924,128,0,85324:0:0:0:0:
402,192,84924,1,0,0:0:0:0:
475,192,84974,1,0,0:0:0:0:
256,192,85024,128,0,85074:0:0:0:0:
182,192,85024,1,0,0:0:0:0:
329,192,85024,128,0,85624:0:0:0:0:
402,192,85124,1,0,0:0:0:0:
182,192,85224,1,0,0:0:0:0:
475,192,85224,128,0,85274:0:0:0:0:
402,192,85324,1,0,0:0:0:0:
256,192,85424,1,0,0:0:0:0:
182,192,85424,128,0,85474:0:0:0:0:
36,192,85424,1,0,0:0:0:0:
402,192,85524,128,0,85724:0:0:0:0:
36,192,85624,128,0,85674:0:0:0:0:
256,192,85624,128,0,85824:0:0:0:0:
475,192,85624,128,0,86024:0:0:0:0:
182,192,85724,128,0,86024:0:0:0:0:
329,192,85724,1,0,0:0:0:0:
402,192,85824,128,0,85874:0:0:0:0:
109,192,85824,128,0,85924:0:0:0:0:
329,192,85874,128,0,85924:0:0:0:0:
36,192,85924,128,0,86124:0:0:0:0:
256,192,85924,128,0,86424:0:0:0:0:
109,192,86024,1,0,0:0:0:0:
329,192,86024,128,0,86124:0:0:0:0:
475,192,86124,128,0,86324:0:0:0:0:
402,192,86124,128,0,86424:0:0:0:0:
182,192,86124,128,0,86174:0:0:0:0:
109,192,86174,128,0,86224:0:0:0:0:
36,192,86224,128,0,86424:0:0:0:0:
329,192,86224,1,0,0:0:0:0:
182,192,86324,128,0,86924:0:0:0:0:
109,192,86424,128,0,86524:0:0:0:0:
475,192,86424,128,0,86624:0:0:0:0:
329,192,86424,128,0,86524:0:0:0:0:
256,192,86524,128,0,86624:0:0:0:0:
36,192,86524,1,0,0:0:0:0:
402,192,86524,1,0,0:0:0:0:
109,192,86624,128,0,86674:0:0:0:0:
329,192,86624,128,0,86824:0:0:0:0:
36,192,86674,128,0,86724:0:0:0:0:
256,192,86724,1,0,0:0:0:0:
475,192,86724,128,0,87524:0:0:0:0:
402,192,86724,128,0,86924:0:0:0:0:
109,192,86824,128,0,86974:0:0:0:0:
36,192,86924,128,0,87024:0:0:0:0:
329,192,86924,1,0,0:0:0:0:
256,192,86974,1,0,0:0:0:0:
402,192,87024,128,0,87324:0:0:0:0:
182,192,87024,1,0,0:0:0:0:
109,192,87074,1,0,0:0:0:0:
329,192,87124,128,0,87324:0:0:0:0:
36,192,87124,1,0,0:0:0:0:
256,192,87224,128,0,87324:0:0:0:0:
109,192,87224,1,0,0:0:0:0:
36,192,87324,128,0,87424:0:0:0:0:
182,192,87324,1,0,0:0:0:0:
109,192,87424,128,0,87724:0:0:0:0:
402,192,87424,128,0,87624:0:0:0:0:
329,192,87424,128,0,88924:0:0:0:0:
256,192,87424,1,0,0:0:0:0:
36,192,87524,1,0,0:0:0:0:
182,192,87524,128,0,87624:0:0:0:0:
256,192,87624,128,0,87924:0:0:0:0:
475,192,87624,1,0,0:0:0:0:
182,192,87724,1,0,0:0:0:0:
402,192,87724,128,0,87824:0:0:0:0:
109,192,87824,128,0,87874:0:0:0:0:
36,192,87824,128,0,88024:0:0:0:0:
402,192,87924,1,0,0:0:0:0:
182,192,87924,1,0,0:0:0:0:
475,192,87924,128,0,88024:0:0:0:0:
109,192,88024,1,0,0:0:0:0:
256,192,88024,128,0,88074:0:0:0:0:
402,192,88124,128,0,88524:0:0:0:0:
36,192,88124,1,0,0:0:0:0:
475,192,88174,1,0,0:0:0:0:
109,192,88224,128,0,88924:0:0:0:0:
182,192,88224,128,0,88274:0:0:0:0:
256,192,88224,1,0,0:0:0:0:
36,192,88324,128,0,88424:0:0:0:0:
256,192,88424,1,0,0:0:0:0:
475,192,88424,128,0,88474:0:0:0:0:
36,192,88524,1,0,0:0:0:0:
402,192,88624,1,0,0:0:0:0:
182,192,88624,1,0,0:0:0:0:
256,192,88624,128,0,88674:0:0:0:0:
36,192,88724,128,0,88924:0:0:0:0:
402,192,88824,128,0,88874:0:0:0:0:
475,192,88824,128,0,88924:0:0:0:0:
182,192,88824,128,0,88924:0:0:0:0:
256,192,88924,128,0,89224:0:0:0:0:
329,192,89024,128,0,89124:0:0:0:0:
475,192,89024,128,0,89224:0:0:0:0:
36,192,89024,128,0,89074:0:0:0:0:
109,192,89074,128,0,89124:0:0:0:0:
402,192,89124,128,0,89324:0:0:0:0:
182,192,89124,128,0,89424:0:0:0:0:
329,192,89224,1,0,0:0:0:0:
109,192,89224,128,0,89324:0:0:0:0:
475,192,89324,128,0,89524:0:0:0:0:
36,192,89324,128,0,89724:0:0:0:0:
256,192,89324,128,0,89374:0:0:0:0:
329,192,89374,128,0,89424:0:0:0:0:
402,192,89424,128,0,89624:0:0:0:0:
109,192,89424,1,0,0:0:0:0:
329,192,89524,128,0,89724:0:0:0:0:
182,192,89524,1,0,0:0:0:0:
475,192,89624,128,0,89824:0:0:0:0:
109,192,89624,128,0,89724:0:0:0:0:
256,192,89624,128,0,89924:0:0:0:0:
402,192,89724,1,0,0:0:0:0:
182,192,89724,128,0,89824:0:0:0:0:
329,192,89824,128,0,89874:0:0:0:0:
109,192,89824,128,0,90124:0:0:0:0:
36,192,89824,128,0,90424:0:0:0:0:
402,192,89874,128,0,89924:0:0:0:0:
475,192,89924,128,0,90124:0:0:0:0:
182,192,89924,1,0,0:0:0:0:
402,192,90024,128,0,90224:0:0:0:0:
256,192,90024,1,0,0:0:0:0:
182,192,90124,128,0,90224:0:0:0:0:
329,192,90124,128,0,90424:0:0:0:0:
475,192,90224,1,0,0:0:0:0:
256,192,90224,128,0,90324:0:0:0:0:
109,192,90224,1,0,0:0:0:0:
402,192,90324,128,0,90374:0:0:0:0:
182,192,90324,128,0,90724:0:0:0:0:
475,192,90374,128,0,90424:0:0:0:0:
109,192,90424,128,0,90524:0:0:0:0:
256,192,90424,1,0,0:0:0:0:
36,192,90524,128,0,90824:0:0:0:0:
329,192,90524,1,0,0:0:0:0:
402,192,90574,1,0,0:0:0:0:
475,192,90624,128,0,90824:0:0:0:0:
256,192,90624,128,0,90724:0:0:0:0:
329,192,90724,128,0,91024:0:0:0:0:
109,192,90724,128,0,90924:0:0:0:0:
402,192,90824,128,0,90924:0:0:0:0:
182,192,90824,1,0,0:0:0:0:
36,192,90924,128,0,91124:0:0:0:0:
256,192,90924,128,0,90974:0:0:0:0:
475,192,90924,128,0,91324:0:0:0:0:
182,192,90974,128,0,91024:0:0:0:0:
402,192,91024,1,0,0:0:0:0:
109,192,91024,128,0,91224:0:0:0:0:
329,192,91124,1,0,0:0:0:0:
182,192,91124,128,0,91324:0:0:0:0:
256,192,91224,128,0,91524:0:0:0:0:
402,192,91224,128,0,91324:0:0:0:0:
36,192,91224,128,0,91324:0:0:0:0:
109,192,91324,1,0,0:0:0:0:
329,192,91324,128,0,91424:0:0:0:0:
402,192,91424,128,0,91724:0:0:0:0:
475,192,91424,128,0,92124:0:0:0:0:
182,192,91424,128,0,91474:0:0:0:0:
109,192,91474,128,0,91524:0:0:0:0:
36,192,91524,128,0,91724:0:0:0:0:
329,192,91524,1,0,0:0:0:0:
109,192,91624,128,0,91824:0:0:0:0:
256,192,91624,1,0,0:0:0:0:
329,192,91724,128,0,91824:0:0:0:0:
182,192,91724,128,0,92024:0:0:0:0:
36,192,91824,1,0,0:0:0:0:
256,192,91824,128,0,91924:0:0:0:0:
402,192,91824,1,0,0:0:0:0:
109,192,91924,128,0,91974:0:0:0:0:
329,192,91924,128,0,92024:0:0:0:0:
36,192,91974,128,0,92024:0:0:0:0:
402,192,92024,128,0,92124:0:0:0:0:
256,192,92024,1,0,0:0:0:0:
182,192,92124,1,0,0:0:0:0:
109,192,92174,1,0,0:0:0:0:
36,192,92224,128,0,93824:0:0:0:0:
475,192,92224,128,0,92924:0:0:0:0:
402,192,92224,128,0,92274:0:0:0:0:
256,192,92224,128,0,92274:0:0:0:0:
329,192,92224,128,0,92274:0:0:0:0:
109,192,92324,128,0,92524:0:0:0:0:
182,192,92424,128,0,92524:0:0:0:0:
402,192,92424,1,0,0:0:0:0:
256,192,92524,128,0,93124:0:0:0:0:
329,192,92524,1,0,0:0:0:0:
109,192,92624,1,0,0:0:0:0:
182,192,92624,1,0,0:0:0:0:
402,192,92624,1,0,0:0:0:0:
329,192,92724,128,0,92824:0:0:0:0:
182,192,92824,128,0,92924:0:0:0:0:
109,192,92924,128,0,93324:0:0:0:0:
182,192,93024,1,0,0:0:0:0:
329,192,93024,128,0,93624:0:0:0:0:
402,192,93024,1,0,0:0:0:0:
475,192,93024,1,0,0:0:0:0:
402,192,93224,128,0,93324:0:0:0:0:
182,192,93224,1,0,0:0:0:0:
256,192,93324,128,0,93424:0:0:0:0:
475,192,93424,1,0,0:0:0:0:
182,192,93424,128,0,93724:0:0:0:0:
109,192,93424,1,0,0:0:0:0:
402,192,93524,128,0,93924:0:0:0:0:
256,192,93624,1,0,0:0:0:0:
475,192,93724,128,0,93824:0:0:0:0:
109,192,93724,1,0,0:0:0:0:
329,192,93824,128,0,93924:0:0:0:0:
182,192,93824,1,0,0:0:0:0:
256,192,93824,128,0,95324:0:0:0:0:
36,192,93924,128,0,93974:0:0:0:0:
402,192,94024,1,0,0:0:0:0:
329,192,94024,1,0,0:0:0:0:
109,192,94124,128,0,94174:0:0:0:0:
402,192,94224,1,0,0:0:0:0:
475,192,94224,1,0,0:0:0:0:
182,192,94324,128,0,94374:0:0:0:0:
329,192,94424,1,0,0:0:0:0:
402,192,94424,1,0,0:0:0:0:
109,192,94524,128,0,94574:0:0:0:0:
36,192,94624,1,0,0:0:0:0:
475,192,94624,1,0,0:0:0:0:
182,192,94624,128,0,94674:0:0:0:0:
329,192,94724,128,0,95124:0:0:0:0:
109,192,94824,1,0,0:0:0:0:
36,192,94824,1,0,0:0:0:0:
402,192,94924,128,0,94974:0:0:0:0:
109,192,95024,128,0,95124:0:0:0:0:
182,192,95024,128,0,95324:0:0:0:0:
475,192,95124,128,0,95174:0:0:0:0:
109,192,95224,1,0,0:0:0:0:
36,192,95224,1,0,0:0:0:0:
402,192,95324,1,0,0:0:0:0:
36,192,95424,5,0,0:0:0:0:
475,192,95424,128,0,97824:0:0:0:0:
329,192,95424,128,0,96544:0:0:0:0:
256,192,95424,1,0,0:0:0:0:
182,192,95624,1,0,0:0:0:0:
36,192,95757,1,0,0:0:0:0:
182,192,95904,1,0,0:0:0:0:
36,192,96064,1,0,0:0:0:0:
182,192,96224,1,0,0:0:0:0:
36,192,96384,1,0,0:0:0:0:
182,192,96490,1,0,0:0:0:0:
109,192,96624,1,0,0:0:0:0:
329,192,96704,1,0,0:0:0:0:
256,192,96724,1,0,0:0:0:0:
109,192,96824,1,0,0:0:0:0:
402,192,96864,1,0,0:0:0:0:
256,192,96924,1,0,0:0:0:0:
36,192,97024,1,0,0:0:0:0:
329,192,97024,1,0,0:0:0:0:
182,192,97124,1,0,0:0:0:0:
402,192,97184,1,0,0:0:0:0:
36,192,97224,1,0,0:0:0:0:
182,192,97324,1,0,0:0:0:0:
329,192,97344,1,0,0:0:0:0:
36,192,97424,1,0,0:0:0:0:
402,192,97504,1,0,0:0:0:0:
182,192,97524,1,0,0:0:0:0:
36,192,97624,1,0,0:0:0:0:
329,192,97664,1,0,0:0:0:0:
182,192,97724,1,0,0:0:0:0:
36,192,97824,1,0,0:0:0:0:
402,192,97874,1,0,0:0:0:0:
109,192,97924,1,0,0:0:0:0:
329,192,97974,1,0,0:0:0:0:
182,192,98024,1,0,0:0:0:0:
256,192,98074,1,0,0:0:0:0:
329,192,98124,1,0,0:0:0:0:
182,192,98174,1,0,0:0:0:0:
402,192,98224,1,0,0:0:0:0:
109,192,98274,1,0,0:0:0:0:
475,192,98324,1,0,0:0:0:0:
36,192,98374,1,0,0:0:0:0:
402,192,98424,1,0,0:0:0:0:
109,192,98474,1,0,0:0:0:0:
329,192,98524,1,0,0:0:0:0:
182,192,98574,1,0,0:0:0:0:
475,192,98624,1,0,0:0:0:0:
256,192,98624,1,0,0:0:0:0:
36,192,98624,128,0,99224:0:0:0:0:
109,192,98624,128,0,98824:0:0:0:0:
402,192,98624,128,0,98924:0:0:0:0:
329,192,98824,128,0,99124:0:0:0:0:
182,192,98824,128,0,99024:0:0:0:0:
475,192,99024,128,0,99324:0:0:0:0:
109,192,99024,1,0,0:0:0:0:
256,192,99024,1,0,0:0:0:0:
402,192,99024,1,0,0:0:0:0:
329,192,99224,128,0,99424:0:0:0:0:
109,192,99224,128,0,99524:0:0:0:0:
402,192,99424,128,0,99724:0:0:0:0:
256,192,99424,128,0,99624:0:0:0:0:
475,192,99424,128,0,100024:0:0:0:0:
36,192,99424,1,0,0:0:0:0:
182,192,99624,128,0,99824:0:0:0:0:
36,192,99624,128,0,99824:0:0:0:0:
329,192,99824,128,0,100224:0:0:0:0:
109,192,99824,128,0,100124:0:0:0:0:
402,192,99824,1,0,0:0:0:0:
256,192,99824,1,0,0:0:0:0:
182,192,100024,128,0,100224:0:0:0:0:
36,192,100224,128,0,100824:0:0:0:0:
256,192,100224,128,0,100524:0:0:0:0:
109,192,100224,1,0,0:0:0:0:
475,192,100224,1,0,0:0:0:0:
182,192,100424,128,0,100624:0:0:0:0:
402,192,100424,128,0,100624:0:0:0:0:
109,192,100624,128,0,101024:0:0:0:0:
475,192,100624,128,0,100924:0:0:0:0:
256,192,100624,1,0,0:0:0:0:
329,192,100624,128,0,100924:0:0:0:0:
256,192,100824,128,0,101024:0:0:0:0:
475,192,101024,128,0,101624:0:0:0:0:
36,192,101024,128,0,101424:0:0:0:0:
182,192,101024,128,0,101324:0:0:0:0:
329,192,101024,1,0,0:0:0:0:
329,192,101224,128,0,101424:0:0:0:0:
256,192,101424,128,0,101724:0:0:0:0:
109,192,101424,128,0,101824:0:0:0:0:
402,192,101424,1,0,0:0:0:0:
182,192,101424,1,0,0:0:0:0:
402,192,101624,128,0,101824:0:0:0:0:
182,192,101824,128,0,102424:0:0:0:0:
36,192,101824,128,0,102124:0:0:0:0:
475,192,101824,128,0,102024:0:0:0:0:
256,192,101824,1,0,0:0:0:0:
329,192,102024,128,0,102224:0:0:0:0:
256,192,102224,1,0,0:0:0:0:
475,192,102224,1,0,0:0:0:0:
402,192,102224,128,0,102524:0:0:0:0:
36,192,102224,128,0,102524:0:0:0:0:
256,192,102424,128,0,102624:0:0:0:0:
182,192,102624,128,0,102924:0:0:0:0:
109,192,102624,1,0,0:0:0:0:
36,192,102624,128,0,103324:0:0:0:0:
329,192,102624,128,0,102724:0:0:0:0:
475,192,102624,128,0,102724:0:0:0:0:
475,192,102824,1,0,0:0:0:0:
402,192,102824,128,0,103124:0:0:0:0:
182,192,103024,128,0,103324:0:0:0:0:
475,192,103024,128,0,103324:0:0:0:0:
109,192,103024,1,0,0:0:0:0:
256,192,103024,128,0,103124:0:0:0:0:
329,192,103224,128,0,103424:0:0:0:0:
109,192,103424,128,0,104124:0:0:0:0:
256,192,103424,128,0,103724:0:0:0:0:
36,192,103424,128,0,103524:0:0:0:0:
475,192,103424,128,0,103524:0:0:0:0:
182,192,103424,1,0,0:0:0:0:
402,192,103424,1,0,0:0:0:0:
402,192,103624,128,0,103824:0:0:0:0:
475,192,103824,128,0,104424:0:0:0:0:
256,192,103824,1,0,0:0:0:0:
36,192,103824,128,0,103924:0:0:0:0:
182,192,103824,128,0,103924:0:0:0:0:
329,192,103824,1,0,0:0:0:0:
256,192,103999,1,0,0:0:0:0:
36,192,104024,128,0,104224:0:0:0:0:
329,192,104024,1,0,0:0:0:0:
402,192,104049,1,0,0:0:0:0:
329,192,104224,128,0,104624:0:0:0:0:
109,192,104224,1,0,0:0:0:0:
256,192,104224,1,0,0:0:0:0:
182,192,104424,128,0,104524:0:0:0:0:
36,192,104424,1,0,0:0:0:0:
109,192,104624,128,0,105024:0:0:0:0:
36,192,104624,1,0,0:0:0:0:
182,192,104624,1,0,0:0:0:0:
256,192,104624,128,0,104924:0:0:0:0:
475,192,104624,1,0,0:0:0:0:
402,192,104824,128,0,104924:0:0:0:0:
329,192,105024,128,0,105324:0:0:0:0:
475,192,105024,128,0,105624:0:0:0:0:
36,192,105024,1,0,0:0:0:0:
182,192,105024,1,0,0:0:0:0:
402,192,105024,1,0,0:0:0:0:
182,192,105224,128,0,105424:0:0:0:0:
36,192,105424,128,0,105824:0:0:0:0:
256,192,105424,128,0,105724:0:0:0:0:
109,192,105424,1,0,0:0:0:0:
402,192,105424,1,0,0:0:0:0:
402,192,105624,128,0,105824:0:0:0:0:
182,192,105824,128,0,106424:0:0:0:0:
475,192,105824,128,0,106024:0:0:0:0:
109,192,105824,1,0,0:0:0:0:
256,192,105824,1,0,0:0:0:0:
329,192,106024,128,0,106224:0:0:0:0:
36,192,106224,128,0,106424:0:0:0:0:
475,192,106224,1,0,0:0:0:0:
109,192,106224,1,0,0:0:0:0:
402,192,106224,128,0,106324:0:0:0:0:
256,192,106224,1,0,0:0:0:0:
329,192,106424,128,0,106624:0:0:0:0:
475,192,106424,128,0,106624:0:0:0:0:
109,192,106624,128,0,106924:0:0:0:0:
402,192,106624,128,0,107124:0:0:0:0:
36,192,106624,1,0,0:0:0:0:
182,192,106624,1,0,0:0:0:0:
256,192,106824,128,0,107124:0:0:0:0:
36,192,107024,128,0,107424:0:0:0:0:
182,192,107024,128,0,107324:0:0:0:0:
329,192,107024,1,0,0:0:0:0:
475,192,107024,1,0,0:0:0:0:
329,192,107224,128,0,107424:0:0:0:0:
475,192,107224,128,0,107424:0:0:0:0:
256,192,107424,128,0,107724:0:0:0:0:
402,192,107424,128,0,107924:0:0:0:0:
109,192,107424,1,0,0:0:0:0:
182,192,107424,1,0,0:0:0:0:
109,192,107624,128,0,107924:0:0:0:0:
256,192,107824,1,0,0:0:0:0:
329,192,107824,128,0,108124:0:0:0:0:
475,192,107824,128,0,108224:0:0:0:0:
36,192,107824,1,0,0:0:0:0:
36,192,108024,128,0,108224:0:0:0:0:
182,192,108024,128,0,108224:0:0:0:0:
109,192,108224,128,0,108424:0:0:0:0:
256,192,108224,128,0,108624:0:0:0:0:
402,192,108224,1,0,0:0:0:0:
329,192,108224,1,0,0:0:0:0:
402,192,108424,128,0,108724:0:0:0:0:
475,192,108624,1,0,0:0:0:0:
36,192,108624,128,0,109024:0:0:0:0:
182,192,108624,128,0,108924:0:0:0:0:
109,192,108624,1,0,0:0:0:0:
329,192,108824,128,0,109024:0:0:0:0:
475,192,108824,128,0,109024:0:0:0:0:
182,192,109024,128,0,109424:0:0:0:0:
256,192,109024,1,0,0:0:0:0:
109,192,109024,1,0,0:0:0:0:
402,192,109024,128,0,109324:0:0:0:0:
329,192,109224,128,0,109524:0:0:0:0:
475,192,109224,128,0,109524:0:0:0:0:
36,192,109224,128,0,109324:0:0:0:0:
36,192,109424,128,0,109824:0:0:0:0:
256,192,109424,128,0,109724:0:0:0:0:
109,192,109424,1,0,0:0:0:0:
402,192,109424,1,0,0:0:0:0:
182,192,109624,128,0,109824:0:0:0:0:
329,192,109624,128,0,109824:0:0:0:0:
475,192,109624,128,0,109724:0:0:0:0:
109,192,109824,128,0,110224:0:0:0:0:
402,192,109824,1,0,0:0:0:0:
475,192,109824,128,0,110724:0:0:0:0:
256,192,109924,128,0,110124:0:0:0:0:
402,192,110024,128,0,110124:0:0:0:0:
329,192,110124,128,0,110624:0:0:0:0:
182,192,110224,128,0,110524:0:0:0:0:
36,192,110324,128,0,110424:0:0:0:0:
256,192,110424,1,0,0:0:0:0:
402,192,110424,1,0,0:0:0:0:
36,192,110524,128,0,110824:0:0:0:0:
109,192,110624,128,0,110824:0:0:0:0:
256,192,110624,1,0,0:0:0:0:
182,192,110724,128,0,110824:0:0:0:0:
329,192,110824,128,0,111024:0:0:0:0:
475,192,110824,128,0,111024:0:0:0:0:
109,192,111024,128,0,111224:0:0:0:0:
256,192,111024,128,0,111424:0:0:0:0:
36,192,111024,1,0,0:0:0:0:
182,192,111024,1,0,0:0:0:0:
402,192,111224,128,0,111424:0:0:0:0:
329,192,111424,128,0,111824:0:0:0:0:
475,192,111424,128,0,111824:0:0:0:0:
36,192,111424,128,0,111474:0:0:0:0:
182,192,111424,128,0,111474:0:0:0:0:
109,192,111624,128,0,111674:0:0:0:0:
182,192,111824,128,0,111874:0:0:0:0:
256,192,112024,128,0,112074:0:0:0:0:
109,192,112224,128,0,112824:0:0:0:0:
475,192,112224,128,0,112274:0:0:0:0:
36,192,112224,128,0,112274:0:0:0:0:
256,192,112224,128,0,112274:0:0:0:0:
402,192,112424,128,0,112474:0:0:0:0:
329,192,112624,128,0,112674:0:0:0:0:
256,192,112824,128,0,112874:0:0:0:0:
329,192,113024,128,0,113424:0:0:0:0:
475,192,113024,128,0,113424:0:0:0:0:
182,192,113024,128,0,113074:0:0:0:0:
36,192,113024,128,0,113074:0:0:0:0:
109,192,113224,128,0,113274:0:0:0:0:
182,192,113424,128,0,113474:0:0:0:0:
256,192,113624,128,0,113674:0:0:0:0:
182,192,113824,128,0,114624:0:0:0:0:
36,192,113824,128,0,113874:0:0:0:0:
475,192,113824,128,0,113874:0:0:0:0:
402,192,114024,128,0,114074:0:0:0:0:
329,192,114224,128,0,114274:0:0:0:0:
256,192,114424,128,0,114474:0:0:0:0:
256,192,114624,128,0,115024:0:0:0:0:
402,192,114624,128,0,115024:0:0:0:0:
36,192,114624,128,0,114674:0:0:0:0:
109,192,114824,128,0,114874:0:0:0:0:
182,192,115024,128,0,115074:0:0:0:0:
256,192,115224,128,0,115274:0:0:0:0:
475,192,115424,128,0,115474:0:0:0:0:
36,192,115424,128,0,116124:0:0:0:0:
329,192,115424,128,0,115474:0:0:0:0:
256,192,115624,128,0,115674:0:0:0:0:
182,192,115824,128,0,115874:0:0:0:0:
256,192,116024,128,0,116074:0:0:0:0:
182,192,116224,128,0,116924:0:0:0:0:
329,192,116224,128,0,116924:0:0:0:0:
36,192,116224,128,0,116274:0:0:0:0:
475,192,116224,128,0,116274:0:0:0:0:
402,192,116424,128,0,116474:0:0:0:0:
109,192,116624,128,0,116674:0:0:0:0:
402,192,116824,128,0,116874:0:0:0:0:
475,192,117024,128,0,117074:0:0:0:0:
109,192,117024,128,0,117724:0:0:0:0:
329,192,117024,128,0,117074:0:0:0:0:
256,192,117224,128,0,117274:0:0:0:0:
182,192,117424,128,0,117474:0:0:0:0:
256,192,117624,128,0,117674:0:0:0:0:
329,192,117824,128,0,118224:0:0:0:0:
475,192,117824,128,0,118224:0:0:0:0:
182,192,117824,128,0,117874:0:0:0:0:
36,192,117824,128,0,117874:0:0:0:0:
109,192,118024,128,0,118074:0:0:0:0:
182,192,118224,128,0,118274:0:0:0:0:
256,192,118424,128,0,118474:0:0:0:0:
256,192,118624,128,0,119324:0:0:0:0:
109,192,118624,128,0,118674:0:0:0:0:
402,192,118624,128,0,118674:0:0:0:0:
329,192,118824,128,0,118874:0:0:0:0:
182,192,119024,128,0,119074:0:0:0:0:
329,192,119224,128,0,119274:0:0:0:0:
36,192,119424,128,0,120124:0:0:0:0:
182,192,119424,128,0,120124:0:0:0:0:
475,192,119424,128,0,119474:0:0:0:0:
329,192,119424,128,0,119474:0:0:0:0:
402,192,119624,128,0,119674:0:0:0:0:
329,192,119824,128,0,119874:0:0:0:0:
256,192,120024,128,0,120074:0:0:0:0:
402,192,120224,128,0,120724:0:0:0:0:
182,192,120224,128,0,120274:0:0:0:0:
36,192,120224,128,0,120274:0:0:0:0:
256,192,120424,128,0,120474:0:0:0:0:
109,192,120624,128,0,120674:0:0:0:0:
402,192,120824,128,0,120924:0:0:0:0:
182,192,120824,128,0,120874:0:0:0:0:
402,192,121024,128,0,121424:0:0:0:0:
109,192,121024,128,0,121424:0:0:0:0:
256,192,121024,128,0,121074:0:0:0:0:
329,192,121224,128,0,121274:0:0:0:0:
182,192,121424,128,0,121474:0:0:0:0:
256,192,121624,128,0,121674:0:0:0:0:
475,192,121824,128,0,122624:0:0:0:0:
182,192,121824,128,0,121874:0:0:0:0:
36,192,121824,128,0,121874:0:0:0:0:
256,192,122024,128,0,122074:0:0:0:0:
329,192,122224,128,0,122274:0:0:0:0:
402,192,122424,128,0,122474:0:0:0:0:
109,192,122624,128,0,123424:0:0:0:0:
256,192,122624,128,0,123424:0:0:0:0:
36,192,122624,128,0,122674:0:0:0:0:
402,192,122624,128,0,122674:0:0:0:0:
329,192,122824,128,0,122874:0:0:0:0:
402,192,123024,128,0,123074:0:0:0:0:
475,192,123224,128,0,123274:0:0:0:0:
402,192,123424,128,0,124024:0:0:0:0:
475,192,123424,128,0,124024:0:0:0:0:
182,192,123424,128,0,123474:0:0:0:0:
36,192,123424,128,0,123474:0:0:0:0:
256,192,123624,128,0,123674:0:0:0:0:
329,192,123824,128,0,123874:0:0:0:0:
182,192,124024,128,0,124124:0:0:0:0:
182,192,124224,128,0,124424:0:0:0:0:
36,192,124224,128,0,124424:0:0:0:0:
475,192,124224,128,0,124274:0:0:0:0:
402,192,124424,128,0,124474:0:0:0:0:
329,192,124624,128,0,124674:0:0:0:0:
256,192,124824,128,0,124874:0:0:0:0:
256,192,125024,128,0,125424:0:0:0:0:
36,192,125024,128,0,125074:0:0:0:0:
475,192,125024,128,0,125074:0:0:0:0:
182,192,125124,128,0,125174:0:0:0:0:
109,192,125224,128,0,125274:0:0:0:0:
329,192,125324,128,0,125374:0:0:0:0:
182,192,125424,128,0,125474:0:0:0:0:
329,192,125524,128,0,125574:0:0:0:0:
256,192,125624,128,0,125674:0:0:0:0:
329,192,125824,128,0,126524:0:0:0:0:
475,192,125824,128,0,126524:0:0:0:0:
36,192,125824,128,0,126524:0:0:0:0:
182,192,125824,128,0,125874:0:0:0:0:
109,192,125924,128,0,125974:0:0:0:0:
256,192,126024,128,0,126074:0:0:0:0:
182,192,126124,128,0,126174:0:0:0:0:
109,192,126224,128,0,126274:0:0:0:0:
182,192,126424,128,0,126474:0:0:0:0:
256,192,126624,128,0,127324:0:0:0:0:
402,192,126624,128,0,127324:0:0:0:0:
109,192,126624,128,0,126674:0:0:0:0:
182,192,126824,128,0,126874:0:0:0:0:
36,192,127024,128,0,127074:0:0:0:0:
109,192,127224,128,0,127274:0:0:0:0:
109,192,127424,128,0,127824:0:0:0:0:
256,192,127424,128,0,127824:0:0:0:0:
402,192,127424,128,0,127474:0:0:0:0:
329,192,127624,128,0,127674:0:0:0:0:
475,192,127824,128,0,127874:0:0:0:0:
402,192,128024,128,0,128074:0:0:0:0:
256,192,128224,128,0,128924:0:0:0:0:
182,192,128224,128,0,128274:0:0:0:0:
36,192,128224,128,0,128924:0:0:0:0:
402,192,128224,128,0,128924:0:0:0:0:
329,192,128424,128,0,128474:0:0:0:0:
109,192,128624,128,0,128674:0:0:0:0:
182,192,128824,128,0,128874:0:0:0:0:
329,192,129024,128,0,129824:0:0:0:0:
475,192,129024,128,0,129824:0:0:0:0:
36,192,129024,128,0,129324:0:0:0:0:
182,192,129024,128,0,129074:0:0:0:0:
109,192,129224,128,0,129524:0:0:0:0:
256,192,129224,128,0,129274:0:0:0:0:
182,192,129424,128,0,129824:0:0:0:0:
402,192,129424,128,0,129474:0:0:0:0:
36,192,129624,128,0,130524:0:0:0:0:
256,192,129624,128,0,129674:0:0:0:0:
109,192,129824,128,0,130024:0:0:0:0:
256,192,129824,128,0,130524:0:0:0:0:
402,192,129824,128,0,130224:0:0:0:0:
182,192,130024,128,0,130224:0:0:0:0:
329,192,130224,128,0,130524:0:0:0:0:
475,192,130224,128,0,130524:0:0:0:0:
109,192,130424,128,0,130524:0:0:0:0:
182,192,130624,128,0,131024:0:0:0:0:
36,192,130624,128,0,131024:0:0:0:0:
475,192,130624,128,0,130924:0:0:0:0:
402,192,130624,128,0,130924:0:0:0:0:
256,192,130824,128,0,131224:0:0:0:0:
475,192,131024,128,0,131424:0:0:0:0:
109,192,131224,128,0,131424:0:0:0:0:
402,192,131224,128,0,131424:0:0:0:0:
256,192,131424,128,0,132224:0:0:0:0:
36,192,131424,128,0,131824:0:0:0:0:
182,192,131424,128,0,131724:0:0:0:0:
329,192,131424,128,0,131474:0:0:0:0:
475,192,131524,128,0,131574:0:0:0:0:
109,192,131624,128,0,131924:0:0:0:0:
329,192,131624,128,0,131674:0:0:0:0:
402,192,131724,128,0,131774:0:0:0:0:
475,192,131824,128,0,131874:0:0:0:0:
329,192,131924,128,0,131974:0:0:0:0:
182,192,132024,128,0,132074:0:0:0:0:
475,192,132024,128,0,132224:0:0:0:0:
36,192,132024,128,0,132224:0:0:0:0:
329,192,132124,128,0,132174:0:0:0:0:
402,192,132224,128,0,133024:0:0:0:0:
109,192,132224,128,0,132274:0:0:0:0:
182,192,132324,128,0,132374:0:0:0:0:
329,192,132324,128,0,132524:0:0:0:0:
36,192,132424,128,0,132474:0:0:0:0:
256,192,132424,128,0,132624:0:0:0:0:
109,192,132524,128,0,132574:0:0:0:0:
182,192,132624,128,0,132674:0:0:0:0:
475,192,132624,128,0,132824:0:0:0:0:
36,192,132624,128,0,133024:0:0:0:0:
256,192,132824,128,0,132874:0:0:0:0:
109,192,133024,128,0,133824:0:0:0:0:
329,192,133024,128,0,133074:0:0:0:0:
475,192,133024,128,0,133074:0:0:0:0:
256,192,133224,128,0,133274:0:0:0:0:
402,192,133424,128,0,133474:0:0:0:0:
256,192,133424,128,0,133824:0:0:0:0:
182,192,133624,128,0,133674:0:0:0:0:
402,192,133624,128,0,133824:0:0:0:0:
475,192,133824,128,0,135424:0:0:0:0:
36,192,133824,128,0,134024:0:0:0:0:
329,192,133824,1,0,0:0:0:0:
109,192,133924,128,0,134124:0:0:0:0:
182,192,134024,128,0,134224:0:0:0:0:
256,192,134124,128,0,134424:0:0:0:0:
329,192,134224,128,0,134324:0:0:0:0:
182,192,134324,128,0,134524:0:0:0:0:
109,192,134424,128,0,134724:0:0:0:0:
36,192,134524,128,0,134624:0:0:0:0:
182,192,134624,128,0,134824:0:0:0:0:
256,192,134724,128,0,134924:0:0:0:0:
329,192,134824,128,0,135124:0:0:0:0:
402,192,134924,128,0,135024:0:0:0:0:
256,192,135024,128,0,135224:0:0:0:0:
182,192,135124,128,0,135424:0:0:0:0:
109,192,135224,128,0,135324:0:0:0:0:
256,192,135324,128,0,135524:0:0:0:0:
36,192,135424,128,0,136624:0:0:0:0:
402,192,135424,128,0,135624:0:0:0:0:
329,192,135524,128,0,135724:0:0:0:0:
256,192,135624,128,0,135824:0:0:0:0:
182,192,135724,128,0,136024:0:0:0:0:
109,192,135824,128,0,135924:0:0:0:0:
329,192,135824,128,0,135924:0:0:0:0:
475,192,135824,128,0,135924:0:0:0:0:
256,192,135924,128,0,136124:0:0:0:0:
402,192,135924,128,0,136124:0:0:0:0:
329,192,136024,128,0,136224:0:0:0:0:
475,192,136024,128,0,136224:0:0:0:0:
109,192,136024,128,0,136324:0:0:0:0:
182,192,136124,128,0,136224:0:0:0:0:
256,192,136224,128,0,136324:0:0:0:0:
402,192,136224,128,0,136324:0:0:0:0:
329,192,136324,128,0,136424:0:0:0:0:
182,192,136324,128,0,136424:0:0:0:0:
109,192,136424,128,0,136524:0:0:0:0:
256,192,136424,128,0,136524:0:0:0:0:
475,192,136424,128,0,136624:0:0:0:0:
402,192,136524,128,0,136624:0:0:0:0:
109,192,136624,128,0,136724:0:0:0:0:
256,192,136624,128,0,136924:0:0:0:0:
329,192,136624,1,0,0:0:0:0:
182,192,136724,128,0,136824:0:0:0:0:
402,192,136724,128,0,136824:0:0:0:0:
475,192,136824,128,0,136924:0:0:0:0:
36,192,136824,128,0,137024:0:0:0:0:
329,192,136824,128,0,137024:0:0:0:0:
109,192,136924,128,0,137024:0:0:0:0:
182,192,137024,128,0,137224:0:0:0:0:
402,192,137024,128,0,137224:0:0:0:0:
475,192,137024,128,0,137124:0:0:0:0:
256,192,137124,128,0,137324:0:0:0:0:
36,192,137124,128,0,137174:0:0:0:0:
329,192,137224,128,0,137424:0:0:0:0:
109,192,137224,128,0,137274:0:0:0:0:
475,192,137224,1,0,0:0:0:0:
402,192,137324,128,0,137524:0:0:0:0:
36,192,137324,128,0,137524:0:0:0:0:
182,192,137324,128,0,137374:0:0:0:0:
475,192,137424,128,0,137674:0:0:0:0:
256,192,137424,128,0,137474:0:0:0:0:
109,192,137424,128,0,137724:0:0:0:0:
329,192,137524,128,0,137574:0:0:0:0:
182,192,137524,128,0,137824:0:0:0:0:
402,192,137624,128,0,137674:0:0:0:0:
36,192,137624,128,0,137924:0:0:0:0:
256,192,137624,128,0,137724:0:0:0:0:
475,192,137724,128,0,137774:0:0:0:0:
329,192,137724,128,0,137824:0:0:0:0:
256,192,137824,128,0,138024:0:0:0:0:
402,192,137824,128,0,138024:0:0:0:0:
109,192,137824,128,0,138124:0:0:0:0:
329,192,137924,128,0,138124:0:0:0:0:
182,192,138024,128,0,138324:0:0:0:0:
36,192,138024,128,0,138324:0:0:0:0:
475,192,138024,128,0,138074:0:0:0:0:
402,192,138124,128,0,138174:0:0:0:0:
256,192,138124,128,0,138224:0:0:0:0:
329,192,138224,128,0,138274:0:0:0:0:
475,192,138224,128,0,138724:0:0:0:0:
109,192,138224,128,0,138424:0:0:0:0:
256,192,138324,128,0,138624:0:0:0:0:
402,192,138324,128,0,138424:0:0:0:0:
329,192,138424,128,0,138524:0:0:0:0:
36,192,138424,128,0,138474:0:0:0:0:
182,192,138424,128,0,138524:0:0:0:0:
109,192,138524,128,0,138574:0:0:0:0:
182,192,138624,128,0,138674:0:0:0:0:
36,192,138624,128,0,138824:0:0:0:0:
329,192,138624,128,0,138824:0:0:0:0:
402,192,138724,128,0,138924:0:0:0:0:
109,192,138724,128,0,139024:0:0:0:0:
256,192,138824,128,0,139024:0:0:0:0:
475,192,138824,1,0,0:0:0:0:
182,192,138824,1,0,0:0:0:0:
329,192,138924,128,0,138974:0:0:0:0:
182,192,139024,128,0,139324:0:0:0:0:
475,192,139024,128,0,139224:0:0:0:0:
36,192,139024,128,0,139224:0:0:0:0:
402,192,139024,128,0,139074:0:0:0:0:
256,192,139124,128,0,139174:0:0:0:0:
402,192,139224,128,0,139424:0:0:0:0:
109,192,139224,128,0,139424:0:0:0:0:
329,192,139224,128,0,139274:0:0:0:0:
256,192,139324,128,0,139374:0:0:0:0:
475,192,139424,128,0,140124:0:0:0:0:
36,192,139424,128,0,140124:0:0:0:0:
329,192,139424,128,0,139624:0:0:0:0:
182,192,139424,128,0,139474:0:0:0:0:
109,192,139524,128,0,139574:0:0:0:0:
256,192,139524,128,0,139724:0:0:0:0:
182,192,139624,128,0,139824:0:0:0:0:
402,192,139724,1,0,0:0:0:0:
109,192,139724,128,0,139924:0:0:0:0:
329,192,139824,1,0,0:0:0:0:
402,192,139924,128,0,140124:0:0:0:0:
256,192,139924,1,0,0:0:0:0:
329,192,140024,128,0,140124:0:0:0:0:
182,192,140024,1,0,0:0:0:0:
256,192,140124,128,0,140224:0:0:0:0:
109,192,140124,1,0,0:0:0:0:
36,192,140224,128,0,140524:0:0:0:0:
475,192,140224,128,0,140724:0:0:0:0:
402,192,140224,128,0,140524:0:0:0:0:
182,192,140224,128,0,140324:0:0:0:0:
329,192,140224,128,0,140324:0:0:0:0:
256,192,140424,128,0,140524:0:0:0:0:
109,192,140424,128,0,140724:0:0:0:0:
329,192,140424,1,0,0:0:0:0:
329,192,140624,128,0,140724:0:0:0:0:
182,192,140624,128,0,140924:0:0:0:0:
402,192,140624,1,0,0:0:0:0:
256,192,140624,1,0,0:0:0:0:
36,192,140624,128,0,140724:0:0:0:0:
475,192,140824,128,0,140924:0:0:0:0:
256,192,140824,128,0,140924:0:0:0:0:
329,192,140824,128,0,141124:0:0:0:0:
36,192,140824,128,0,140924:0:0:0:0:
109,192,141024,128,0,141124:0:0:0:0:
475,192,141024,128,0,141074:0:0:0:0:
36,192,141024,128,0,141224:0:0:0:0:
256,192,141024,128,0,141224:0:0:0:0:
182,192,141124,128,0,141324:0:0:0:0:
402,192,141124,128,0,141174:0:0:0:0:
475,192,141224,128,0,141624:0:0:0:0:
109,192,141224,128,0,141424:0:0:0:0:
329,192,141224,128,0,141274:0:0:0:0:
256,192,141324,128,0,141374:0:0:0:0:
36,192,141324,128,0,141524:0:0:0:0:
182,192,141424,128,0,141474:0:0:0:0:
329,192,141424,128,0,141524:0:0:0:0:
402,192,141524,128,0,142124:0:0:0:0:
109,192,141524,128,0,141574:0:0:0:0:
256,192,141524,128,0,141724:0:0:0:0:
36,192,141624,128,0,141674:0:0:0:0:
329,192,141624,128,0,141824:0:0:0:0:
475,192,141724,128,0,141824:0:0:0:0:
182,192,141724,128,0,141824:0:0:0:0:
36,192,141824,128,0,143324:0:0:0:0:
256,192,141824,128,0,142024:0:0:0:0:
109,192,141824,128,0,141924:0:0:0:0:
182,192,141924,128,0,142124:0:0:0:0:
329,192,142024,128,0,142124:0:0:0:0:
475,192,142024,1,0,0:0:0:0:
256,192,142124,128,0,142224:0:0:0:0:
109,192,142124,128,0,142424:0:0:0:0:
182,192,142224,128,0,142324:0:0:0:0:
475,192,142224,128,0,142524:0:0:0:0:
402,192,142224,128,0,142274:0:0:0:0:
329,192,142324,128,0,142374:0:0:0:0:
256,192,142424,128,0,142474:0:0:0:0:
402,192,142424,128,0,142724:0:0:0:0:
182,192,142524,128,0,142574:0:0:0:0:
329,192,142624,128,0,143024:0:0:0:0:
109,192,142624,128,0,142674:0:0:0:0:
475,192,142624,128,0,142924:0:0:0:0:
256,192,142624,128,0,142724:0:0:0:0:
182,192,142724,128,0,142774:0:0:0:0:
256,192,142824,128,0,142874:0:0:0:0:
109,192,142824,128,0,143024:0:0:0:0:
182,192,142924,128,0,143124:0:0:0:0:
402,192,142924,128,0,142974:0:0:0:0:
256,192,143024,128,0,143224:0:0:0:0:
475,192,143024,128,0,143074:0:0:0:0:
402,192,143124,128,0,143224:0:0:0:0:
109,192,143124,128,0,143324:0:0:0:0:
182,192,143224,128,0,143424:0:0:0:0:
329,192,143224,128,0,143324:0:0:0:0:
475,192,143224,128,0,143324:0:0:0:0:
256,192,143324,128,0,143724:0:0:0:0:
109,192,143424,128,0,143624:0:0:0:0:
329,192,143424,128,0,143524:0:0:0:0:
36,192,143424,128,0,143524:0:0:0:0:
402,192,143424,128,0,143724:0:0:0:0:
475,192,143424,128,0,143624:0:0:0:0:
182,192,143524,128,0,143824:0:0:0:0:
36,192,143624,128,0,144024:0:0:0:0:
329,192,143624,128,0,143824:0:0:0:0:
475,192,143724,128,0,143824:0:0:0:0:
109,192,143824,128,0,144024:0:0:0:0:
256,192,143824,128,0,144024:0:0:0:0:
402,192,143824,128,0,143924:0:0:0:0:
329,192,143924,128,0,144124:0:0:0:0:
182,192,143924,128,0,144224:0:0:0:0:
475,192,143924,128,0,144024:0:0:0:0:
402,192,144024,128,0,144224:0:0:0:0:
256,192,144124,128,0,144324:0:0:0:0:
36,192,144224,128,0,144324:0:0:0:0:
109,192,144224,128,0,144624:0:0:0:0:
329,192,144224,128,0,144424:0:0:0:0:
475,192,144224,128,0,144624:0:0:0:0:
182,192,144324,128,0,144424:0:0:0:0:
402,192,144424,128,0,144824:0:0:0:0:
256,192,144424,128,0,144524:0:0:0:0:
329,192,144524,128,0,144624:0:0:0:0:
182,192,144524,128,0,144624:0:0:0:0:
36,192,144624,128,0,144924:0:0:0:0:
256,192,144624,128,0,145224:0:0:0:0:
182,192,144724,128,0,144924:0:0:0:0:
329,192,144724,128,0,144824:0:0:0:0:
475,192,144824,128,0,145324:0:0:0:0:
109,192,144824,128,0,145024:0:0:0:0:
329,192,144924,128,0,145024:0:0:0:0:
182,192,145024,128,0,145124:0:0:0:0:
36,192,145024,128,0,145624:0:0:0:0:
402,192,145024,128,0,145424:0:0:0:0:
329,192,145124,128,0,145324:0:0:0:0:
109,192,145224,128,0,145274:0:0:0:0:
182,192,145324,128,0,145374:0:0:0:0:
256,192,145424,128,0,145474:0:0:0:0:
109,192,145424,128,0,145924:0:0:0:0:
475,192,145424,128,0,145824:0:0:0:0:
329,192,145524,128,0,145574:0:0:0:0:
182,192,145524,128,0,145624:0:0:0:0:
402,192,145624,128,0,145674:0:0:0:0:
256,192,145624,128,0,145824:0:0:0:0:
329,192,145724,128,0,145924:0:0:0:0:
402,192,145824,128,0,145924:0:0:0:0:
182,192,145824,128,0,146224:0:0:0:0:
36,192,145824,128,0,145924:0:0:0:0:
256,192,145924,128,0,146124:0:0:0:0:
36,192,146024,1,0,0:0:0:0:
109,192,146024,1,0,0:0:0:0:
475,192,146024,1,0,0:0:0:0:
329,192,146024,1,0,0:0:0:0:
402,192,146124,128,0,146424:0:0:0:0:
329,192,146224,128,0,146324:0:0:0:0:
475,192,146224,128,0,146324:0:0:0:0:
36,192,146224,1,0,0:0:0:0:
109,192,146324,128,0,146624:0:0:0:0:
36,192,146424,1,0,0:0:0:0:
182,192,146424,128,0,146624:0:0:0:0:
475,192,146424,1,0,0:0:0:0:
329,192,146424,1,0,0:0:0:0:
256,192,146524,128,0,147124:0:0:0:0:
329,192,146624,128,0,146724:0:0:0:0:
475,192,146624,128,0,146724:0:0:0:0:
36,192,146624,128,0,146924:0:0:0:0:
402,192,146624,128,0,146724:0:0:0:0:
109,192,146824,128,0,146924:0:0:0:0:
182,192,146824,128,0,146924:0:0:0:0:
329,192,146824,128,0,146924:0:0:0:0:
475,192,146824,128,0,146924:0:0:0:0:
402,192,147024,128,0,147524:0:0:0:0:
475,192,147024,128,0,147124:0:0:0:0:
109,192,147024,128,0,147124:0:0:0:0:
329,192,147024,128,0,147124:0:0:0:0:
36,192,147024,128,0,147124:0:0:0:0:
182,192,147224,128,0,147324:0:0:0:0:
36,192,147224,128,0,147324:0:0:0:0:
256,192,147224,128,0,147324:0:0:0:0:
475,192,147224,128,0,147324:0:0:0:0:
182,192,147424,128,0,147924:0:0:0:0:
329,192,147424,128,0,147524:0:0:0:0:
109,192,147424,128,0,147524:0:0:0:0:
36,192,147424,128,0,147524:0:0:0:0:
475,192,147424,128,0,147524:0:0:0:0:
256,192,147424,128,0,147524:0:0:0:0:
475,192,147624,128,0,147724:0:0:0:0:
36,192,147624,128,0,147724:0:0:0:0:
256,192,147624,128,0,147724:0:0:0:0:
329,192,147824,128,0,148324:0:0:0:0:
109,192,147824,128,0,147924:0:0:0:0:
36,192,147824,128,0,147924:0:0:0:0:
256,192,147824,128,0,147924:0:0:0:0:
475,192,147824,128,0,147924:0:0:0:0:
402,192,147824,128,0,147924:0:0:0:0:
182,192,148024,128,0,148124:0:0:0:0:
36,192,148024,128,0,148124:0:0:0:0:
475,192,148024,128,0,148124:0:0:0:0:
109,192,148224,128,0,149424:0:0:0:0:
256,192,148224,128,0,148324:0:0:0:0:
182,192,148224,128,0,148324:0:0:0:0:
36,192,148224,128,0,148324:0:0:0:0:
475,192,148224,128,0,148424:0:0:0:0:
402,192,148324,128,0,148624:0:0:0:0:
329,192,148424,128,0,148524:0:0:0:0:
182,192,148424,1,0,0:0:0:0:
475,192,148524,128,0,148724:0:0:0:0:
256,192,148624,128,0,148824:0:0:0:0:
36,192,148624,1,0,0:0:0:0:
182,192,148624,1,0,0:0:0:0:
329,192,148724,128,0,148924:0:0:0:0:
475,192,148824,1,0,0:0:0:0:
402,192,148824,128,0,149024:0:0:0:0:
36,192,148824,1,0,0:0:0:0:
182,192,148924,128,0,149024:0:0:0:0:
256,192,149024,128,0,149124:0:0:0:0:
329,192,149124,128,0,149224:0:0:0:0:
402,192,149224,128,0,149324:0:0:0:0:
182,192,149224,1,0,0:0:0:0:
475,192,149324,128,0,149424:0:0:0:0:
256,192,149324,1,0,0:0:0:0:
36,192,149424,128,0,149474:0:0:0:0:
329,192,149424,1,0,0:0:0:0:
182,192,149524,128,0,149574:0:0:0:0:
402,192,149524,1,0,0:0:0:0:
329,192,149624,128,0,149674:0:0:0:0:
109,192,149624,1,0,0:0:0:0:
402,192,149724,128,0,149774:0:0:0:0:
256,192,149724,1,0,0:0:0:0:
182,192,149824,128,0,150324:0:0:0:0:
329,192,149824,128,0,150124:0:0:0:0:
36,192,149824,128,0,150124:0:0:0:0:
475,192,149824,128,0,149924:0:0:0:0:
109,192,149824,1,0,0:0:0:0:
402,192,149924,128,0,150024:0:0:0:0:
475,192,150024,128,0,150074:0:0:0:0:
109,192,150024,128,0,150124:0:0:0:0:
256,192,150024,128,0,150224:0:0:0:0:
402,192,150124,128,0,150174:0:0:0:0:
329,192,150224,128,0,150274:0:0:0:0:
36,192,150224,128,0,150324:0:0:0:0:
109,192,150224,128,0,150624:0:0:0:0:
475,192,150224,128,0,150724:0:0:0:0:
256,192,150324,128,0,150374:0:0:0:0:
402,192,150324,128,0,150524:0:0:0:0:
329,192,150424,128,0,150624:0:0:0:0:
182,192,150424,128,0,150474:0:0:0:0:
36,192,150424,128,0,150474:0:0:0:0:
256,192,150524,128,0,150724:0:0:0:0:
36,192,150624,128,0,150724:0:0:0:0:
182,192,150624,128,0,150824:0:0:0:0:
402,192,150624,128,0,150674:0:0:0:0:
109,192,150724,128,0,151024:0:0:0:0:
329,192,150724,128,0,150774:0:0:0:0:
36,192,150824,128,0,150924:0:0:0:0:
256,192,150824,128,0,150874:0:0:0:0:
402,192,150824,128,0,151124:0:0:0:0:
475,192,150824,1,0,0:0:0:0:
182,192,150924,128,0,150974:0:0:0:0:
329,192,150924,128,0,151024:0:0:0:0:
36,192,151024,128,0,151224:0:0:0:0:
256,192,151024,128,0,151124:0:0:0:0:
475,192,151024,128,0,151424:0:0:0:0:
182,192,151124,128,0,151324:0:0:0:0:
329,192,151124,128,0,151224:0:0:0:0:
256,192,151224,128,0,151424:0:0:0:0:
402,192,151224,128,0,151324:0:0:0:0:
329,192,151324,128,0,151524:0:0:0:0:
36,192,151324,128,0,151424:0:0:0:0:
109,192,151324,128,0,151524:0:0:0:0:
182,192,151424,128,0,151824:0:0:0:0:
402,192,151424,128,0,151824:0:0:0:0:
256,192,151524,128,0,151574:0:0:0:0:
36,192,151524,1,0,0:0:0:0:
475,192,151524,1,0,0:0:0:0:
329,192,151624,128,0,151674:0:0:0:0:
256,192,151724,128,0,152124:0:0:0:0:
36,192,151724,128,0,152124:0:0:0:0:
109,192,151824,128,0,151874:0:0:0:0:
329,192,151824,1,0,0:0:0:0:
475,192,151824,1,0,0:0:0:0:
182,192,151924,128,0,151974:0:0:0:0:
402,192,151924,128,0,152024:0:0:0:0:
475,192,152024,128,0,152124:0:0:0:0:
329,192,152024,128,0,152224:0:0:0:0:
109,192,152024,1,0,0:0:0:0:
402,192,152124,128,0,152424:0:0:0:0:
109,192,152224,128,0,152324:0:0:0:0:
36,192,152224,128,0,152324:0:0:0:0:
475,192,152224,1,0,0:0:0:0:
256,192,152224,128,0,152424:0:0:0:0:
182,192,152224,128,0,152624:0:0:0:0:
329,192,152424,128,0,152724:0:0:0:0:
36,192,152424,128,0,152524:0:0:0:0:
475,192,152424,128,0,152924:0:0:0:0:
36,192,152624,128,0,152924:0:0:0:0:
402,192,152624,128,0,152924:0:0:0:0:
109,192,152624,128,0,152924:0:0:0:0:
256,192,152624,128,0,152924:0:0:0:0:
329,192,152824,128,0,153024:0:0:0:0:
182,192,152824,128,0,153124:0:0:0:0:
36,192,153024,128,0,153124:0:0:0:0:
109,192,153024,128,0,153424:0:0:0:0:
256,192,153024,128,0,153124:0:0:0:0:
402,192,153024,128,0,153224:0:0:0:0:
475,192,153024,1,0,0:0:0:0:
329,192,153124,128,0,153424:0:0:0:0:
182,192,153224,128,0,153324:0:0:0:0:
36,192,153224,1,0,0:0:0:0:
256,192,153324,128,0,153624:0:0:0:0:
475,192,153324,128,0,153424:0:0:0:0:
36,192,153424,1,0,0:0:0:0:
182,192,153424,128,0,153824:0:0:0:0:
402,192,153424,128,0,153524:0:0:0:0:
329,192,153524,128,0,153724:0:0:0:0:
475,192,153624,128,0,153924:0:0:0:0:
36,192,153624,128,0,153724:0:0:0:0:
109,192,153624,128,0,153724:0:0:0:0:
402,192,153624,1,0,0:0:0:0:
36,192,153824,1,0,0:0:0:0:
402,192,153824,1,0,0:0:0:0:
256,192,153824,128,0,154224:0:0:0:0:
109,192,153824,128,0,153924:0:0:0:0:
329,192,153824,128,0,154024:0:0:0:0:
182,192,153924,128,0,154124:0:0:0:0:
36,192,154024,128,0,154224:0:0:0:0:
475,192,154024,128,0,154124:0:0:0:0:
402,192,154024,128,0,154124:0:0:0:0:
109,192,154124,128,0,154224:0:0:0:0:
329,192,154224,128,0,154524:0:0:0:0:
182,192,154224,128,0,154324:0:0:0:0:
402,192,154224,1,0,0:0:0:0:
475,192,154224,1,0,0:0:0:0:
256,192,154324,128,0,154424:0:0:0:0:
36,192,154424,128,0,154524:0:0:0:0:
109,192,154424,128,0,154524:0:0:0:0:
402,192,154424,128,0,154624:0:0:0:0:
475,192,154424,1,0,0:0:0:0:
182,192,154424,128,0,154624:0:0:0:0:
256,192,154524,128,0,154724:0:0:0:0:
329,192,154624,128,0,154824:0:0:0:0:
475,192,154624,128,0,155024:0:0:0:0:
109,192,154624,128,0,154674:0:0:0:0:
36,192,154624,128,0,154674:0:0:0:0:
182,192,154724,128,0,154774:0:0:0:0:
402,192,154724,128,0,154924:0:0:0:0:
256,192,154824,128,0,154874:0:0:0:0:
36,192,154824,128,0,155424:0:0:0:0:
182,192,154924,128,0,155124:0:0:0:0:
329,192,154924,128,0,154974:0:0:0:0:
402,192,155024,128,0,155224:0:0:0:0:
109,192,155024,128,0,155224:0:0:0:0:
256,192,155124,128,0,155424:0:0:0:0:
182,192,155224,1,0,0:0:0:0:
329,192,155224,128,0,155274:0:0:0:0:
475,192,155224,128,0,155274:0:0:0:0:
402,192,155424,128,0,155924:0:0:0:0:
109,192,155424,128,0,155724:0:0:0:0:
475,192,155424,128,0,155624:0:0:0:0:
329,192,155424,1,0,0:0:0:0:
182,192,155524,128,0,155624:0:0:0:0:
36,192,155524,128,0,155624:0:0:0:0:
256,192,155524,1,0,0:0:0:0:
329,192,155624,128,0,155824:0:0:0:0:
475,192,155724,128,0,156024:0:0:0:0:
256,192,155724,1,0,0:0:0:0:
36,192,155724,128,0,156224:0:0:0:0:
182,192,155724,128,0,155824:0:0:0:0:
109,192,155824,128,0,155924:0:0:0:0:
256,192,155924,128,0,156024:0:0:0:0:
329,192,155924,1,0,0:0:0:0:
402,192,156024,128,0,156124:0:0:0:0:
109,192,156024,128,0,156124:0:0:0:0:
182,192,156124,128,0,156224:0:0:0:0:
475,192,156124,128,0,156224:0:0:0:0:
329,192,156124,128,0,156224:0:0:0:0:
256,192,156224,128,0,157024:0:0:0:0:
402,192,156224,128,0,156524:0:0:0:0:
109,192,156224,128,0,156274:0:0:0:0:
329,192,156324,128,0,156424:0:0:0:0:
182,192,156324,128,0,156374:0:0:0:0:
36,192,156424,128,0,156724:0:0:0:0:
109,192,156424,128,0,156474:0:0:0:0:
475,192,156424,128,0,156624:0:0:0:0:
182,192,156524,128,0,156624:0:0:0:0:
329,192,156624,128,0,156674:0:0:0:0:
109,192,156624,128,0,156824:0:0:0:0:
402,192,156724,128,0,157124:0:0:0:0:
475,192,156724,128,0,156774:0:0:0:0:
329,192,156824,128,0,156924:0:0:0:0:
36,192,156824,128,0,156874:0:0:0:0:
182,192,156924,128,0,157024:0:0:0:0:
36,192,157024,128,0,157124:0:0:0:0:
109,192,157024,128,0,157324:0:0:0:0:
329,192,157024,128,0,157324:0:0:0:0:
475,192,157024,128,0,157124:0:0:0:0:
182,192,157224,128,0,157724:0:0:0:0:
36,192,157224,128,0,157324:0:0:0:0:
475,192,157224,128,0,157324:0:0:0:0:
402,192,157224,128,0,157524:0:0:0:0:
36,192,157424,128,0,157524:0:0:0:0:
256,192,157424,128,0,157524:0:0:0:0:
329,192,157424,128,0,157724:0:0:0:0:
475,192,157424,128,0,157524:0:0:0:0:
109,192,157624,128,0,157724:0:0:0:0:
36,192,157624,128,0,157724:0:0:0:0:
402,192,157624,128,0,157724:0:0:0:0:
475,192,157624,128,0,157724:0:0:0:0:
475,192,157824,128,0,157924:0:0:0:0:
36,192,157824,128,0,157924:0:0:0:0:
182,192,157824,128,0,158224:0:0:0:0:
329,192,157824,128,0,158124:0:0:0:0:
256,192,157824,1,0,0:0:0:0:
109,192,157824,128,0,157924:0:0:0:0:
402,192,157924,128,0,158024:0:0:0:0:
256,192,158024,128,0,158324:0:0:0:0:
475,192,158024,128,0,158124:0:0:0:0:
36,192,158024,128,0,158124:0:0:0:0:
109,192,158124,128,0,158224:0:0:0:0:
36,192,158224,128,0,158324:0:0:0:0:
402,192,158224,128,0,158624:0:0:0:0:
329,192,158224,1,0,0:0:0:0:
475,192,158224,128,0,158324:0:0:0:0:
109,192,158324,128,0,158524:0:0:0:0:
182,192,158324,128,0,158424:0:0:0:0:
256,192,158424,128,0,158824:0:0:0:0:
475,192,158424,128,0,158524:0:0:0:0:
36,192,158424,1,0,0:0:0:0:
329,192,158524,128,0,158724:0:0:0:0:
36,192,158624,128,0,158724:0:0:0:0:
182,192,158624,128,0,158924:0:0:0:0:
475,192,158624,128,0,158824:0:0:0:0:
109,192,158624,128,0,158724:0:0:0:0:
402,192,158724,128,0,159024:0:0:0:0:
329,192,158824,128,0,159224:0:0:0:0:
36,192,158824,1,0,0:0:0:0:
109,192,158824,1,0,0:0:0:0:
256,192,158924,128,0,159024:0:0:0:0:
182,192,159024,128,0,159224:0:0:0:0:
36,192,159024,128,0,159124:0:0:0:0:
109,192,159024,128,0,159324:0:0:0:0:
475,192,159124,128,0,159424:0:0:0:0:
402,192,159224,128,0,159424:0:0:0:0:
36,192,159224,1,0,0:0:0:0:
256,192,159224,1,0,0:0:0:0:
329,192,159324,128,0,159424:0:0:0:0:
182,192,159424,128,0,159624:0:0:0:0:
109,192,159424,1,0,0:0:0:0:
36,192,159424,1,0,0:0:0:0:
256,192,159524,128,0,159724:0:0:0:0:
329,192,159624,128,0,159924:0:0:0:0:
402,192,159724,128,0,159824:0:0:0:0:
256,192,159824,128,0,160024:0:0:0:0:
182,192,159924,128,0,160224:0:0:0:0:
109,192,160024,128,0,160124:0:0:0:0:
256,192,160124,128,0,160324:0:0:0:0:
329,192,160224,128,0,160424:0:0:0:0:
402,192,160324,128,0,160524:0:0:0:0:
475,192,160424,128,0,160624:0:0:0:0:
36,192,160424,128,0,160624:0:0:0:0:
109,192,160524,128,0,160724:0:0:0:0:
182,192,160624,128,0,160824:0:0:0:0:
256,192,160724,128,0,160924:0:0:0:0:
329,192,160824,128,0,161024:0:0:0:0:
402,192,160924,128,0,161124:0:0:0:0:
475,192,161024,128,0,162224:0:0:0:0:
109,192,161024,128,0,161224:0:0:0:0:
36,192,161024,1,0,0:0:0:0:
182,192,161124,128,0,161424:0:0:0:0:
256,192,161224,128,0,161324:0:0:0:0:
109,192,161324,128,0,161624:0:0:0:0:
36,192,161424,128,0,161524:0:0:0:0:
182,192,161524,128,0,161724:0:0:0:0:
256,192,161624,128,0,161824:0:0:0:0:
329,192,161724,128,0,162024:0:0:0:0:
36,192,161724,1,0,0:0:0:0:
109,192,161724,1,0,0:0:0:0:
402,192,161824,128,0,161924:0:0:0:0:
109,192,161824,1,0,0:0:0:0:
36,192,161824,1,0,0:0:0:0:
256,192,161924,128,0,162124:0:0:0:0:
182,192,162024,128,0,162224:0:0:0:0:
402,192,162024,1,0,0:0:0:0:
109,192,162124,128,0,162424:0:0:0:0:
329,192,162124,1,0,0:0:0:0:
36,192,162224,128,0,162324:0:0:0:0:
256,192,162224,1,0,0:0:0:0:
402,192,162224,1,0,0:0:0:0:
182,192,162324,128,0,162524:0:0:0:0:
256,192,162424,128,0,162624:0:0:0:0:
329,192,162524,128,0,162724:0:0:0:0:
402,192,162624,128,0,162924:0:0:0:0:
109,192,162624,128,0,162924:0:0:0:0:
182,192,162824,128,0,163124:0:0:0:0:
36,192,163024,128,0,163124:0:0:0:0:
182,192,163224,128,0,163324:0:0:0:0:
402,192,163224,128,0,163324:0:0:0:0:
402,192,163424,128,0,163724:0:0:0:0:
182,192,163424,128,0,163724:0:0:0:0:
256,192,163624,128,0,163924:0:0:0:0:
109,192,163824,128,0,163924:0:0:0:0:
256,192,164024,128,0,164124:0:0:0:0:
475,192,164024,128,0,164124:0:0:0:0:
256,192,164224,128,0,164524:0:0:0:0:
475,192,164224,128,0,164524:0:0:0:0:
329,192,164424,128,0,164724:0:0:0:0:
182,192,164624,128,0,164724:0:0:0:0:
109,192,164824,128,0,164924:0:0:0:0:
402,192,164824,128,0,164924:0:0:0:0:
109,192,165024,128,0,165324:0:0:0:0:
402,192,165024,128,0,165324:0:0:0:0:
256,192,165224,128,0,165524:0:0:0:0:
109,192,165424,128,0,165524:0:0:0:0:
402,192,165624,128,0,165724:0:0:0:0:
329,192,165824,128,0,166324:0:0:0:0:
109,192,165824,128,0,166324:0:0:0:0:
475,192,165824,128,0,165924:0:0:0:0:
256,192,166024,128,0,166524:0:0:0:0:
402,192,166024,128,0,166124:0:0:0:0:
402,192,166224,128,0,166524:0:0:0:0:
109,192,166424,128,0,166524:0:0:0:0:
256,192,166624,128,0,167124:0:0:0:0:
36,192,166624,128,0,167124:0:0:0:0:
475,192,166624,128,0,166724:0:0:0:0:
182,192,166824,128,0,167324:0:0:0:0:
402,192,166824,128,0,166924:0:0:0:0:
329,192,167024,128,0,167324:0:0:0:0:
36,192,167224,128,0,167324:0:0:0:0:
402,192,167224,128,0,167324:0:0:0:0:
475,192,167224,128,0,167324:0:0:0:0:
109,192,167424,128,0,167524:0:0:0:0:
182,192,167424,128,0,167724:0:0:0:0:
329,192,167424,128,0,167624:0:0:0:0:
475,192,167424,128,0,167524:0:0:0:0:
36,192,167424,128,0,167524:0:0:0:0:
256,192,167624,128,0,167924:0:0:0:0:
402,192,167824,128,0,167924:0:0:0:0:
475,192,167824,128,0,167924:0:0:0:0:
109,192,167824,128,0,167924:0:0:0:0:
36,192,167824,128,0,167924:0:0:0:0:
329,192,167824,128,0,168124:0:0:0:0:
182,192,168024,128,0,168124:0:0:0:0:
256,192,168224,128,0,168424:0:0:0:0:
109,192,168224,128,0,168424:0:0:0:0:
402,192,168224,128,0,168424:0:0:0:0:
329,192,168424,128,0,168624:0:0:0:0:
475,192,168424,128,0,168624:0:0:0:0:
36,192,168524,128,0,168824:0:0:0:0:
109,192,168549,128,0,168824:0:0:0:0:
182,192,168574,128,0,168824:0:0:0:0:
256,192,168824,128,0,169024:0:0:0:0:
402,192,168824,128,0,169024:0:0:0:0:
329,192,168824,1,0,0:0:0:0:
475,192,168824,1,0,0:0:0:0:
329,192,169024,128,0,169124:0:0:0:0:
36,192,169024,128,0,169624:0:0:0:0:
182,192,169024,128,0,169324:0:0:0:0:
475,192,169024,128,0,169074:0:0:0:0:
109,192,169024,1,0,0:0:0:0:
402,192,169124,128,0,169174:0:0:0:0:
256,192,169124,128,0,170424:0:0:0:0:
329,192,169224,128,0,169274:0:0:0:0:
109,192,169224,128,0,169424:0:0:0:0:
475,192,169324,1,0,0:0:0:0:
475,192,169424,128,0,169724:0:0:0:0:
329,192,169424,128,0,169724:0:0:0:0:
182,192,169424,128,0,169524:0:0:0:0:
109,192,169524,128,0,169824:0:0:0:0:
182,192,169624,128,0,169724:0:0:0:0:
36,192,169724,128,0,169824:0:0:0:0:
475,192,169824,128,0,170224:0:0:0:0:
182,192,169824,128,0,169874:0:0:0:0:
329,192,169824,128,0,170024:0:0:0:0:
36,192,169924,128,0,169974:0:0:0:0:
109,192,170024,128,0,170074:0:0:0:0:
402,192,170024,128,0,170124:0:0:0:0:
36,192,170124,1,0,0:0:0:0:
182,192,170124,1,0,0:0:0:0:
329,192,170224,128,0,170324:0:0:0:0:
402,192,170224,128,0,170524:0:0:0:0:
182,192,170224,128,0,170624:0:0:0:0:
36,192,170224,128,0,170624:0:0:0:0:
329,192,170424,128,0,170724:0:0:0:0:
475,192,170424,128,0,170524:0:0:0:0:
256,192,170524,128,0,172024:0:0:0:0:
402,192,170624,128,0,170724:0:0:0:0:
475,192,170624,128,0,170724:0:0:0:0:
109,192,170624,128,0,170724:0:0:0:0:
182,192,170724,128,0,170924:0:0:0:0:
36,192,170824,128,0,171024:0:0:0:0:
109,192,170924,128,0,171124:0:0:0:0:
402,192,170924,1,0,0:0:0:0:
475,192,170924,1,0,0:0:0:0:
402,192,171024,128,0,171424:0:0:0:0:
475,192,171024,128,0,171424:0:0:0:0:
182,192,171024,128,0,171224:0:0:0:0:
36,192,171124,128,0,171224:0:0:0:0:
109,192,171224,128,0,171524:0:0:0:0:
329,192,171224,128,0,171324:0:0:0:0:
182,192,171324,128,0,171524:0:0:0:0:
36,192,171424,128,0,171524:0:0:0:0:
329,192,171424,128,0,171524:0:0:0:0:
402,192,171524,128,0,171724:0:0:0:0:
329,192,171624,128,0,171824:0:0:0:0:
475,192,171624,128,0,171724:0:0:0:0:
36,192,171724,1,0,0:0:0:0:
109,192,171724,1,0,0:0:0:0:
109,192,171824,128,0,172224:0:0:0:0:
36,192,171824,128,0,172224:0:0:0:0:
402,192,171824,128,0,172024:0:0:0:0:
475,192,171824,128,0,171924:0:0:0:0:
329,192,171924,128,0,172224:0:0:0:0:
182,192,172024,128,0,172124:0:0:0:0:
475,192,172024,128,0,172124:0:0:0:0:
256,192,172124,128,0,172224:0:0:0:0:
402,192,172224,128,0,172724:0:0:0:0:
182,192,172224,128,0,172724:0:0:0:0:
475,192,172224,128,0,173024:0:0:0:0:
36,192,172424,128,0,172524:0:0:0:0:
109,192,172624,128,0,172724:0:0:0:0:
329,192,172624,128,0,172724:0:0:0:0:
182,192,172824,128,0,172924:0:0:0:0:
402,192,172824,128,0,172924:0:0:0:0:
36,192,173024,128,0,173824:0:0:0:0:
182,192,173024,128,0,173524:0:0:0:0:
402,192,173024,128,0,173524:0:0:0:0:
329,192,173224,128,0,173324:0:0:0:0:
256,192,173424,128,0,173524:0:0:0:0:
475,192,173424,128,0,173524:0:0:0:0:
402,192,173624,128,0,173724:0:0:0:0:
182,192,173624,128,0,173724:0:0:0:0:
402,192,173824,128,0,174624:0:0:0:0:
109,192,173824,128,0,174324:0:0:0:0:
329,192,173824,128,0,174324:0:0:0:0:
182,192,174024,128,0,174124:0:0:0:0:
36,192,174224,128,0,174324:0:0:0:0:
256,192,174224,128,0,174324:0:0:0:0:
109,192,174424,128,0,174524:0:0:0:0:
329,192,174424,128,0,174524:0:0:0:0:
475,192,174624,128,0,175124:0:0:0:0:
109,192,174624,128,0,175424:0:0:0:0:
256,192,174624,128,0,175124:0:0:0:0:
329,192,174824,128,0,174924:0:0:0:0:
182,192,175024,128,0,175124:0:0:0:0:
402,192,175024,128,0,175124:0:0:0:0:
475,192,175224,128,0,175324:0:0:0:0:
256,192,175224,128,0,175324:0:0:0:0:
475,192,175424,128,0,177024:0:0:0:0:
36,192,175424,128,0,176824:0:0:0:0:
182,192,175424,128,0,176824:0:0:0:0:
36,192,176924,1,0,0:0:0:0:
182,192,176924,1,0,0:0:0:0:
402,192,177024,128,0,178224:0:0:0:0:
36,192,177024,128,0,178224:0:0:0:0:
182,192,177024,128,0,178224:0:0:0:0:
329,192,178624,128,0,179124:0:0:0:0:
182,192,178624,1,0,0:0:0:0:
475,192,178624,1,0,0:0:0:0:
36,192,178624,128,0,178724:0:0:0:0:
182,192,178824,128,0,178924:0:0:0:0:
182,192,179024,128,0,179524:0:0:0:0:
36,192,179024,1,0,0:0:0:0:
109,192,179024,1,0,0:0:0:0:
475,192,179024,128,0,179124:0:0:0:0:
329,192,179224,128,0,179324:0:0:0:0:
402,192,179424,128,0,179924:0:0:0:0:
36,192,179424,128,0,179524:0:0:0:0:
475,192,179424,1,0,0:0:0:0:
256,192,179424,1,0,0:0:0:0:
182,192,179624,128,0,179724:0:0:0:0:
109,192,179824,128,0,180324:0:0:0:0:
36,192,179824,1,0,0:0:0:0:
475,192,179824,1,0,0:0:0:0:
256,192,179824,128,0,179924:0:0:0:0:
402,192,180024,128,0,180124:0:0:0:0:
475,192,180224,128,0,180824:0:0:0:0:
256,192,180224,128,0,180324:0:0:0:0:
36,192,180224,1,0,0:0:0:0:
182,192,180224,1,0,0:0:0:0:
329,192,180424,128,0,180824:0:0:0:0:
109,192,180424,128,0,180524:0:0:0:0:
182,192,180624,128,0,180724:0:0:0:0:
36,192,180624,128,0,180724:0:0:0:0:
256,192,180824,128,0,180924:0:0:0:0:
36,192,180824,128,0,181324:0:0:0:0:
109,192,180824,128,0,180924:0:0:0:0:
182,192,181024,128,0,181324:0:0:0:0:
475,192,181024,1,0,0:0:0:0:
256,192,181024,128,0,181124:0:0:0:0:
402,192,181024,128,0,181124:0:0:0:0:
475,192,181224,128,0,181524:0:0:0:0:
329,192,181224,128,0,181324:0:0:0:0:
402,192,181424,1,0,0:0:0:0:
182,192,181424,128,0,181524:0:0:0:0:
36,192,181424,128,0,181724:0:0:0:0:
256,192,181424,128,0,181724:0:0:0:0:
402,192,181624,128,0,181724:0:0:0:0:
109,192,181624,1,0,0:0:0:0:
182,192,181824,128,0,182324:0:0:0:0:
329,192,181824,1,0,0:0:0:0:
36,192,181824,1,0,0:0:0:0:
475,192,181824,128,0,181924:0:0:0:0:
329,192,182024,128,0,182124:0:0:0:0:
475,192,182224,1,0,0:0:0:0:
329,192,182224,128,0,182724:0:0:0:0:
36,192,182224,128,0,182324:0:0:0:0:
402,192,182224,1,0,0:0:0:0:
182,192,182424,128,0,182524:0:0:0:0:
109,192,182624,128,0,183124:0:0:0:0:
475,192,182624,128,0,182724:0:0:0:0:
36,192,182624,1,0,0:0:0:0:
256,192,182624,1,0,0:0:0:0:
329,192,182824,128,0,182924:0:0:0:0:
475,192,183024,1,0,0:0:0:0:
36,192,183024,1,0,0:0:0:0:
402,192,183024,128,0,183524:0:0:0:0:
256,192,183024,128,0,183124:0:0:0:0:
109,192,183224,128,0,183324:0:0:0:0:
36,192,183424,128,0,184024:0:0:0:0:
256,192,183424,128,0,183524:0:0:0:0:
475,192,183424,1,0,0:0:0:0:
329,192,183424,1,0,0:0:0:0:
182,192,183624,128,0,184024:0:0:0:0:
402,192,183624,128,0,183724:0:0:0:0:
329,192,183824,128,0,184024:0:0:0:0:
475,192,183824,128,0,183924:0:0:0:0:
402,192,184024,128,0,184124:0:0:0:0:
475,192,184024,128,0,184524:0:0:0:0:
256,192,184224,1,0,0:0:0:0:
109,192,184224,128,0,184524:0:0:0:0:
182,192,184224,128,0,184324:0:0:0:0:
36,192,184224,1,0,0:0:0:0:
402,192,184424,128,0,184724:0:0:0:0:
329,192,184424,128,0,184524:0:0:0:0:
329,192,184624,1,0,0:0:0:0:
36,192,184624,1,0,0:0:0:0:
256,192,184624,128,0,184924:0:0:0:0:
182,192,184624,128,0,184724:0:0:0:0:
475,192,184624,1,0,0:0:0:0:
109,192,184824,1,0,0:0:0:0:
402,192,184824,128,0,184924:0:0:0:0:
36,192,184924,1,0,0:0:0:0:
109,192,184957,1,0,0:0:0:0:
182,192,184990,1,0,0:0:0:0:
256,192,185024,1,0,0:0:0:0:
329,192,185024,128,0,185324:0:0:0:0:
475,192,185024,128,0,185124:0:0:0:0:
182,192,185224,128,0,185324:0:0:0:0:
36,192,185224,1,0,0:0:0:0:
475,192,185224,1,0,0:0:0:0:
182,192,185424,128,0,185724:0:0:0:0:
329,192,185424,128,0,185524:0:0:0:0:
36,192,185424,1,0,0:0:0:0:
475,192,185424,1,0,0:0:0:0:
402,192,185424,1,0,0:0:0:0:
329,192,185624,1,0,0:0:0:0:
475,192,185624,1,0,0:0:0:0:
36,192,185624,128,0,185724:0:0:0:0:
256,192,185824,128,0,186124:0:0:0:0:
109,192,185824,128,0,185924:0:0:0:0:
36,192,185824,1,0,0:0:0:0:
402,192,185824,1,0,0:0:0:0:
475,192,185824,1,0,0:0:0:0:
402,192,186024,128,0,186124:0:0:0:0:
109,192,186024,1,0,0:0:0:0:
329,192,186224,128,0,186524:0:0:0:0:
402,192,186224,1,0,0:0:0:0:
182,192,186224,128,0,186324:0:0:0:0:
475,192,186224,1,0,0:0:0:0:
36,192,186224,1,0,0:0:0:0:
475,192,186424,128,0,186524:0:0:0:0:
182,192,186424,1,0,0:0:0:0:
36,192,186624,1,0,0:0:0:0:
256,192,186624,1,0,0:0:0:0:
109,192,186624,1,0,0:0:0:0:
402,192,186624,128,0,186924:0:0:0:0:
256,192,186924,1,0,0:0:0:0:
109,192,186924,1,0,0:0:0:0:
36,192,187024,1,0,0:0:0:0:
109,192,187024,128,0,187324:0:0:0:0:
402,192,187024,128,0,187324:0:0:0:0:
256,192,187024,128,0,187324:0:0:0:0:
475,192,187024,1,0,0:0:0:0:
475,192,187424,128,0,187624:0:0:0:0:
182,192,187424,128,0,187624:0:0:0:0:
36,192,187424,128,0,187624:0:0:0:0:
329,192,187424,128,0,187624:0:0:0:0:
402,192,187724,1,0,0:0:0:0:
256,192,187724,1,0,0:0:0:0:
109,192,187824,128,0,187924:0:0:0:0:
402,192,187824,128,0,188124:0:0:0:0:
256,192,187824,128,0,188124:0:0:0:0:
36,192,188024,128,0,188424:0:0:0:0:
109,192,188024,128,0,188124:0:0:0:0:
475,192,188224,128,0,188324:0:0:0:0:
329,192,188224,128,0,188524:0:0:0:0:
109,192,188224,1,0,0:0:0:0:
182,192,188224,1,0,0:0:0:0:
182,192,188424,128,0,188724:0:0:0:0:
475,192,188424,128,0,188524:0:0:0:0:
36,192,188624,128,0,188924:0:0:0:0:
109,192,188624,128,0,188724:0:0:0:0:
402,192,188624,128,0,188924:0:0:0:0:
475,192,188624,1,0,0:0:0:0:
329,192,188624,1,0,0:0:0:0:
256,192,188824,128,0,189124:0:0:0:0:
182,192,188824,128,0,188924:0:0:0:0:
329,192,188824,1,0,0:0:0:0:
329,192,189024,128,0,189124:0:0:0:0:
36,192,189024,128,0,189124:0:0:0:0:
182,192,189024,128,0,189324:0:0:0:0:
475,192,189024,128,0,189324:0:0:0:0:
36,192,189224,128,0,189324:0:0:0:0:
329,192,189224,128,0,189324:0:0:0:0:
182,192,189424,128,0,189724:0:0:0:0:
475,192,189424,128,0,189724:0:0:0:0:
36,192,189424,128,0,189724:0:0:0:0:
256,192,189424,1,0,0:0:0:0:
329,192,189424,128,0,189724:0:0:0:0:
256,192,189824,1,0,0:0:0:0:
182,192,189824,128,0,190124:0:0:0:0:
36,192,189824,128,0,189924:0:0:0:0:
109,192,189824,128,0,189924:0:0:0:0:
475,192,189824,128,0,190124:0:0:0:0:
329,192,189890,1,0,0:0:0:0:
402,192,189957,1,0,0:0:0:0:
36,192,190024,128,0,190124:0:0:0:0:
109,192,190024,128,0,190124:0:0:0:0:
256,192,190024,128,0,190124:0:0:0:0:
329,192,190124,128,0,190224:0:0:0:0:
402,192,190224,128,0,190324:0:0:0:0:
182,192,190224,1,0,0:0:0:0:
475,192,190224,128,0,190924:0:0:0:0:
36,192,190224,128,0,190524:0:0:0:0:
109,192,190224,1,0,0:0:0:0:
256,192,190290,1,0,0:0:0:0:
329,192,190357,1,0,0:0:0:0:
109,192,190424,128,0,190524:0:0:0:0:
182,192,190424,128,0,190524:0:0:0:0:
256,192,190524,128,0,190624:0:0:0:0:
329,192,190624,128,0,190724:0:0:0:0:
109,192,190624,1,0,0:0:0:0:
402,192,190624,128,0,191124:0:0:0:0:
36,192,190624,128,0,190924:0:0:0:0:
182,192,190690,1,0,0:0:0:0:
256,192,190757,1,0,0:0:0:0:
109,192,190824,128,0,190924:0:0:0:0:
329,192,190824,128,0,190924:0:0:0:0:
182,192,190924,128,0,191024:0:0:0:0:
256,192,191024,128,0,191224:0:0:0:0:
36,192,191024,128,0,191357:0:0:0:0:
329,192,191024,128,0,191124:0:0:0:0:
475,192,191024,128,0,191357:0:0:0:0:
109,192,191090,128,0,191157:0:0:0:0:
182,192,191157,128,0,191290:0:0:0:0:
402,192,191224,128,0,191290:0:0:0:0:
109,192,191290,1,0,0:0:0:0:
329,192,191290,128,0,191357:0:0:0:0:
182,192,191357,1,0,0:0:0:0:
36,192,191424,1,0,0:0:0:0:
256,192,191424,128,0,191490:0:0:0:0:
475,192,191424,128,0,191490:0:0:0:0:
109,192,191424,128,0,191557:0:0:0:0:
402,192,191424,1,0,0:0:0:0:
329,192,191490,128,0,191557:0:0:0:0:
402,192,191557,128,0,191624:0:0:0:0:
182,192,191557,128,0,191624:0:0:0:0:
475,192,191624,128,0,191824:0:0:0:0:
256,192,191624,128,0,191690:0:0:0:0:
36,192,191624,128,0,191690:0:0:0:0:
329,192,191690,128,0,191757:0:0:0:0:
182,192,191757,128,0,191824:0:0:0:0:
36,192,191824,128,0,192090:0:0:0:0:
109,192,191824,128,0,191890:0:0:0:0:
256,192,191824,128,0,192024:0:0:0:0:
402,192,191824,128,0,192224:0:0:0:0:
329,192,191890,1,0,0:0:0:0:
182,192,191957,128,0,192024:0:0:0:0:
329,192,192024,128,0,192090:0:0:0:0:
475,192,192024,128,0,192090:0:0:0:0:
109,192,192024,128,0,192224:0:0:0:0:
256,192,192090,128,0,192157:0:0:0:0:
182,192,192157,128,0,192224:0:0:0:0:
36,192,192224,128,0,192324:0:0:0:0:
329,192,192224,128,0,192324:0:0:0:0:
475,192,192224,128,0,192524:0:0:0:0:
402,192,192324,128,0,192524:0:0:0:0:
109,192,192324,128,0,192724:0:0:0:0:
256,192,192324,128,0,192424:0:0:0:0:
36,192,192424,1,0,0:0:0:0:
182,192,192424,128,0,192524:0:0:0:0:
256,192,192524,128,0,192624:0:0:0:0:
475,192,192624,1,0,0:0:0:0:
182,192,192624,128,0,192724:0:0:0:0:
329,192,192624,128,0,192924:0:0:0:0:
402,192,192624,128,0,192674:0:0:0:0:
36,192,192624,128,0,192924:0:0:0:0:
256,192,192724,128,0,192824:0:0:0:0:
109,192,192824,128,0,192924:0:0:0:0:
402,192,192824,128,0,193024:0:0:0:0:
475,192,192824,128,0,192874:0:0:0:0:
182,192,192924,128,0,193024:0:0:0:0:
475,192,193024,128,0,193090:0:0:0:0:
256,192,193024,128,0,193090:0:0:0:0:
109,192,193024,128,0,193290:0:0:0:0:
36,192,193024,128,0,193090:0:0:0:0:
329,192,193090,128,0,193224:0:0:0:0:
402,192,193157,128,0,193490:0:0:0:0:
182,192,193157,128,0,193224:0:0:0:0:
36,192,193224,128,0,193357:0:0:0:0:
256,192,193224,128,0,193290:0:0:0:0:
475,192,193224,128,0,193290:0:0:0:0:
182,192,193290,128,0,193357:0:0:0:0:
329,192,193357,1,0,0:0:0:0:
109,192,193357,128,0,193424:0:0:0:0:
36,192,193424,128,0,193757:0:0:0:0:
475,192,193424,128,0,193557:0:0:0:0:
182,192,193424,128,0,193624:0:0:0:0:
256,192,193424,128,0,193490:0:0:0:0:
329,192,193490,128,0,193624:0:0:0:0:
402,192,193557,128,0,193757:0:0:0:0:
475,192,193624,128,0,193690:0:0:0:0:
256,192,193624,128,0,193824:0:0:0:0:
109,192,193624,128,0,193690:0:0:0:0:
182,192,193690,128,0,193757:0:0:0:0:
329,192,193757,128,0,194090:0:0:0:0:
36,192,193824,128,0,194090:0:0:0:0:
402,192,193824,1,0,0:0:0:0:
109,192,193824,128,0,193890:0:0:0:0:
182,192,193824,1,0,0:0:0:0:
475,192,193824,128,0,193957:0:0:0:0:
256,192,193890,128,0,193957:0:0:0:0:
182,192,193957,128,0,194157:0:0:0:0:
475,192,194024,1,0,0:0:0:0:
109,192,194024,128,0,194090:0:0:0:0:
402,192,194024,128,0,194224:0:0:0:0:
256,192,194090,128,0,194224:0:0:0:0:
109,192,194157,128,0,194224:0:0:0:0:
475,192,194157,128,0,194290:0:0:0:0:
329,192,194224,128,0,194357:0:0:0:0:
36,192,194224,128,0,194357:0:0:0:0:
182,192,194224,128,0,194357:0:0:0:0:
402,192,194290,128,0,194424:0:0:0:0:
256,192,194357,128,0,194557:0:0:0:0:
109,192,194357,128,0,194490:0:0:0:0:
329,192,194424,128,0,194490:0:0:0:0:
475,192,194424,128,0,194490:0:0:0:0:
36,192,194490,128,0,194557:0:0:0:0:
182,192,194557,128,0,194624:0:0:0:0:
36,192,194624,1,0,0:0:0:0:
109,192,194624,128,0,194757:0:0:0:0:
402,192,194624,128,0,194824:0:0:0:0:
329,192,194624,128,0,194690:0:0:0:0:
475,192,194624,128,0,194890:0:0:0:0:
256,192,194690,128,0,194890:0:0:0:0:
182,192,194757,128,0,194824:0:0:0:0:
329,192,194824,128,0,194957:0:0:0:0:
36,192,194824,128,0,194890:0:0:0:0:
109,192,194824,128,0,195024:0:0:0:0:
402,192,194890,128,0,195024:0:0:0:0:
475,192,194957,128,0,195090:0:0:0:0:
182,192,194957,128,0,195090:0:0:0:0:
256,192,195024,128,0,195157:0:0:0:0:
36,192,195024,128,0,195290:0:0:0:0:
329,192,195090,128,0,195424:0:0:0:0:
402,192,195157,128,0,195224:0:0:0:0:
109,192,195157,128,0,195224:0:0:0:0:
475,192,195224,128,0,195357:0:0:0:0:
182,192,195224,128,0,195424:0:0:0:0:
256,192,195290,1,0,0:0:0:0:
109,192,195357,128,0,195424:0:0:0:0:
256,192,195424,128,0,195824:0:0:0:0:
475,192,195424,128,0,195724:0:0:0:0:
36,192,195424,128,0,195724:0:0:0:0:
402,192,195424,128,0,195724:0:0:0:0:
182,192,195524,128,0,195624:0:0:0:0:
109,192,195624,128,0,195724:0:0:0:0:
329,192,195624,128,0,195924:0:0:0:0:
182,192,195724,128,0,195924:0:0:0:0:
402,192,195824,128,0,195924:0:0:0:0:
475,192,195824,128,0,195924:0:0:0:0:
109,192,195824,128,0,196124:0:0:0:0:
36,192,195824,128,0,195924:0:0:0:0:
256,192,195924,128,0,196124:0:0:0:0:
402,192,196024,128,0,196224:0:0:0:0:
182,192,196024,128,0,196224:0:0:0:0:
36,192,196024,128,0,196124:0:0:0:0:
475,192,196024,128,0,196124:0:0:0:0:
329,192,196024,128,0,196124:0:0:0:0:
329,192,196224,128,0,196290:0:0:0:0:
109,192,196224,128,0,196357:0:0:0:0:
475,192,196224,128,0,196357:0:0:0:0:
36,192,196224,128,0,196290:0:0:0:0:
256,192,196290,128,0,196357:0:0:0:0:
182,192,196357,128,0,196424:0:0:0:0:
402,192,196357,128,0,196490:0:0:0:0:
109,192,196424,128,0,196624:0:0:0:0:
329,192,196424,128,0,196624:0:0:0:0:
475,192,196424,128,0,196557:0:0:0:0:
36,192,196424,128,0,196490:0:0:0:0:
256,192,196490,128,0,196557:0:0:0:0:
182,192,196557,128,0,196690:0:0:0:0:
402,192,196624,128,0,196824:0:0:0:0:
36,192,196624,128,0,196690:0:0:0:0:
475,192,196624,128,0,196690:0:0:0:0:
256,192,196690,128,0,196757:0:0:0:0:
329,192,196757,128,0,196890:0:0:0:0:
109,192,196757,128,0,196890:0:0:0:0:
36,192,196824,128,0,196890:0:0:0:0:
475,192,196824,128,0,196890:0:0:0:0:
182,192,196824,128,0,196957:0:0:0:0:
256,192,196890,128,0,197024:0:0:0:0:
402,192,196957,128,0,197024:0:0:0:0:
475,192,197024,128,0,197157:0:0:0:0:
329,192,197024,128,0,197357:0:0:0:0:
36,192,197024,128,0,197157:0:0:0:0:
109,192,197024,128,0,197357:0:0:0:0:
182,192,197090,128,0,197157:0:0:0:0:
256,192,197157,128,0,197224:0:0:0:0:
36,192,197224,128,0,197357:0:0:0:0:
402,192,197224,128,0,197424:0:0:0:0:
475,192,197224,128,0,197290:0:0:0:0:
182,192,197290,128,0,197357:0:0:0:0:
256,192,197357,128,0,197424:0:0:0:0:
109,192,197424,128,0,197557:0:0:0:0:
329,192,197424,128,0,197557:0:0:0:0:
475,192,197424,128,0,197557:0:0:0:0:
36,192,197424,128,0,197490:0:0:0:0:
256,192,197490,128,0,197690:0:0:0:0:
182,192,197557,128,0,197624:0:0:0:0:
475,192,197624,128,0,197674:0:0:0:0:
109,192,197624,128,0,197757:0:0:0:0:
36,192,197624,128,0,197690:0:0:0:0:
402,192,197674,128,0,197724:0:0:0:0:
329,192,197724,128,0,197774:0:0:0:0:
256,192,197774,128,0,197824:0:0:0:0:
182,192,197824,128,0,198524:0:0:0:0:
402,192,197824,128,0,198524:0:0:0:0:
36,192,197824,128,0,197874:0:0:0:0:
475,192,197824,128,0,197874:0:0:0:0:
109,192,198024,128,0,198074:0:0:0:0:
256,192,198224,128,0,198274:0:0:0:0:
329,192,198424,128,0,198474:0:0:0:0:
109,192,198624,128,0,199024:0:0:0:0:
329,192,198624,128,0,199024:0:0:0:0:
36,192,198624,128,0,198674:0:0:0:0:
475,192,198624,128,0,198674:0:0:0:0:
256,192,198824,128,0,198874:0:0:0:0:
402,192,199024,128,0,199424:0:0:0:0:
182,192,199024,128,0,199424:0:0:0:0:
36,192,199024,128,0,199074:0:0:0:0:
475,192,199024,128,0,199074:0:0:0:0:
109,192,199224,128,0,199274:0:0:0:0:
256,192,199424,128,0,199824:0:0:0:0:
475,192,199424,128,0,199824:0:0:0:0:
36,192,199424,128,0,199824:0:0:0:0:
329,192,199424,128,0,199474:0:0:0:0:
182,192,199624,128,0,199674:0:0:0:0:
109,192,199824,128,0,200224:0:0:0:0:
402,192,199824,128,0,200224:0:0:0:0:
329,192,199824,128,0,199874:0:0:0:0:
36,192,200024,128,0,200524:0:0:0:0:
256,192,200024,128,0,200074:0:0:0:0:
182,192,200224,128,0,200624:0:0:0:0:
475,192,200224,128,0,200624:0:0:0:0:
329,192,200224,128,0,200274:0:0:0:0:
402,192,200424,128,0,200474:0:0:0:0:
256,192,200424,128,0,200474:0:0:0:0:
36,192,200624,128,0,201024:0:0:0:0:
109,192,200624,128,0,201024:0:0:0:0:
329,192,200624,128,0,201024:0:0:0:0:
256,192,201024,128,0,202424:0:0:0:0:
475,192,201024,128,0,201624:0:0:0:0:
182,192,201024,128,0,201624:0:0:0:0:
402,192,201624,128,0,201824:0:0:0:0:
109,192,201624,128,0,201824:0:0:0:0:
475,192,201824,128,0,202424:0:0:0:0:
329,192,201824,128,0,202424:0:0:0:0:
36,192,201824,128,0,202424:0:0:0:0:
182,192,201824,128,0,202424:0:0:0:0:
182,192,202624,128,0,204224:0:0:0:0:
329,192,202624,128,0,204224:0:0:0:0:
36,192,202624,128,0,203224:0:0:0:0:
475,192,202624,128,0,203224:0:0:0:0:
402,192,202824,128,0,203224:0:0:0:0:
109,192,203024,128,0,203224:0:0:0:0:
109,192,203324,1,0,0:0:0:0:
402,192,203324,1,0,0:0:0:0:
475,192,203324,1,0,0:0:0:0:
36,192,203324,1,0,0:0:0:0:
402,192,203424,128,0,203524:0:0:0:0:
475,192,203424,128,0,203924:0:0:0:0:
36,192,203424,128,0,203624:0:0:0:0:
109,192,203424,128,0,203624:0:0:0:0:
402,192,203624,1,0,0:0:0:0:
109,192,203724,1,0,0:0:0:0:
36,192,203824,128,0,204024:0:0:0:0:
256,192,203824,128,0,203924:0:0:0:0:
402,192,203824,128,0,203924:0:0:0:0:
256,192,204024,1,0,0:0:0:0:
475,192,204024,1,0,0:0:0:0:
402,192,204024,1,0,0:0:0:0:
109,192,204224,128,0,204624:0:0:0:0:
36,192,204224,128,0,204424:0:0:0:0:
256,192,204224,128,0,204524:0:0:0:0:
475,192,204224,128,0,204324:0:0:0:0:
402,192,204224,128,0,204324:0:0:0:0:
182,192,204324,128,0,204424:0:0:0:0:
402,192,204424,128,0,204624:0:0:0:0:
329,192,204524,128,0,204724:0:0:0:0:
475,192,204524,1,0,0:0:0:0:
36,192,204624,1,0,0:0:0:0:
256,192,204624,128,0,204824:0:0:0:0:
182,192,204624,128,0,205124:0:0:0:0:
475,192,204724,128,0,204924:0:0:0:0:
402,192,204824,128,0,204924:0:0:0:0:
36,192,204824,128,0,204924:0:0:0:0:
109,192,204824,1,0,0:0:0:0:
329,192,204924,128,0,205024:0:0:0:0:
256,192,205024,128,0,205324:0:0:0:0:
402,192,205024,128,0,205124:0:0:0:0:
36,192,205024,128,0,205424:0:0:0:0:
475,192,205024,128,0,205124:0:0:0:0:
109,192,205024,128,0,205124:0:0:0:0:
329,192,205124,128,0,205224:0:0:0:0:
182,192,205224,128,0,205424:0:0:0:0:
109,192,205224,1,0,0:0:0:0:
475,192,205224,1,0,0:0:0:0:
402,192,205324,128,0,205524:0:0:0:0:
329,192,205424,128,0,205724:0:0:0:0:
109,192,205424,128,0,205524:0:0:0:0:
475,192,205424,128,0,205524:0:0:0:0:
256,192,205524,128,0,205624:0:0:0:0:
402,192,205624,128,0,205824:0:0:0:0:
36,192,205624,128,0,205724:0:0:0:0:
182,192,205624,1,0,0:0:0:0:
475,192,205624,1,0,0:0:0:0:
109,192,205724,128,0,205824:0:0:0:0:
475,192,205824,128,0,205924:0:0:0:0:
329,192,205824,128,0,206224:0:0:0:0:
36,192,205824,128,0,205924:0:0:0:0:
256,192,205824,128,0,205924:0:0:0:0:
182,192,205924,128,0,206124:0:0:0:0:
109,192,206024,128,0,206224:0:0:0:0:
402,192,206024,1,0,0:0:0:0:
475,192,206024,1,0,0:0:0:0:
36,192,206024,1,0,0:0:0:0:
256,192,206124,128,0,206424:0:0:0:0:
182,192,206224,128,0,206324:0:0:0:0:
402,192,206224,128,0,206324:0:0:0:0:
475,192,206224,128,0,206324:0:0:0:0:
36,192,206224,128,0,206324:0:0:0:0:
329,192,206324,128,0,206624:0:0:0:0:
109,192,206324,128,0,206424:0:0:0:0:
182,192,206424,128,0,206524:0:0:0:0:
36,192,206424,1,0,0:0:0:0:
256,192,206524,128,0,206824:0:0:0:0:
402,192,206524,1,0,0:0:0:0:
475,192,206524,1,0,0:0:0:0:
182,192,206624,128,0,206924:0:0:0:0:
402,192,206624,128,0,206724:0:0:0:0:
475,192,206624,128,0,206724:0:0:0:0:
109,192,206624,128,0,206724:0:0:0:0:
36,192,206624,128,0,206724:0:0:0:0:
329,192,206724,128,0,206924:0:0:0:0:
109,192,206824,1,0,0:0:0:0:
36,192,206824,1,0,0:0:0:0:
402,192,206824,1,0,0:0:0:0:
475,192,206824,1,0,0:0:0:0:
256,192,206924,128,0,207224:0:0:0:0:
109,192,207024,128,0,207124:0:0:0:0:
36,192,207024,128,0,207124:0:0:0:0:
402,192,207024,128,0,207324:0:0:0:0:
475,192,207024,128,0,207124:0:0:0:0:
329,192,207024,128,0,207124:0:0:0:0:
109,192,207224,128,0,207424:0:0:0:0:
182,192,207224,1,0,0:0:0:0:
475,192,207224,1,0,0:0:0:0:
329,192,207224,1,0,0:0:0:0:
36,192,207224,1,0,0:0:0:0:
256,192,207324,128,0,207424:0:0:0:0:
36,192,207424,128,0,207524:0:0:0:0:
475,192,207424,128,0,207524:0:0:0:0:
182,192,207424,128,0,207724:0:0:0:0:
329,192,207424,1,0,0:0:0:0:
475,192,207624,128,0,207724:0:0:0:0:
329,192,207624,128,0,207924:0:0:0:0:
109,192,207624,128,0,207724:0:0:0:0:
402,192,207824,128,0,207924:0:0:0:0:
109,192,207824,128,0,208124:0:0:0:0:
182,192,207824,128,0,207924:0:0:0:0:
36,192,207824,128,0,207924:0:0:0:0:
475,192,207824,1,0,0:0:0:0:
402,192,208024,128,0,208324:0:0:0:0:
36,192,208124,1,0,0:0:0:0:
182,192,208124,1,0,0:0:0:0:
182,192,208224,128,0,208624:0:0:0:0:
36,192,208224,128,0,208624:0:0:0:0:
475,192,208224,128,0,208324:0:0:0:0:
329,192,208224,128,0,208324:0:0:0:0:
256,192,208424,1,0,0:0:0:0:
475,192,208424,128,0,208724:0:0:0:0:
109,192,208424,1,0,0:0:0:0:
329,192,208424,1,0,0:0:0:0:
109,192,208624,128,0,209024:0:0:0:0:
256,192,208624,128,0,209024:0:0:0:0:
402,192,208624,128,0,208724:0:0:0:0:
329,192,208624,128,0,208724:0:0:0:0:
402,192,208824,128,0,209024:0:0:0:0:
329,192,208824,1,0,0:0:0:0:
182,192,208824,1,0,0:0:0:0:
36,192,209024,128,0,209524:0:0:0:0:
182,192,209024,128,0,209524:0:0:0:0:
329,192,209024,128,0,209324:0:0:0:0:
475,192,209024,128,0,209324:0:0:0:0:
329,192,209424,1,0,0:0:0:0:
475,192,209424,1,0,0:0:0:0:
329,192,209524,128,0,209924:0:0:0:0:
475,192,209524,128,0,209924:0:0:0:0:
182,192,209624,128,0,209724:0:0:0:0:
36,192,209624,128,0,209724:0:0:0:0:
256,192,209824,128,0,209924:0:0:0:0:
402,192,209824,128,0,209924:0:0:0:0:
109,192,209824,128,0,210324:0:0:0:0:
36,192,209824,128,0,209924:0:0:0:0:
182,192,210024,1,0,0:0:0:0:
329,192,210024,1,0,0:0:0:0:
475,192,210024,1,0,0:0:0:0:
256,192,210224,128,0,210624:0:0:0:0:
475,192,210224,128,0,210324:0:0:0:0:
182,192,210224,128,0,210324:0:0:0:0:
329,192,210224,128,0,210324:0:0:0:0:
36,192,210224,128,0,210324:0:0:0:0:
402,192,210224,128,0,210324:0:0:0:0:
402,192,210424,1,0,0:0:0:0:
475,192,210424,1,0,0:0:0:0:
475,192,210624,128,0,211324:0:0:0:0:
36,192,210624,128,0,212124:0:0:0:0:
329,192,210624,1,0,0:0:0:0:
182,192,210624,1,0,0:0:0:0:
329,192,211024,128,0,211124:0:0:0:0:
402,192,211124,128,0,211224:0:0:0:0:
256,192,211224,128,0,211324:0:0:0:0:
329,192,211324,128,0,211424:0:0:0:0:
475,192,211424,128,0,211524:0:0:0:0:
329,192,211524,128,0,211624:0:0:0:0:
402,192,211624,128,0,211724:0:0:0:0:
329,192,211724,128,0,211824:0:0:0:0:
256,192,211824,128,0,211924:0:0:0:0:
329,192,211924,128,0,212024:0:0:0:0:
182,192,212024,128,0,212124:0:0:0:0:
329,192,212124,128,0,212224:0:0:0:0:
475,192,212224,128,0,213824:0:0:0:0:
36,192,212224,128,0,213824:0:0:0:0:
109,192,212899,1,0,0:0:0:0:
182,192,212949,1,0,0:0:0:0:
329,192,212999,1,0,0:0:0:0:
402,192,213049,1,0,0:0:0:0:
402,192,213824,128,0,214624:0:0:0:0:
182,192,213824,1,0,0:0:0:0:
256,192,214024,1,0,0:0:0:0:
329,192,214224,1,0,0:0:0:0:
182,192,214424,1,0,0:0:0:0:
109,192,214624,128,0,215424:0:0:0:0:
329,192,214624,1,0,0:0:0:0:
256,192,214824,1,0,0:0:0:0:
402,192,215024,1,0,0:0:0:0:
329,192,215224,1,0,0:0:0:0:
402,192,215424,128,0,216424:0:0:0:0:
182,192,215424,1,0,0:0:0:0:
256,192,215624,1,0,0:0:0:0:
329,192,215824,1,0,0:0:0:0:
182,192,216024,1,0,0:0:0:0:
329,192,216224,1,0,0:0:0:0:
182,192,216424,1,0,0:0:0:0:
329,192,216624,128,0,217024:0:0:0:0:
109,192,216624,1,0,0:0:0:0:
182,192,216824,1,0,0:0:0:0:
182,192,217024,128,0,217824:0:0:0:0:
475,192,217024,1,0,0:0:0:0:
36,192,217024,1,0,0:0:0:0:
329,192,217224,1,0,0:0:0:0:
402,192,217424,1,0,0:0:0:0:
475,192,217624,1,0,0:0:0:0:
36,192,217824,128,0,218624:0:0:0:0:
329,192,217824,1,0,0:0:0:0:
256,192,218024,1,0,0:0:0:0:
402,192,218224,1,0,0:0:0:0:
329,192,218424,1,0,0:0:0:0:
182,192,218624,128,0,219424:0:0:0:0:
475,192,218624,1,0,0:0:0:0:
329,192,218824,1,0,0:0:0:0:
402,192,219024,1,0,0:0:0:0:
256,192,219224,1,0,0:0:0:0:
329,192,219424,128,0,220224:0:0:0:0:
36,192,219424,1,0,0:0:0:0:
109,192,219624,1,0,0:0:0:0:
256,192,219824,1,0,0:0:0:0:
182,192,220024,1,0,0:0:0:0:
109,192,220224,128,0,221024:0:0:0:0:
36,192,220224,1,0,0:0:0:0:
475,192,220224,1,0,0:0:0:0:
329,192,220424,1,0,0:0:0:0:
402,192,220624,1,0,0:0:0:0:
475,192,220824,1,0,0:0:0:0:
182,192,221024,128,0,221824:0:0:0:0:
402,192,221024,1,0,0:0:0:0:
256,192,221224,1,0,0:0:0:0:
329,192,221424,1,0,0:0:0:0:
402,192,221624,1,0,0:0:0:0:
329,192,221824,128,0,222624:0:0:0:0:
36,192,221824,1,0,0:0:0:0:
475,192,221824,1,0,0:0:0:0:
182,192,222024,1,0,0:0:0:0:
36,192,222224,1,0,0:0:0:0:
109,192,222424,1,0,0:0:0:0:
402,192,222624,128,0,222924:0:0:0:0:
256,192,222624,1,0,0:0:0:0:
109,192,222824,1,0,0:0:0:0:
402,192,223024,128,0,223424:0:0:0:0:
256,192,223024,1,0,0:0:0:0:
182,192,223224,1,0,0:0:0:0:
329,192,223424,128,0,224224:0:0:0:0:
36,192,223424,1,0,0:0:0:0:
475,192,223424,1,0,0:0:0:0:
109,192,223624,1,0,0:0:0:0:
182,192,223824,1,0,0:0:0:0:
256,192,224024,1,0,0:0:0:0:
475,192,224224,128,0,225024:0:0:0:0:
109,192,224224,1,0,0:0:0:0:
182,192,224424,1,0,0:0:0:0:
256,192,224624,1,0,0:0:0:0:
329,192,224824,1,0,0:0:0:0:
256,192,225024,128,0,229824:0:0:0:0:
109,192,225024,1,0,0:0:0:0:
402,192,225024,1,0,0:0:0:0:
