osu file format v14

[General]
AudioFilename: M2U - Quo Vadis.mp3
AudioLeadIn: 0
PreviewTime: 55675
Countdown: 0
SampleSet: Soft
StackLeniency: 0.7
Mode: 3
LetterboxInBreaks: 0
SpecialStyle: 0
WidescreenStoryboard: 1

[Editor]
DistanceSpacing: 1.5
BeatDivisor: 4
GridSize: 4
TimelineZoom: 2.7

[Metadata]
Title:M2U Pack
TitleUnicode:M2U Pack
Artist:M2U
ArtistUnicode:M2U
Creator:Kim_GodSSI
Version:Quo Vadis 7K
Source:
Tags:arpia97 lami- buschan ezmmr micleak nabi- ruka takjun roasted chicken murumoo other nicode sherie 約束之歌 guriri 구리리 howling redeye red eye lucy egoist 最後の花弁 나래
BeatmapID:3470134
BeatmapSetID:1572720

[Difficulty]
HPDrainRate:7.5
CircleSize:7
OverallDifficulty:7
ApproachRate:5
SliderMultiplier:1.4
SliderTickRate:1

[Events]
//Background and Video events
0,0,"M2U - Quo Vadis.jpg",0,0
//Break Periods
//Storyboard Layer 0 (Background)
//Storyboard Layer 1 (Fail)
//Storyboard Layer 2 (Pass)
//Storyboard Layer 3 (Foreground)
//Storyboard Layer 4 (Overlay)
//Storyboard Sound Samples

[TimingPoints]
1675,375,4,2,0,0,1,0

[HitObjects]
182,192,1276,5,0,0:0:0:0:
329,192,1487,1,0,0:0:0:0:
402,192,1581,1,0,0:0:0:0:
182,192,1675,1,0,0:0:0:0:
36,192,1675,1,0,0:0:0:0:
256,192,1675,1,0,0:0:0:0:
475,192,1675,1,0,0:0:0:0:
329,192,1862,1,0,0:0:0:0:
256,192,1956,1,0,0:0:0:0:
182,192,2050,1,0,0:0:0:0:
402,192,2050,1,0,0:0:0:0:
36,192,2050,1,0,0:0:0:0:
256,192,2214,1,0,0:0:0:0:
402,192,2237,1,0,0:0:0:0:
109,192,2425,1,0,0:0:0:0:
329,192,2425,1,0,0:0:0:0:
182,192,2589,1,0,0:0:0:0:
329,192,2612,1,0,0:0:0:0:
182,192,2800,1,0,0:0:0:0:
329,192,2800,1,0,0:0:0:0:
36,192,2800,1,0,0:0:0:0:
109,192,2987,1,0,0:0:0:0:
329,192,2987,1,0,0:0:0:0:
182,192,3175,1,0,0:0:0:0:
402,192,3175,1,0,0:0:0:0:
475,192,3175,1,0,0:0:0:0:
329,192,3362,1,0,0:0:0:0:
402,192,3456,1,0,0:0:0:0:
329,192,3550,1,0,0:0:0:0:
182,192,3550,1,0,0:0:0:0:
36,192,3550,1,0,0:0:0:0:
109,192,3714,1,0,0:0:0:0:
256,192,3737,1,0,0:0:0:0:
329,192,3925,1,0,0:0:0:0:
182,192,3925,1,0,0:0:0:0:
36,192,3925,1,0,0:0:0:0:
402,192,4089,1,0,0:0:0:0:
256,192,4112,1,0,0:0:0:0:
109,192,4300,1,0,0:0:0:0:
256,192,4300,1,0,0:0:0:0:
402,192,4300,1,0,0:0:0:0:
329,192,4487,1,0,0:0:0:0:
182,192,4675,1,0,0:0:0:0:
329,192,4675,1,0,0:0:0:0:
36,192,4675,1,0,0:0:0:0:
256,192,4862,1,0,0:0:0:0:
329,192,4956,1,0,0:0:0:0:
256,192,5050,1,0,0:0:0:0:
109,192,5050,1,0,0:0:0:0:
182,192,5214,1,0,0:0:0:0:
402,192,5237,1,0,0:0:0:0:
109,192,5425,1,0,0:0:0:0:
402,192,5425,1,0,0:0:0:0:
256,192,5425,1,0,0:0:0:0:
109,192,5589,1,0,0:0:0:0:
329,192,5612,1,0,0:0:0:0:
36,192,5776,1,0,0:0:0:0:
329,192,5800,1,0,0:0:0:0:
182,192,5800,1,0,0:0:0:0:
109,192,5987,1,0,0:0:0:0:
256,192,5987,1,0,0:0:0:0:
109,192,6175,1,0,0:0:0:0:
256,192,6175,1,0,0:0:0:0:
475,192,6175,1,0,0:0:0:0:
329,192,6362,1,0,0:0:0:0:
402,192,6456,1,0,0:0:0:0:
329,192,6550,1,0,0:0:0:0:
182,192,6550,1,0,0:0:0:0:
36,192,6550,1,0,0:0:0:0:
36,192,6737,1,0,0:0:0:0:
182,192,6737,1,0,0:0:0:0:
475,192,6800,1,0,0:0:0:0:
402,192,6862,1,0,0:0:0:0:
329,192,6925,1,0,0:0:0:0:
109,192,6925,1,0,0:0:0:0:
256,192,7018,1,0,0:0:0:0:
109,192,7112,1,0,0:0:0:0:
256,192,7206,1,0,0:0:0:0:
109,192,7300,1,0,0:0:0:0:
329,192,7300,1,0,0:0:0:0:
475,192,7300,1,0,0:0:0:0:
182,192,7487,1,0,0:0:0:0:
256,192,7581,1,0,0:0:0:0:
182,192,7675,1,0,0:0:0:0:
36,192,7675,1,0,0:0:0:0:
329,192,7675,1,0,0:0:0:0:
475,192,7675,1,0,0:0:0:0:
109,192,7862,1,0,0:0:0:0:
329,192,7862,1,0,0:0:0:0:
36,192,7862,1,0,0:0:0:0:
182,192,8050,1,0,0:0:0:0:
256,192,8050,1,0,0:0:0:0:
402,192,8050,1,0,0:0:0:0:
36,192,8050,1,0,0:0:0:0:
109,192,8214,1,0,0:0:0:0:
182,192,8237,1,0,0:0:0:0:
329,192,8237,1,0,0:0:0:0:
182,192,8425,1,0,0:0:0:0:
109,192,8425,1,0,0:0:0:0:
329,192,8425,1,0,0:0:0:0:
475,192,8425,1,0,0:0:0:0:
36,192,8589,1,0,0:0:0:0:
182,192,8612,1,0,0:0:0:0:
329,192,8612,1,0,0:0:0:0:
182,192,8800,1,0,0:0:0:0:
36,192,8800,1,0,0:0:0:0:
329,192,8800,1,0,0:0:0:0:
402,192,8800,1,0,0:0:0:0:
256,192,8987,1,0,0:0:0:0:
329,192,9081,1,0,0:0:0:0:
402,192,9175,1,0,0:0:0:0:
182,192,9175,1,0,0:0:0:0:
475,192,9175,1,0,0:0:0:0:
36,192,9175,1,0,0:0:0:0:
256,192,9362,1,0,0:0:0:0:
329,192,9456,1,0,0:0:0:0:
182,192,9550,1,0,0:0:0:0:
36,192,9550,1,0,0:0:0:0:
402,192,9550,1,0,0:0:0:0:
475,192,9550,1,0,0:0:0:0:
402,192,9714,1,0,0:0:0:0:
182,192,9737,1,0,0:0:0:0:
329,192,9737,1,0,0:0:0:0:
402,192,9925,1,0,0:0:0:0:
182,192,9925,1,0,0:0:0:0:
36,192,9925,1,0,0:0:0:0:
402,192,10089,1,0,0:0:0:0:
256,192,10112,1,0,0:0:0:0:
109,192,10112,1,0,0:0:0:0:
182,192,10300,1,0,0:0:0:0:
109,192,10300,1,0,0:0:0:0:
36,192,10300,1,0,0:0:0:0:
329,192,10300,1,0,0:0:0:0:
182,192,10487,1,0,0:0:0:0:
329,192,10487,1,0,0:0:0:0:
109,192,10675,1,0,0:0:0:0:
256,192,10675,1,0,0:0:0:0:
402,192,10675,1,0,0:0:0:0:
475,192,10675,1,0,0:0:0:0:
182,192,10862,1,0,0:0:0:0:
256,192,10956,1,0,0:0:0:0:
182,192,11050,1,0,0:0:0:0:
402,192,11050,1,0,0:0:0:0:
36,192,11050,1,0,0:0:0:0:
182,192,11214,1,0,0:0:0:0:
329,192,11237,1,0,0:0:0:0:
402,192,11237,1,0,0:0:0:0:
182,192,11425,1,0,0:0:0:0:
329,192,11425,1,0,0:0:0:0:
475,192,11425,1,0,0:0:0:0:
36,192,11425,1,0,0:0:0:0:
402,192,11589,1,0,0:0:0:0:
109,192,11612,1,0,0:0:0:0:
182,192,11612,1,0,0:0:0:0:
256,192,11800,1,0,0:0:0:0:
182,192,11800,1,0,0:0:0:0:
36,192,11800,1,0,0:0:0:0:
402,192,11800,1,0,0:0:0:0:
109,192,11987,1,0,0:0:0:0:
256,192,11987,1,0,0:0:0:0:
36,192,12175,1,0,0:0:0:0:
182,192,12175,1,0,0:0:0:0:
329,192,12175,1,0,0:0:0:0:
475,192,12175,1,0,0:0:0:0:
402,192,12362,1,0,0:0:0:0:
329,192,12456,1,0,0:0:0:0:
109,192,12550,1,0,0:0:0:0:
475,192,12550,1,0,0:0:0:0:
256,192,12550,1,0,0:0:0:0:
402,192,12643,1,0,0:0:0:0:
329,192,12737,1,0,0:0:0:0:
182,192,12737,1,0,0:0:0:0:
36,192,12737,1,0,0:0:0:0:
402,192,12831,1,0,0:0:0:0:
109,192,12925,1,0,0:0:0:0:
36,192,12925,1,0,0:0:0:0:
256,192,12925,1,0,0:0:0:0:
475,192,12925,1,0,0:0:0:0:
329,192,13018,1,0,0:0:0:0:
402,192,13112,1,0,0:0:0:0:
109,192,13112,1,0,0:0:0:0:
329,192,13206,1,0,0:0:0:0:
182,192,13206,1,0,0:0:0:0:
256,192,13300,1,0,0:0:0:0:
109,192,13300,1,0,0:0:0:0:
36,192,13300,1,0,0:0:0:0:
402,192,13300,1,0,0:0:0:0:
475,192,13300,1,0,0:0:0:0:
256,192,13487,1,0,0:0:0:0:
182,192,13675,1,0,0:0:0:0:
36,192,13675,1,0,0:0:0:0:
256,192,13675,1,0,0:0:0:0:
402,192,13675,1,0,0:0:0:0:
182,192,13862,1,0,0:0:0:0:
329,192,13862,1,0,0:0:0:0:
109,192,14050,1,0,0:0:0:0:
256,192,14050,1,0,0:0:0:0:
402,192,14050,1,0,0:0:0:0:
329,192,14143,1,0,0:0:0:0:
182,192,14237,1,0,0:0:0:0:
402,192,14237,1,0,0:0:0:0:
256,192,14331,1,0,0:0:0:0:
36,192,14425,1,0,0:0:0:0:
182,192,14425,1,0,0:0:0:0:
475,192,14425,1,0,0:0:0:0:
329,192,14425,1,0,0:0:0:0:
109,192,14612,1,0,0:0:0:0:
182,192,14612,1,0,0:0:0:0:
182,192,14800,1,0,0:0:0:0:
256,192,14800,1,0,0:0:0:0:
256,192,14987,1,0,0:0:0:0:
329,192,14987,1,0,0:0:0:0:
36,192,15081,1,0,0:0:0:0:
109,192,15128,1,0,0:0:0:0:
182,192,15175,1,0,0:0:0:0:
329,192,15175,1,0,0:0:0:0:
475,192,15175,1,0,0:0:0:0:
182,192,15362,1,0,0:0:0:0:
256,192,15456,1,0,0:0:0:0:
402,192,15550,1,0,0:0:0:0:
109,192,15550,1,0,0:0:0:0:
329,192,15550,1,0,0:0:0:0:
256,192,15643,1,0,0:0:0:0:
182,192,15737,1,0,0:0:0:0:
402,192,15737,1,0,0:0:0:0:
329,192,15831,1,0,0:0:0:0:
182,192,15925,1,0,0:0:0:0:
109,192,15925,1,0,0:0:0:0:
402,192,15925,1,0,0:0:0:0:
256,192,16018,1,0,0:0:0:0:
182,192,16112,1,0,0:0:0:0:
109,192,16206,1,0,0:0:0:0:
329,192,16300,1,0,0:0:0:0:
36,192,16300,1,0,0:0:0:0:
402,192,16300,1,0,0:0:0:0:
475,192,16300,1,0,0:0:0:0:
256,192,16393,1,0,0:0:0:0:
182,192,16487,1,0,0:0:0:0:
329,192,16487,1,0,0:0:0:0:
402,192,16487,1,0,0:0:0:0:
109,192,16581,1,0,0:0:0:0:
36,192,16675,1,0,0:0:0:0:
182,192,16675,1,0,0:0:0:0:
329,192,16675,1,0,0:0:0:0:
475,192,16675,1,0,0:0:0:0:
109,192,16862,1,0,0:0:0:0:
182,192,16956,1,0,0:0:0:0:
256,192,17050,1,0,0:0:0:0:
109,192,17050,1,0,0:0:0:0:
402,192,17050,1,0,0:0:0:0:
329,192,17143,1,0,0:0:0:0:
402,192,17237,1,0,0:0:0:0:
182,192,17237,1,0,0:0:0:0:
256,192,17331,1,0,0:0:0:0:
109,192,17425,1,0,0:0:0:0:
329,192,17425,1,0,0:0:0:0:
182,192,17425,1,0,0:0:0:0:
402,192,17425,1,0,0:0:0:0:
256,192,17518,1,0,0:0:0:0:
329,192,17612,1,0,0:0:0:0:
182,192,17706,1,0,0:0:0:0:
256,192,17800,1,0,0:0:0:0:
109,192,17800,1,0,0:0:0:0:
402,192,17800,1,0,0:0:0:0:
329,192,17893,1,0,0:0:0:0:
182,192,17987,1,0,0:0:0:0:
329,192,18081,1,0,0:0:0:0:
256,192,18175,1,0,0:0:0:0:
109,192,18175,1,0,0:0:0:0:
36,192,18175,1,0,0:0:0:0:
402,192,18175,1,0,0:0:0:0:
329,192,18362,1,0,0:0:0:0:
475,192,18362,1,0,0:0:0:0:
256,192,18550,1,0,0:0:0:0:
402,192,18550,1,0,0:0:0:0:
182,192,18737,1,0,0:0:0:0:
329,192,18737,1,0,0:0:0:0:
182,192,18925,1,0,0:0:0:0:
109,192,18925,1,0,0:0:0:0:
329,192,18925,1,0,0:0:0:0:
36,192,18925,1,0,0:0:0:0:
402,192,19018,1,0,0:0:0:0:
256,192,19112,1,0,0:0:0:0:
329,192,19206,1,0,0:0:0:0:
182,192,19300,1,0,0:0:0:0:
475,192,19300,1,0,0:0:0:0:
256,192,19300,1,0,0:0:0:0:
402,192,19300,1,0,0:0:0:0:
36,192,19300,1,0,0:0:0:0:
182,192,19675,1,0,0:0:0:0:
36,192,19675,1,0,0:0:0:0:
329,192,19675,1,0,0:0:0:0:
329,192,19862,1,0,0:0:0:0:
475,192,19862,1,0,0:0:0:0:
256,192,20050,1,0,0:0:0:0:
402,192,20050,1,0,0:0:0:0:
109,192,20050,1,0,0:0:0:0:
256,192,20237,1,0,0:0:0:0:
402,192,20237,1,0,0:0:0:0:
36,192,20425,1,0,0:0:0:0:
329,192,20425,1,0,0:0:0:0:
182,192,20425,1,0,0:0:0:0:
109,192,20612,1,0,0:0:0:0:
256,192,20612,1,0,0:0:0:0:
182,192,20800,1,0,0:0:0:0:
329,192,20800,1,0,0:0:0:0:
475,192,20800,1,0,0:0:0:0:
36,192,20893,1,0,0:0:0:0:
109,192,20987,1,0,0:0:0:0:
182,192,21081,1,0,0:0:0:0:
256,192,21175,1,0,0:0:0:0:
36,192,21175,1,0,0:0:0:0:
402,192,21175,1,0,0:0:0:0:
109,192,21268,1,0,0:0:0:0:
329,192,21362,1,0,0:0:0:0:
475,192,21362,1,0,0:0:0:0:
256,192,21456,1,0,0:0:0:0:
402,192,21550,1,0,0:0:0:0:
36,192,21550,1,0,0:0:0:0:
182,192,21550,1,0,0:0:0:0:
329,192,21643,1,0,0:0:0:0:
109,192,21737,1,0,0:0:0:0:
256,192,21737,1,0,0:0:0:0:
402,192,21831,1,0,0:0:0:0:
182,192,21925,1,0,0:0:0:0:
329,192,21925,1,0,0:0:0:0:
475,192,21925,1,0,0:0:0:0:
256,192,22112,1,0,0:0:0:0:
402,192,22112,1,0,0:0:0:0:
109,192,22300,1,0,0:0:0:0:
256,192,22300,1,0,0:0:0:0:
402,192,22300,1,0,0:0:0:0:
182,192,22393,1,0,0:0:0:0:
256,192,22487,1,0,0:0:0:0:
329,192,22581,1,0,0:0:0:0:
182,192,22675,1,0,0:0:0:0:
36,192,22675,1,0,0:0:0:0:
402,192,22675,1,0,0:0:0:0:
475,192,22675,1,0,0:0:0:0:
256,192,22768,1,0,0:0:0:0:
475,192,22862,1,0,0:0:0:0:
329,192,22862,1,0,0:0:0:0:
182,192,22956,1,0,0:0:0:0:
475,192,23050,1,0,0:0:0:0:
402,192,23050,1,0,0:0:0:0:
109,192,23050,1,0,0:0:0:0:
256,192,23143,1,0,0:0:0:0:
182,192,23237,1,0,0:0:0:0:
402,192,23237,1,0,0:0:0:0:
329,192,23331,1,0,0:0:0:0:
109,192,23425,1,0,0:0:0:0:
36,192,23425,1,0,0:0:0:0:
256,192,23425,1,0,0:0:0:0:
109,192,23612,1,0,0:0:0:0:
256,192,23612,1,0,0:0:0:0:
402,192,23612,1,0,0:0:0:0:
329,192,23800,1,0,0:0:0:0:
475,192,23800,1,0,0:0:0:0:
109,192,23800,1,0,0:0:0:0:
182,192,23987,1,0,0:0:0:0:
329,192,23987,1,0,0:0:0:0:
256,192,24175,1,0,0:0:0:0:
109,192,24175,1,0,0:0:0:0:
402,192,24175,1,0,0:0:0:0:
36,192,24175,1,0,0:0:0:0:
182,192,24456,1,0,0:0:0:0:
329,192,24550,1,0,0:0:0:0:
402,192,24550,1,0,0:0:0:0:
36,192,24550,1,0,0:0:0:0:
475,192,24550,1,0,0:0:0:0:
109,192,24643,1,0,0:0:0:0:
329,192,24737,1,0,0:0:0:0:
402,192,24737,1,0,0:0:0:0:
182,192,24737,1,0,0:0:0:0:
256,192,24831,1,0,0:0:0:0:
475,192,24925,1,0,0:0:0:0:
329,192,24925,1,0,0:0:0:0:
109,192,24925,1,0,0:0:0:0:
36,192,24925,1,0,0:0:0:0:
256,192,25300,1,0,0:0:0:0:
402,192,25300,1,0,0:0:0:0:
109,192,25300,1,0,0:0:0:0:
109,192,25675,1,0,0:0:0:0:
36,192,25675,1,0,0:0:0:0:
256,192,25675,1,0,0:0:0:0:
402,192,25675,1,0,0:0:0:0:
329,192,25862,1,0,0:0:0:0:
475,192,25862,1,0,0:0:0:0:
36,192,26050,1,0,0:0:0:0:
182,192,26050,1,0,0:0:0:0:
329,192,26050,1,0,0:0:0:0:
256,192,26237,1,0,0:0:0:0:
402,192,26237,1,0,0:0:0:0:
256,192,26425,1,0,0:0:0:0:
109,192,26425,1,0,0:0:0:0:
402,192,26425,1,0,0:0:0:0:
182,192,26612,1,0,0:0:0:0:
329,192,26612,1,0,0:0:0:0:
402,192,26800,1,0,0:0:0:0:
36,192,26800,1,0,0:0:0:0:
256,192,26800,1,0,0:0:0:0:
109,192,26893,1,0,0:0:0:0:
182,192,26987,1,0,0:0:0:0:
256,192,27081,1,0,0:0:0:0:
402,192,27175,1,0,0:0:0:0:
475,192,27175,1,0,0:0:0:0:
109,192,27175,1,0,0:0:0:0:
36,192,27175,1,0,0:0:0:0:
329,192,27268,1,0,0:0:0:0:
182,192,27362,1,0,0:0:0:0:
402,192,27362,1,0,0:0:0:0:
109,192,27456,1,0,0:0:0:0:
36,192,27550,1,0,0:0:0:0:
329,192,27550,1,0,0:0:0:0:
475,192,27550,1,0,0:0:0:0:
109,192,27643,1,0,0:0:0:0:
256,192,27737,1,0,0:0:0:0:
402,192,27737,1,0,0:0:0:0:
182,192,27831,1,0,0:0:0:0:
36,192,27925,1,0,0:0:0:0:
329,192,27925,1,0,0:0:0:0:
475,192,27925,1,0,0:0:0:0:
182,192,28112,1,0,0:0:0:0:
329,192,28112,1,0,0:0:0:0:
36,192,28112,1,0,0:0:0:0:
109,192,28300,1,0,0:0:0:0:
256,192,28300,1,0,0:0:0:0:
402,192,28300,1,0,0:0:0:0:
329,192,28393,1,0,0:0:0:0:
182,192,28487,1,0,0:0:0:0:
256,192,28581,1,0,0:0:0:0:
109,192,28675,1,0,0:0:0:0:
329,192,28675,1,0,0:0:0:0:
402,192,28675,1,0,0:0:0:0:
182,192,28768,1,0,0:0:0:0:
256,192,28862,1,0,0:0:0:0:
475,192,28862,1,0,0:0:0:0:
109,192,28956,1,0,0:0:0:0:
182,192,29050,1,0,0:0:0:0:
329,192,29050,1,0,0:0:0:0:
475,192,29050,1,0,0:0:0:0:
109,192,29143,1,0,0:0:0:0:
36,192,29237,1,0,0:0:0:0:
256,192,29237,1,0,0:0:0:0:
182,192,29331,1,0,0:0:0:0:
109,192,29425,1,0,0:0:0:0:
256,192,29425,1,0,0:0:0:0:
402,192,29425,1,0,0:0:0:0:
329,192,29612,1,0,0:0:0:0:
475,192,29612,1,0,0:0:0:0:
256,192,29800,1,0,0:0:0:0:
402,192,29800,1,0,0:0:0:0:
475,192,29800,1,0,0:0:0:0:
109,192,29800,1,0,0:0:0:0:
182,192,29987,1,0,0:0:0:0:
329,192,29987,1,0,0:0:0:0:
329,192,30175,1,0,0:0:0:0:
182,192,30175,1,0,0:0:0:0:
36,192,30175,1,0,0:0:0:0:
182,192,30362,1,0,0:0:0:0:
329,192,30362,1,0,0:0:0:0:
109,192,30362,1,0,0:0:0:0:
36,192,30362,1,0,0:0:0:0:
182,192,30550,1,0,0:0:0:0:
256,192,30643,1,0,0:0:0:0:
329,192,30737,1,0,0:0:0:0:
109,192,30737,1,0,0:0:0:0:
182,192,30831,1,0,0:0:0:0:
475,192,30925,1,0,0:0:0:0:
109,192,30925,1,0,0:0:0:0:
402,192,30925,1,0,0:0:0:0:
329,192,30925,1,0,0:0:0:0:
256,192,31112,1,0,0:0:0:0:
402,192,31206,1,0,0:0:0:0:
182,192,31300,1,0,0:0:0:0:
329,192,31300,1,0,0:0:0:0:
36,192,31300,1,0,0:0:0:0:
109,192,31300,1,0,0:0:0:0:
329,192,31487,1,0,0:0:0:0:
256,192,31675,1,0,0:0:0:0:
402,192,31675,1,0,0:0:0:0:
109,192,31675,1,0,0:0:0:0:
329,192,31862,1,0,0:0:0:0:
475,192,31862,1,0,0:0:0:0:
109,192,32050,1,0,0:0:0:0:
256,192,32050,1,0,0:0:0:0:
402,192,32050,1,0,0:0:0:0:
256,192,32237,1,0,0:0:0:0:
402,192,32237,1,0,0:0:0:0:
182,192,32425,1,0,0:0:0:0:
36,192,32425,1,0,0:0:0:0:
329,192,32425,1,0,0:0:0:0:
109,192,32425,1,0,0:0:0:0:
256,192,32612,1,0,0:0:0:0:
109,192,32612,1,0,0:0:0:0:
109,192,32800,1,0,0:0:0:0:
256,192,32800,1,0,0:0:0:0:
402,192,32800,1,0,0:0:0:0:
182,192,32893,1,0,0:0:0:0:
329,192,32987,1,0,0:0:0:0:
182,192,33081,1,0,0:0:0:0:
36,192,33175,1,0,0:0:0:0:
329,192,33175,1,0,0:0:0:0:
402,192,33175,1,0,0:0:0:0:
109,192,33268,1,0,0:0:0:0:
182,192,33362,1,0,0:0:0:0:
402,192,33362,1,0,0:0:0:0:
256,192,33456,1,0,0:0:0:0:
329,192,33550,1,0,0:0:0:0:
475,192,33550,1,0,0:0:0:0:
182,192,33643,1,0,0:0:0:0:
256,192,33737,1,0,0:0:0:0:
109,192,33831,1,0,0:0:0:0:
182,192,33925,1,0,0:0:0:0:
329,192,33925,1,0,0:0:0:0:
402,192,33925,1,0,0:0:0:0:
256,192,34112,1,0,0:0:0:0:
402,192,34112,1,0,0:0:0:0:
256,192,34300,1,0,0:0:0:0:
402,192,34300,1,0,0:0:0:0:
109,192,34300,1,0,0:0:0:0:
182,192,34393,1,0,0:0:0:0:
329,192,34487,1,0,0:0:0:0:
402,192,34581,1,0,0:0:0:0:
475,192,34675,1,0,0:0:0:0:
36,192,34675,1,0,0:0:0:0:
109,192,34675,1,0,0:0:0:0:
256,192,34675,1,0,0:0:0:0:
329,192,34768,1,0,0:0:0:0:
109,192,34862,1,0,0:0:0:0:
402,192,34862,1,0,0:0:0:0:
182,192,34956,1,0,0:0:0:0:
256,192,35050,1,0,0:0:0:0:
475,192,35050,1,0,0:0:0:0:
36,192,35050,1,0,0:0:0:0:
329,192,35143,1,0,0:0:0:0:
109,192,35237,1,0,0:0:0:0:
402,192,35237,1,0,0:0:0:0:
182,192,35331,1,0,0:0:0:0:
402,192,35425,1,0,0:0:0:0:
256,192,35425,1,0,0:0:0:0:
36,192,35425,1,0,0:0:0:0:
109,192,35518,1,0,0:0:0:0:
256,192,35612,1,0,0:0:0:0:
402,192,35612,1,0,0:0:0:0:
182,192,35706,1,0,0:0:0:0:
329,192,35800,1,0,0:0:0:0:
109,192,35800,1,0,0:0:0:0:
475,192,35800,1,0,0:0:0:0:
402,192,35987,1,0,0:0:0:0:
256,192,35987,1,0,0:0:0:0:
182,192,36175,1,0,0:0:0:0:
36,192,36175,1,0,0:0:0:0:
475,192,36175,1,0,0:0:0:0:
329,192,36175,1,0,0:0:0:0:
475,192,36362,1,0,0:0:0:0:
402,192,36456,1,0,0:0:0:0:
329,192,36550,1,0,0:0:0:0:
182,192,36550,1,0,0:0:0:0:
36,192,36550,1,0,0:0:0:0:
256,192,36643,1,0,0:0:0:0:
329,192,36737,1,0,0:0:0:0:
475,192,36737,1,0,0:0:0:0:
109,192,36737,1,0,0:0:0:0:
182,192,36831,1,0,0:0:0:0:
256,192,36925,1,0,0:0:0:0:
402,192,36925,1,0,0:0:0:0:
109,192,36925,1,0,0:0:0:0:
36,192,37300,1,0,0:0:0:0:
109,192,37300,1,0,0:0:0:0:
329,192,37300,1,0,0:0:0:0:
256,192,37300,1,0,0:0:0:0:
182,192,37675,1,0,0:0:0:0:
36,192,37675,1,0,0:0:0:0:
256,192,37675,1,0,0:0:0:0:
402,192,37675,1,0,0:0:0:0:
329,192,37862,1,0,0:0:0:0:
475,192,37862,1,0,0:0:0:0:
475,192,38050,1,0,0:0:0:0:
109,192,38050,1,0,0:0:0:0:
256,192,38050,1,0,0:0:0:0:
182,192,38237,1,0,0:0:0:0:
329,192,38237,1,0,0:0:0:0:
256,192,38425,1,0,0:0:0:0:
402,192,38425,1,0,0:0:0:0:
109,192,38425,1,0,0:0:0:0:
182,192,38612,1,0,0:0:0:0:
329,192,38612,1,0,0:0:0:0:
182,192,38800,1,0,0:0:0:0:
36,192,38800,1,0,0:0:0:0:
329,192,38800,1,0,0:0:0:0:
256,192,38893,1,0,0:0:0:0:
182,192,38987,1,0,0:0:0:0:
256,192,39081,1,0,0:0:0:0:
329,192,39175,1,0,0:0:0:0:
36,192,39175,1,0,0:0:0:0:
402,192,39175,1,0,0:0:0:0:
109,192,39268,1,0,0:0:0:0:
402,192,39362,1,0,0:0:0:0:
256,192,39362,1,0,0:0:0:0:
182,192,39456,1,0,0:0:0:0:
329,192,39550,1,0,0:0:0:0:
109,192,39550,1,0,0:0:0:0:
402,192,39550,1,0,0:0:0:0:
256,192,39643,1,0,0:0:0:0:
182,192,39737,1,0,0:0:0:0:
256,192,39831,1,0,0:0:0:0:
109,192,39925,1,0,0:0:0:0:
329,192,39925,1,0,0:0:0:0:
475,192,39925,1,0,0:0:0:0:
182,192,40112,1,0,0:0:0:0:
329,192,40112,1,0,0:0:0:0:
36,192,40300,1,0,0:0:0:0:
182,192,40300,1,0,0:0:0:0:
329,192,40300,1,0,0:0:0:0:
109,192,40393,1,0,0:0:0:0:
182,192,40487,1,0,0:0:0:0:
256,192,40581,1,0,0:0:0:0:
329,192,40675,1,0,0:0:0:0:
109,192,40675,1,0,0:0:0:0:
36,192,40675,1,0,0:0:0:0:
475,192,40675,1,0,0:0:0:0:
182,192,40768,1,0,0:0:0:0:
256,192,40862,1,0,0:0:0:0:
402,192,40862,1,0,0:0:0:0:
109,192,40956,1,0,0:0:0:0:
402,192,41050,1,0,0:0:0:0:
475,192,41050,1,0,0:0:0:0:
182,192,41050,1,0,0:0:0:0:
256,192,41143,1,0,0:0:0:0:
329,192,41237,1,0,0:0:0:0:
182,192,41331,1,0,0:0:0:0:
36,192,41425,1,0,0:0:0:0:
256,192,41425,1,0,0:0:0:0:
402,192,41425,1,0,0:0:0:0:
329,192,41612,1,0,0:0:0:0:
182,192,41612,1,0,0:0:0:0:
182,192,41800,1,0,0:0:0:0:
329,192,41800,1,0,0:0:0:0:
475,192,41800,1,0,0:0:0:0:
109,192,41987,1,0,0:0:0:0:
256,192,41987,1,0,0:0:0:0:
475,192,42175,1,0,0:0:0:0:
182,192,42175,1,0,0:0:0:0:
329,192,42175,1,0,0:0:0:0:
109,192,42175,1,0,0:0:0:0:
36,192,42175,1,0,0:0:0:0:
329,192,42362,1,0,0:0:0:0:
402,192,42362,1,0,0:0:0:0:
256,192,42362,1,0,0:0:0:0:
256,192,42550,1,0,0:0:0:0:
329,192,42550,1,0,0:0:0:0:
182,192,42550,1,0,0:0:0:0:
182,192,42737,1,0,0:0:0:0:
256,192,42737,1,0,0:0:0:0:
109,192,42737,1,0,0:0:0:0:
329,192,42831,1,0,0:0:0:0:
182,192,42925,1,0,0:0:0:0:
36,192,42925,1,0,0:0:0:0:
475,192,42925,1,0,0:0:0:0:
402,192,42925,1,0,0:0:0:0:
182,192,43112,1,0,0:0:0:0:
36,192,43112,1,0,0:0:0:0:
329,192,43112,1,0,0:0:0:0:
109,192,43300,1,0,0:0:0:0:
256,192,43300,1,0,0:0:0:0:
402,192,43300,1,0,0:0:0:0:
475,192,43300,1,0,0:0:0:0:
182,192,43487,1,0,0:0:0:0:
329,192,43487,1,0,0:0:0:0:
329,192,43675,1,0,0:0:0:0:
182,192,43675,1,0,0:0:0:0:
36,192,43675,1,0,0:0:0:0:
109,192,43675,1,0,0:0:0:0:
256,192,43862,1,0,0:0:0:0:
109,192,44050,1,0,0:0:0:0:
402,192,44050,1,0,0:0:0:0:
329,192,44096,1,0,0:0:0:0:
475,192,44237,1,0,0:0:0:0:
256,192,44237,1,0,0:0:0:0:
36,192,44331,1,0,0:0:0:0:
109,192,44378,1,0,0:0:0:0:
182,192,44425,1,0,0:0:0:0:
329,192,44425,1,0,0:0:0:0:
475,192,44425,1,0,0:0:0:0:
182,192,44612,1,0,0:0:0:0:
329,192,44612,1,0,0:0:0:0:
36,192,44800,1,0,0:0:0:0:
109,192,44800,1,0,0:0:0:0:
256,192,44800,1,0,0:0:0:0:
402,192,44987,1,0,0:0:0:0:
182,192,44987,1,0,0:0:0:0:
109,192,44987,1,0,0:0:0:0:
256,192,45081,1,0,0:0:0:0:
109,192,45175,1,0,0:0:0:0:
329,192,45175,1,0,0:0:0:0:
475,192,45175,1,0,0:0:0:0:
182,192,45362,1,0,0:0:0:0:
329,192,45362,1,0,0:0:0:0:
402,192,45456,1,0,0:0:0:0:
109,192,45550,1,0,0:0:0:0:
256,192,45550,1,0,0:0:0:0:
475,192,45550,1,0,0:0:0:0:
329,192,45643,1,0,0:0:0:0:
182,192,45737,1,0,0:0:0:0:
256,192,45831,1,0,0:0:0:0:
329,192,45878,1,0,0:0:0:0:
402,192,45925,1,0,0:0:0:0:
109,192,45925,1,0,0:0:0:0:
475,192,45925,1,0,0:0:0:0:
182,192,46112,1,0,0:0:0:0:
329,192,46112,1,0,0:0:0:0:
256,192,46206,1,0,0:0:0:0:
109,192,46300,1,0,0:0:0:0:
329,192,46300,1,0,0:0:0:0:
475,192,46300,1,0,0:0:0:0:
256,192,46393,1,0,0:0:0:0:
182,192,46487,1,0,0:0:0:0:
109,192,46581,1,0,0:0:0:0:
256,192,46675,1,0,0:0:0:0:
402,192,46675,1,0,0:0:0:0:
36,192,46675,1,0,0:0:0:0:
109,192,46862,1,0,0:0:0:0:
329,192,46862,1,0,0:0:0:0:
109,192,47050,1,0,0:0:0:0:
36,192,47050,1,0,0:0:0:0:
256,192,47050,1,0,0:0:0:0:
329,192,47143,1,0,0:0:0:0:
475,192,47237,1,0,0:0:0:0:
182,192,47237,1,0,0:0:0:0:
402,192,47331,1,0,0:0:0:0:
182,192,47425,1,0,0:0:0:0:
36,192,47425,1,0,0:0:0:0:
329,192,47425,1,0,0:0:0:0:
256,192,47612,1,0,0:0:0:0:
109,192,47612,1,0,0:0:0:0:
402,192,47706,1,0,0:0:0:0:
329,192,47800,1,0,0:0:0:0:
109,192,47800,1,0,0:0:0:0:
36,192,47800,1,0,0:0:0:0:
256,192,47893,1,0,0:0:0:0:
182,192,47987,1,0,0:0:0:0:
109,192,48081,1,0,0:0:0:0:
182,192,48175,1,0,0:0:0:0:
329,192,48175,1,0,0:0:0:0:
475,192,48175,1,0,0:0:0:0:
109,192,48362,1,0,0:0:0:0:
256,192,48362,1,0,0:0:0:0:
109,192,48550,1,0,0:0:0:0:
36,192,48550,1,0,0:0:0:0:
329,192,48550,1,0,0:0:0:0:
182,192,48643,1,0,0:0:0:0:
256,192,48737,1,0,0:0:0:0:
475,192,48737,1,0,0:0:0:0:
329,192,48831,1,0,0:0:0:0:
182,192,48925,1,0,0:0:0:0:
36,192,48925,1,0,0:0:0:0:
402,192,48925,1,0,0:0:0:0:
109,192,49112,1,0,0:0:0:0:
402,192,49112,1,0,0:0:0:0:
329,192,49206,1,0,0:0:0:0:
256,192,49253,1,0,0:0:0:0:
182,192,49300,1,0,0:0:0:0:
36,192,49300,1,0,0:0:0:0:
475,192,49300,1,0,0:0:0:0:
182,192,49487,1,0,0:0:0:0:
402,192,49487,1,0,0:0:0:0:
329,192,49581,1,0,0:0:0:0:
109,192,49675,1,0,0:0:0:0:
256,192,49675,1,0,0:0:0:0:
36,192,49675,1,0,0:0:0:0:
402,192,49675,1,0,0:0:0:0:
329,192,49862,1,0,0:0:0:0:
475,192,49862,1,0,0:0:0:0:
256,192,50050,1,0,0:0:0:0:
109,192,50050,1,0,0:0:0:0:
36,192,50050,1,0,0:0:0:0:
182,192,50143,1,0,0:0:0:0:
256,192,50237,1,0,0:0:0:0:
329,192,50331,1,0,0:0:0:0:
475,192,50378,1,0,0:0:0:0:
402,192,50425,1,0,0:0:0:0:
182,192,50425,1,0,0:0:0:0:
36,192,50425,1,0,0:0:0:0:
109,192,50612,1,0,0:0:0:0:
329,192,50612,1,0,0:0:0:0:
109,192,50776,1,0,0:0:0:0:
475,192,50800,1,0,0:0:0:0:
329,192,50800,1,0,0:0:0:0:
402,192,50987,1,0,0:0:0:0:
329,192,51081,1,0,0:0:0:0:
256,192,51175,1,0,0:0:0:0:
109,192,51175,1,0,0:0:0:0:
402,192,51175,1,0,0:0:0:0:
182,192,51362,1,0,0:0:0:0:
329,192,51456,1,0,0:0:0:0:
36,192,51550,1,0,0:0:0:0:
256,192,51550,1,0,0:0:0:0:
475,192,51550,1,0,0:0:0:0:
109,192,51643,1,0,0:0:0:0:
182,192,51737,1,0,0:0:0:0:
329,192,51737,1,0,0:0:0:0:
475,192,51831,1,0,0:0:0:0:
402,192,51878,1,0,0:0:0:0:
36,192,51925,1,0,0:0:0:0:
329,192,51925,1,0,0:0:0:0:
182,192,51925,1,0,0:0:0:0:
182,192,52112,1,0,0:0:0:0:
36,192,52112,1,0,0:0:0:0:
329,192,52206,1,0,0:0:0:0:
109,192,52300,1,0,0:0:0:0:
256,192,52300,1,0,0:0:0:0:
475,192,52300,1,0,0:0:0:0:
402,192,52393,1,0,0:0:0:0:
329,192,52487,1,0,0:0:0:0:
109,192,52487,1,0,0:0:0:0:
256,192,52581,1,0,0:0:0:0:
36,192,52675,1,0,0:0:0:0:
329,192,52675,1,0,0:0:0:0:
475,192,52675,1,0,0:0:0:0:
182,192,52675,1,0,0:0:0:0:
329,192,52862,1,0,0:0:0:0:
109,192,52862,1,0,0:0:0:0:
182,192,52956,1,0,0:0:0:0:
402,192,53050,1,0,0:0:0:0:
36,192,53050,1,0,0:0:0:0:
256,192,53050,1,0,0:0:0:0:
182,192,53143,1,0,0:0:0:0:
256,192,53237,1,0,0:0:0:0:
329,192,53331,1,0,0:0:0:0:
109,192,53425,1,0,0:0:0:0:
256,192,53425,1,0,0:0:0:0:
402,192,53425,1,0,0:0:0:0:
109,192,53612,1,0,0:0:0:0:
329,192,53706,1,0,0:0:0:0:
475,192,53753,1,0,0:0:0:0:
402,192,53800,1,0,0:0:0:0:
36,192,53800,1,0,0:0:0:0:
182,192,53800,1,0,0:0:0:0:
256,192,53893,1,0,0:0:0:0:
109,192,53987,1,0,0:0:0:0:
329,192,53987,1,0,0:0:0:0:
475,192,54081,1,0,0:0:0:0:
182,192,54175,1,0,0:0:0:0:
36,192,54175,1,0,0:0:0:0:
402,192,54175,1,0,0:0:0:0:
256,192,54362,1,0,0:0:0:0:
109,192,54362,1,0,0:0:0:0:
402,192,54456,1,0,0:0:0:0:
329,192,54503,1,0,0:0:0:0:
182,192,54550,1,0,0:0:0:0:
36,192,54550,1,0,0:0:0:0:
475,192,54550,1,0,0:0:0:0:
256,192,54643,1,0,0:0:0:0:
109,192,54737,1,0,0:0:0:0:
329,192,54737,1,0,0:0:0:0:
475,192,54737,1,0,0:0:0:0:
182,192,54831,1,0,0:0:0:0:
109,192,54925,1,0,0:0:0:0:
256,192,54925,1,0,0:0:0:0:
402,192,54925,1,0,0:0:0:0:
182,192,55112,1,0,0:0:0:0:
329,192,55206,1,0,0:0:0:0:
256,192,55300,1,0,0:0:0:0:
109,192,55300,1,0,0:0:0:0:
36,192,55300,1,0,0:0:0:0:
475,192,55300,1,0,0:0:0:0:
329,192,55487,1,0,0:0:0:0:
182,192,55487,1,0,0:0:0:0:
109,192,55675,1,0,0:0:0:0:
36,192,55675,1,0,0:0:0:0:
182,192,55675,1,0,0:0:0:0:
329,192,55675,1,0,0:0:0:0:
109,192,55862,1,0,0:0:0:0:
182,192,55862,1,0,0:0:0:0:
256,192,55862,1,0,0:0:0:0:
402,192,55862,1,0,0:0:0:0:
182,192,56050,1,0,0:0:0:0:
256,192,56050,1,0,0:0:0:0:
475,192,56050,1,0,0:0:0:0:
329,192,56050,1,0,0:0:0:0:
256,192,56237,1,0,0:0:0:0:
329,192,56237,1,0,0:0:0:0:
402,192,56237,1,0,0:0:0:0:
475,192,56237,1,0,0:0:0:0:
402,192,56425,1,0,0:0:0:0:
36,192,56425,1,0,0:0:0:0:
182,192,56425,1,0,0:0:0:0:
329,192,56518,1,0,0:0:0:0:
402,192,56612,1,0,0:0:0:0:
109,192,56612,1,0,0:0:0:0:
402,192,56800,1,0,0:0:0:0:
256,192,56800,1,0,0:0:0:0:
109,192,56800,1,0,0:0:0:0:
36,192,56800,1,0,0:0:0:0:
329,192,56987,1,0,0:0:0:0:
182,192,57081,1,0,0:0:0:0:
109,192,57175,1,0,0:0:0:0:
36,192,57175,1,0,0:0:0:0:
256,192,57175,1,0,0:0:0:0:
329,192,57175,1,0,0:0:0:0:
109,192,57362,1,0,0:0:0:0:
182,192,57362,1,0,0:0:0:0:
329,192,57362,1,0,0:0:0:0:
402,192,57362,1,0,0:0:0:0:
182,192,57550,1,0,0:0:0:0:
256,192,57550,1,0,0:0:0:0:
402,192,57550,1,0,0:0:0:0:
475,192,57550,1,0,0:0:0:0:
256,192,57737,1,0,0:0:0:0:
329,192,57737,1,0,0:0:0:0:
402,192,57737,1,0,0:0:0:0:
475,192,57737,1,0,0:0:0:0:
256,192,57925,1,0,0:0:0:0:
109,192,57925,1,0,0:0:0:0:
475,192,57925,1,0,0:0:0:0:
402,192,58018,1,0,0:0:0:0:
182,192,58112,1,0,0:0:0:0:
475,192,58112,1,0,0:0:0:0:
182,192,58300,1,0,0:0:0:0:
36,192,58300,1,0,0:0:0:0:
329,192,58300,1,0,0:0:0:0:
475,192,58300,1,0,0:0:0:0:
402,192,58487,1,0,0:0:0:0:
329,192,58581,1,0,0:0:0:0:
256,192,58675,1,0,0:0:0:0:
109,192,58675,1,0,0:0:0:0:
475,192,58675,1,0,0:0:0:0:
36,192,58675,1,0,0:0:0:0:
182,192,58862,1,0,0:0:0:0:
329,192,58862,1,0,0:0:0:0:
36,192,59050,1,0,0:0:0:0:
256,192,59050,1,0,0:0:0:0:
402,192,59050,1,0,0:0:0:0:
109,192,59143,1,0,0:0:0:0:
256,192,59237,1,0,0:0:0:0:
402,192,59237,1,0,0:0:0:0:
36,192,59425,1,0,0:0:0:0:
329,192,59425,1,0,0:0:0:0:
475,192,59425,1,0,0:0:0:0:
182,192,59425,1,0,0:0:0:0:
182,192,59612,1,0,0:0:0:0:
329,192,59612,1,0,0:0:0:0:
402,192,59612,1,0,0:0:0:0:
109,192,59800,1,0,0:0:0:0:
329,192,59800,1,0,0:0:0:0:
475,192,59800,1,0,0:0:0:0:
182,192,59893,1,0,0:0:0:0:
475,192,59987,1,0,0:0:0:0:
329,192,59987,1,0,0:0:0:0:
182,192,60175,1,0,0:0:0:0:
36,192,60175,1,0,0:0:0:0:
402,192,60175,1,0,0:0:0:0:
475,192,60175,1,0,0:0:0:0:
109,192,60362,1,0,0:0:0:0:
402,192,60362,1,0,0:0:0:0:
109,192,60550,1,0,0:0:0:0:
36,192,60550,1,0,0:0:0:0:
329,192,60550,1,0,0:0:0:0:
475,192,60550,1,0,0:0:0:0:
109,192,60737,1,0,0:0:0:0:
36,192,60737,1,0,0:0:0:0:
256,192,60737,1,0,0:0:0:0:
402,192,60737,1,0,0:0:0:0:
402,192,60925,1,0,0:0:0:0:
109,192,60925,1,0,0:0:0:0:
329,192,61018,1,0,0:0:0:0:
182,192,61112,1,0,0:0:0:0:
402,192,61112,1,0,0:0:0:0:
256,192,61206,1,0,0:0:0:0:
475,192,61300,1,0,0:0:0:0:
329,192,61300,1,0,0:0:0:0:
109,192,61300,1,0,0:0:0:0:
182,192,61487,1,0,0:0:0:0:
329,192,61487,1,0,0:0:0:0:
36,192,61675,1,0,0:0:0:0:
109,192,61675,1,0,0:0:0:0:
182,192,61675,1,0,0:0:0:0:
329,192,61675,1,0,0:0:0:0:
109,192,61862,1,0,0:0:0:0:
182,192,61862,1,0,0:0:0:0:
256,192,61862,1,0,0:0:0:0:
402,192,61862,1,0,0:0:0:0:
256,192,62050,1,0,0:0:0:0:
182,192,62050,1,0,0:0:0:0:
475,192,62050,1,0,0:0:0:0:
329,192,62050,1,0,0:0:0:0:
329,192,62237,1,0,0:0:0:0:
475,192,62237,1,0,0:0:0:0:
256,192,62237,1,0,0:0:0:0:
402,192,62237,1,0,0:0:0:0:
402,192,62425,1,0,0:0:0:0:
36,192,62425,1,0,0:0:0:0:
182,192,62425,1,0,0:0:0:0:
256,192,62518,1,0,0:0:0:0:
329,192,62612,1,0,0:0:0:0:
109,192,62612,1,0,0:0:0:0:
402,192,62800,1,0,0:0:0:0:
256,192,62800,1,0,0:0:0:0:
109,192,62800,1,0,0:0:0:0:
36,192,62800,1,0,0:0:0:0:
329,192,62987,1,0,0:0:0:0:
182,192,63081,1,0,0:0:0:0:
256,192,63175,1,0,0:0:0:0:
329,192,63175,1,0,0:0:0:0:
109,192,63175,1,0,0:0:0:0:
36,192,63175,1,0,0:0:0:0:
109,192,63362,1,0,0:0:0:0:
182,192,63362,1,0,0:0:0:0:
329,192,63362,1,0,0:0:0:0:
402,192,63362,1,0,0:0:0:0:
182,192,63550,1,0,0:0:0:0:
256,192,63550,1,0,0:0:0:0:
402,192,63550,1,0,0:0:0:0:
475,192,63550,1,0,0:0:0:0:
256,192,63737,1,0,0:0:0:0:
329,192,63737,1,0,0:0:0:0:
402,192,63737,1,0,0:0:0:0:
475,192,63737,1,0,0:0:0:0:
36,192,63925,1,0,0:0:0:0:
182,192,63925,1,0,0:0:0:0:
475,192,63925,1,0,0:0:0:0:
329,192,64018,1,0,0:0:0:0:
109,192,64112,1,0,0:0:0:0:
402,192,64112,1,0,0:0:0:0:
36,192,64300,1,0,0:0:0:0:
182,192,64300,1,0,0:0:0:0:
475,192,64300,1,0,0:0:0:0:
329,192,64300,1,0,0:0:0:0:
329,192,64487,1,0,0:0:0:0:
182,192,64581,1,0,0:0:0:0:
36,192,64651,1,0,0:0:0:0:
256,192,64675,1,0,0:0:0:0:
109,192,64675,1,0,0:0:0:0:
402,192,64675,1,0,0:0:0:0:
182,192,64862,1,0,0:0:0:0:
329,192,64862,1,0,0:0:0:0:
256,192,64956,1,0,0:0:0:0:
36,192,65050,1,0,0:0:0:0:
329,192,65050,1,0,0:0:0:0:
475,192,65050,1,0,0:0:0:0:
182,192,65237,1,0,0:0:0:0:
329,192,65237,1,0,0:0:0:0:
402,192,65237,1,0,0:0:0:0:
36,192,65300,1,0,0:0:0:0:
109,192,65362,1,0,0:0:0:0:
182,192,65425,1,0,0:0:0:0:
329,192,65425,1,0,0:0:0:0:
475,192,65425,1,0,0:0:0:0:
109,192,65612,1,0,0:0:0:0:
256,192,65612,1,0,0:0:0:0:
402,192,65612,1,0,0:0:0:0:
36,192,65800,1,0,0:0:0:0:
256,192,65800,1,0,0:0:0:0:
329,192,65800,1,0,0:0:0:0:
182,192,65800,1,0,0:0:0:0:
475,192,65800,1,0,0:0:0:0:
402,192,65987,1,0,0:0:0:0:
109,192,65987,1,0,0:0:0:0:
256,192,65987,1,0,0:0:0:0:
402,192,66175,1,0,0:0:0:0:
475,192,66175,1,0,0:0:0:0:
182,192,66175,1,0,0:0:0:0:
36,192,66175,1,0,0:0:0:0:
109,192,66362,1,0,0:0:0:0:
256,192,66362,1,0,0:0:0:0:
402,192,66362,1,0,0:0:0:0:
109,192,66550,1,0,0:0:0:0:
256,192,66550,1,0,0:0:0:0:
402,192,66550,1,0,0:0:0:0:
36,192,66550,1,0,0:0:0:0:
182,192,66643,1,0,0:0:0:0:
329,192,66737,1,0,0:0:0:0:
475,192,66737,1,0,0:0:0:0:
182,192,66831,1,0,0:0:0:0:
256,192,66925,1,0,0:0:0:0:
402,192,66925,1,0,0:0:0:0:
109,192,66925,1,0,0:0:0:0:
36,192,66925,1,0,0:0:0:0:
329,192,67112,1,0,0:0:0:0:
109,192,67112,1,0,0:0:0:0:
256,192,67206,1,0,0:0:0:0:
182,192,67300,1,0,0:0:0:0:
36,192,67300,1,0,0:0:0:0:
402,192,67300,1,0,0:0:0:0:
475,192,67300,1,0,0:0:0:0:
402,192,67487,1,0,0:0:0:0:
109,192,67487,1,0,0:0:0:0:
256,192,67487,1,0,0:0:0:0:
182,192,67675,1,0,0:0:0:0:
256,192,67675,1,0,0:0:0:0:
402,192,67675,1,0,0:0:0:0:
475,192,67675,1,0,0:0:0:0:
36,192,67862,1,0,0:0:0:0:
109,192,67862,1,0,0:0:0:0:
256,192,67862,1,0,0:0:0:0:
329,192,67862,1,0,0:0:0:0:
329,192,68050,1,0,0:0:0:0:
402,192,68050,1,0,0:0:0:0:
109,192,68050,1,0,0:0:0:0:
182,192,68050,1,0,0:0:0:0:
182,192,68237,1,0,0:0:0:0:
256,192,68237,1,0,0:0:0:0:
475,192,68237,1,0,0:0:0:0:
402,192,68237,1,0,0:0:0:0:
182,192,68425,1,0,0:0:0:0:
36,192,68425,1,0,0:0:0:0:
402,192,68425,1,0,0:0:0:0:
329,192,68518,1,0,0:0:0:0:
109,192,68612,1,0,0:0:0:0:
402,192,68612,1,0,0:0:0:0:
109,192,68800,1,0,0:0:0:0:
256,192,68800,1,0,0:0:0:0:
402,192,68800,1,0,0:0:0:0:
475,192,68800,1,0,0:0:0:0:
402,192,68987,1,0,0:0:0:0:
329,192,69081,1,0,0:0:0:0:
109,192,69175,1,0,0:0:0:0:
256,192,69175,1,0,0:0:0:0:
36,192,69175,1,0,0:0:0:0:
402,192,69175,1,0,0:0:0:0:
36,192,69362,1,0,0:0:0:0:
182,192,69362,1,0,0:0:0:0:
329,192,69362,1,0,0:0:0:0:
109,192,69362,1,0,0:0:0:0:
109,192,69550,1,0,0:0:0:0:
182,192,69550,1,0,0:0:0:0:
256,192,69550,1,0,0:0:0:0:
402,192,69550,1,0,0:0:0:0:
182,192,69737,1,0,0:0:0:0:
329,192,69737,1,0,0:0:0:0:
256,192,69737,1,0,0:0:0:0:
475,192,69737,1,0,0:0:0:0:
182,192,69925,1,0,0:0:0:0:
36,192,69925,1,0,0:0:0:0:
402,192,69925,1,0,0:0:0:0:
256,192,70018,1,0,0:0:0:0:
402,192,70112,1,0,0:0:0:0:
109,192,70112,1,0,0:0:0:0:
36,192,70300,1,0,0:0:0:0:
109,192,70300,1,0,0:0:0:0:
402,192,70300,1,0,0:0:0:0:
256,192,70300,1,0,0:0:0:0:
329,192,70487,1,0,0:0:0:0:
182,192,70581,1,0,0:0:0:0:
329,192,70675,1,0,0:0:0:0:
475,192,70675,1,0,0:0:0:0:
36,192,70675,1,0,0:0:0:0:
109,192,70862,1,0,0:0:0:0:
256,192,70862,1,0,0:0:0:0:
402,192,71050,1,0,0:0:0:0:
182,192,71050,1,0,0:0:0:0:
36,192,71050,1,0,0:0:0:0:
329,192,71143,1,0,0:0:0:0:
256,192,71237,1,0,0:0:0:0:
109,192,71237,1,0,0:0:0:0:
475,192,71237,1,0,0:0:0:0:
109,192,71425,1,0,0:0:0:0:
329,192,71425,1,0,0:0:0:0:
475,192,71425,1,0,0:0:0:0:
36,192,71425,1,0,0:0:0:0:
109,192,71612,1,0,0:0:0:0:
256,192,71612,1,0,0:0:0:0:
402,192,71612,1,0,0:0:0:0:
182,192,71800,1,0,0:0:0:0:
402,192,71800,1,0,0:0:0:0:
36,192,71800,1,0,0:0:0:0:
256,192,71893,1,0,0:0:0:0:
109,192,71987,1,0,0:0:0:0:
329,192,71987,1,0,0:0:0:0:
256,192,72175,1,0,0:0:0:0:
402,192,72175,1,0,0:0:0:0:
109,192,72175,1,0,0:0:0:0:
36,192,72175,1,0,0:0:0:0:
182,192,72362,1,0,0:0:0:0:
329,192,72362,1,0,0:0:0:0:
329,192,72550,1,0,0:0:0:0:
402,192,72550,1,0,0:0:0:0:
182,192,72550,1,0,0:0:0:0:
109,192,72737,1,0,0:0:0:0:
256,192,72737,1,0,0:0:0:0:
329,192,72737,1,0,0:0:0:0:
182,192,72925,1,0,0:0:0:0:
36,192,72925,1,0,0:0:0:0:
256,192,72925,1,0,0:0:0:0:
475,192,72925,1,0,0:0:0:0:
402,192,73018,1,0,0:0:0:0:
329,192,73112,1,0,0:0:0:0:
402,192,73206,1,0,0:0:0:0:
256,192,73300,1,0,0:0:0:0:
109,192,73300,1,0,0:0:0:0:
475,192,73300,1,0,0:0:0:0:
36,192,73300,1,0,0:0:0:0:
182,192,73487,1,0,0:0:0:0:
329,192,73487,1,0,0:0:0:0:
256,192,73675,1,0,0:0:0:0:
36,192,73675,1,0,0:0:0:0:
109,192,73675,1,0,0:0:0:0:
182,192,73675,1,0,0:0:0:0:
109,192,73862,1,0,0:0:0:0:
182,192,73862,1,0,0:0:0:0:
256,192,73862,1,0,0:0:0:0:
329,192,73862,1,0,0:0:0:0:
182,192,74050,1,0,0:0:0:0:
256,192,74050,1,0,0:0:0:0:
402,192,74050,1,0,0:0:0:0:
329,192,74050,1,0,0:0:0:0:
256,192,74237,1,0,0:0:0:0:
329,192,74237,1,0,0:0:0:0:
402,192,74237,1,0,0:0:0:0:
475,192,74237,1,0,0:0:0:0:
36,192,74425,1,0,0:0:0:0:
475,192,74425,1,0,0:0:0:0:
182,192,74425,1,0,0:0:0:0:
402,192,74518,1,0,0:0:0:0:
109,192,74612,1,0,0:0:0:0:
329,192,74612,1,0,0:0:0:0:
182,192,74800,1,0,0:0:0:0:
36,192,74800,1,0,0:0:0:0:
329,192,74800,1,0,0:0:0:0:
402,192,74800,1,0,0:0:0:0:
109,192,74987,1,0,0:0:0:0:
329,192,74987,1,0,0:0:0:0:
256,192,75081,1,0,0:0:0:0:
182,192,75175,1,0,0:0:0:0:
36,192,75175,1,0,0:0:0:0:
329,192,75175,1,0,0:0:0:0:
109,192,75175,1,0,0:0:0:0:
109,192,75362,1,0,0:0:0:0:
182,192,75362,1,0,0:0:0:0:
256,192,75362,1,0,0:0:0:0:
402,192,75362,1,0,0:0:0:0:
182,192,75550,1,0,0:0:0:0:
256,192,75550,1,0,0:0:0:0:
329,192,75550,1,0,0:0:0:0:
475,192,75550,1,0,0:0:0:0:
256,192,75737,1,0,0:0:0:0:
402,192,75737,1,0,0:0:0:0:
329,192,75737,1,0,0:0:0:0:
475,192,75737,1,0,0:0:0:0:
182,192,75925,1,0,0:0:0:0:
402,192,75925,1,0,0:0:0:0:
36,192,75925,1,0,0:0:0:0:
256,192,76018,1,0,0:0:0:0:
109,192,76112,1,0,0:0:0:0:
402,192,76112,1,0,0:0:0:0:
109,192,76300,1,0,0:0:0:0:
256,192,76300,1,0,0:0:0:0:
402,192,76300,1,0,0:0:0:0:
36,192,76300,1,0,0:0:0:0:
329,192,76487,1,0,0:0:0:0:
256,192,76581,1,0,0:0:0:0:
36,192,76651,1,0,0:0:0:0:
182,192,76675,1,0,0:0:0:0:
109,192,76675,1,0,0:0:0:0:
402,192,76675,1,0,0:0:0:0:
182,192,76862,1,0,0:0:0:0:
329,192,76862,1,0,0:0:0:0:
182,192,77050,1,0,0:0:0:0:
329,192,77050,1,0,0:0:0:0:
36,192,77050,1,0,0:0:0:0:
402,192,77050,1,0,0:0:0:0:
109,192,77237,1,0,0:0:0:0:
256,192,77237,1,0,0:0:0:0:
475,192,77300,1,0,0:0:0:0:
402,192,77362,1,0,0:0:0:0:
182,192,77425,1,0,0:0:0:0:
36,192,77425,1,0,0:0:0:0:
329,192,77425,1,0,0:0:0:0:
256,192,77612,1,0,0:0:0:0:
109,192,77612,1,0,0:0:0:0:
182,192,77612,1,0,0:0:0:0:
182,192,77800,1,0,0:0:0:0:
329,192,77800,1,0,0:0:0:0:
256,192,77800,1,0,0:0:0:0:
475,192,77800,1,0,0:0:0:0:
36,192,77800,1,0,0:0:0:0:
256,192,77987,1,0,0:0:0:0:
329,192,77987,1,0,0:0:0:0:
402,192,77987,1,0,0:0:0:0:
36,192,78175,1,0,0:0:0:0:
329,192,78175,1,0,0:0:0:0:
256,192,78175,1,0,0:0:0:0:
475,192,78175,1,0,0:0:0:0:
182,192,78175,1,0,0:0:0:0:
475,192,78362,1,0,0:0:0:0:
402,192,78362,1,0,0:0:0:0:
329,192,78362,1,0,0:0:0:0:
256,192,78550,1,0,0:0:0:0:
329,192,78550,1,0,0:0:0:0:
402,192,78550,1,0,0:0:0:0:
329,192,78737,1,0,0:0:0:0:
256,192,78737,1,0,0:0:0:0:
182,192,78737,1,0,0:0:0:0:
256,192,78925,1,0,0:0:0:0:
182,192,78925,1,0,0:0:0:0:
109,192,78925,1,0,0:0:0:0:
402,192,79018,1,0,0:0:0:0:
329,192,79112,1,0,0:0:0:0:
402,192,79206,1,0,0:0:0:0:
109,192,79300,1,0,0:0:0:0:
256,192,79300,1,0,0:0:0:0:
36,192,79300,1,0,0:0:0:0:
475,192,79300,1,0,0:0:0:0:
182,192,79487,1,0,0:0:0:0:
329,192,79581,1,0,0:0:0:0:
36,192,79675,1,0,0:0:0:0:
256,192,79675,1,0,0:0:0:0:
475,192,79675,1,0,0:0:0:0:
329,192,79862,1,0,0:0:0:0:
256,192,79956,1,0,0:0:0:0:
182,192,80050,1,0,0:0:0:0:
402,192,80050,1,0,0:0:0:0:
36,192,80050,1,0,0:0:0:0:
256,192,80214,1,0,0:0:0:0:
402,192,80237,1,0,0:0:0:0:
109,192,80425,1,0,0:0:0:0:
329,192,80425,1,0,0:0:0:0:
182,192,80589,1,0,0:0:0:0:
329,192,80612,1,0,0:0:0:0:
329,192,80800,1,0,0:0:0:0:
182,192,80800,1,0,0:0:0:0:
36,192,80800,1,0,0:0:0:0:
256,192,80987,1,0,0:0:0:0:
402,192,80987,1,0,0:0:0:0:
36,192,81175,1,0,0:0:0:0:
256,192,81175,1,0,0:0:0:0:
109,192,81175,1,0,0:0:0:0:
329,192,81362,1,0,0:0:0:0:
402,192,81456,1,0,0:0:0:0:
329,192,81550,1,0,0:0:0:0:
182,192,81550,1,0,0:0:0:0:
36,192,81550,1,0,0:0:0:0:
109,192,81714,1,0,0:0:0:0:
256,192,81737,1,0,0:0:0:0:
329,192,81925,1,0,0:0:0:0:
182,192,81925,1,0,0:0:0:0:
475,192,81925,1,0,0:0:0:0:
182,192,82089,1,0,0:0:0:0:
329,192,82112,1,0,0:0:0:0:
36,192,82300,1,0,0:0:0:0:
182,192,82300,1,0,0:0:0:0:
329,192,82300,1,0,0:0:0:0:
256,192,82487,1,0,0:0:0:0:
475,192,82675,1,0,0:0:0:0:
329,192,82675,1,0,0:0:0:0:
109,192,82675,1,0,0:0:0:0:
329,192,82862,1,0,0:0:0:0:
402,192,82956,1,0,0:0:0:0:
256,192,83050,1,0,0:0:0:0:
109,192,83050,1,0,0:0:0:0:
256,192,83214,1,0,0:0:0:0:
402,192,83237,1,0,0:0:0:0:
182,192,83425,1,0,0:0:0:0:
36,192,83425,1,0,0:0:0:0:
329,192,83425,1,0,0:0:0:0:
182,192,83589,1,0,0:0:0:0:
329,192,83612,1,0,0:0:0:0:
36,192,83800,1,0,0:0:0:0:
329,192,83800,1,0,0:0:0:0:
182,192,83800,1,0,0:0:0:0:
109,192,83987,1,0,0:0:0:0:
256,192,83987,1,0,0:0:0:0:
256,192,84175,1,0,0:0:0:0:
402,192,84175,1,0,0:0:0:0:
109,192,84175,1,0,0:0:0:0:
329,192,84362,1,0,0:0:0:0:
475,192,84456,1,0,0:0:0:0:
402,192,84550,1,0,0:0:0:0:
182,192,84550,1,0,0:0:0:0:
36,192,84550,1,0,0:0:0:0:
36,192,84737,1,0,0:0:0:0:
182,192,84737,1,0,0:0:0:0:
402,192,84800,1,0,0:0:0:0:
329,192,84862,1,0,0:0:0:0:
256,192,84925,1,0,0:0:0:0:
109,192,84925,1,0,0:0:0:0:
402,192,85018,1,0,0:0:0:0:
182,192,85112,1,0,0:0:0:0:
329,192,85206,1,0,0:0:0:0:
402,192,85300,1,0,0:0:0:0:
109,192,85300,1,0,0:0:0:0:
256,192,85300,1,0,0:0:0:0:
182,192,85487,1,0,0:0:0:0:
256,192,85581,1,0,0:0:0:0:
182,192,85675,1,0,0:0:0:0:
36,192,85675,1,0,0:0:0:0:
329,192,85675,1,0,0:0:0:0:
475,192,85675,1,0,0:0:0:0:
182,192,85862,1,0,0:0:0:0:
329,192,85862,1,0,0:0:0:0:
402,192,85862,1,0,0:0:0:0:
182,192,86050,1,0,0:0:0:0:
329,192,86050,1,0,0:0:0:0:
475,192,86050,1,0,0:0:0:0:
36,192,86050,1,0,0:0:0:0:
109,192,86214,1,0,0:0:0:0:
182,192,86237,1,0,0:0:0:0:
329,192,86237,1,0,0:0:0:0:
329,192,86425,1,0,0:0:0:0:
36,192,86425,1,0,0:0:0:0:
475,192,86425,1,0,0:0:0:0:
182,192,86425,1,0,0:0:0:0:
109,192,86589,1,0,0:0:0:0:
256,192,86612,1,0,0:0:0:0:
402,192,86612,1,0,0:0:0:0:
109,192,86800,1,0,0:0:0:0:
402,192,86800,1,0,0:0:0:0:
256,192,86800,1,0,0:0:0:0:
475,192,86800,1,0,0:0:0:0:
256,192,86987,1,0,0:0:0:0:
329,192,87081,1,0,0:0:0:0:
402,192,87175,1,0,0:0:0:0:
182,192,87175,1,0,0:0:0:0:
475,192,87175,1,0,0:0:0:0:
36,192,87175,1,0,0:0:0:0:
475,192,87362,1,0,0:0:0:0:
329,192,87456,1,0,0:0:0:0:
182,192,87550,1,0,0:0:0:0:
36,192,87550,1,0,0:0:0:0:
402,192,87550,1,0,0:0:0:0:
475,192,87550,1,0,0:0:0:0:
402,192,87714,1,0,0:0:0:0:
182,192,87737,1,0,0:0:0:0:
329,192,87737,1,0,0:0:0:0:
36,192,87925,1,0,0:0:0:0:
329,192,87925,1,0,0:0:0:0:
182,192,87925,1,0,0:0:0:0:
402,192,88089,1,0,0:0:0:0:
256,192,88112,1,0,0:0:0:0:
109,192,88112,1,0,0:0:0:0:
402,192,88300,1,0,0:0:0:0:
182,192,88300,1,0,0:0:0:0:
36,192,88300,1,0,0:0:0:0:
329,192,88300,1,0,0:0:0:0:
109,192,88487,1,0,0:0:0:0:
256,192,88487,1,0,0:0:0:0:
256,192,88675,1,0,0:0:0:0:
109,192,88675,1,0,0:0:0:0:
475,192,88675,1,0,0:0:0:0:
402,192,88675,1,0,0:0:0:0:
182,192,88862,1,0,0:0:0:0:
329,192,88956,1,0,0:0:0:0:
256,192,89050,1,0,0:0:0:0:
109,192,89050,1,0,0:0:0:0:
36,192,89050,1,0,0:0:0:0:
182,192,89214,1,0,0:0:0:0:
329,192,89237,1,0,0:0:0:0:
402,192,89237,1,0,0:0:0:0:
256,192,89425,1,0,0:0:0:0:
402,192,89425,1,0,0:0:0:0:
475,192,89425,1,0,0:0:0:0:
109,192,89425,1,0,0:0:0:0:
36,192,89589,1,0,0:0:0:0:
182,192,89612,1,0,0:0:0:0:
329,192,89612,1,0,0:0:0:0:
402,192,89800,1,0,0:0:0:0:
182,192,89800,1,0,0:0:0:0:
36,192,89800,1,0,0:0:0:0:
329,192,89800,1,0,0:0:0:0:
109,192,89987,1,0,0:0:0:0:
256,192,89987,1,0,0:0:0:0:
36,192,90175,1,0,0:0:0:0:
182,192,90175,1,0,0:0:0:0:
329,192,90175,1,0,0:0:0:0:
475,192,90175,1,0,0:0:0:0:
402,192,90362,1,0,0:0:0:0:
329,192,90456,1,0,0:0:0:0:
36,192,90550,1,0,0:0:0:0:
475,192,90550,1,0,0:0:0:0:
182,192,90550,1,0,0:0:0:0:
402,192,90643,1,0,0:0:0:0:
329,192,90737,1,0,0:0:0:0:
256,192,90737,1,0,0:0:0:0:
109,192,90737,1,0,0:0:0:0:
402,192,90831,1,0,0:0:0:0:
109,192,90925,1,0,0:0:0:0:
256,192,90925,1,0,0:0:0:0:
475,192,90925,1,0,0:0:0:0:
36,192,90925,1,0,0:0:0:0:
182,192,91018,1,0,0:0:0:0:
475,192,91112,1,0,0:0:0:0:
329,192,91112,1,0,0:0:0:0:
36,192,91206,1,0,0:0:0:0:
182,192,91206,1,0,0:0:0:0:
256,192,91300,1,0,0:0:0:0:
109,192,91300,1,0,0:0:0:0:
402,192,91300,1,0,0:0:0:0:
475,192,91300,1,0,0:0:0:0:
256,192,91487,1,0,0:0:0:0:
36,192,91675,1,0,0:0:0:0:
256,192,91675,1,0,0:0:0:0:
182,192,91675,1,0,0:0:0:0:
402,192,91675,1,0,0:0:0:0:
256,192,91862,1,0,0:0:0:0:
402,192,91862,1,0,0:0:0:0:
182,192,92050,1,0,0:0:0:0:
329,192,92050,1,0,0:0:0:0:
475,192,92050,1,0,0:0:0:0:
402,192,92050,1,0,0:0:0:0:
182,192,92331,1,0,0:0:0:0:
329,192,92331,1,0,0:0:0:0:
36,192,92425,1,0,0:0:0:0:
182,192,92425,1,0,0:0:0:0:
329,192,92425,1,0,0:0:0:0:
109,192,92425,1,0,0:0:0:0:
109,192,92612,1,0,0:0:0:0:
256,192,92612,1,0,0:0:0:0:
182,192,92800,1,0,0:0:0:0:
329,192,92800,1,0,0:0:0:0:
402,192,92800,1,0,0:0:0:0:
256,192,92987,1,0,0:0:0:0:
329,192,93175,1,0,0:0:0:0:
182,192,93175,1,0,0:0:0:0:
109,192,93175,1,0,0:0:0:0:
475,192,93175,1,0,0:0:0:0:
182,192,93362,1,0,0:0:0:0:
329,192,93362,1,0,0:0:0:0:
109,192,93456,1,0,0:0:0:0:
256,192,93550,1,0,0:0:0:0:
402,192,93550,1,0,0:0:0:0:
329,192,93643,1,0,0:0:0:0:
475,192,93737,1,0,0:0:0:0:
329,192,93831,1,0,0:0:0:0:
182,192,93925,1,0,0:0:0:0:
36,192,93925,1,0,0:0:0:0:
402,192,93925,1,0,0:0:0:0:
256,192,93925,1,0,0:0:0:0:
329,192,94112,1,0,0:0:0:0:
182,192,94112,1,0,0:0:0:0:
109,192,94300,1,0,0:0:0:0:
256,192,94300,1,0,0:0:0:0:
36,192,94300,1,0,0:0:0:0:
329,192,94487,1,0,0:0:0:0:
329,192,94675,1,0,0:0:0:0:
475,192,94675,1,0,0:0:0:0:
182,192,94675,1,0,0:0:0:0:
402,192,94675,1,0,0:0:0:0:
109,192,94862,1,0,0:0:0:0:
256,192,94862,1,0,0:0:0:0:
182,192,95050,1,0,0:0:0:0:
109,192,95050,1,0,0:0:0:0:
36,192,95050,1,0,0:0:0:0:
329,192,95050,1,0,0:0:0:0:
182,192,95331,1,0,0:0:0:0:
329,192,95331,1,0,0:0:0:0:
182,192,95425,1,0,0:0:0:0:
329,192,95425,1,0,0:0:0:0:
475,192,95425,1,0,0:0:0:0:
402,192,95425,1,0,0:0:0:0:
256,192,95612,1,0,0:0:0:0:
402,192,95612,1,0,0:0:0:0:
182,192,95800,1,0,0:0:0:0:
329,192,95800,1,0,0:0:0:0:
109,192,95987,1,0,0:0:0:0:
182,192,95987,1,0,0:0:0:0:
36,192,95987,1,0,0:0:0:0:
256,192,96175,1,0,0:0:0:0:
109,192,96175,1,0,0:0:0:0:
475,192,96175,1,0,0:0:0:0:
402,192,96175,1,0,0:0:0:0:
182,192,96362,1,0,0:0:0:0:
256,192,96456,1,0,0:0:0:0:
109,192,96550,1,0,0:0:0:0:
329,192,96550,1,0,0:0:0:0:
475,192,96550,1,0,0:0:0:0:
182,192,96737,1,0,0:0:0:0:
402,192,96737,1,0,0:0:0:0:
256,192,96831,1,0,0:0:0:0:
329,192,96925,1,0,0:0:0:0:
109,192,96925,1,0,0:0:0:0:
475,192,96925,1,0,0:0:0:0:
256,192,97018,1,0,0:0:0:0:
402,192,97112,1,0,0:0:0:0:
475,192,97112,1,0,0:0:0:0:
182,192,97112,1,0,0:0:0:0:
329,192,97206,1,0,0:0:0:0:
256,192,97300,1,0,0:0:0:0:
109,192,97300,1,0,0:0:0:0:
36,192,97300,1,0,0:0:0:0:
329,192,97393,1,0,0:0:0:0:
402,192,97487,1,0,0:0:0:0:
109,192,97487,1,0,0:0:0:0:
182,192,97581,1,0,0:0:0:0:
475,192,97675,1,0,0:0:0:0:
256,192,97675,1,0,0:0:0:0:
329,192,97675,1,0,0:0:0:0:
36,192,97862,1,0,0:0:0:0:
109,192,97956,1,0,0:0:0:0:
256,192,98050,1,0,0:0:0:0:
402,192,98050,1,0,0:0:0:0:
475,192,98050,1,0,0:0:0:0:
182,192,98143,1,0,0:0:0:0:
36,192,98237,1,0,0:0:0:0:
109,192,98331,1,0,0:0:0:0:
182,192,98425,1,0,0:0:0:0:
256,192,98425,1,0,0:0:0:0:
402,192,98425,1,0,0:0:0:0:
109,192,98518,1,0,0:0:0:0:
36,192,98612,1,0,0:0:0:0:
182,192,98706,1,0,0:0:0:0:
256,192,98800,1,0,0:0:0:0:
475,192,98800,1,0,0:0:0:0:
402,192,98800,1,0,0:0:0:0:
109,192,98893,1,0,0:0:0:0:
182,192,98987,1,0,0:0:0:0:
36,192,99081,1,0,0:0:0:0:
109,192,99175,1,0,0:0:0:0:
475,192,99175,1,0,0:0:0:0:
329,192,99175,1,0,0:0:0:0:
182,192,99268,1,0,0:0:0:0:
256,192,99362,1,0,0:0:0:0:
329,192,99456,1,0,0:0:0:0:
402,192,99550,1,0,0:0:0:0:
182,192,99550,1,0,0:0:0:0:
36,192,99550,1,0,0:0:0:0:
329,192,99643,1,0,0:0:0:0:
109,192,99737,1,0,0:0:0:0:
256,192,99737,1,0,0:0:0:0:
475,192,99737,1,0,0:0:0:0:
402,192,99831,1,0,0:0:0:0:
182,192,99925,1,0,0:0:0:0:
329,192,99925,1,0,0:0:0:0:
36,192,99925,1,0,0:0:0:0:
256,192,100018,1,0,0:0:0:0:
329,192,100112,1,0,0:0:0:0:
109,192,100112,1,0,0:0:0:0:
402,192,100206,1,0,0:0:0:0:
329,192,100300,1,0,0:0:0:0:
36,192,100300,1,0,0:0:0:0:
182,192,100300,1,0,0:0:0:0:
475,192,100300,1,0,0:0:0:0:
256,192,100393,1,0,0:0:0:0:
109,192,100487,1,0,0:0:0:0:
329,192,100487,1,0,0:0:0:0:
182,192,100581,1,0,0:0:0:0:
256,192,100675,1,0,0:0:0:0:
36,192,100675,1,0,0:0:0:0:
109,192,100675,1,0,0:0:0:0:
402,192,100675,1,0,0:0:0:0:
109,192,100862,1,0,0:0:0:0:
182,192,100956,1,0,0:0:0:0:
402,192,101050,1,0,0:0:0:0:
475,192,101050,1,0,0:0:0:0:
256,192,101050,1,0,0:0:0:0:
182,192,101143,1,0,0:0:0:0:
109,192,101237,1,0,0:0:0:0:
182,192,101331,1,0,0:0:0:0:
256,192,101425,1,0,0:0:0:0:
475,192,101425,1,0,0:0:0:0:
329,192,101425,1,0,0:0:0:0:
109,192,101518,1,0,0:0:0:0:
36,192,101612,1,0,0:0:0:0:
109,192,101706,1,0,0:0:0:0:
182,192,101800,1,0,0:0:0:0:
329,192,101800,1,0,0:0:0:0:
402,192,101800,1,0,0:0:0:0:
475,192,101800,1,0,0:0:0:0:
256,192,101987,1,0,0:0:0:0:
109,192,101987,1,0,0:0:0:0:
402,192,101987,1,0,0:0:0:0:
329,192,101987,1,0,0:0:0:0:
182,192,102175,1,0,0:0:0:0:
36,192,102175,1,0,0:0:0:0:
329,192,102175,1,0,0:0:0:0:
402,192,102175,1,0,0:0:0:0:
475,192,102175,1,0,0:0:0:0:
256,192,102362,1,0,0:0:0:0:
475,192,102362,1,0,0:0:0:0:
402,192,102362,1,0,0:0:0:0:
329,192,102550,1,0,0:0:0:0:
402,192,102550,1,0,0:0:0:0:
182,192,102550,1,0,0:0:0:0:
329,192,102737,1,0,0:0:0:0:
109,192,102737,1,0,0:0:0:0:
256,192,102737,1,0,0:0:0:0:
182,192,102925,1,0,0:0:0:0:
36,192,102925,1,0,0:0:0:0:
256,192,102925,1,0,0:0:0:0:
475,192,102925,1,0,0:0:0:0:
182,192,103112,1,0,0:0:0:0:
329,192,103112,1,0,0:0:0:0:
109,192,103112,1,0,0:0:0:0:
182,192,103300,1,0,0:0:0:0:
329,192,103300,1,0,0:0:0:0:
402,192,103300,1,0,0:0:0:0:
256,192,103393,1,0,0:0:0:0:
182,192,103487,1,0,0:0:0:0:
109,192,103581,1,0,0:0:0:0:
475,192,103675,1,0,0:0:0:0:
36,192,103675,1,0,0:0:0:0:
256,192,103675,1,0,0:0:0:0:
402,192,103675,1,0,0:0:0:0:
256,192,103862,1,0,0:0:0:0:
402,192,103862,1,0,0:0:0:0:
109,192,103862,1,0,0:0:0:0:
182,192,104050,1,0,0:0:0:0:
256,192,104143,1,0,0:0:0:0:
329,192,104237,1,0,0:0:0:0:
402,192,104237,1,0,0:0:0:0:
109,192,104237,1,0,0:0:0:0:
182,192,104331,1,0,0:0:0:0:
256,192,104425,1,0,0:0:0:0:
402,192,104425,1,0,0:0:0:0:
36,192,104425,1,0,0:0:0:0:
109,192,104589,1,0,0:0:0:0:
256,192,104612,1,0,0:0:0:0:
402,192,104612,1,0,0:0:0:0:
36,192,104800,1,0,0:0:0:0:
109,192,104800,1,0,0:0:0:0:
256,192,104800,1,0,0:0:0:0:
402,192,104800,1,0,0:0:0:0:
329,192,104987,1,0,0:0:0:0:
256,192,105081,1,0,0:0:0:0:
182,192,105175,1,0,0:0:0:0:
36,192,105175,1,0,0:0:0:0:
329,192,105175,1,0,0:0:0:0:
402,192,105175,1,0,0:0:0:0:
256,192,105362,1,0,0:0:0:0:
329,192,105456,1,0,0:0:0:0:
182,192,105550,1,0,0:0:0:0:
402,192,105550,1,0,0:0:0:0:
256,192,105643,1,0,0:0:0:0:
329,192,105737,1,0,0:0:0:0:
402,192,105737,1,0,0:0:0:0:
109,192,105737,1,0,0:0:0:0:
256,192,105831,1,0,0:0:0:0:
182,192,105925,1,0,0:0:0:0:
402,192,105925,1,0,0:0:0:0:
36,192,105925,1,0,0:0:0:0:
475,192,105925,1,0,0:0:0:0:
182,192,106112,1,0,0:0:0:0:
402,192,106175,1,0,0:0:0:0:
329,192,106237,1,0,0:0:0:0:
256,192,106300,1,0,0:0:0:0:
109,192,106300,1,0,0:0:0:0:
475,192,106300,1,0,0:0:0:0:
36,192,106300,1,0,0:0:0:0:
182,192,106487,1,0,0:0:0:0:
109,192,106487,1,0,0:0:0:0:
329,192,106487,1,0,0:0:0:0:
256,192,106675,1,0,0:0:0:0:
182,192,106675,1,0,0:0:0:0:
36,192,106675,1,0,0:0:0:0:
402,192,106675,1,0,0:0:0:0:
109,192,106862,1,0,0:0:0:0:
329,192,106862,1,0,0:0:0:0:
182,192,106956,1,0,0:0:0:0:
256,192,107050,1,0,0:0:0:0:
329,192,107143,1,0,0:0:0:0:
402,192,107237,1,0,0:0:0:0:
109,192,107237,1,0,0:0:0:0:
182,192,107237,1,0,0:0:0:0:
475,192,107331,1,0,0:0:0:0:
402,192,107425,1,0,0:0:0:0:
256,192,107425,1,0,0:0:0:0:
109,192,107425,1,0,0:0:0:0:
36,192,107425,1,0,0:0:0:0:
182,192,107612,1,0,0:0:0:0:
256,192,107706,1,0,0:0:0:0:
329,192,107800,1,0,0:0:0:0:
475,192,107800,1,0,0:0:0:0:
109,192,107800,1,0,0:0:0:0:
402,192,107800,1,0,0:0:0:0:
182,192,107893,1,0,0:0:0:0:
329,192,107987,1,0,0:0:0:0:
402,192,107987,1,0,0:0:0:0:
182,192,108081,1,0,0:0:0:0:
256,192,108175,1,0,0:0:0:0:
402,192,108175,1,0,0:0:0:0:
109,192,108175,1,0,0:0:0:0:
475,192,108175,1,0,0:0:0:0:
182,192,108362,1,0,0:0:0:0:
329,192,108362,1,0,0:0:0:0:
402,192,108362,1,0,0:0:0:0:
256,192,108456,1,0,0:0:0:0:
36,192,108550,1,0,0:0:0:0:
109,192,108643,1,0,0:0:0:0:
182,192,108737,1,0,0:0:0:0:
329,192,108737,1,0,0:0:0:0:
475,192,108737,1,0,0:0:0:0:
256,192,108831,1,0,0:0:0:0:
402,192,108925,1,0,0:0:0:0:
182,192,108925,1,0,0:0:0:0:
109,192,108925,1,0,0:0:0:0:
36,192,108925,1,0,0:0:0:0:
329,192,109112,1,0,0:0:0:0:
182,192,109112,1,0,0:0:0:0:
36,192,109112,1,0,0:0:0:0:
36,192,109300,1,0,0:0:0:0:
109,192,109300,1,0,0:0:0:0:
256,192,109300,1,0,0:0:0:0:
402,192,109300,1,0,0:0:0:0:
329,192,109393,1,0,0:0:0:0:
256,192,109487,1,0,0:0:0:0:
182,192,109581,1,0,0:0:0:0:
36,192,109628,1,0,0:0:0:0:
109,192,109675,1,0,0:0:0:0:
256,192,109675,1,0,0:0:0:0:
402,192,109675,1,0,0:0:0:0:
182,192,109862,1,0,0:0:0:0:
329,192,109862,1,0,0:0:0:0:
402,192,109862,1,0,0:0:0:0:
109,192,110050,1,0,0:0:0:0:
402,192,110050,1,0,0:0:0:0:
182,192,110143,1,0,0:0:0:0:
256,192,110237,1,0,0:0:0:0:
36,192,110237,1,0,0:0:0:0:
329,192,110331,1,0,0:0:0:0:
402,192,110425,1,0,0:0:0:0:
109,192,110425,1,0,0:0:0:0:
475,192,110425,1,0,0:0:0:0:
36,192,110425,1,0,0:0:0:0:
182,192,110565,1,0,0:0:0:0:
329,192,110612,1,0,0:0:0:0:
475,192,110612,1,0,0:0:0:0:
182,192,110800,1,0,0:0:0:0:
329,192,110800,1,0,0:0:0:0:
402,192,110800,1,0,0:0:0:0:
36,192,110800,1,0,0:0:0:0:
256,192,110987,1,0,0:0:0:0:
402,192,110987,1,0,0:0:0:0:
182,192,111081,1,0,0:0:0:0:
109,192,111175,1,0,0:0:0:0:
329,192,111175,1,0,0:0:0:0:
36,192,111175,1,0,0:0:0:0:
402,192,111175,1,0,0:0:0:0:
109,192,111362,1,0,0:0:0:0:
256,192,111362,1,0,0:0:0:0:
402,192,111362,1,0,0:0:0:0:
182,192,111456,1,0,0:0:0:0:
329,192,111550,1,0,0:0:0:0:
402,192,111550,1,0,0:0:0:0:
256,192,111643,1,0,0:0:0:0:
329,192,111737,1,0,0:0:0:0:
402,192,111737,1,0,0:0:0:0:
109,192,111737,1,0,0:0:0:0:
182,192,111831,1,0,0:0:0:0:
256,192,111925,1,0,0:0:0:0:
402,192,111925,1,0,0:0:0:0:
182,192,112112,1,0,0:0:0:0:
329,192,112112,1,0,0:0:0:0:
475,192,112206,1,0,0:0:0:0:
402,192,112253,1,0,0:0:0:0:
109,192,112300,1,0,0:0:0:0:
36,192,112300,1,0,0:0:0:0:
329,192,112300,1,0,0:0:0:0:
182,192,112300,1,0,0:0:0:0:
182,192,112487,1,0,0:0:0:0:
109,192,112487,1,0,0:0:0:0:
256,192,112487,1,0,0:0:0:0:
182,192,112675,1,0,0:0:0:0:
256,192,112675,1,0,0:0:0:0:
329,192,112675,1,0,0:0:0:0:
475,192,112675,1,0,0:0:0:0:
36,192,112675,1,0,0:0:0:0:
109,192,112862,1,0,0:0:0:0:
256,192,112862,1,0,0:0:0:0:
329,192,112862,1,0,0:0:0:0:
329,192,113050,1,0,0:0:0:0:
182,192,113143,1,0,0:0:0:0:
256,192,113237,1,0,0:0:0:0:
402,192,113237,1,0,0:0:0:0:
475,192,113237,1,0,0:0:0:0:
109,192,113331,1,0,0:0:0:0:
182,192,113425,1,0,0:0:0:0:
329,192,113425,1,0,0:0:0:0:
475,192,113425,1,0,0:0:0:0:
402,192,113425,1,0,0:0:0:0:
36,192,113518,1,0,0:0:0:0:
182,192,113612,1,0,0:0:0:0:
329,192,113612,1,0,0:0:0:0:
402,192,113706,1,0,0:0:0:0:
329,192,113800,1,0,0:0:0:0:
475,192,113800,1,0,0:0:0:0:
36,192,113800,1,0,0:0:0:0:
109,192,113800,1,0,0:0:0:0:
256,192,113893,1,0,0:0:0:0:
182,192,113987,1,0,0:0:0:0:
402,192,113987,1,0,0:0:0:0:
475,192,114081,1,0,0:0:0:0:
256,192,114175,1,0,0:0:0:0:
109,192,114175,1,0,0:0:0:0:
329,192,114175,1,0,0:0:0:0:
36,192,114175,1,0,0:0:0:0:
109,192,114362,1,0,0:0:0:0:
256,192,114362,1,0,0:0:0:0:
182,192,114550,1,0,0:0:0:0:
402,192,114550,1,0,0:0:0:0:
475,192,114550,1,0,0:0:0:0:
36,192,114550,1,0,0:0:0:0:
329,192,114550,1,0,0:0:0:0:
329,192,114737,1,0,0:0:0:0:
475,192,114737,1,0,0:0:0:0:
256,192,114925,1,0,0:0:0:0:
329,192,115112,1,0,0:0:0:0:
256,192,115300,1,0,0:0:0:0:
402,192,115300,1,0,0:0:0:0:
109,192,115300,1,0,0:0:0:0:
36,192,115300,1,0,0:0:0:0:
329,192,115487,1,0,0:0:0:0:
109,192,115675,1,0,0:0:0:0:
36,192,115675,1,0,0:0:0:0:
182,192,115675,1,0,0:0:0:0:
329,192,115675,1,0,0:0:0:0:
109,192,115862,1,0,0:0:0:0:
182,192,115862,1,0,0:0:0:0:
256,192,115862,1,0,0:0:0:0:
402,192,115862,1,0,0:0:0:0:
182,192,116050,1,0,0:0:0:0:
256,192,116050,1,0,0:0:0:0:
475,192,116050,1,0,0:0:0:0:
329,192,116050,1,0,0:0:0:0:
256,192,116237,1,0,0:0:0:0:
329,192,116237,1,0,0:0:0:0:
402,192,116237,1,0,0:0:0:0:
475,192,116237,1,0,0:0:0:0:
256,192,116425,1,0,0:0:0:0:
109,192,116425,1,0,0:0:0:0:
36,192,116425,1,0,0:0:0:0:
402,192,116518,1,0,0:0:0:0:
256,192,116612,1,0,0:0:0:0:
109,192,116612,1,0,0:0:0:0:
402,192,116800,1,0,0:0:0:0:
256,192,116800,1,0,0:0:0:0:
109,192,116800,1,0,0:0:0:0:
36,192,116800,1,0,0:0:0:0:
329,192,116987,1,0,0:0:0:0:
182,192,117081,1,0,0:0:0:0:
36,192,117175,1,0,0:0:0:0:
256,192,117175,1,0,0:0:0:0:
109,192,117175,1,0,0:0:0:0:
329,192,117175,1,0,0:0:0:0:
109,192,117362,1,0,0:0:0:0:
182,192,117362,1,0,0:0:0:0:
329,192,117362,1,0,0:0:0:0:
402,192,117362,1,0,0:0:0:0:
182,192,117550,1,0,0:0:0:0:
256,192,117550,1,0,0:0:0:0:
402,192,117550,1,0,0:0:0:0:
475,192,117550,1,0,0:0:0:0:
256,192,117737,1,0,0:0:0:0:
329,192,117737,1,0,0:0:0:0:
402,192,117737,1,0,0:0:0:0:
475,192,117737,1,0,0:0:0:0:
256,192,117925,1,0,0:0:0:0:
109,192,117925,1,0,0:0:0:0:
36,192,117925,1,0,0:0:0:0:
402,192,118018,1,0,0:0:0:0:
182,192,118112,1,0,0:0:0:0:
329,192,118112,1,0,0:0:0:0:
182,192,118300,1,0,0:0:0:0:
36,192,118300,1,0,0:0:0:0:
329,192,118300,1,0,0:0:0:0:
475,192,118300,1,0,0:0:0:0:
402,192,118487,1,0,0:0:0:0:
329,192,118581,1,0,0:0:0:0:
256,192,118675,1,0,0:0:0:0:
109,192,118675,1,0,0:0:0:0:
475,192,118675,1,0,0:0:0:0:
36,192,118675,1,0,0:0:0:0:
182,192,118862,1,0,0:0:0:0:
329,192,118862,1,0,0:0:0:0:
109,192,119050,1,0,0:0:0:0:
329,192,119050,1,0,0:0:0:0:
402,192,119050,1,0,0:0:0:0:
256,192,119143,1,0,0:0:0:0:
182,192,119237,1,0,0:0:0:0:
402,192,119237,1,0,0:0:0:0:
36,192,119425,1,0,0:0:0:0:
329,192,119425,1,0,0:0:0:0:
475,192,119425,1,0,0:0:0:0:
182,192,119425,1,0,0:0:0:0:
109,192,119612,1,0,0:0:0:0:
256,192,119612,1,0,0:0:0:0:
402,192,119612,1,0,0:0:0:0:
109,192,119800,1,0,0:0:0:0:
329,192,119800,1,0,0:0:0:0:
402,192,119800,1,0,0:0:0:0:
182,192,119893,1,0,0:0:0:0:
402,192,119987,1,0,0:0:0:0:
329,192,119987,1,0,0:0:0:0:
182,192,120175,1,0,0:0:0:0:
36,192,120175,1,0,0:0:0:0:
329,192,120175,1,0,0:0:0:0:
475,192,120175,1,0,0:0:0:0:
109,192,120362,1,0,0:0:0:0:
402,192,120362,1,0,0:0:0:0:
109,192,120550,1,0,0:0:0:0:
329,192,120550,1,0,0:0:0:0:
402,192,120550,1,0,0:0:0:0:
256,192,120550,1,0,0:0:0:0:
256,192,120737,1,0,0:0:0:0:
36,192,120737,1,0,0:0:0:0:
182,192,120737,1,0,0:0:0:0:
329,192,120737,1,0,0:0:0:0:
256,192,120925,1,0,0:0:0:0:
109,192,120925,1,0,0:0:0:0:
36,192,121018,1,0,0:0:0:0:
182,192,121112,1,0,0:0:0:0:
329,192,121112,1,0,0:0:0:0:
109,192,121206,1,0,0:0:0:0:
402,192,121300,1,0,0:0:0:0:
256,192,121300,1,0,0:0:0:0:
475,192,121300,1,0,0:0:0:0:
182,192,121487,1,0,0:0:0:0:
329,192,121487,1,0,0:0:0:0:
109,192,121675,1,0,0:0:0:0:
36,192,121675,1,0,0:0:0:0:
329,192,121675,1,0,0:0:0:0:
182,192,121675,1,0,0:0:0:0:
109,192,121862,1,0,0:0:0:0:
182,192,121862,1,0,0:0:0:0:
256,192,121862,1,0,0:0:0:0:
402,192,121862,1,0,0:0:0:0:
182,192,122050,1,0,0:0:0:0:
256,192,122050,1,0,0:0:0:0:
329,192,122050,1,0,0:0:0:0:
475,192,122050,1,0,0:0:0:0:
256,192,122237,1,0,0:0:0:0:
402,192,122237,1,0,0:0:0:0:
329,192,122237,1,0,0:0:0:0:
475,192,122237,1,0,0:0:0:0:
182,192,122425,1,0,0:0:0:0:
256,192,122425,1,0,0:0:0:0:
36,192,122425,1,0,0:0:0:0:
329,192,122518,1,0,0:0:0:0:
182,192,122612,1,0,0:0:0:0:
109,192,122612,1,0,0:0:0:0:
475,192,122800,1,0,0:0:0:0:
329,192,122800,1,0,0:0:0:0:
182,192,122800,1,0,0:0:0:0:
36,192,122800,1,0,0:0:0:0:
329,192,122987,1,0,0:0:0:0:
182,192,123081,1,0,0:0:0:0:
109,192,123175,1,0,0:0:0:0:
36,192,123175,1,0,0:0:0:0:
256,192,123175,1,0,0:0:0:0:
329,192,123175,1,0,0:0:0:0:
109,192,123362,1,0,0:0:0:0:
182,192,123362,1,0,0:0:0:0:
329,192,123362,1,0,0:0:0:0:
402,192,123362,1,0,0:0:0:0:
256,192,123550,1,0,0:0:0:0:
182,192,123550,1,0,0:0:0:0:
475,192,123550,1,0,0:0:0:0:
402,192,123550,1,0,0:0:0:0:
402,192,123737,1,0,0:0:0:0:
475,192,123737,1,0,0:0:0:0:
256,192,123737,1,0,0:0:0:0:
329,192,123737,1,0,0:0:0:0:
109,192,123925,1,0,0:0:0:0:
36,192,123925,1,0,0:0:0:0:
182,192,123925,1,0,0:0:0:0:
329,192,124018,1,0,0:0:0:0:
109,192,124112,1,0,0:0:0:0:
256,192,124112,1,0,0:0:0:0:
182,192,124300,1,0,0:0:0:0:
36,192,124300,1,0,0:0:0:0:
329,192,124300,1,0,0:0:0:0:
475,192,124300,1,0,0:0:0:0:
329,192,124487,1,0,0:0:0:0:
182,192,124581,1,0,0:0:0:0:
36,192,124651,1,0,0:0:0:0:
256,192,124675,1,0,0:0:0:0:
109,192,124675,1,0,0:0:0:0:
402,192,124675,1,0,0:0:0:0:
182,192,124862,1,0,0:0:0:0:
402,192,124862,1,0,0:0:0:0:
329,192,124956,1,0,0:0:0:0:
109,192,125050,1,0,0:0:0:0:
256,192,125050,1,0,0:0:0:0:
402,192,125050,1,0,0:0:0:0:
256,192,125237,1,0,0:0:0:0:
402,192,125237,1,0,0:0:0:0:
36,192,125300,1,0,0:0:0:0:
109,192,125362,1,0,0:0:0:0:
329,192,125425,1,0,0:0:0:0:
475,192,125425,1,0,0:0:0:0:
182,192,125425,1,0,0:0:0:0:
256,192,125612,1,0,0:0:0:0:
402,192,125612,1,0,0:0:0:0:
475,192,125800,1,0,0:0:0:0:
109,192,125800,1,0,0:0:0:0:
36,192,125800,1,0,0:0:0:0:
402,192,125800,1,0,0:0:0:0:
256,192,125800,1,0,0:0:0:0:
329,192,125987,1,0,0:0:0:0:
109,192,125987,1,0,0:0:0:0:
182,192,125987,1,0,0:0:0:0:
36,192,126175,1,0,0:0:0:0:
182,192,126175,1,0,0:0:0:0:
475,192,126175,1,0,0:0:0:0:
329,192,126175,1,0,0:0:0:0:
36,192,126362,1,0,0:0:0:0:
182,192,126362,1,0,0:0:0:0:
329,192,126362,1,0,0:0:0:0:
256,192,126550,1,0,0:0:0:0:
402,192,126550,1,0,0:0:0:0:
475,192,126550,1,0,0:0:0:0:
109,192,126550,1,0,0:0:0:0:
182,192,126737,1,0,0:0:0:0:
402,192,126737,1,0,0:0:0:0:
329,192,126737,1,0,0:0:0:0:
329,192,126925,1,0,0:0:0:0:
475,192,126925,1,0,0:0:0:0:
182,192,126925,1,0,0:0:0:0:
36,192,126925,1,0,0:0:0:0:
256,192,127112,1,0,0:0:0:0:
109,192,127112,1,0,0:0:0:0:
329,192,127206,1,0,0:0:0:0:
182,192,127300,1,0,0:0:0:0:
36,192,127300,1,0,0:0:0:0:
402,192,127300,1,0,0:0:0:0:
475,192,127300,1,0,0:0:0:0:
109,192,127487,1,0,0:0:0:0:
256,192,127487,1,0,0:0:0:0:
402,192,127487,1,0,0:0:0:0:
182,192,127675,1,0,0:0:0:0:
256,192,127675,1,0,0:0:0:0:
402,192,127675,1,0,0:0:0:0:
475,192,127675,1,0,0:0:0:0:
36,192,127862,1,0,0:0:0:0:
109,192,127862,1,0,0:0:0:0:
256,192,127862,1,0,0:0:0:0:
329,192,127862,1,0,0:0:0:0:
182,192,128050,1,0,0:0:0:0:
109,192,128050,1,0,0:0:0:0:
402,192,128050,1,0,0:0:0:0:
329,192,128050,1,0,0:0:0:0:
256,192,128237,1,0,0:0:0:0:
182,192,128237,1,0,0:0:0:0:
402,192,128237,1,0,0:0:0:0:
475,192,128237,1,0,0:0:0:0:
182,192,128425,1,0,0:0:0:0:
36,192,128425,1,0,0:0:0:0:
256,192,128425,1,0,0:0:0:0:
329,192,128518,1,0,0:0:0:0:
109,192,128612,1,0,0:0:0:0:
256,192,128612,1,0,0:0:0:0:
109,192,128800,1,0,0:0:0:0:
256,192,128800,1,0,0:0:0:0:
402,192,128800,1,0,0:0:0:0:
475,192,128800,1,0,0:0:0:0:
475,192,128987,1,0,0:0:0:0:
329,192,129081,1,0,0:0:0:0:
256,192,129175,1,0,0:0:0:0:
109,192,129175,1,0,0:0:0:0:
402,192,129175,1,0,0:0:0:0:
36,192,129175,1,0,0:0:0:0:
109,192,129362,1,0,0:0:0:0:
182,192,129362,1,0,0:0:0:0:
36,192,129362,1,0,0:0:0:0:
329,192,129362,1,0,0:0:0:0:
109,192,129550,1,0,0:0:0:0:
182,192,129550,1,0,0:0:0:0:
256,192,129550,1,0,0:0:0:0:
402,192,129550,1,0,0:0:0:0:
329,192,129737,1,0,0:0:0:0:
256,192,129737,1,0,0:0:0:0:
182,192,129737,1,0,0:0:0:0:
475,192,129737,1,0,0:0:0:0:
256,192,129925,1,0,0:0:0:0:
36,192,129925,1,0,0:0:0:0:
109,192,129925,1,0,0:0:0:0:
329,192,130018,1,0,0:0:0:0:
109,192,130112,1,0,0:0:0:0:
182,192,130112,1,0,0:0:0:0:
182,192,130300,1,0,0:0:0:0:
36,192,130300,1,0,0:0:0:0:
329,192,130300,1,0,0:0:0:0:
475,192,130300,1,0,0:0:0:0:
402,192,130487,1,0,0:0:0:0:
256,192,130581,1,0,0:0:0:0:
402,192,130675,1,0,0:0:0:0:
36,192,130675,1,0,0:0:0:0:
182,192,130675,1,0,0:0:0:0:
109,192,130862,1,0,0:0:0:0:
256,192,130862,1,0,0:0:0:0:
402,192,130862,1,0,0:0:0:0:
475,192,131050,1,0,0:0:0:0:
329,192,131050,1,0,0:0:0:0:
36,192,131050,1,0,0:0:0:0:
256,192,131143,1,0,0:0:0:0:
182,192,131237,1,0,0:0:0:0:
36,192,131237,1,0,0:0:0:0:
402,192,131237,1,0,0:0:0:0:
109,192,131425,1,0,0:0:0:0:
402,192,131425,1,0,0:0:0:0:
475,192,131425,1,0,0:0:0:0:
256,192,131425,1,0,0:0:0:0:
182,192,131612,1,0,0:0:0:0:
329,192,131612,1,0,0:0:0:0:
36,192,131612,1,0,0:0:0:0:
256,192,131800,1,0,0:0:0:0:
475,192,131800,1,0,0:0:0:0:
109,192,131800,1,0,0:0:0:0:
402,192,131893,1,0,0:0:0:0:
182,192,131987,1,0,0:0:0:0:
329,192,131987,1,0,0:0:0:0:
256,192,132175,1,0,0:0:0:0:
402,192,132175,1,0,0:0:0:0:
109,192,132175,1,0,0:0:0:0:
36,192,132175,1,0,0:0:0:0:
182,192,132362,1,0,0:0:0:0:
329,192,132362,1,0,0:0:0:0:
329,192,132550,1,0,0:0:0:0:
256,192,132550,1,0,0:0:0:0:
402,192,132550,1,0,0:0:0:0:
329,192,132737,1,0,0:0:0:0:
182,192,132737,1,0,0:0:0:0:
256,192,132737,1,0,0:0:0:0:
182,192,132925,1,0,0:0:0:0:
109,192,132925,1,0,0:0:0:0:
256,192,132925,1,0,0:0:0:0:
475,192,132925,1,0,0:0:0:0:
402,192,133018,1,0,0:0:0:0:
329,192,133112,1,0,0:0:0:0:
402,192,133206,1,0,0:0:0:0:
109,192,133300,1,0,0:0:0:0:
329,192,133300,1,0,0:0:0:0:
36,192,133300,1,0,0:0:0:0:
475,192,133300,1,0,0:0:0:0:
182,192,133487,1,0,0:0:0:0:
329,192,133487,1,0,0:0:0:0:
36,192,133675,1,0,0:0:0:0:
256,192,133675,1,0,0:0:0:0:
182,192,133675,1,0,0:0:0:0:
109,192,133675,1,0,0:0:0:0:
109,192,133862,1,0,0:0:0:0:
182,192,133862,1,0,0:0:0:0:
256,192,133862,1,0,0:0:0:0:
329,192,133862,1,0,0:0:0:0:
256,192,134050,1,0,0:0:0:0:
402,192,134050,1,0,0:0:0:0:
182,192,134050,1,0,0:0:0:0:
329,192,134050,1,0,0:0:0:0:
256,192,134237,1,0,0:0:0:0:
329,192,134237,1,0,0:0:0:0:
402,192,134237,1,0,0:0:0:0:
475,192,134237,1,0,0:0:0:0:
36,192,134425,1,0,0:0:0:0:
256,192,134425,1,0,0:0:0:0:
182,192,134425,1,0,0:0:0:0:
402,192,134518,1,0,0:0:0:0:
109,192,134612,1,0,0:0:0:0:
256,192,134612,1,0,0:0:0:0:
36,192,134800,1,0,0:0:0:0:
182,192,134800,1,0,0:0:0:0:
475,192,134800,1,0,0:0:0:0:
402,192,134800,1,0,0:0:0:0:
402,192,134987,1,0,0:0:0:0:
256,192,135081,1,0,0:0:0:0:
182,192,135175,1,0,0:0:0:0:
36,192,135175,1,0,0:0:0:0:
329,192,135175,1,0,0:0:0:0:
109,192,135175,1,0,0:0:0:0:
109,192,135362,1,0,0:0:0:0:
182,192,135362,1,0,0:0:0:0:
256,192,135362,1,0,0:0:0:0:
402,192,135362,1,0,0:0:0:0:
182,192,135550,1,0,0:0:0:0:
256,192,135550,1,0,0:0:0:0:
329,192,135550,1,0,0:0:0:0:
475,192,135550,1,0,0:0:0:0:
256,192,135737,1,0,0:0:0:0:
402,192,135737,1,0,0:0:0:0:
329,192,135737,1,0,0:0:0:0:
475,192,135737,1,0,0:0:0:0:
182,192,135925,1,0,0:0:0:0:
256,192,135925,1,0,0:0:0:0:
36,192,135925,1,0,0:0:0:0:
402,192,136018,1,0,0:0:0:0:
109,192,136112,1,0,0:0:0:0:
256,192,136112,1,0,0:0:0:0:
475,192,136300,1,0,0:0:0:0:
182,192,136300,1,0,0:0:0:0:
36,192,136300,1,0,0:0:0:0:
329,192,136300,1,0,0:0:0:0:
475,192,136487,1,0,0:0:0:0:
402,192,136581,1,0,0:0:0:0:
36,192,136651,1,0,0:0:0:0:
182,192,136675,1,0,0:0:0:0:
109,192,136675,1,0,0:0:0:0:
329,192,136675,1,0,0:0:0:0:
182,192,136862,1,0,0:0:0:0:
329,192,136862,1,0,0:0:0:0:
182,192,137050,1,0,0:0:0:0:
329,192,137050,1,0,0:0:0:0:
36,192,137050,1,0,0:0:0:0:
402,192,137050,1,0,0:0:0:0:
109,192,137237,1,0,0:0:0:0:
256,192,137237,1,0,0:0:0:0:
475,192,137300,1,0,0:0:0:0:
402,192,137362,1,0,0:0:0:0:
329,192,137425,1,0,0:0:0:0:
182,192,137425,1,0,0:0:0:0:
36,192,137425,1,0,0:0:0:0:
475,192,137612,1,0,0:0:0:0:
182,192,137612,1,0,0:0:0:0:
329,192,137612,1,0,0:0:0:0:
182,192,137800,1,0,0:0:0:0:
329,192,137800,1,0,0:0:0:0:
256,192,137800,1,0,0:0:0:0:
475,192,137800,1,0,0:0:0:0:
36,192,137800,1,0,0:0:0:0:
256,192,137987,1,0,0:0:0:0:
402,192,137987,1,0,0:0:0:0:
109,192,137987,1,0,0:0:0:0:
36,192,138175,1,0,0:0:0:0:
475,192,138175,1,0,0:0:0:0:
329,192,138175,1,0,0:0:0:0:
256,192,138175,1,0,0:0:0:0:
182,192,138175,1,0,0:0:0:0:
256,192,138362,1,0,0:0:0:0:
475,192,138362,1,0,0:0:0:0:
402,192,138456,1,0,0:0:0:0:
329,192,138550,1,0,0:0:0:0:
182,192,138550,1,0,0:0:0:0:
109,192,138550,1,0,0:0:0:0:
402,192,138643,1,0,0:0:0:0:
256,192,138737,1,0,0:0:0:0:
36,192,138737,1,0,0:0:0:0:
109,192,138737,1,0,0:0:0:0:
329,192,138831,1,0,0:0:0:0:
182,192,138925,1,0,0:0:0:0:
36,192,138925,1,0,0:0:0:0:
475,192,138925,1,0,0:0:0:0:
402,192,139018,1,0,0:0:0:0:
109,192,139018,1,0,0:0:0:0:
329,192,139112,1,0,0:0:0:0:
182,192,139112,1,0,0:0:0:0:
402,192,139206,1,0,0:0:0:0:
109,192,139206,1,0,0:0:0:0:
256,192,139300,1,0,0:0:0:0:
36,192,139300,1,0,0:0:0:0:
475,192,139300,1,0,0:0:0:0:
109,192,139487,1,0,0:0:0:0:
402,192,139487,1,0,0:0:0:0:
329,192,139581,1,0,0:0:0:0:
36,192,139651,1,0,0:0:0:0:
182,192,139675,1,0,0:0:0:0:
402,192,139675,1,0,0:0:0:0:
475,192,139675,1,0,0:0:0:0:
109,192,139862,1,0,0:0:0:0:
256,192,139862,1,0,0:0:0:0:
402,192,139862,1,0,0:0:0:0:
182,192,140050,1,0,0:0:0:0:
256,192,140050,1,0,0:0:0:0:
402,192,140050,1,0,0:0:0:0:
36,192,140050,1,0,0:0:0:0:
329,192,140237,1,0,0:0:0:0:
475,192,140237,1,0,0:0:0:0:
182,192,140331,1,0,0:0:0:0:
256,192,140425,1,0,0:0:0:0:
402,192,140425,1,0,0:0:0:0:
109,192,140425,1,0,0:0:0:0:
256,192,140612,1,0,0:0:0:0:
402,192,140612,1,0,0:0:0:0:
475,192,140612,1,0,0:0:0:0:
329,192,140800,1,0,0:0:0:0:
475,192,140800,1,0,0:0:0:0:
182,192,140800,1,0,0:0:0:0:
36,192,140800,1,0,0:0:0:0:
109,192,140800,1,0,0:0:0:0:
182,192,140987,1,0,0:0:0:0:
329,192,140987,1,0,0:0:0:0:
109,192,141175,1,0,0:0:0:0:
36,192,141175,1,0,0:0:0:0:
329,192,141175,1,0,0:0:0:0:
256,192,141175,1,0,0:0:0:0:
329,192,141362,1,0,0:0:0:0:
475,192,141362,1,0,0:0:0:0:
402,192,141362,1,0,0:0:0:0:
256,192,141550,1,0,0:0:0:0:
329,192,141550,1,0,0:0:0:0:
402,192,141550,1,0,0:0:0:0:
182,192,141737,1,0,0:0:0:0:
329,192,141737,1,0,0:0:0:0:
256,192,141737,1,0,0:0:0:0:
182,192,141925,1,0,0:0:0:0:
109,192,141925,1,0,0:0:0:0:
256,192,141925,1,0,0:0:0:0:
475,192,142018,1,0,0:0:0:0:
329,192,142112,1,0,0:0:0:0:
402,192,142206,1,0,0:0:0:0:
256,192,142300,1,0,0:0:0:0:
329,192,142300,1,0,0:0:0:0:
475,192,142300,1,0,0:0:0:0:
182,192,142300,1,0,0:0:0:0:
36,192,142300,1,0,0:0:0:0:
