osu file format v14

[General]
AudioFilename: M2U - Promise.mp3
AudioLeadIn: 0
PreviewTime: 58155
Countdown: 1
SampleSet: Soft
StackLeniency: 0.7
Mode: 3
LetterboxInBreaks: 1
SpecialStyle: 0
WidescreenStoryboard: 1

[Editor]
DistanceSpacing: 1.2
BeatDivisor: 4
GridSize: 8
TimelineZoom: 1.6

[Metadata]
Title:M2U Pack
TitleUnicode:M2U Pack
Artist:M2U
ArtistUnicode:M2U
Creator:Kim_GodSSI
Version:Promise 4K
Source:
Tags:arpia97 lami- buschan ezmmr micleak nabi- ruka takjun roasted chicken murumoo other nicode sherie 約束之歌 guriri 구리리 howling redeye red eye lucy egoist 最後の花弁 나래
BeatmapID:3843990
BeatmapSetID:1572720

[Difficulty]
HPDrainRate:8
CircleSize:4
OverallDifficulty:7
ApproachRate:5
SliderMultiplier:1.4
SliderTickRate:1

[Events]
//Background and Video events
0,0,"M2U - Promise.jpg",0,0
//Break Periods
//Storyboard Layer 0 (Background)
//Storyboard Layer 1 (Fail)
//Storyboard Layer 2 (Pass)
//Storyboard Layer 3 (Foreground)
//Storyboard Layer 4 (Overlay)
//Storyboard Sound Samples

[TimingPoints]
555,600,3,2,0,0,1,0

[HitObjects]
64,192,555,5,0,0:0:0:0:
448,192,555,1,0,0:0:0:0:
192,192,855,1,0,0:0:0:0:
448,192,1155,1,0,0:0:0:0:
192,192,1455,1,0,0:0:0:0:
320,192,1455,1,0,0:0:0:0:
64,192,1755,1,0,0:0:0:0:
64,192,2355,1,0,0:0:0:0:
448,192,2355,1,0,0:0:0:0:
320,192,2655,1,0,0:0:0:0:
64,192,2955,1,0,0:0:0:0:
192,192,3255,1,0,0:0:0:0:
320,192,3255,1,0,0:0:0:0:
448,192,3555,1,0,0:0:0:0:
64,192,4155,1,0,0:0:0:0:
448,192,4155,1,0,0:0:0:0:
192,192,4455,1,0,0:0:0:0:
320,192,4755,1,0,0:0:0:0:
64,192,5055,1,0,0:0:0:0:
192,192,5055,1,0,0:0:0:0:
448,192,5355,128,0,5955:0:0:0:0:
192,192,5655,1,0,0:0:0:0:
320,192,5955,1,0,0:0:0:0:
64,192,5955,128,0,6255:0:0:0:0:
448,192,6255,128,0,6555:0:0:0:0:
192,192,6255,1,0,0:0:0:0:
64,192,6555,128,0,6855:0:0:0:0:
192,192,6855,1,0,0:0:0:0:
320,192,6855,1,0,0:0:0:0:
192,192,7155,1,0,0:0:0:0:
320,192,7255,1,0,0:0:0:0:
192,192,7355,1,0,0:0:0:0:
448,192,7455,1,0,0:0:0:0:
64,192,7455,1,0,0:0:0:0:
64,192,7755,1,0,0:0:0:0:
192,192,7755,1,0,0:0:0:0:
448,192,7755,1,0,0:0:0:0:
64,192,8055,1,0,0:0:0:0:
320,192,8205,1,0,0:0:0:0:
192,192,8355,1,0,0:0:0:0:
64,192,8355,1,0,0:0:0:0:
448,192,8655,1,0,0:0:0:0:
320,192,8655,1,0,0:0:0:0:
64,192,8955,1,0,0:0:0:0:
192,192,8955,1,0,0:0:0:0:
320,192,9255,1,0,0:0:0:0:
192,192,9555,1,0,0:0:0:0:
64,192,9555,1,0,0:0:0:0:
448,192,9555,1,0,0:0:0:0:
448,192,9855,1,0,0:0:0:0:
192,192,10005,1,0,0:0:0:0:
448,192,10155,1,0,0:0:0:0:
320,192,10155,1,0,0:0:0:0:
192,192,10455,1,0,0:0:0:0:
64,192,10455,1,0,0:0:0:0:
448,192,10755,1,0,0:0:0:0:
320,192,10755,1,0,0:0:0:0:
192,192,11055,1,0,0:0:0:0:
64,192,11355,128,0,11655:0:0:0:0:
320,192,11355,1,0,0:0:0:0:
448,192,11355,1,0,0:0:0:0:
192,192,11655,128,0,11955:0:0:0:0:
320,192,11655,1,0,0:0:0:0:
448,192,11955,128,0,12555:0:0:0:0:
64,192,11955,1,0,0:0:0:0:
192,192,12255,1,0,0:0:0:0:
64,192,12555,128,0,13005:0:0:0:0:
320,192,12555,1,0,0:0:0:0:
192,192,12855,1,0,0:0:0:0:
320,192,13155,128,0,13455:0:0:0:0:
64,192,13155,1,0,0:0:0:0:
448,192,13155,1,0,0:0:0:0:
64,192,13455,128,0,13755:0:0:0:0:
448,192,13455,1,0,0:0:0:0:
448,192,13755,128,0,14055:0:0:0:0:
192,192,13755,1,0,0:0:0:0:
320,192,13905,1,0,0:0:0:0:
192,192,13980,1,0,0:0:0:0:
64,192,14055,128,0,14355:0:0:0:0:
192,192,14355,128,0,14655:0:0:0:0:
448,192,14355,1,0,0:0:0:0:
320,192,14505,1,0,0:0:0:0:
448,192,14655,128,0,14955:0:0:0:0:
64,192,14655,1,0,0:0:0:0:
192,192,14805,1,0,0:0:0:0:
320,192,14955,1,0,0:0:0:0:
64,192,14955,128,0,15855:0:0:0:0:
192,192,15255,1,0,0:0:0:0:
320,192,15255,1,0,0:0:0:0:
320,192,15555,1,0,0:0:0:0:
448,192,15555,128,0,15855:0:0:0:0:
192,192,15855,1,0,0:0:0:0:
320,192,15855,1,0,0:0:0:0:
448,192,16155,1,0,0:0:0:0:
192,192,16455,1,0,0:0:0:0:
64,192,16455,1,0,0:0:0:0:
64,192,16755,1,0,0:0:0:0:
192,192,16755,1,0,0:0:0:0:
448,192,16755,128,0,17655:0:0:0:0:
192,192,17055,1,0,0:0:0:0:
320,192,17055,1,0,0:0:0:0:
64,192,17355,128,0,17655:0:0:0:0:
192,192,17355,1,0,0:0:0:0:
192,192,17655,1,0,0:0:0:0:
320,192,17655,1,0,0:0:0:0:
320,192,17955,1,0,0:0:0:0:
448,192,17955,1,0,0:0:0:0:
192,192,18255,1,0,0:0:0:0:
320,192,18255,1,0,0:0:0:0:
64,192,18555,1,0,0:0:0:0:
448,192,18555,1,0,0:0:0:0:
320,192,18705,1,0,0:0:0:0:
192,192,18855,1,0,0:0:0:0:
64,192,18855,1,0,0:0:0:0:
448,192,19005,1,0,0:0:0:0:
320,192,19155,1,0,0:0:0:0:
192,192,19155,1,0,0:0:0:0:
192,192,19455,1,0,0:0:0:0:
320,192,19455,1,0,0:0:0:0:
448,192,19605,1,0,0:0:0:0:
192,192,19755,1,0,0:0:0:0:
64,192,19755,1,0,0:0:0:0:
320,192,19905,1,0,0:0:0:0:
64,192,20055,1,0,0:0:0:0:
448,192,20055,1,0,0:0:0:0:
192,192,20205,1,0,0:0:0:0:
64,192,20355,1,0,0:0:0:0:
320,192,20355,1,0,0:0:0:0:
448,192,20355,1,0,0:0:0:0:
192,192,20655,1,0,0:0:0:0:
448,192,20805,1,0,0:0:0:0:
192,192,20955,1,0,0:0:0:0:
64,192,20955,1,0,0:0:0:0:
448,192,21105,1,0,0:0:0:0:
64,192,21255,128,0,21555:0:0:0:0:
320,192,21255,1,0,0:0:0:0:
192,192,21555,128,0,21855:0:0:0:0:
448,192,21555,1,0,0:0:0:0:
448,192,21855,128,0,22155:0:0:0:0:
64,192,21855,1,0,0:0:0:0:
64,192,22155,1,0,0:0:0:0:
320,192,22155,1,0,0:0:0:0:
448,192,22455,1,0,0:0:0:0:
192,192,22455,1,0,0:0:0:0:
320,192,22755,1,0,0:0:0:0:
192,192,22755,1,0,0:0:0:0:
64,192,22755,1,0,0:0:0:0:
64,192,23055,1,0,0:0:0:0:
448,192,23055,1,0,0:0:0:0:
320,192,23130,1,0,0:0:0:0:
192,192,23205,1,0,0:0:0:0:
64,192,23355,1,0,0:0:0:0:
448,192,23505,1,0,0:0:0:0:
320,192,23655,1,0,0:0:0:0:
192,192,23805,1,0,0:0:0:0:
64,192,23955,1,0,0:0:0:0:
320,192,23955,1,0,0:0:0:0:
448,192,23955,1,0,0:0:0:0:
192,192,24255,1,0,0:0:0:0:
64,192,24255,1,0,0:0:0:0:
448,192,24405,1,0,0:0:0:0:
320,192,24555,1,0,0:0:0:0:
64,192,24555,1,0,0:0:0:0:
192,192,24855,1,0,0:0:0:0:
320,192,24855,1,0,0:0:0:0:
448,192,24855,1,0,0:0:0:0:
320,192,25155,1,0,0:0:0:0:
192,192,25155,1,0,0:0:0:0:
64,192,25155,1,0,0:0:0:0:
64,192,25455,1,0,0:0:0:0:
64,192,25755,1,0,0:0:0:0:
320,192,25755,1,0,0:0:0:0:
448,192,25755,128,0,26055:0:0:0:0:
64,192,26055,128,0,26355:0:0:0:0:
192,192,26055,1,0,0:0:0:0:
448,192,26355,128,0,26655:0:0:0:0:
320,192,26355,1,0,0:0:0:0:
64,192,26655,1,0,0:0:0:0:
320,192,26655,1,0,0:0:0:0:
192,192,26655,128,0,26955:0:0:0:0:
320,192,26955,128,0,27255:0:0:0:0:
448,192,26955,1,0,0:0:0:0:
64,192,27255,128,0,27555:0:0:0:0:
192,192,27255,1,0,0:0:0:0:
192,192,27555,1,0,0:0:0:0:
448,192,27555,128,0,28005:0:0:0:0:
320,192,27705,1,0,0:0:0:0:
64,192,27855,1,0,0:0:0:0:
192,192,28005,1,0,0:0:0:0:
64,192,28155,1,0,0:0:0:0:
448,192,28155,1,0,0:0:0:0:
320,192,28305,1,0,0:0:0:0:
64,192,28455,1,0,0:0:0:0:
192,192,28455,1,0,0:0:0:0:
448,192,28455,1,0,0:0:0:0:
192,192,28755,1,0,0:0:0:0:
64,192,28755,1,0,0:0:0:0:
320,192,28755,1,0,0:0:0:0:
448,192,28755,1,0,0:0:0:0:
64,192,29355,128,0,29430:0:0:0:0:
320,192,29355,1,0,0:0:0:0:
448,192,29355,1,0,0:0:0:0:
192,192,29655,128,0,29730:0:0:0:0:
448,192,29655,1,0,0:0:0:0:
320,192,29955,128,0,30030:0:0:0:0:
64,192,29955,1,0,0:0:0:0:
192,192,30255,1,0,0:0:0:0:
64,192,30255,1,0,0:0:0:0:
448,192,30255,1,0,0:0:0:0:
192,192,30555,128,0,30855:0:0:0:0:
64,192,30555,1,0,0:0:0:0:
448,192,30855,128,0,31155:0:0:0:0:
192,192,31155,128,0,31230:0:0:0:0:
64,192,31155,1,0,0:0:0:0:
320,192,31455,128,0,31530:0:0:0:0:
64,192,31455,1,0,0:0:0:0:
448,192,31755,128,0,31830:0:0:0:0:
192,192,31755,1,0,0:0:0:0:
64,192,32055,1,0,0:0:0:0:
320,192,32055,1,0,0:0:0:0:
448,192,32055,1,0,0:0:0:0:
320,192,32355,128,0,32955:0:0:0:0:
192,192,32355,1,0,0:0:0:0:
64,192,32655,1,0,0:0:0:0:
64,192,32955,128,0,33030:0:0:0:0:
448,192,32955,1,0,0:0:0:0:
192,192,33255,128,0,33330:0:0:0:0:
448,192,33255,1,0,0:0:0:0:
320,192,33555,128,0,33630:0:0:0:0:
64,192,33555,1,0,0:0:0:0:
192,192,33855,1,0,0:0:0:0:
64,192,33855,128,0,34455:0:0:0:0:
448,192,33855,1,0,0:0:0:0:
448,192,34155,128,0,34455:0:0:0:0:
320,192,34155,1,0,0:0:0:0:
192,192,34455,128,0,34755:0:0:0:0:
64,192,34755,128,0,34830:0:0:0:0:
320,192,34755,1,0,0:0:0:0:
448,192,34755,1,0,0:0:0:0:
192,192,35055,128,0,35130:0:0:0:0:
448,192,35055,1,0,0:0:0:0:
320,192,35355,128,0,35955:0:0:0:0:
64,192,35355,1,0,0:0:0:0:
192,192,35505,1,0,0:0:0:0:
448,192,35655,1,0,0:0:0:0:
192,192,35805,1,0,0:0:0:0:
448,192,35955,1,0,0:0:0:0:
64,192,35955,128,0,36555:0:0:0:0:
320,192,36255,1,0,0:0:0:0:
192,192,36555,128,0,36630:0:0:0:0:
448,192,36555,1,0,0:0:0:0:
320,192,36855,128,0,36930:0:0:0:0:
64,192,36855,1,0,0:0:0:0:
448,192,37155,128,0,37230:0:0:0:0:
192,192,37155,1,0,0:0:0:0:
64,192,37455,1,0,0:0:0:0:
320,192,37455,1,0,0:0:0:0:
448,192,37455,128,0,38055:0:0:0:0:
64,192,37755,128,0,38055:0:0:0:0:
192,192,37755,1,0,0:0:0:0:
320,192,38055,128,0,38355:0:0:0:0:
448,192,38355,128,0,38955:0:0:0:0:
64,192,38355,128,0,38430:0:0:0:0:
192,192,38355,1,0,0:0:0:0:
192,192,38655,128,0,38730:0:0:0:0:
320,192,38955,128,0,39030:0:0:0:0:
64,192,38955,1,0,0:0:0:0:
192,192,39255,1,0,0:0:0:0:
64,192,39255,1,0,0:0:0:0:
448,192,39255,128,0,39555:0:0:0:0:
320,192,39555,128,0,39855:0:0:0:0:
64,192,39555,1,0,0:0:0:0:
192,192,39855,128,0,40155:0:0:0:0:
448,192,39855,1,0,0:0:0:0:
64,192,40155,128,0,40230:0:0:0:0:
320,192,40155,1,0,0:0:0:0:
192,192,40455,128,0,40530:0:0:0:0:
448,192,40455,1,0,0:0:0:0:
320,192,40755,128,0,40830:0:0:0:0:
64,192,40755,1,0,0:0:0:0:
192,192,41055,128,0,41130:0:0:0:0:
64,192,41055,1,0,0:0:0:0:
320,192,41355,128,0,41430:0:0:0:0:
192,192,41355,1,0,0:0:0:0:
448,192,41655,128,0,41730:0:0:0:0:
320,192,41655,1,0,0:0:0:0:
64,192,41955,128,0,42030:0:0:0:0:
320,192,41955,1,0,0:0:0:0:
448,192,41955,1,0,0:0:0:0:
192,192,42255,128,0,42330:0:0:0:0:
64,192,42255,1,0,0:0:0:0:
320,192,42555,128,0,42630:0:0:0:0:
448,192,42555,1,0,0:0:0:0:
64,192,42855,128,0,43455:0:0:0:0:
448,192,42855,128,0,43455:0:0:0:0:
192,192,42855,1,0,0:0:0:0:
320,192,43005,1,0,0:0:0:0:
192,192,43155,1,0,0:0:0:0:
448,192,43680,1,0,0:0:0:0:
320,192,43717,1,0,0:0:0:0:
192,192,43755,1,0,0:0:0:0:
64,192,43755,1,0,0:0:0:0:
448,192,44055,1,0,0:0:0:0:
64,192,44355,1,0,0:0:0:0:
448,192,44355,1,0,0:0:0:0:
320,192,44455,1,0,0:0:0:0:
192,192,44555,1,0,0:0:0:0:
64,192,44655,1,0,0:0:0:0:
64,192,44955,1,0,0:0:0:0:
448,192,44955,1,0,0:0:0:0:
320,192,45255,1,0,0:0:0:0:
448,192,45555,128,0,45855:0:0:0:0:
64,192,45555,1,0,0:0:0:0:
192,192,45555,1,0,0:0:0:0:
64,192,45855,128,0,46155:0:0:0:0:
320,192,45855,1,0,0:0:0:0:
320,192,46155,128,0,46455:0:0:0:0:
448,192,46155,1,0,0:0:0:0:
64,192,46455,1,0,0:0:0:0:
448,192,46455,1,0,0:0:0:0:
192,192,46605,1,0,0:0:0:0:
320,192,46755,1,0,0:0:0:0:
64,192,46905,1,0,0:0:0:0:
448,192,47055,1,0,0:0:0:0:
192,192,47055,1,0,0:0:0:0:
320,192,47205,1,0,0:0:0:0:
192,192,47355,1,0,0:0:0:0:
64,192,47355,1,0,0:0:0:0:
448,192,47355,128,0,48105:0:0:0:0:
64,192,47655,128,0,48105:0:0:0:0:
192,192,47655,1,0,0:0:0:0:
192,192,47955,1,0,0:0:0:0:
320,192,48105,1,0,0:0:0:0:
64,192,48255,128,0,49005:0:0:0:0:
192,192,48255,1,0,0:0:0:0:
448,192,48255,1,0,0:0:0:0:
448,192,48555,128,0,49005:0:0:0:0:
320,192,48555,1,0,0:0:0:0:
320,192,48855,1,0,0:0:0:0:
64,192,49155,1,0,0:0:0:0:
320,192,49155,1,0,0:0:0:0:
448,192,49155,1,0,0:0:0:0:
192,192,49605,1,0,0:0:0:0:
64,192,49605,1,0,0:0:0:0:
192,192,50055,1,0,0:0:0:0:
320,192,50055,1,0,0:0:0:0:
64,192,50055,1,0,0:0:0:0:
192,192,50505,1,0,0:0:0:0:
320,192,50505,1,0,0:0:0:0:
448,192,50505,1,0,0:0:0:0:
64,192,50505,1,0,0:0:0:0:
64,192,50955,128,0,51705:0:0:0:0:
448,192,50955,1,0,0:0:0:0:
320,192,50955,1,0,0:0:0:0:
192,192,51255,128,0,51705:0:0:0:0:
448,192,51255,1,0,0:0:0:0:
320,192,51555,1,0,0:0:0:0:
64,192,51855,1,0,0:0:0:0:
448,192,51855,128,0,52605:0:0:0:0:
192,192,51855,1,0,0:0:0:0:
320,192,52155,128,0,52605:0:0:0:0:
192,192,52155,1,0,0:0:0:0:
64,192,52455,1,0,0:0:0:0:
192,192,52605,1,0,0:0:0:0:
64,192,52755,1,0,0:0:0:0:
448,192,52755,1,0,0:0:0:0:
320,192,52755,1,0,0:0:0:0:
192,192,52905,1,0,0:0:0:0:
64,192,53055,1,0,0:0:0:0:
448,192,53055,1,0,0:0:0:0:
320,192,53205,1,0,0:0:0:0:
448,192,53355,1,0,0:0:0:0:
64,192,53355,1,0,0:0:0:0:
192,192,53505,1,0,0:0:0:0:
320,192,53655,1,0,0:0:0:0:
64,192,53655,1,0,0:0:0:0:
192,192,53955,1,0,0:0:0:0:
448,192,53955,1,0,0:0:0:0:
64,192,53955,1,0,0:0:0:0:
320,192,54105,1,0,0:0:0:0:
64,192,54255,1,0,0:0:0:0:
448,192,54255,1,0,0:0:0:0:
192,192,54405,1,0,0:0:0:0:
64,192,54555,1,0,0:0:0:0:
320,192,54555,1,0,0:0:0:0:
448,192,54555,1,0,0:0:0:0:
448,192,54855,128,0,55455:0:0:0:0:
192,192,54855,1,0,0:0:0:0:
64,192,54855,1,0,0:0:0:0:
320,192,55155,1,0,0:0:0:0:
192,192,55155,1,0,0:0:0:0:
192,192,55455,1,0,0:0:0:0:
64,192,55455,1,0,0:0:0:0:
320,192,55455,1,0,0:0:0:0:
64,192,55755,128,0,56355:0:0:0:0:
448,192,55755,1,0,0:0:0:0:
320,192,55755,1,0,0:0:0:0:
320,192,56055,1,0,0:0:0:0:
192,192,56055,1,0,0:0:0:0:
192,192,56355,1,0,0:0:0:0:
320,192,56355,1,0,0:0:0:0:
448,192,56355,1,0,0:0:0:0:
64,192,56505,1,0,0:0:0:0:
448,192,56655,128,0,56955:0:0:0:0:
192,192,56655,1,0,0:0:0:0:
320,192,56955,1,0,0:0:0:0:
64,192,56955,128,0,57255:0:0:0:0:
448,192,57255,128,0,57555:0:0:0:0:
192,192,57255,1,0,0:0:0:0:
64,192,57555,128,0,58005:0:0:0:0:
192,192,57555,1,0,0:0:0:0:
320,192,57555,1,0,0:0:0:0:
192,192,57705,1,0,0:0:0:0:
448,192,57855,1,0,0:0:0:0:
320,192,58005,1,0,0:0:0:0:
64,192,58155,1,0,0:0:0:0:
320,192,58155,1,0,0:0:0:0:
448,192,58155,1,0,0:0:0:0:
192,192,58155,1,0,0:0:0:0:
192,192,58455,1,0,0:0:0:0:
448,192,58605,1,0,0:0:0:0:
192,192,58755,1,0,0:0:0:0:
64,192,58755,1,0,0:0:0:0:
320,192,58755,1,0,0:0:0:0:
448,192,59055,128,0,59355:0:0:0:0:
192,192,59055,1,0,0:0:0:0:
64,192,59055,1,0,0:0:0:0:
320,192,59355,128,0,59655:0:0:0:0:
64,192,59355,1,0,0:0:0:0:
192,192,59655,128,0,59955:0:0:0:0:
448,192,59655,1,0,0:0:0:0:
64,192,59955,1,0,0:0:0:0:
320,192,59955,1,0,0:0:0:0:
448,192,59955,1,0,0:0:0:0:
192,192,60255,1,0,0:0:0:0:
448,192,60405,1,0,0:0:0:0:
64,192,60555,1,0,0:0:0:0:
320,192,60555,1,0,0:0:0:0:
192,192,60855,1,0,0:0:0:0:
64,192,60855,1,0,0:0:0:0:
448,192,60855,1,0,0:0:0:0:
320,192,61155,1,0,0:0:0:0:
448,192,61155,1,0,0:0:0:0:
320,192,61455,1,0,0:0:0:0:
192,192,61455,1,0,0:0:0:0:
448,192,61755,128,0,61905:0:0:0:0:
64,192,61755,128,0,61905:0:0:0:0:
192,192,61755,1,0,0:0:0:0:
192,192,62055,128,0,62205:0:0:0:0:
320,192,62055,128,0,62205:0:0:0:0:
448,192,62055,1,0,0:0:0:0:
64,192,62355,128,0,62505:0:0:0:0:
192,192,62355,128,0,62505:0:0:0:0:
448,192,62355,128,0,62505:0:0:0:0:
320,192,62655,1,0,0:0:0:0:
64,192,62655,1,0,0:0:0:0:
448,192,62655,1,0,0:0:0:0:
192,192,62805,1,0,0:0:0:0:
64,192,62955,1,0,0:0:0:0:
448,192,62955,1,0,0:0:0:0:
320,192,63105,1,0,0:0:0:0:
192,192,63255,1,0,0:0:0:0:
64,192,63255,1,0,0:0:0:0:
320,192,63405,1,0,0:0:0:0:
448,192,63555,1,0,0:0:0:0:
192,192,63555,1,0,0:0:0:0:
64,192,63555,1,0,0:0:0:0:
192,192,63855,128,0,64005:0:0:0:0:
320,192,64005,128,0,64155:0:0:0:0:
64,192,64155,128,0,64305:0:0:0:0:
448,192,64155,1,0,0:0:0:0:
320,192,64305,1,0,0:0:0:0:
192,192,64455,1,0,0:0:0:0:
64,192,64455,128,0,65205:0:0:0:0:
448,192,64455,128,0,64755:0:0:0:0:
192,192,64755,128,0,65205:0:0:0:0:
320,192,64755,1,0,0:0:0:0:
448,192,65055,128,0,65205:0:0:0:0:
320,192,65055,128,0,65205:0:0:0:0:
64,192,65355,1,0,0:0:0:0:
192,192,65355,1,0,0:0:0:0:
448,192,65355,1,0,0:0:0:0:
320,192,65655,1,0,0:0:0:0:
192,192,65805,1,0,0:0:0:0:
64,192,65955,1,0,0:0:0:0:
448,192,65955,1,0,0:0:0:0:
320,192,65955,1,0,0:0:0:0:
64,192,66255,128,0,66555:0:0:0:0:
320,192,66255,1,0,0:0:0:0:
448,192,66255,1,0,0:0:0:0:
448,192,66555,128,0,66855:0:0:0:0:
192,192,66555,1,0,0:0:0:0:
192,192,66855,128,0,67155:0:0:0:0:
64,192,66855,1,0,0:0:0:0:
64,192,67155,1,0,0:0:0:0:
320,192,67155,1,0,0:0:0:0:
448,192,67155,1,0,0:0:0:0:
320,192,67455,1,0,0:0:0:0:
64,192,67605,1,0,0:0:0:0:
192,192,67755,1,0,0:0:0:0:
448,192,67755,1,0,0:0:0:0:
320,192,68055,1,0,0:0:0:0:
64,192,68055,1,0,0:0:0:0:
448,192,68055,1,0,0:0:0:0:
448,192,68355,1,0,0:0:0:0:
192,192,68355,1,0,0:0:0:0:
64,192,68355,1,0,0:0:0:0:
192,192,68655,1,0,0:0:0:0:
320,192,68655,1,0,0:0:0:0:
448,192,68955,128,0,69255:0:0:0:0:
320,192,68955,1,0,0:0:0:0:
64,192,68955,1,0,0:0:0:0:
192,192,69255,128,0,69555:0:0:0:0:
64,192,69255,1,0,0:0:0:0:
320,192,69555,128,0,69855:0:0:0:0:
448,192,69555,1,0,0:0:0:0:
64,192,69855,128,0,70155:0:0:0:0:
192,192,69855,1,0,0:0:0:0:
448,192,69855,1,0,0:0:0:0:
448,192,70155,128,0,70455:0:0:0:0:
320,192,70155,1,0,0:0:0:0:
192,192,70455,128,0,70755:0:0:0:0:
64,192,70455,1,0,0:0:0:0:
64,192,70755,1,0,0:0:0:0:
320,192,70755,1,0,0:0:0:0:
448,192,70755,1,0,0:0:0:0:
192,192,70905,1,0,0:0:0:0:
448,192,71055,1,0,0:0:0:0:
320,192,71055,1,0,0:0:0:0:
64,192,71205,1,0,0:0:0:0:
192,192,71355,1,0,0:0:0:0:
448,192,71355,1,0,0:0:0:0:
320,192,71505,1,0,0:0:0:0:
192,192,71655,1,0,0:0:0:0:
64,192,71655,1,0,0:0:0:0:
448,192,71805,1,0,0:0:0:0:
192,192,71955,1,0,0:0:0:0:
64,192,71955,1,0,0:0:0:0:
320,192,72105,1,0,0:0:0:0:
64,192,72255,1,0,0:0:0:0:
448,192,72255,1,0,0:0:0:0:
192,192,72255,1,0,0:0:0:0:
64,192,72555,1,0,0:0:0:0:
320,192,72555,1,0,0:0:0:0:
448,192,72555,1,0,0:0:0:0:
448,192,72855,1,0,0:0:0:0:
192,192,72855,1,0,0:0:0:0:
320,192,73005,1,0,0:0:0:0:
64,192,73155,1,0,0:0:0:0:
448,192,73155,1,0,0:0:0:0:
192,192,73155,1,0,0:0:0:0:
448,192,73455,128,0,73755:0:0:0:0:
192,192,73455,1,0,0:0:0:0:
64,192,73455,1,0,0:0:0:0:
64,192,73755,128,0,74055:0:0:0:0:
320,192,73755,1,0,0:0:0:0:
192,192,74055,128,0,74355:0:0:0:0:
448,192,74055,1,0,0:0:0:0:
64,192,74355,1,0,0:0:0:0:
320,192,74355,1,0,0:0:0:0:
448,192,74355,1,0,0:0:0:0:
64,192,74655,1,0,0:0:0:0:
320,192,74655,1,0,0:0:0:0:
192,192,74805,1,0,0:0:0:0:
320,192,74955,1,0,0:0:0:0:
64,192,74955,1,0,0:0:0:0:
448,192,74955,1,0,0:0:0:0:
64,192,75255,128,0,75555:0:0:0:0:
320,192,75255,1,0,0:0:0:0:
448,192,75255,1,0,0:0:0:0:
448,192,75555,128,0,75855:0:0:0:0:
192,192,75555,1,0,0:0:0:0:
320,192,75855,128,0,76155:0:0:0:0:
64,192,75855,1,0,0:0:0:0:
64,192,76155,1,0,0:0:0:0:
448,192,76155,1,0,0:0:0:0:
192,192,76455,1,0,0:0:0:0:
64,192,76455,1,0,0:0:0:0:
192,192,76755,1,0,0:0:0:0:
320,192,76755,1,0,0:0:0:0:
448,192,76755,1,0,0:0:0:0:
192,192,77055,1,0,0:0:0:0:
64,192,77055,1,0,0:0:0:0:
448,192,77055,1,0,0:0:0:0:
192,192,77355,1,0,0:0:0:0:
320,192,77355,1,0,0:0:0:0:
320,192,77655,1,0,0:0:0:0:
448,192,77655,1,0,0:0:0:0:
64,192,77955,1,0,0:0:0:0:
448,192,77955,1,0,0:0:0:0:
192,192,77955,1,0,0:0:0:0:
448,192,78255,1,0,0:0:0:0:
64,192,78255,1,0,0:0:0:0:
192,192,78405,1,0,0:0:0:0:
64,192,78555,1,0,0:0:0:0:
320,192,78555,1,0,0:0:0:0:
448,192,78555,1,0,0:0:0:0:
320,192,78855,1,0,0:0:0:0:
448,192,78855,128,0,79605:0:0:0:0:
64,192,78855,128,0,79155:0:0:0:0:
320,192,79155,128,0,79605:0:0:0:0:
192,192,79155,1,0,0:0:0:0:
192,192,79455,128,0,79605:0:0:0:0:
64,192,79455,128,0,79605:0:0:0:0:
192,192,79755,1,0,0:0:0:0:
64,192,79755,1,0,0:0:0:0:
448,192,79755,1,0,0:0:0:0:
64,192,80055,1,0,0:0:0:0:
448,192,80055,1,0,0:0:0:0:
320,192,80205,1,0,0:0:0:0:
192,192,80355,1,0,0:0:0:0:
64,192,80355,1,0,0:0:0:0:
448,192,80355,1,0,0:0:0:0:
448,192,80655,128,0,80955:0:0:0:0:
192,192,80655,1,0,0:0:0:0:
64,192,80655,1,0,0:0:0:0:
320,192,80955,128,0,81255:0:0:0:0:
192,192,80955,1,0,0:0:0:0:
64,192,81255,128,0,81555:0:0:0:0:
448,192,81255,1,0,0:0:0:0:
192,192,81555,1,0,0:0:0:0:
320,192,81555,1,0,0:0:0:0:
448,192,81555,1,0,0:0:0:0:
64,192,81855,1,0,0:0:0:0:
448,192,81855,1,0,0:0:0:0:
192,192,82005,1,0,0:0:0:0:
64,192,82155,1,0,0:0:0:0:
320,192,82155,1,0,0:0:0:0:
448,192,82155,1,0,0:0:0:0:
192,192,82455,128,0,82755:0:0:0:0:
64,192,82455,1,0,0:0:0:0:
448,192,82455,1,0,0:0:0:0:
448,192,82755,128,0,83055:0:0:0:0:
64,192,82755,1,0,0:0:0:0:
192,192,82905,1,0,0:0:0:0:
64,192,83055,128,0,83355:0:0:0:0:
320,192,83055,1,0,0:0:0:0:
192,192,83355,1,0,0:0:0:0:
320,192,83355,1,0,0:0:0:0:
448,192,83355,1,0,0:0:0:0:
192,192,83655,1,0,0:0:0:0:
64,192,83655,1,0,0:0:0:0:
448,192,83805,1,0,0:0:0:0:
320,192,83955,1,0,0:0:0:0:
192,192,83955,1,0,0:0:0:0:
64,192,83955,1,0,0:0:0:0:
320,192,84255,1,0,0:0:0:0:
64,192,84255,1,0,0:0:0:0:
448,192,84255,1,0,0:0:0:0:
320,192,84555,1,0,0:0:0:0:
448,192,84555,1,0,0:0:0:0:
64,192,84705,1,0,0:0:0:0:
320,192,84855,1,0,0:0:0:0:
448,192,84855,1,0,0:0:0:0:
192,192,84855,1,0,0:0:0:0:
64,192,85155,1,0,0:0:0:0:
448,192,85155,1,0,0:0:0:0:
192,192,85155,1,0,0:0:0:0:
320,192,85305,1,0,0:0:0:0:
64,192,85455,1,0,0:0:0:0:
448,192,85455,1,0,0:0:0:0:
320,192,85605,1,0,0:0:0:0:
64,192,85755,1,0,0:0:0:0:
192,192,85755,1,0,0:0:0:0:
320,192,85905,1,0,0:0:0:0:
448,192,85905,1,0,0:0:0:0:
64,192,86055,1,0,0:0:0:0:
320,192,86055,1,0,0:0:0:0:
192,192,86055,1,0,0:0:0:0:
192,192,86355,1,0,0:0:0:0:
64,192,86355,1,0,0:0:0:0:
320,192,86355,1,0,0:0:0:0:
448,192,86355,1,0,0:0:0:0:
192,192,86955,128,0,87255:0:0:0:0:
64,192,86955,1,0,0:0:0:0:
448,192,86955,1,0,0:0:0:0:
320,192,87255,128,0,87555:0:0:0:0:
448,192,87555,128,0,87855:0:0:0:0:
192,192,87555,1,0,0:0:0:0:
320,192,87855,1,0,0:0:0:0:
64,192,87855,1,0,0:0:0:0:
192,192,87855,128,0,88155:0:0:0:0:
64,192,88155,128,0,88455:0:0:0:0:
448,192,88455,1,0,0:0:0:0:
320,192,88605,1,0,0:0:0:0:
64,192,88755,128,0,89055:0:0:0:0:
192,192,88755,1,0,0:0:0:0:
448,192,89055,128,0,89355:0:0:0:0:
192,192,89355,128,0,89655:0:0:0:0:
64,192,89355,1,0,0:0:0:0:
64,192,89655,128,0,89955:0:0:0:0:
320,192,89655,1,0,0:0:0:0:
448,192,89655,1,0,0:0:0:0:
448,192,89955,128,0,90255:0:0:0:0:
192,192,90255,1,0,0:0:0:0:
64,192,90555,128,0,90855:0:0:0:0:
320,192,90555,1,0,0:0:0:0:
448,192,90555,1,0,0:0:0:0:
192,192,90855,128,0,91155:0:0:0:0:
448,192,91155,128,0,91305:0:0:0:0:
64,192,91155,1,0,0:0:0:0:
64,192,91455,1,0,0:0:0:0:
448,192,91455,128,0,92205:0:0:0:0:
192,192,91455,1,0,0:0:0:0:
320,192,91755,1,0,0:0:0:0:
64,192,92055,128,0,92205:0:0:0:0:
64,192,92355,1,0,0:0:0:0:
448,192,92355,1,0,0:0:0:0:
192,192,92355,128,0,92655:0:0:0:0:
448,192,92655,128,0,92955:0:0:0:0:
64,192,92955,128,0,93255:0:0:0:0:
192,192,92955,1,0,0:0:0:0:
320,192,93255,1,0,0:0:0:0:
448,192,93255,1,0,0:0:0:0:
448,192,93555,1,0,0:0:0:0:
64,192,93555,1,0,0:0:0:0:
320,192,93655,1,0,0:0:0:0:
192,192,93755,1,0,0:0:0:0:
448,192,93855,1,0,0:0:0:0:
320,192,94005,1,0,0:0:0:0:
64,192,94155,1,0,0:0:0:0:
448,192,94155,1,0,0:0:0:0:
192,192,94155,1,0,0:0:0:0:
320,192,94305,1,0,0:0:0:0:
192,192,94455,1,0,0:0:0:0:
320,192,94605,1,0,0:0:0:0:
64,192,94755,1,0,0:0:0:0:
448,192,94755,1,0,0:0:0:0:
192,192,94905,1,0,0:0:0:0:
64,192,95055,1,0,0:0:0:0:
320,192,95055,1,0,0:0:0:0:
448,192,95055,1,0,0:0:0:0:
192,192,95355,1,0,0:0:0:0:
64,192,95355,1,0,0:0:0:0:
448,192,95355,1,0,0:0:0:0:
448,192,95655,1,0,0:0:0:0:
320,192,95805,1,0,0:0:0:0:
192,192,95955,1,0,0:0:0:0:
64,192,95955,1,0,0:0:0:0:
448,192,95955,1,0,0:0:0:0:
320,192,96105,1,0,0:0:0:0:
64,192,96255,1,0,0:0:0:0:
448,192,96255,1,0,0:0:0:0:
192,192,96405,1,0,0:0:0:0:
320,192,96405,1,0,0:0:0:0:
448,192,96555,1,0,0:0:0:0:
64,192,96555,1,0,0:0:0:0:
192,192,96705,1,0,0:0:0:0:
320,192,96855,1,0,0:0:0:0:
448,192,96855,1,0,0:0:0:0:
64,192,97005,1,0,0:0:0:0:
192,192,97155,1,0,0:0:0:0:
320,192,97155,1,0,0:0:0:0:
448,192,97305,1,0,0:0:0:0:
192,192,97455,1,0,0:0:0:0:
64,192,97455,1,0,0:0:0:0:
320,192,97605,1,0,0:0:0:0:
192,192,97755,1,0,0:0:0:0:
448,192,97755,1,0,0:0:0:0:
64,192,97755,1,0,0:0:0:0:
64,192,98055,1,0,0:0:0:0:
448,192,98055,1,0,0:0:0:0:
320,192,98205,1,0,0:0:0:0:
192,192,98355,1,0,0:0:0:0:
64,192,98355,1,0,0:0:0:0:
448,192,98505,1,0,0:0:0:0:
320,192,98655,1,0,0:0:0:0:
192,192,98655,1,0,0:0:0:0:
64,192,98655,1,0,0:0:0:0:
448,192,98955,1,0,0:0:0:0:
192,192,98955,1,0,0:0:0:0:
320,192,98955,1,0,0:0:0:0:
320,192,99255,1,0,0:0:0:0:
192,192,99255,1,0,0:0:0:0:
64,192,99255,1,0,0:0:0:0:
64,192,99555,1,0,0:0:0:0:
320,192,99555,1,0,0:0:0:0:
448,192,99555,1,0,0:0:0:0:
192,192,99705,1,0,0:0:0:0:
448,192,99855,1,0,0:0:0:0:
192,192,100005,1,0,0:0:0:0:
64,192,100155,1,0,0:0:0:0:
448,192,100155,1,0,0:0:0:0:
320,192,100305,1,0,0:0:0:0:
64,192,100455,1,0,0:0:0:0:
448,192,100455,1,0,0:0:0:0:
192,192,100455,1,0,0:0:0:0:
64,192,100755,1,0,0:0:0:0:
448,192,100755,1,0,0:0:0:0:
320,192,100905,1,0,0:0:0:0:
192,192,101055,1,0,0:0:0:0:
64,192,101055,1,0,0:0:0:0:
448,192,101205,1,0,0:0:0:0:
320,192,101280,1,0,0:0:0:0:
64,192,101355,1,0,0:0:0:0:
192,192,101355,1,0,0:0:0:0:
192,192,101655,1,0,0:0:0:0:
320,192,101655,1,0,0:0:0:0:
448,192,101655,1,0,0:0:0:0:
320,192,101955,1,0,0:0:0:0:
192,192,101955,1,0,0:0:0:0:
64,192,101955,1,0,0:0:0:0:
64,192,102255,128,0,102555:0:0:0:0:
320,192,102255,1,0,0:0:0:0:
448,192,102255,1,0,0:0:0:0:
192,192,102555,128,0,102855:0:0:0:0:
448,192,102555,1,0,0:0:0:0:
448,192,102855,128,0,103155:0:0:0:0:
64,192,102855,1,0,0:0:0:0:
320,192,102855,1,0,0:0:0:0:
192,192,103155,1,0,0:0:0:0:
320,192,103155,1,0,0:0:0:0:
64,192,103155,128,0,104055:0:0:0:0:
192,192,103455,128,0,103605:0:0:0:0:
320,192,103755,128,0,103905:0:0:0:0:
448,192,104055,128,0,104955:0:0:0:0:
192,192,104055,1,0,0:0:0:0:
64,192,104355,128,0,104505:0:0:0:0:
192,192,104655,128,0,104805:0:0:0:0:
192,192,104955,128,0,105855:0:0:0:0:
64,192,104955,1,0,0:0:0:0:
320,192,105255,128,0,105405:0:0:0:0:
448,192,105555,128,0,105705:0:0:0:0:
64,192,105855,128,0,106455:0:0:0:0:
320,192,105855,1,0,0:0:0:0:
448,192,106155,128,0,106305:0:0:0:0:
320,192,106455,128,0,106605:0:0:0:0:
448,192,106755,128,0,107055:0:0:0:0:
192,192,106755,128,0,107055:0:0:0:0:
64,192,106755,1,0,0:0:0:0:
64,192,107055,128,0,107355:0:0:0:0:
320,192,107055,128,0,107355:0:0:0:0:
448,192,107355,128,0,107505:0:0:0:0:
192,192,107355,128,0,107505:0:0:0:0:
192,192,107655,128,0,107955:0:0:0:0:
448,192,107655,128,0,107955:0:0:0:0:
64,192,107955,128,0,108255:0:0:0:0:
320,192,107955,128,0,108255:0:0:0:0:
192,192,108255,128,0,108555:0:0:0:0:
448,192,108255,128,0,108555:0:0:0:0:
64,192,108555,128,0,110055:0:0:0:0:
320,192,108555,1,0,0:0:0:0:
448,192,108855,1,0,0:0:0:0:
320,192,109005,1,0,0:0:0:0:
192,192,109155,1,0,0:0:0:0:
448,192,109155,1,0,0:0:0:0:
320,192,109455,1,0,0:0:0:0:
448,192,109455,1,0,0:0:0:0:
448,192,109755,1,0,0:0:0:0:
192,192,109905,1,0,0:0:0:0:
320,192,110055,1,0,0:0:0:0:
448,192,110055,1,0,0:0:0:0:
64,192,110355,1,0,0:0:0:0:
192,192,110355,1,0,0:0:0:0:
448,192,110355,128,0,111255:0:0:0:0:
192,192,110655,1,0,0:0:0:0:
320,192,110655,1,0,0:0:0:0:
64,192,110955,1,0,0:0:0:0:
192,192,110955,1,0,0:0:0:0:
64,192,111255,128,0,112155:0:0:0:0:
192,192,111255,1,0,0:0:0:0:
320,192,111255,1,0,0:0:0:0:
448,192,111555,1,0,0:0:0:0:
320,192,111555,1,0,0:0:0:0:
192,192,111855,1,0,0:0:0:0:
320,192,111855,1,0,0:0:0:0:
320,192,112155,128,0,113055:0:0:0:0:
192,192,112155,1,0,0:0:0:0:
448,192,112155,1,0,0:0:0:0:
192,192,112455,1,0,0:0:0:0:
64,192,112455,1,0,0:0:0:0:
64,192,112755,1,0,0:0:0:0:
448,192,112755,1,0,0:0:0:0:
64,192,113055,128,0,113355:0:0:0:0:
192,192,113055,1,0,0:0:0:0:
448,192,113055,128,0,113805:0:0:0:0:
192,192,113355,1,0,0:0:0:0:
320,192,113355,128,0,113805:0:0:0:0:
64,192,113655,128,0,113805:0:0:0:0:
192,192,113655,128,0,113805:0:0:0:0:
64,192,113955,1,0,0:0:0:0:
448,192,113955,1,0,0:0:0:0:
320,192,113955,128,0,114255:0:0:0:0:
448,192,114255,1,0,0:0:0:0:
192,192,114255,128,0,114555:0:0:0:0:
64,192,114555,1,0,0:0:0:0:
320,192,114555,128,0,114855:0:0:0:0:
64,192,114855,1,0,0:0:0:0:
192,192,114855,1,0,0:0:0:0:
448,192,114855,128,0,115155:0:0:0:0:
192,192,115155,1,0,0:0:0:0:
64,192,115155,128,0,115605:0:0:0:0:
320,192,115455,1,0,0:0:0:0:
448,192,115455,128,0,115605:0:0:0:0:
64,192,115755,1,0,0:0:0:0:
320,192,115755,1,0,0:0:0:0:
448,192,115755,1,0,0:0:0:0:
192,192,115905,1,0,0:0:0:0:
320,192,116055,1,0,0:0:0:0:
448,192,116055,1,0,0:0:0:0:
64,192,116205,1,0,0:0:0:0:
448,192,116355,1,0,0:0:0:0:
192,192,116355,1,0,0:0:0:0:
320,192,116505,1,0,0:0:0:0:
448,192,116655,1,0,0:0:0:0:
192,192,116655,1,0,0:0:0:0:
64,192,116655,1,0,0:0:0:0:
320,192,116805,1,0,0:0:0:0:
448,192,116955,1,0,0:0:0:0:
64,192,116955,1,0,0:0:0:0:
192,192,117105,1,0,0:0:0:0:
448,192,117255,1,0,0:0:0:0:
320,192,117255,1,0,0:0:0:0:
64,192,117255,1,0,0:0:0:0:
192,192,117405,1,0,0:0:0:0:
64,192,117555,128,0,118155:0:0:0:0:
448,192,117555,1,0,0:0:0:0:
320,192,117555,1,0,0:0:0:0:
448,192,117855,128,0,118155:0:0:0:0:
320,192,117855,1,0,0:0:0:0:
320,192,118155,128,0,118455:0:0:0:0:
192,192,118155,1,0,0:0:0:0:
448,192,118455,128,0,119055:0:0:0:0:
192,192,118455,1,0,0:0:0:0:
64,192,118455,1,0,0:0:0:0:
64,192,118755,128,0,119055:0:0:0:0:
192,192,118755,1,0,0:0:0:0:
192,192,119055,128,0,119355:0:0:0:0:
320,192,119055,1,0,0:0:0:0:
320,192,119355,128,0,119955:0:0:0:0:
64,192,119355,1,0,0:0:0:0:
448,192,119355,1,0,0:0:0:0:
64,192,119655,128,0,119955:0:0:0:0:
192,192,119655,1,0,0:0:0:0:
192,192,119955,128,0,120255:0:0:0:0:
448,192,119955,1,0,0:0:0:0:
448,192,120255,128,0,120555:0:0:0:0:
64,192,120255,1,0,0:0:0:0:
64,192,120555,128,0,121005:0:0:0:0:
192,192,120555,1,0,0:0:0:0:
320,192,120555,1,0,0:0:0:0:
320,192,120855,1,0,0:0:0:0:
448,192,121155,1,0,0:0:0:0:
192,192,121155,128,0,121605:0:0:0:0:
64,192,121155,1,0,0:0:0:0:
448,192,121455,128,0,122055:0:0:0:0:
320,192,121455,1,0,0:0:0:0:
192,192,121755,128,0,122055:0:0:0:0:
64,192,121755,1,0,0:0:0:0:
64,192,122055,128,0,122505:0:0:0:0:
320,192,122055,1,0,0:0:0:0:
320,192,122355,128,0,122955:0:0:0:0:
448,192,122355,1,0,0:0:0:0:
192,192,122655,128,0,122955:0:0:0:0:
64,192,122655,1,0,0:0:0:0:
64,192,122955,1,0,0:0:0:0:
448,192,122955,1,0,0:0:0:0:
192,192,123255,1,0,0:0:0:0:
320,192,123405,1,0,0:0:0:0:
64,192,123555,1,0,0:0:0:0:
448,192,123555,1,0,0:0:0:0:
64,192,123855,128,0,124605:0:0:0:0:
320,192,123855,1,0,0:0:0:0:
448,192,123855,1,0,0:0:0:0:
192,192,124005,1,0,0:0:0:0:
448,192,124155,128,0,124605:0:0:0:0:
192,192,124305,1,0,0:0:0:0:
320,192,124455,128,0,124605:0:0:0:0:
448,192,124755,128,0,125355:0:0:0:0:
64,192,124755,1,0,0:0:0:0:
192,192,124755,1,0,0:0:0:0:
64,192,125055,128,0,125355:0:0:0:0:
192,192,125055,1,0,0:0:0:0:
192,192,125355,128,0,125655:0:0:0:0:
320,192,125355,1,0,0:0:0:0:
64,192,125655,128,0,126255:0:0:0:0:
320,192,125655,1,0,0:0:0:0:
448,192,125655,1,0,0:0:0:0:
448,192,125955,128,0,126255:0:0:0:0:
320,192,125955,1,0,0:0:0:0:
320,192,126255,128,0,126555:0:0:0:0:
192,192,126255,1,0,0:0:0:0:
192,192,126555,128,0,127155:0:0:0:0:
448,192,126555,1,0,0:0:0:0:
64,192,126555,1,0,0:0:0:0:
448,192,126855,128,0,127155:0:0:0:0:
320,192,126855,1,0,0:0:0:0:
320,192,127155,128,0,127455:0:0:0:0:
64,192,127155,1,0,0:0:0:0:
64,192,127455,128,0,128205:0:0:0:0:
448,192,127455,128,0,127605:0:0:0:0:
192,192,127455,1,0,0:0:0:0:
448,192,127755,128,0,128205:0:0:0:0:
320,192,127755,128,0,127905:0:0:0:0:
192,192,128055,128,0,128205:0:0:0:0:
64,192,128355,1,0,0:0:0:0:
320,192,128355,1,0,0:0:0:0:
448,192,128355,1,0,0:0:0:0:
192,192,128655,1,0,0:0:0:0:
448,192,128655,1,0,0:0:0:0:
320,192,128805,1,0,0:0:0:0:
64,192,128805,1,0,0:0:0:0:
192,192,128955,1,0,0:0:0:0:
448,192,128955,1,0,0:0:0:0:
64,192,129255,1,0,0:0:0:0:
192,192,129255,1,0,0:0:0:0:
320,192,129255,1,0,0:0:0:0:
64,192,129555,1,0,0:0:0:0:
320,192,129555,1,0,0:0:0:0:
192,192,129705,1,0,0:0:0:0:
448,192,129705,1,0,0:0:0:0:
320,192,129855,1,0,0:0:0:0:
64,192,129855,1,0,0:0:0:0:
64,192,130155,1,0,0:0:0:0:
320,192,130155,1,0,0:0:0:0:
448,192,130155,1,0,0:0:0:0:
192,192,130305,1,0,0:0:0:0:
448,192,130455,1,0,0:0:0:0:
64,192,130455,1,0,0:0:0:0:
320,192,130605,1,0,0:0:0:0:
192,192,130755,1,0,0:0:0:0:
64,192,130755,1,0,0:0:0:0:
192,192,131055,1,0,0:0:0:0:
64,192,131055,1,0,0:0:0:0:
320,192,131055,1,0,0:0:0:0:
192,192,131355,1,0,0:0:0:0:
320,192,131355,1,0,0:0:0:0:
448,192,131355,1,0,0:0:0:0:
64,192,131955,128,0,132855:0:0:0:0:
448,192,131955,1,0,0:0:0:0:
320,192,132255,1,0,0:0:0:0:
192,192,132555,1,0,0:0:0:0:
448,192,132855,128,0,133755:0:0:0:0:
320,192,133155,1,0,0:0:0:0:
64,192,133455,1,0,0:0:0:0:
192,192,133755,128,0,134655:0:0:0:0:
64,192,133755,1,0,0:0:0:0:
448,192,134055,1,0,0:0:0:0:
320,192,134355,1,0,0:0:0:0:
64,192,134655,128,0,135255:0:0:0:0:
448,192,134655,1,0,0:0:0:0:
192,192,134955,1,0,0:0:0:0:
320,192,135255,1,0,0:0:0:0:
64,192,135555,1,0,0:0:0:0:
192,192,135555,1,0,0:0:0:0:
448,192,135555,128,0,135855:0:0:0:0:
192,192,135855,128,0,136155:0:0:0:0:
448,192,136155,1,0,0:0:0:0:
320,192,136155,128,0,136755:0:0:0:0:
64,192,136455,128,0,137055:0:0:0:0:
192,192,136455,1,0,0:0:0:0:
448,192,136755,128,0,137055:0:0:0:0:
192,192,137055,128,0,137355:0:0:0:0:
320,192,137355,128,0,138255:0:0:0:0:
64,192,137355,1,0,0:0:0:0:
448,192,137655,1,0,0:0:0:0:
192,192,137955,1,0,0:0:0:0:
64,192,138255,1,0,0:0:0:0:
448,192,138255,1,0,0:0:0:0:
192,192,138555,1,0,0:0:0:0:
320,192,138555,1,0,0:0:0:0:
192,192,138855,1,0,0:0:0:0:
448,192,139155,1,0,0:0:0:0:
64,192,139155,1,0,0:0:0:0:
192,192,139455,1,0,0:0:0:0:
448,192,139755,1,0,0:0:0:0:
320,192,140055,1,0,0:0:0:0:
192,192,140055,1,0,0:0:0:0:
64,192,140355,1,0,0:0:0:0:
320,192,140655,1,0,0:0:0:0:
64,192,140955,1,0,0:0:0:0:
448,192,140955,1,0,0:0:0:0:
320,192,141255,1,0,0:0:0:0:
64,192,141555,1,0,0:0:0:0:
192,192,141855,1,0,0:0:0:0:
320,192,141855,1,0,0:0:0:0:
448,192,142155,1,0,0:0:0:0:
64,192,142455,128,0,142755:0:0:0:0:
320,192,142755,128,0,143355:0:0:0:0:
448,192,142755,1,0,0:0:0:0:
64,192,143055,1,0,0:0:0:0:
192,192,143055,1,0,0:0:0:0:
448,192,143355,1,0,0:0:0:0:
448,192,143655,128,0,144555:0:0:0:0:
64,192,143655,1,0,0:0:0:0:
192,192,143955,1,0,0:0:0:0:
320,192,143955,1,0,0:0:0:0:
64,192,144255,1,0,0:0:0:0:
64,192,144555,128,0,148155:0:0:0:0:
192,192,144555,1,0,0:0:0:0:
320,192,144555,1,0,0:0:0:0:
320,192,144855,1,0,0:0:0:0:
448,192,144855,1,0,0:0:0:0:
320,192,145155,1,0,0:0:0:0:
192,192,145155,1,0,0:0:0:0:
192,192,145455,1,0,0:0:0:0:
320,192,145455,1,0,0:0:0:0:
448,192,145455,1,0,0:0:0:0:
