osu file format v14

[General]
AudioFilename: M2U - Nightmare.mp3
AudioLeadIn: 0
PreviewTime: 46773
Countdown: 0
SampleSet: Drum
StackLeniency: 0.7
Mode: 3
LetterboxInBreaks: 0
SpecialStyle: 0
WidescreenStoryboard: 1

[Editor]
DistanceSpacing: 1.5
BeatDivisor: 4
GridSize: 4
TimelineZoom: 2.899999

[Metadata]
Title:M2U Pack
TitleUnicode:M2U Pack
Artist:M2U
ArtistUnicode:M2U
Creator:Kim_GodSSI
Version:Nightmare 7K
Source:
Tags:arpia97 lami- buschan ezmmr micleak nabi- ruka takjun roasted chicken murumoo other nicode sherie 約束之歌 guriri 구리리 howling redeye red eye lucy egoist 最後の花弁 나래
BeatmapID:3472516
BeatmapSetID:1572720

[Difficulty]
HPDrainRate:7.5
CircleSize:7
OverallDifficulty:6.8
ApproachRate:5
SliderMultiplier:1.4
SliderTickRate:1

[Events]
//Background and Video events
0,0,"BG.jpg",0,0
//Break Periods
//Storyboard Layer 0 (Background)
//Storyboard Layer 1 (Fail)
//Storyboard Layer 2 (Pass)
//Storyboard Layer 3 (Foreground)
//Storyboard Layer 4 (Overlay)
//Storyboard Sound Samples

[TimingPoints]
6352,315.789473684211,4,3,0,0,1,0

[HitObjects]
36,192,6273,5,0,0:0:0:0:
109,192,6312,1,0,0:0:0:0:
182,192,6352,128,0,6983:0:0:0:0:
475,192,6352,1,0,0:0:0:0:
402,192,6352,1,0,0:0:0:0:
329,192,6352,1,0,0:0:0:0:
475,192,6667,1,0,0:0:0:0:
329,192,6667,1,0,0:0:0:0:
109,192,6667,1,0,0:0:0:0:
36,192,6667,1,0,0:0:0:0:
329,192,6805,128,0,7141:0:0:0:0:
475,192,6825,128,0,7141:0:0:0:0:
36,192,6983,1,0,0:0:0:0:
109,192,6983,1,0,0:0:0:0:
109,192,7141,128,0,7615:0:0:0:0:
402,192,7299,128,0,7615:0:0:0:0:
329,192,7299,1,0,0:0:0:0:
256,192,7299,1,0,0:0:0:0:
475,192,7299,1,0,0:0:0:0:
36,192,7299,1,0,0:0:0:0:
182,192,7457,128,0,7615:0:0:0:0:
36,192,7615,1,0,0:0:0:0:
256,192,7615,1,0,0:0:0:0:
475,192,7615,1,0,0:0:0:0:
329,192,7773,128,0,7930:0:0:0:0:
475,192,7852,128,0,8009:0:0:0:0:
256,192,7930,1,0,0:0:0:0:
36,192,7930,1,0,0:0:0:0:
109,192,8009,1,0,0:0:0:0:
402,192,8088,128,0,8483:0:0:0:0:
182,192,8088,1,0,0:0:0:0:
109,192,8246,128,0,8483:0:0:0:0:
256,192,8404,128,0,8483:0:0:0:0:
36,192,8562,1,0,0:0:0:0:
475,192,8562,1,0,0:0:0:0:
182,192,8562,1,0,0:0:0:0:
329,192,8562,128,0,8641:0:0:0:0:
109,192,8641,1,0,0:0:0:0:
36,192,8720,1,0,0:0:0:0:
256,192,8720,128,0,8799:0:0:0:0:
475,192,8799,1,0,0:0:0:0:
402,192,8838,1,0,0:0:0:0:
329,192,8878,1,0,0:0:0:0:
182,192,8878,1,0,0:0:0:0:
36,192,8878,1,0,0:0:0:0:
109,192,8878,1,0,0:0:0:0:
256,192,9036,128,0,9194:0:0:0:0:
182,192,9194,1,0,0:0:0:0:
36,192,9194,1,0,0:0:0:0:
402,192,9194,1,0,0:0:0:0:
475,192,9194,1,0,0:0:0:0:
402,192,9352,128,0,9509:0:0:0:0:
109,192,9352,128,0,9509:0:0:0:0:
256,192,9509,1,0,0:0:0:0:
36,192,9509,1,0,0:0:0:0:
475,192,9509,1,0,0:0:0:0:
182,192,9562,1,0,0:0:0:0:
109,192,9615,1,0,0:0:0:0:
329,192,9667,128,0,9825:0:0:0:0:
475,192,9667,128,0,9825:0:0:0:0:
182,192,9825,1,0,0:0:0:0:
36,192,9825,1,0,0:0:0:0:
256,192,9825,1,0,0:0:0:0:
402,192,9825,1,0,0:0:0:0:
36,192,9983,128,0,10457:0:0:0:0:
182,192,10003,128,0,10457:0:0:0:0:
329,192,10141,1,0,0:0:0:0:
475,192,10141,1,0,0:0:0:0:
256,192,10299,1,0,0:0:0:0:
475,192,10457,128,0,10773:0:0:0:0:
109,192,10457,1,0,0:0:0:0:
329,192,10457,128,0,10773:0:0:0:0:
182,192,10536,1,0,0:0:0:0:
36,192,10615,1,0,0:0:0:0:
36,192,10773,1,0,0:0:0:0:
402,192,10773,128,0,11009:0:0:0:0:
182,192,10773,128,0,10852:0:0:0:0:
329,192,10852,1,0,0:0:0:0:
109,192,10930,1,0,0:0:0:0:
256,192,10930,128,0,11009:0:0:0:0:
36,192,11088,1,0,0:0:0:0:
109,192,11088,128,0,11325:0:0:0:0:
329,192,11088,128,0,11167:0:0:0:0:
475,192,11088,1,0,0:0:0:0:
402,192,11246,1,0,0:0:0:0:
256,192,11246,128,0,11325:0:0:0:0:
36,192,11404,128,0,11720:0:0:0:0:
182,192,11404,128,0,11720:0:0:0:0:
109,192,11404,1,0,0:0:0:0:
256,192,11404,1,0,0:0:0:0:
475,192,11404,1,0,0:0:0:0:
402,192,11404,128,0,11483:0:0:0:0:
329,192,11562,1,0,0:0:0:0:
402,192,11720,1,0,0:0:0:0:
256,192,11720,1,0,0:0:0:0:
109,192,11720,1,0,0:0:0:0:
329,192,11878,1,0,0:0:0:0:
475,192,11878,1,0,0:0:0:0:
36,192,12036,1,0,0:0:0:0:
182,192,12036,128,0,12115:0:0:0:0:
402,192,12194,128,0,12273:0:0:0:0:
36,192,12352,1,0,0:0:0:0:
256,192,12352,1,0,0:0:0:0:
475,192,12352,1,0,0:0:0:0:
329,192,12352,1,0,0:0:0:0:
109,192,12352,128,0,12588:0:0:0:0:
402,192,12509,1,0,0:0:0:0:
256,192,12667,128,0,12746:0:0:0:0:
109,192,12667,1,0,0:0:0:0:
402,192,12667,1,0,0:0:0:0:
329,192,12825,128,0,13141:0:0:0:0:
475,192,12904,128,0,13141:0:0:0:0:
109,192,12983,128,0,13852:0:0:0:0:
182,192,12983,1,0,0:0:0:0:
36,192,12983,1,0,0:0:0:0:
256,192,13141,128,0,13299:0:0:0:0:
402,192,13141,128,0,13299:0:0:0:0:
36,192,13299,1,0,0:0:0:0:
329,192,13299,1,0,0:0:0:0:
475,192,13299,1,0,0:0:0:0:
182,192,13457,128,0,13615:0:0:0:0:
329,192,13457,128,0,13615:0:0:0:0:
256,192,13615,1,0,0:0:0:0:
36,192,13615,1,0,0:0:0:0:
475,192,13615,1,0,0:0:0:0:
329,192,13773,128,0,13852:0:0:0:0:
475,192,13773,128,0,13852:0:0:0:0:
36,192,13930,1,0,0:0:0:0:
475,192,13930,1,0,0:0:0:0:
402,192,13930,1,0,0:0:0:0:
109,192,13930,1,0,0:0:0:0:
256,192,13930,128,0,14009:0:0:0:0:
402,192,14088,128,0,14562:0:0:0:0:
182,192,14088,1,0,0:0:0:0:
256,192,14246,1,0,0:0:0:0:
36,192,14246,1,0,0:0:0:0:
475,192,14246,1,0,0:0:0:0:
109,192,14246,1,0,0:0:0:0:
182,192,14404,128,0,14483:0:0:0:0:
329,192,14404,1,0,0:0:0:0:
256,192,14562,1,0,0:0:0:0:
109,192,14562,1,0,0:0:0:0:
36,192,14562,1,0,0:0:0:0:
475,192,14562,1,0,0:0:0:0:
182,192,14720,1,0,0:0:0:0:
329,192,14720,1,0,0:0:0:0:
402,192,14878,128,0,14957:0:0:0:0:
256,192,14878,1,0,0:0:0:0:
109,192,14878,1,0,0:0:0:0:
36,192,14878,1,0,0:0:0:0:
475,192,14878,1,0,0:0:0:0:
329,192,15036,1,0,0:0:0:0:
109,192,15036,128,0,15352:0:0:0:0:
36,192,15194,1,0,0:0:0:0:
256,192,15194,1,0,0:0:0:0:
402,192,15194,1,0,0:0:0:0:
402,192,15352,128,0,15588:0:0:0:0:
475,192,15352,128,0,15588:0:0:0:0:
329,192,15352,1,0,0:0:0:0:
182,192,15352,1,0,0:0:0:0:
109,192,15509,1,0,0:0:0:0:
36,192,15509,1,0,0:0:0:0:
256,192,15509,1,0,0:0:0:0:
182,192,15667,128,0,15904:0:0:0:0:
109,192,15667,1,0,0:0:0:0:
402,192,15667,1,0,0:0:0:0:
329,192,15746,128,0,15904:0:0:0:0:
256,192,15825,1,0,0:0:0:0:
36,192,15825,1,0,0:0:0:0:
475,192,15825,1,0,0:0:0:0:
256,192,15983,1,0,0:0:0:0:
36,192,15983,128,0,16378:0:0:0:0:
402,192,15983,1,0,0:0:0:0:
475,192,15983,1,0,0:0:0:0:
109,192,15983,128,0,16378:0:0:0:0:
329,192,16141,1,0,0:0:0:0:
475,192,16141,1,0,0:0:0:0:
182,192,16141,1,0,0:0:0:0:
402,192,16299,1,0,0:0:0:0:
475,192,16299,1,0,0:0:0:0:
182,192,16378,1,0,0:0:0:0:
256,192,16417,1,0,0:0:0:0:
475,192,16457,1,0,0:0:0:0:
36,192,16457,1,0,0:0:0:0:
329,192,16457,128,0,17088:0:0:0:0:
402,192,16457,1,0,0:0:0:0:
109,192,16457,1,0,0:0:0:0:
182,192,16773,1,0,0:0:0:0:
36,192,16773,1,0,0:0:0:0:
475,192,16773,1,0,0:0:0:0:
402,192,16773,1,0,0:0:0:0:
182,192,16911,128,0,17246:0:0:0:0:
36,192,16930,128,0,17246:0:0:0:0:
475,192,17088,1,0,0:0:0:0:
402,192,17088,1,0,0:0:0:0:
109,192,17088,1,0,0:0:0:0:
402,192,17246,128,0,17720:0:0:0:0:
256,192,17246,1,0,0:0:0:0:
329,192,17246,1,0,0:0:0:0:
109,192,17404,128,0,17720:0:0:0:0:
36,192,17404,1,0,0:0:0:0:
256,192,17404,1,0,0:0:0:0:
475,192,17404,1,0,0:0:0:0:
182,192,17404,1,0,0:0:0:0:
329,192,17562,1,0,0:0:0:0:
475,192,17720,1,0,0:0:0:0:
256,192,17720,1,0,0:0:0:0:
36,192,17720,1,0,0:0:0:0:
109,192,17878,1,0,0:0:0:0:
475,192,17878,128,0,18115:0:0:0:0:
182,192,17878,1,0,0:0:0:0:
329,192,17878,1,0,0:0:0:0:
36,192,18036,1,0,0:0:0:0:
402,192,18036,1,0,0:0:0:0:
256,192,18036,1,0,0:0:0:0:
329,192,18036,1,0,0:0:0:0:
109,192,18115,1,0,0:0:0:0:
182,192,18194,1,0,0:0:0:0:
402,192,18194,128,0,18509:0:0:0:0:
36,192,18352,1,0,0:0:0:0:
475,192,18352,1,0,0:0:0:0:
256,192,18352,1,0,0:0:0:0:
109,192,18352,1,0,0:0:0:0:
182,192,18509,1,0,0:0:0:0:
329,192,18509,1,0,0:0:0:0:
109,192,18509,1,0,0:0:0:0:
402,192,18667,1,0,0:0:0:0:
36,192,18667,1,0,0:0:0:0:
475,192,18667,1,0,0:0:0:0:
256,192,18667,1,0,0:0:0:0:
182,192,18825,1,0,0:0:0:0:
329,192,18825,1,0,0:0:0:0:
36,192,18904,1,0,0:0:0:0:
109,192,18944,1,0,0:0:0:0:
182,192,18983,1,0,0:0:0:0:
256,192,18983,1,0,0:0:0:0:
402,192,18983,1,0,0:0:0:0:
475,192,18983,1,0,0:0:0:0:
109,192,19141,128,0,19378:0:0:0:0:
402,192,19141,1,0,0:0:0:0:
256,192,19141,1,0,0:0:0:0:
329,192,19299,1,0,0:0:0:0:
475,192,19299,1,0,0:0:0:0:
475,192,19457,128,0,19694:0:0:0:0:
182,192,19457,1,0,0:0:0:0:
329,192,19457,128,0,19694:0:0:0:0:
182,192,19615,1,0,0:0:0:0:
36,192,19615,1,0,0:0:0:0:
109,192,19615,1,0,0:0:0:0:
256,192,19773,128,0,20009:0:0:0:0:
402,192,19773,128,0,20009:0:0:0:0:
109,192,19773,1,0,0:0:0:0:
109,192,19930,1,0,0:0:0:0:
36,192,19930,1,0,0:0:0:0:
475,192,19930,1,0,0:0:0:0:
329,192,20088,128,0,20246:0:0:0:0:
36,192,20088,1,0,0:0:0:0:
182,192,20088,128,0,20562:0:0:0:0:
36,192,20246,1,0,0:0:0:0:
475,192,20246,1,0,0:0:0:0:
256,192,20246,1,0,0:0:0:0:
109,192,20404,1,0,0:0:0:0:
402,192,20404,1,0,0:0:0:0:
329,192,20404,1,0,0:0:0:0:
256,192,20562,1,0,0:0:0:0:
36,192,20562,1,0,0:0:0:0:
475,192,20562,1,0,0:0:0:0:
402,192,20562,1,0,0:0:0:0:
36,192,20700,128,0,20957:0:0:0:0:
182,192,20720,128,0,20957:0:0:0:0:
402,192,20878,128,0,20957:0:0:0:0:
109,192,20878,1,0,0:0:0:0:
475,192,20878,1,0,0:0:0:0:
256,192,20878,1,0,0:0:0:0:
329,192,21036,128,0,21115:0:0:0:0:
182,192,21036,1,0,0:0:0:0:
402,192,21194,1,0,0:0:0:0:
475,192,21194,1,0,0:0:0:0:
109,192,21194,128,0,21273:0:0:0:0:
256,192,21194,1,0,0:0:0:0:
36,192,21194,1,0,0:0:0:0:
182,192,21352,128,0,21430:0:0:0:0:
329,192,21352,1,0,0:0:0:0:
402,192,21509,1,0,0:0:0:0:
36,192,21509,1,0,0:0:0:0:
182,192,21509,1,0,0:0:0:0:
475,192,21509,1,0,0:0:0:0:
256,192,21509,128,0,21825:0:0:0:0:
329,192,21667,1,0,0:0:0:0:
109,192,21667,1,0,0:0:0:0:
36,192,21825,1,0,0:0:0:0:
475,192,21825,1,0,0:0:0:0:
182,192,21825,1,0,0:0:0:0:
109,192,21983,128,0,22141:0:0:0:0:
256,192,21983,1,0,0:0:0:0:
402,192,21983,1,0,0:0:0:0:
182,192,22141,1,0,0:0:0:0:
36,192,22141,1,0,0:0:0:0:
329,192,22141,1,0,0:0:0:0:
475,192,22141,1,0,0:0:0:0:
329,192,22299,1,0,0:0:0:0:
402,192,22299,1,0,0:0:0:0:
256,192,22299,1,0,0:0:0:0:
182,192,22457,1,0,0:0:0:0:
36,192,22457,1,0,0:0:0:0:
475,192,22457,1,0,0:0:0:0:
329,192,22457,1,0,0:0:0:0:
256,192,22615,1,0,0:0:0:0:
109,192,22615,1,0,0:0:0:0:
182,192,22773,128,0,22852:0:0:0:0:
36,192,22773,1,0,0:0:0:0:
329,192,22773,1,0,0:0:0:0:
475,192,22773,1,0,0:0:0:0:
402,192,22930,128,0,23246:0:0:0:0:
182,192,22930,1,0,0:0:0:0:
36,192,23088,1,0,0:0:0:0:
109,192,23088,1,0,0:0:0:0:
256,192,23088,1,0,0:0:0:0:
475,192,23088,1,0,0:0:0:0:
109,192,23246,128,0,23483:0:0:0:0:
256,192,23246,128,0,23483:0:0:0:0:
329,192,23404,1,0,0:0:0:0:
475,192,23404,1,0,0:0:0:0:
402,192,23404,1,0,0:0:0:0:
402,192,23562,128,0,23799:0:0:0:0:
475,192,23562,128,0,23799:0:0:0:0:
256,192,23562,1,0,0:0:0:0:
109,192,23562,1,0,0:0:0:0:
36,192,23720,1,0,0:0:0:0:
109,192,23720,1,0,0:0:0:0:
109,192,23878,128,0,23957:0:0:0:0:
36,192,23878,128,0,23957:0:0:0:0:
256,192,23878,1,0,0:0:0:0:
402,192,23878,1,0,0:0:0:0:
182,192,24036,128,0,24194:0:0:0:0:
329,192,24036,128,0,24194:0:0:0:0:
36,192,24036,1,0,0:0:0:0:
109,192,24036,1,0,0:0:0:0:
475,192,24036,1,0,0:0:0:0:
475,192,24194,128,0,24352:0:0:0:0:
402,192,24194,128,0,24352:0:0:0:0:
256,192,24194,1,0,0:0:0:0:
182,192,24352,1,0,0:0:0:0:
36,192,24352,1,0,0:0:0:0:
256,192,24352,128,0,24509:0:0:0:0:
329,192,24509,1,0,0:0:0:0:
475,192,24509,1,0,0:0:0:0:
109,192,24509,128,0,24667:0:0:0:0:
182,192,24667,1,0,0:0:0:0:
329,192,24667,1,0,0:0:0:0:
475,192,24667,1,0,0:0:0:0:
36,192,24667,1,0,0:0:0:0:
256,192,24825,1,0,0:0:0:0:
109,192,24825,1,0,0:0:0:0:
36,192,24825,1,0,0:0:0:0:
329,192,24983,128,0,25220:0:0:0:0:
182,192,24983,1,0,0:0:0:0:
36,192,24983,1,0,0:0:0:0:
475,192,24983,128,0,25220:0:0:0:0:
109,192,25141,128,0,25378:0:0:0:0:
256,192,25141,1,0,0:0:0:0:
182,192,25299,1,0,0:0:0:0:
329,192,25299,1,0,0:0:0:0:
475,192,25299,1,0,0:0:0:0:
329,192,25457,128,0,25694:0:0:0:0:
402,192,25457,128,0,25694:0:0:0:0:
182,192,25457,128,0,25694:0:0:0:0:
36,192,25457,1,0,0:0:0:0:
109,192,25615,1,0,0:0:0:0:
36,192,25615,1,0,0:0:0:0:
256,192,25615,1,0,0:0:0:0:
256,192,25773,128,0,26009:0:0:0:0:
402,192,25773,128,0,26009:0:0:0:0:
36,192,25773,128,0,26167:0:0:0:0:
182,192,25773,1,0,0:0:0:0:
182,192,25930,1,0,0:0:0:0:
329,192,25930,1,0,0:0:0:0:
109,192,25930,1,0,0:0:0:0:
329,192,26088,128,0,26404:0:0:0:0:
256,192,26088,1,0,0:0:0:0:
475,192,26088,128,0,26404:0:0:0:0:
182,192,26246,1,0,0:0:0:0:
109,192,26246,1,0,0:0:0:0:
36,192,26246,1,0,0:0:0:0:
109,192,26404,1,0,0:0:0:0:
402,192,26404,1,0,0:0:0:0:
182,192,26483,1,0,0:0:0:0:
329,192,26562,1,0,0:0:0:0:
256,192,26562,1,0,0:0:0:0:
36,192,26562,1,0,0:0:0:0:
402,192,26562,1,0,0:0:0:0:
475,192,26562,128,0,27115:0:0:0:0:
182,192,26878,1,0,0:0:0:0:
36,192,26878,1,0,0:0:0:0:
329,192,26878,1,0,0:0:0:0:
402,192,26878,1,0,0:0:0:0:
109,192,27036,1,0,0:0:0:0:
329,192,27036,128,0,27115:0:0:0:0:
36,192,27194,1,0,0:0:0:0:
182,192,27194,1,0,0:0:0:0:
475,192,27194,1,0,0:0:0:0:
329,192,27194,1,0,0:0:0:0:
256,192,27352,1,0,0:0:0:0:
475,192,27352,1,0,0:0:0:0:
109,192,27352,1,0,0:0:0:0:
402,192,27430,1,0,0:0:0:0:
182,192,27509,128,0,27667:0:0:0:0:
36,192,27509,1,0,0:0:0:0:
329,192,27509,1,0,0:0:0:0:
475,192,27509,1,0,0:0:0:0:
329,192,27667,128,0,27825:0:0:0:0:
109,192,27667,1,0,0:0:0:0:
36,192,27825,128,0,28457:0:0:0:0:
182,192,27825,1,0,0:0:0:0:
402,192,27825,1,0,0:0:0:0:
109,192,27825,1,0,0:0:0:0:
329,192,27983,1,0,0:0:0:0:
182,192,27983,1,0,0:0:0:0:
329,192,28141,1,0,0:0:0:0:
109,192,28141,1,0,0:0:0:0:
402,192,28141,1,0,0:0:0:0:
475,192,28141,1,0,0:0:0:0:
182,192,28220,1,0,0:0:0:0:
256,192,28299,1,0,0:0:0:0:
475,192,28457,1,0,0:0:0:0:
402,192,28457,128,0,28536:0:0:0:0:
109,192,28457,1,0,0:0:0:0:
256,192,28457,1,0,0:0:0:0:
182,192,28615,128,0,28694:0:0:0:0:
329,192,28615,1,0,0:0:0:0:
256,192,28773,128,0,28852:0:0:0:0:
402,192,28773,1,0,0:0:0:0:
36,192,28773,1,0,0:0:0:0:
475,192,28773,1,0,0:0:0:0:
182,192,28930,1,0,0:0:0:0:
329,192,28930,128,0,29009:0:0:0:0:
36,192,29009,1,0,0:0:0:0:
109,192,29049,1,0,0:0:0:0:
182,192,29088,1,0,0:0:0:0:
256,192,29088,1,0,0:0:0:0:
402,192,29088,1,0,0:0:0:0:
475,192,29088,1,0,0:0:0:0:
402,192,29246,128,0,29404:0:0:0:0:
109,192,29246,1,0,0:0:0:0:
182,192,29404,1,0,0:0:0:0:
36,192,29404,1,0,0:0:0:0:
475,192,29404,1,0,0:0:0:0:
256,192,29404,1,0,0:0:0:0:
475,192,29562,128,0,29720:0:0:0:0:
182,192,29562,1,0,0:0:0:0:
329,192,29562,128,0,29720:0:0:0:0:
36,192,29720,1,0,0:0:0:0:
182,192,29720,1,0,0:0:0:0:
402,192,29720,1,0,0:0:0:0:
256,192,29720,1,0,0:0:0:0:
256,192,29878,128,0,30036:0:0:0:0:
402,192,29878,128,0,30036:0:0:0:0:
109,192,29878,1,0,0:0:0:0:
329,192,30036,1,0,0:0:0:0:
109,192,30036,1,0,0:0:0:0:
182,192,30036,1,0,0:0:0:0:
182,192,30194,128,0,30352:0:0:0:0:
329,192,30194,128,0,30352:0:0:0:0:
36,192,30194,1,0,0:0:0:0:
256,192,30352,1,0,0:0:0:0:
475,192,30352,1,0,0:0:0:0:
36,192,30352,1,0,0:0:0:0:
109,192,30509,1,0,0:0:0:0:
329,192,30509,1,0,0:0:0:0:
475,192,30509,128,0,30746:0:0:0:0:
36,192,30667,128,0,30904:0:0:0:0:
109,192,30667,1,0,0:0:0:0:
182,192,30667,1,0,0:0:0:0:
402,192,30667,1,0,0:0:0:0:
256,192,30667,1,0,0:0:0:0:
329,192,30825,128,0,31062:0:0:0:0:
109,192,30983,128,0,31220:0:0:0:0:
36,192,30983,1,0,0:0:0:0:
256,192,30983,1,0,0:0:0:0:
402,192,30983,1,0,0:0:0:0:
475,192,30983,1,0,0:0:0:0:
475,192,31141,128,0,31378:0:0:0:0:
182,192,31141,1,0,0:0:0:0:
329,192,31141,1,0,0:0:0:0:
402,192,31141,1,0,0:0:0:0:
256,192,31299,1,0,0:0:0:0:
36,192,31299,128,0,31457:0:0:0:0:
109,192,31299,1,0,0:0:0:0:
329,192,31457,1,0,0:0:0:0:
402,192,31457,128,0,31615:0:0:0:0:
182,192,31457,1,0,0:0:0:0:
36,192,31615,128,0,31930:0:0:0:0:
475,192,31615,128,0,31930:0:0:0:0:
109,192,31615,1,0,0:0:0:0:
256,192,31615,1,0,0:0:0:0:
329,192,31615,1,0,0:0:0:0:
182,192,31773,1,0,0:0:0:0:
329,192,31773,1,0,0:0:0:0:
256,192,31930,1,0,0:0:0:0:
109,192,31930,1,0,0:0:0:0:
329,192,32088,128,0,32167:0:0:0:0:
36,192,32088,1,0,0:0:0:0:
182,192,32088,1,0,0:0:0:0:
475,192,32167,128,0,32246:0:0:0:0:
36,192,32246,1,0,0:0:0:0:
109,192,32246,1,0,0:0:0:0:
329,192,32246,128,0,32325:0:0:0:0:
256,192,32246,1,0,0:0:0:0:
256,192,32404,128,0,32483:0:0:0:0:
402,192,32404,1,0,0:0:0:0:
475,192,32404,1,0,0:0:0:0:
182,192,32562,128,0,32641:0:0:0:0:
329,192,32562,1,0,0:0:0:0:
109,192,32562,1,0,0:0:0:0:
475,192,32562,1,0,0:0:0:0:
36,192,32562,1,0,0:0:0:0:
109,192,32720,128,0,32799:0:0:0:0:
256,192,32720,1,0,0:0:0:0:
402,192,32720,1,0,0:0:0:0:
182,192,32878,1,0,0:0:0:0:
36,192,32878,128,0,33352:0:0:0:0:
475,192,32878,1,0,0:0:0:0:
329,192,32878,1,0,0:0:0:0:
256,192,33036,1,0,0:0:0:0:
402,192,33036,1,0,0:0:0:0:
329,192,33194,1,0,0:0:0:0:
475,192,33194,1,0,0:0:0:0:
182,192,33194,1,0,0:0:0:0:
109,192,33194,1,0,0:0:0:0:
402,192,33352,128,0,33588:0:0:0:0:
182,192,33352,1,0,0:0:0:0:
329,192,33352,128,0,33588:0:0:0:0:
182,192,33509,1,0,0:0:0:0:
36,192,33509,1,0,0:0:0:0:
109,192,33509,1,0,0:0:0:0:
475,192,33509,1,0,0:0:0:0:
36,192,33667,128,0,33904:0:0:0:0:
109,192,33667,128,0,33904:0:0:0:0:
402,192,33667,1,0,0:0:0:0:
256,192,33825,128,0,34062:0:0:0:0:
182,192,33825,1,0,0:0:0:0:
329,192,33825,1,0,0:0:0:0:
475,192,33825,1,0,0:0:0:0:
402,192,33983,128,0,34141:0:0:0:0:
475,192,33983,128,0,34141:0:0:0:0:
109,192,33983,1,0,0:0:0:0:
329,192,34141,1,0,0:0:0:0:
182,192,34141,1,0,0:0:0:0:
36,192,34141,128,0,34694:0:0:0:0:
256,192,34141,1,0,0:0:0:0:
109,192,34299,128,0,34378:0:0:0:0:
256,192,34299,1,0,0:0:0:0:
182,192,34457,128,0,34536:0:0:0:0:
329,192,34457,1,0,0:0:0:0:
256,192,34615,128,0,34694:0:0:0:0:
402,192,34615,1,0,0:0:0:0:
475,192,34615,1,0,0:0:0:0:
109,192,34773,128,0,35325:0:0:0:0:
36,192,34773,1,0,0:0:0:0:
256,192,34773,1,0,0:0:0:0:
329,192,34773,1,0,0:0:0:0:
475,192,34773,1,0,0:0:0:0:
182,192,34930,128,0,35009:0:0:0:0:
475,192,34930,1,0,0:0:0:0:
402,192,34930,1,0,0:0:0:0:
256,192,35088,128,0,35167:0:0:0:0:
36,192,35088,1,0,0:0:0:0:
329,192,35088,1,0,0:0:0:0:
475,192,35088,1,0,0:0:0:0:
402,192,35088,1,0,0:0:0:0:
329,192,35246,128,0,35325:0:0:0:0:
182,192,35246,1,0,0:0:0:0:
36,192,35404,1,0,0:0:0:0:
109,192,35404,1,0,0:0:0:0:
475,192,35404,1,0,0:0:0:0:
329,192,35404,1,0,0:0:0:0:
182,192,35404,128,0,35957:0:0:0:0:
256,192,35562,128,0,35641:0:0:0:0:
36,192,35562,1,0,0:0:0:0:
402,192,35562,1,0,0:0:0:0:
109,192,35720,1,0,0:0:0:0:
475,192,35720,1,0,0:0:0:0:
329,192,35720,128,0,35799:0:0:0:0:
256,192,35720,1,0,0:0:0:0:
36,192,35720,1,0,0:0:0:0:
402,192,35878,128,0,35957:0:0:0:0:
109,192,35878,1,0,0:0:0:0:
329,192,36036,1,0,0:0:0:0:
475,192,36036,1,0,0:0:0:0:
182,192,36036,128,0,36273:0:0:0:0:
256,192,36036,1,0,0:0:0:0:
36,192,36036,1,0,0:0:0:0:
329,192,36194,128,0,36430:0:0:0:0:
109,192,36194,1,0,0:0:0:0:
402,192,36194,1,0,0:0:0:0:
109,192,36352,128,0,36588:0:0:0:0:
182,192,36352,1,0,0:0:0:0:
36,192,36352,1,0,0:0:0:0:
475,192,36352,1,0,0:0:0:0:
402,192,36509,128,0,36588:0:0:0:0:
256,192,36509,1,0,0:0:0:0:
109,192,36667,1,0,0:0:0:0:
36,192,36667,1,0,0:0:0:0:
256,192,36667,1,0,0:0:0:0:
402,192,36667,1,0,0:0:0:0:
475,192,36667,1,0,0:0:0:0:
182,192,36825,1,0,0:0:0:0:
329,192,36825,1,0,0:0:0:0:
182,192,36983,1,0,0:0:0:0:
36,192,36983,1,0,0:0:0:0:
329,192,36983,1,0,0:0:0:0:
475,192,37141,128,0,37220:0:0:0:0:
109,192,37141,1,0,0:0:0:0:
329,192,37220,128,0,37299:0:0:0:0:
182,192,37299,128,0,37536:0:0:0:0:
109,192,37299,1,0,0:0:0:0:
36,192,37299,1,0,0:0:0:0:
256,192,37299,1,0,0:0:0:0:
475,192,37299,1,0,0:0:0:0:
329,192,37457,128,0,37694:0:0:0:0:
109,192,37457,1,0,0:0:0:0:
402,192,37457,1,0,0:0:0:0:
36,192,37615,1,0,0:0:0:0:
109,192,37615,128,0,37773:0:0:0:0:
475,192,37615,1,0,0:0:0:0:
256,192,37615,1,0,0:0:0:0:
182,192,37615,1,0,0:0:0:0:
402,192,37773,128,0,37930:0:0:0:0:
329,192,37773,1,0,0:0:0:0:
475,192,37930,1,0,0:0:0:0:
256,192,37930,1,0,0:0:0:0:
36,192,37930,128,0,38404:0:0:0:0:
109,192,37930,1,0,0:0:0:0:
182,192,38088,1,0,0:0:0:0:
402,192,38088,1,0,0:0:0:0:
256,192,38246,1,0,0:0:0:0:
475,192,38246,1,0,0:0:0:0:
402,192,38246,1,0,0:0:0:0:
109,192,38246,1,0,0:0:0:0:
329,192,38404,128,0,38799:0:0:0:0:
182,192,38404,1,0,0:0:0:0:
36,192,38562,1,0,0:0:0:0:
182,192,38562,1,0,0:0:0:0:
475,192,38562,1,0,0:0:0:0:
109,192,38562,1,0,0:0:0:0:
256,192,38720,1,0,0:0:0:0:
109,192,38720,128,0,38957:0:0:0:0:
475,192,38720,1,0,0:0:0:0:
402,192,38878,128,0,39115:0:0:0:0:
182,192,38878,1,0,0:0:0:0:
36,192,38878,1,0,0:0:0:0:
182,192,39036,128,0,39194:0:0:0:0:
329,192,39036,1,0,0:0:0:0:
256,192,39194,128,0,39667:0:0:0:0:
402,192,39194,1,0,0:0:0:0:
109,192,39194,1,0,0:0:0:0:
36,192,39194,1,0,0:0:0:0:
475,192,39194,1,0,0:0:0:0:
402,192,39352,128,0,39509:0:0:0:0:
182,192,39352,1,0,0:0:0:0:
109,192,39509,128,0,39667:0:0:0:0:
329,192,39509,1,0,0:0:0:0:
329,192,39667,128,0,39825:0:0:0:0:
475,192,39667,128,0,39825:0:0:0:0:
36,192,39667,1,0,0:0:0:0:
109,192,39746,1,0,0:0:0:0:
182,192,39825,1,0,0:0:0:0:
256,192,39825,1,0,0:0:0:0:
36,192,39825,1,0,0:0:0:0:
402,192,39825,1,0,0:0:0:0:
256,192,39983,128,0,40141:0:0:0:0:
402,192,39983,128,0,40141:0:0:0:0:
36,192,39983,128,0,40062:0:0:0:0:
182,192,39983,1,0,0:0:0:0:
109,192,40141,128,0,40220:0:0:0:0:
36,192,40141,1,0,0:0:0:0:
475,192,40141,1,0,0:0:0:0:
329,192,40141,1,0,0:0:0:0:
182,192,40299,128,0,40378:0:0:0:0:
329,192,40299,128,0,40457:0:0:0:0:
475,192,40299,128,0,40457:0:0:0:0:
36,192,40457,128,0,40536:0:0:0:0:
182,192,40457,1,0,0:0:0:0:
402,192,40457,1,0,0:0:0:0:
182,192,40615,128,0,40694:0:0:0:0:
402,192,40615,1,0,0:0:0:0:
329,192,40773,128,0,40852:0:0:0:0:
109,192,40773,1,0,0:0:0:0:
36,192,40773,1,0,0:0:0:0:
475,192,40773,1,0,0:0:0:0:
256,192,40773,1,0,0:0:0:0:
475,192,40930,128,0,41009:0:0:0:0:
329,192,40930,1,0,0:0:0:0:
256,192,41088,128,0,41167:0:0:0:0:
182,192,41088,1,0,0:0:0:0:
109,192,41088,1,0,0:0:0:0:
36,192,41088,1,0,0:0:0:0:
402,192,41088,1,0,0:0:0:0:
402,192,41246,128,0,41325:0:0:0:0:
256,192,41246,1,0,0:0:0:0:
109,192,41246,1,0,0:0:0:0:
36,192,41404,1,0,0:0:0:0:
109,192,41404,1,0,0:0:0:0:
475,192,41404,1,0,0:0:0:0:
182,192,41404,1,0,0:0:0:0:
329,192,41404,128,0,41483:0:0:0:0:
182,192,41562,128,0,41641:0:0:0:0:
329,192,41562,1,0,0:0:0:0:
256,192,41720,128,0,42115:0:0:0:0:
182,192,41720,1,0,0:0:0:0:
36,192,41720,1,0,0:0:0:0:
475,192,41720,1,0,0:0:0:0:
402,192,41720,1,0,0:0:0:0:
109,192,41878,1,0,0:0:0:0:
402,192,42036,1,0,0:0:0:0:
36,192,42036,1,0,0:0:0:0:
109,192,42036,1,0,0:0:0:0:
329,192,42194,128,0,42273:0:0:0:0:
182,192,42194,1,0,0:0:0:0:
329,192,42352,128,0,42430:0:0:0:0:
36,192,42352,1,0,0:0:0:0:
182,192,42352,1,0,0:0:0:0:
256,192,42352,1,0,0:0:0:0:
475,192,42352,1,0,0:0:0:0:
475,192,42509,128,0,42588:0:0:0:0:
109,192,42509,1,0,0:0:0:0:
329,192,42588,128,0,42667:0:0:0:0:
182,192,42667,128,0,42746:0:0:0:0:
402,192,42667,1,0,0:0:0:0:
36,192,42667,1,0,0:0:0:0:
109,192,42667,1,0,0:0:0:0:
329,192,42825,128,0,42904:0:0:0:0:
182,192,42825,1,0,0:0:0:0:
36,192,42983,128,0,43062:0:0:0:0:
182,192,42983,1,0,0:0:0:0:
475,192,42983,1,0,0:0:0:0:
329,192,42983,1,0,0:0:0:0:
329,192,43141,1,0,0:0:0:0:
402,192,43141,1,0,0:0:0:0:
109,192,43141,128,0,43220:0:0:0:0:
329,192,43299,1,0,0:0:0:0:
36,192,43299,1,0,0:0:0:0:
475,192,43299,1,0,0:0:0:0:
256,192,43299,1,0,0:0:0:0:
182,192,43299,128,0,43378:0:0:0:0:
402,192,43457,128,0,43536:0:0:0:0:
329,192,43457,128,0,43536:0:0:0:0:
109,192,43457,1,0,0:0:0:0:
109,192,43615,1,0,0:0:0:0:
256,192,43615,128,0,43694:0:0:0:0:
36,192,43615,1,0,0:0:0:0:
475,192,43615,1,0,0:0:0:0:
329,192,43615,128,0,43694:0:0:0:0:
182,192,43773,128,0,43852:0:0:0:0:
256,192,43773,128,0,43852:0:0:0:0:
402,192,43773,1,0,0:0:0:0:
475,192,43773,1,0,0:0:0:0:
109,192,43930,128,0,44009:0:0:0:0:
182,192,43930,128,0,44009:0:0:0:0:
36,192,43930,1,0,0:0:0:0:
475,192,43930,1,0,0:0:0:0:
329,192,43930,1,0,0:0:0:0:
329,192,44088,128,0,44167:0:0:0:0:
402,192,44088,128,0,44167:0:0:0:0:
109,192,44088,1,0,0:0:0:0:
256,192,44246,128,0,44483:0:0:0:0:
182,192,44246,1,0,0:0:0:0:
36,192,44246,1,0,0:0:0:0:
475,192,44246,1,0,0:0:0:0:
475,192,44404,128,0,44641:0:0:0:0:
109,192,44404,1,0,0:0:0:0:
36,192,44562,1,0,0:0:0:0:
256,192,44562,1,0,0:0:0:0:
329,192,44562,128,0,44720:0:0:0:0:
182,192,44562,1,0,0:0:0:0:
182,192,44720,1,0,0:0:0:0:
402,192,44720,128,0,44878:0:0:0:0:
109,192,44720,1,0,0:0:0:0:
36,192,44878,1,0,0:0:0:0:
329,192,44878,1,0,0:0:0:0:
109,192,44878,1,0,0:0:0:0:
475,192,44878,1,0,0:0:0:0:
182,192,44878,128,0,45036:0:0:0:0:
256,192,45036,128,0,45194:0:0:0:0:
402,192,45036,1,0,0:0:0:0:
36,192,45036,1,0,0:0:0:0:
329,192,45194,128,0,45352:0:0:0:0:
182,192,45194,1,0,0:0:0:0:
36,192,45194,1,0,0:0:0:0:
475,192,45194,1,0,0:0:0:0:
109,192,45194,1,0,0:0:0:0:
402,192,45352,128,0,45509:0:0:0:0:
182,192,45352,1,0,0:0:0:0:
329,192,45509,1,0,0:0:0:0:
475,192,45509,1,0,0:0:0:0:
109,192,45509,128,0,45746:0:0:0:0:
256,192,45509,1,0,0:0:0:0:
36,192,45509,1,0,0:0:0:0:
402,192,45667,1,0,0:0:0:0:
329,192,45667,1,0,0:0:0:0:
182,192,45667,128,0,45904:0:0:0:0:
256,192,45825,128,0,46062:0:0:0:0:
402,192,45825,1,0,0:0:0:0:
475,192,45825,1,0,0:0:0:0:
109,192,45825,1,0,0:0:0:0:
36,192,45825,1,0,0:0:0:0:
109,192,45983,1,0,0:0:0:0:
182,192,45983,1,0,0:0:0:0:
329,192,45983,128,0,46220:0:0:0:0:
109,192,46141,128,0,46378:0:0:0:0:
402,192,46141,1,0,0:0:0:0:
475,192,46141,128,0,46378:0:0:0:0:
256,192,46141,1,0,0:0:0:0:
36,192,46141,1,0,0:0:0:0:
256,192,46299,128,0,46536:0:0:0:0:
182,192,46299,1,0,0:0:0:0:
329,192,46299,1,0,0:0:0:0:
36,192,46457,128,0,46694:0:0:0:0:
109,192,46457,1,0,0:0:0:0:
475,192,46457,1,0,0:0:0:0:
402,192,46457,1,0,0:0:0:0:
182,192,46615,128,0,46694:0:0:0:0:
329,192,46615,1,0,0:0:0:0:
36,192,46773,128,0,46852:0:0:0:0:
109,192,46773,1,0,0:0:0:0:
256,192,46773,1,0,0:0:0:0:
475,192,46773,1,0,0:0:0:0:
402,192,46773,1,0,0:0:0:0:
182,192,46773,1,0,0:0:0:0:
402,192,46930,128,0,47009:0:0:0:0:
256,192,46930,128,0,47009:0:0:0:0:
36,192,46930,128,0,47009:0:0:0:0:
475,192,46930,128,0,47009:0:0:0:0:
475,192,47088,1,0,0:0:0:0:
36,192,47088,128,0,47483:0:0:0:0:
182,192,47088,1,0,0:0:0:0:
109,192,47088,1,0,0:0:0:0:
329,192,47088,1,0,0:0:0:0:
402,192,47246,1,0,0:0:0:0:
475,192,47246,1,0,0:0:0:0:
182,192,47246,1,0,0:0:0:0:
329,192,47325,1,0,0:0:0:0:
256,192,47404,1,0,0:0:0:0:
109,192,47404,1,0,0:0:0:0:
475,192,47404,1,0,0:0:0:0:
402,192,47483,1,0,0:0:0:0:
109,192,47562,128,0,47641:0:0:0:0:
256,192,47562,128,0,47641:0:0:0:0:
329,192,47562,128,0,47641:0:0:0:0:
36,192,47562,128,0,47641:0:0:0:0:
402,192,47720,1,0,0:0:0:0:
256,192,47720,1,0,0:0:0:0:
109,192,47720,1,0,0:0:0:0:
475,192,47720,1,0,0:0:0:0:
36,192,47720,128,0,47957:0:0:0:0:
329,192,47878,1,0,0:0:0:0:
182,192,47878,1,0,0:0:0:0:
402,192,47957,1,0,0:0:0:0:
109,192,48036,1,0,0:0:0:0:
256,192,48036,128,0,48273:0:0:0:0:
475,192,48036,1,0,0:0:0:0:
182,192,48036,1,0,0:0:0:0:
36,192,48036,128,0,48115:0:0:0:0:
109,192,48194,1,0,0:0:0:0:
475,192,48194,1,0,0:0:0:0:
402,192,48273,1,0,0:0:0:0:
475,192,48352,128,0,48588:0:0:0:0:
36,192,48352,128,0,48430:0:0:0:0:
109,192,48352,128,0,48430:0:0:0:0:
329,192,48352,1,0,0:0:0:0:
182,192,48352,1,0,0:0:0:0:
182,192,48509,128,0,48588:0:0:0:0:
329,192,48509,128,0,48588:0:0:0:0:
36,192,48667,1,0,0:0:0:0:
329,192,48667,128,0,48904:0:0:0:0:
182,192,48667,1,0,0:0:0:0:
475,192,48667,1,0,0:0:0:0:
256,192,48746,1,0,0:0:0:0:
182,192,48825,128,0,49062:0:0:0:0:
475,192,48825,1,0,0:0:0:0:
36,192,48825,1,0,0:0:0:0:
109,192,48983,1,0,0:0:0:0:
475,192,48983,128,0,49062:0:0:0:0:
36,192,48983,128,0,49220:0:0:0:0:
329,192,48983,1,0,0:0:0:0:
402,192,49062,1,0,0:0:0:0:
329,192,49141,128,0,49220:0:0:0:0:
182,192,49141,128,0,49220:0:0:0:0:
475,192,49141,1,0,0:0:0:0:
256,192,49220,1,0,0:0:0:0:
109,192,49299,1,0,0:0:0:0:
36,192,49299,1,0,0:0:0:0:
329,192,49299,1,0,0:0:0:0:
402,192,49299,1,0,0:0:0:0:
475,192,49299,128,0,49378:0:0:0:0:
182,192,49299,1,0,0:0:0:0:
109,192,49457,128,0,49536:0:0:0:0:
36,192,49457,128,0,49536:0:0:0:0:
256,192,49457,128,0,49536:0:0:0:0:
475,192,49457,128,0,49536:0:0:0:0:
256,192,49615,1,0,0:0:0:0:
109,192,49615,1,0,0:0:0:0:
475,192,49615,128,0,50167:0:0:0:0:
402,192,49615,1,0,0:0:0:0:
36,192,49615,1,0,0:0:0:0:
402,192,49773,1,0,0:0:0:0:
109,192,49773,1,0,0:0:0:0:
182,192,49773,1,0,0:0:0:0:
329,192,49773,1,0,0:0:0:0:
402,192,49930,128,0,50009:0:0:0:0:
256,192,49930,128,0,50009:0:0:0:0:
36,192,49930,128,0,50009:0:0:0:0:
109,192,49930,128,0,50009:0:0:0:0:
329,192,49930,128,0,50009:0:0:0:0:
182,192,50088,1,0,0:0:0:0:
36,192,50088,1,0,0:0:0:0:
329,192,50088,1,0,0:0:0:0:
402,192,50088,1,0,0:0:0:0:
256,192,50246,128,0,50325:0:0:0:0:
402,192,50246,128,0,50325:0:0:0:0:
109,192,50246,128,0,50325:0:0:0:0:
475,192,50246,128,0,50325:0:0:0:0:
109,192,50404,1,0,0:0:0:0:
256,192,50404,1,0,0:0:0:0:
402,192,50404,1,0,0:0:0:0:
36,192,50404,1,0,0:0:0:0:
475,192,50404,128,0,50483:0:0:0:0:
182,192,50562,1,0,0:0:0:0:
475,192,50562,1,0,0:0:0:0:
36,192,50562,128,0,50799:0:0:0:0:
256,192,50562,1,0,0:0:0:0:
329,192,50562,1,0,0:0:0:0:
475,192,50720,1,0,0:0:0:0:
402,192,50720,1,0,0:0:0:0:
182,192,50720,1,0,0:0:0:0:
256,192,50799,1,0,0:0:0:0:
475,192,50878,128,0,50957:0:0:0:0:
36,192,50878,128,0,51115:0:0:0:0:
109,192,50878,128,0,50957:0:0:0:0:
329,192,50878,128,0,50957:0:0:0:0:
402,192,51036,128,0,51115:0:0:0:0:
182,192,51036,1,0,0:0:0:0:
475,192,51036,1,0,0:0:0:0:
256,192,51115,128,0,51194:0:0:0:0:
109,192,51194,128,0,51430:0:0:0:0:
182,192,51194,1,0,0:0:0:0:
475,192,51194,128,0,51273:0:0:0:0:
36,192,51194,1,0,0:0:0:0:
402,192,51194,1,0,0:0:0:0:
256,192,51273,1,0,0:0:0:0:
182,192,51352,1,0,0:0:0:0:
329,192,51352,1,0,0:0:0:0:
402,192,51352,128,0,51430:0:0:0:0:
182,192,51509,128,0,51667:0:0:0:0:
402,192,51509,1,0,0:0:0:0:
36,192,51509,1,0,0:0:0:0:
256,192,51509,1,0,0:0:0:0:
475,192,51509,1,0,0:0:0:0:
109,192,51588,1,0,0:0:0:0:
475,192,51667,128,0,51825:0:0:0:0:
329,192,51667,1,0,0:0:0:0:
36,192,51667,1,0,0:0:0:0:
256,192,51746,1,0,0:0:0:0:
36,192,51825,128,0,52062:0:0:0:0:
109,192,51825,1,0,0:0:0:0:
329,192,51825,128,0,51904:0:0:0:0:
402,192,51825,128,0,51904:0:0:0:0:
182,192,51825,128,0,51904:0:0:0:0:
475,192,51983,1,0,0:0:0:0:
329,192,51983,1,0,0:0:0:0:
402,192,51983,1,0,0:0:0:0:
256,192,52062,1,0,0:0:0:0:
109,192,52141,128,0,52220:0:0:0:0:
182,192,52141,128,0,52220:0:0:0:0:
402,192,52141,128,0,52220:0:0:0:0:
36,192,52141,128,0,52220:0:0:0:0:
182,192,52299,1,0,0:0:0:0:
36,192,52299,128,0,52457:0:0:0:0:
402,192,52299,1,0,0:0:0:0:
475,192,52299,1,0,0:0:0:0:
329,192,52378,1,0,0:0:0:0:
256,192,52457,128,0,52694:0:0:0:0:
109,192,52457,1,0,0:0:0:0:
182,192,52457,1,0,0:0:0:0:
475,192,52457,1,0,0:0:0:0:
402,192,52536,1,0,0:0:0:0:
109,192,52615,128,0,52694:0:0:0:0:
329,192,52615,128,0,52694:0:0:0:0:
475,192,52615,128,0,52694:0:0:0:0:
36,192,52615,128,0,52694:0:0:0:0:
36,192,52773,1,0,0:0:0:0:
475,192,52773,128,0,53049:0:0:0:0:
256,192,52773,1,0,0:0:0:0:
402,192,52773,1,0,0:0:0:0:
109,192,52773,1,0,0:0:0:0:
36,192,52930,1,0,0:0:0:0:
256,192,52930,1,0,0:0:0:0:
182,192,52930,1,0,0:0:0:0:
402,192,53009,128,0,53088:0:0:0:0:
329,192,53049,128,0,53128:0:0:0:0:
182,192,53088,1,0,0:0:0:0:
256,192,53088,128,0,53404:0:0:0:0:
109,192,53088,1,0,0:0:0:0:
36,192,53088,1,0,0:0:0:0:
475,192,53246,1,0,0:0:0:0:
36,192,53246,1,0,0:0:0:0:
402,192,53246,1,0,0:0:0:0:
182,192,53325,1,0,0:0:0:0:
109,192,53404,1,0,0:0:0:0:
475,192,53404,1,0,0:0:0:0:
36,192,53404,128,0,53680:0:0:0:0:
402,192,53404,1,0,0:0:0:0:
329,192,53404,1,0,0:0:0:0:
256,192,53562,1,0,0:0:0:0:
402,192,53562,1,0,0:0:0:0:
475,192,53562,1,0,0:0:0:0:
109,192,53641,128,0,53720:0:0:0:0:
182,192,53680,128,0,53759:0:0:0:0:
256,192,53720,128,0,54036:0:0:0:0:
402,192,53720,1,0,0:0:0:0:
475,192,53720,1,0,0:0:0:0:
329,192,53799,1,0,0:0:0:0:
36,192,53878,1,0,0:0:0:0:
109,192,53878,1,0,0:0:0:0:
475,192,53878,1,0,0:0:0:0:
402,192,53878,1,0,0:0:0:0:
402,192,54036,128,0,54352:0:0:0:0:
182,192,54036,1,0,0:0:0:0:
36,192,54036,1,0,0:0:0:0:
475,192,54036,1,0,0:0:0:0:
329,192,54115,1,0,0:0:0:0:
109,192,54194,1,0,0:0:0:0:
36,192,54194,1,0,0:0:0:0:
475,192,54194,1,0,0:0:0:0:
256,192,54273,1,0,0:0:0:0:
475,192,54352,128,0,54588:0:0:0:0:
109,192,54352,1,0,0:0:0:0:
36,192,54352,1,0,0:0:0:0:
182,192,54352,1,0,0:0:0:0:
329,192,54352,1,0,0:0:0:0:
36,192,54509,1,0,0:0:0:0:
182,192,54509,1,0,0:0:0:0:
402,192,54509,1,0,0:0:0:0:
256,192,54588,1,0,0:0:0:0:
109,192,54667,1,0,0:0:0:0:
329,192,54667,1,0,0:0:0:0:
182,192,54667,1,0,0:0:0:0:
475,192,54667,128,0,54746:0:0:0:0:
36,192,54667,128,0,54746:0:0:0:0:
182,192,54825,128,0,54904:0:0:0:0:
329,192,54825,128,0,54904:0:0:0:0:
475,192,54825,1,0,0:0:0:0:
475,192,54983,128,0,55220:0:0:0:0:
36,192,54983,128,0,55062:0:0:0:0:
256,192,54983,128,0,55220:0:0:0:0:
329,192,55062,128,0,55220:0:0:0:0:
182,192,55141,128,0,55220:0:0:0:0:
36,192,55141,1,0,0:0:0:0:
109,192,55141,1,0,0:0:0:0:
182,192,55299,1,0,0:0:0:0:
36,192,55299,128,0,55378:0:0:0:0:
329,192,55299,1,0,0:0:0:0:
109,192,55299,1,0,0:0:0:0:
475,192,55299,1,0,0:0:0:0:
402,192,55457,1,0,0:0:0:0:
256,192,55457,1,0,0:0:0:0:
36,192,55457,128,0,55536:0:0:0:0:
475,192,55457,1,0,0:0:0:0:
475,192,55615,1,0,0:0:0:0:
182,192,55615,1,0,0:0:0:0:
109,192,55615,128,0,55694:0:0:0:0:
329,192,55615,128,0,55694:0:0:0:0:
36,192,55615,128,0,55852:0:0:0:0:
475,192,55773,128,0,55852:0:0:0:0:
329,192,55773,1,0,0:0:0:0:
256,192,55930,1,0,0:0:0:0:
402,192,55930,1,0,0:0:0:0:
182,192,55930,128,0,56009:0:0:0:0:
475,192,55930,1,0,0:0:0:0:
109,192,55930,1,0,0:0:0:0:
36,192,55930,128,0,56009:0:0:0:0:
475,192,56088,1,0,0:0:0:0:
402,192,56088,1,0,0:0:0:0:
36,192,56088,128,0,56483:0:0:0:0:
182,192,56088,1,0,0:0:0:0:
329,192,56167,1,0,0:0:0:0:
402,192,56246,128,0,56325:0:0:0:0:
256,192,56246,128,0,56325:0:0:0:0:
475,192,56246,1,0,0:0:0:0:
109,192,56246,128,0,56325:0:0:0:0:
109,192,56404,1,0,0:0:0:0:
329,192,56404,1,0,0:0:0:0:
475,192,56404,1,0,0:0:0:0:
182,192,56483,1,0,0:0:0:0:
329,192,56562,128,0,56641:0:0:0:0:
475,192,56562,128,0,56641:0:0:0:0:
109,192,56562,1,0,0:0:0:0:
402,192,56562,1,0,0:0:0:0:
36,192,56562,128,0,56641:0:0:0:0:
256,192,56641,1,0,0:0:0:0:
182,192,56720,128,0,56799:0:0:0:0:
402,192,56720,128,0,56799:0:0:0:0:
475,192,56720,128,0,56799:0:0:0:0:
36,192,56720,128,0,56799:0:0:0:0:
36,192,56878,128,0,57115:0:0:0:0:
182,192,56878,128,0,57509:0:0:0:0:
256,192,56878,1,0,0:0:0:0:
475,192,56878,1,0,0:0:0:0:
329,192,56878,128,0,56957:0:0:0:0:
402,192,56878,1,0,0:0:0:0:
475,192,57036,1,0,0:0:0:0:
402,192,57036,1,0,0:0:0:0:
329,192,57115,1,0,0:0:0:0:
256,192,57194,128,0,57273:0:0:0:0:
475,192,57194,128,0,57273:0:0:0:0:
109,192,57194,128,0,57273:0:0:0:0:
36,192,57194,128,0,57273:0:0:0:0:
329,192,57352,1,0,0:0:0:0:
475,192,57352,1,0,0:0:0:0:
36,192,57352,1,0,0:0:0:0:
109,192,57430,1,0,0:0:0:0:
329,192,57509,128,0,57825:0:0:0:0:
256,192,57509,1,0,0:0:0:0:
36,192,57509,1,0,0:0:0:0:
475,192,57509,1,0,0:0:0:0:
182,192,57588,1,0,0:0:0:0:
36,192,57667,1,0,0:0:0:0:
109,192,57667,1,0,0:0:0:0:
402,192,57667,1,0,0:0:0:0:
256,192,57746,1,0,0:0:0:0:
36,192,57825,1,0,0:0:0:0:
475,192,57825,128,0,58102:0:0:0:0:
402,192,57825,1,0,0:0:0:0:
109,192,57825,1,0,0:0:0:0:
182,192,57825,1,0,0:0:0:0:
36,192,57983,1,0,0:0:0:0:
256,192,57983,1,0,0:0:0:0:
182,192,57983,1,0,0:0:0:0:
402,192,58062,128,0,58141:0:0:0:0:
329,192,58102,128,0,58180:0:0:0:0:
36,192,58141,1,0,0:0:0:0:
109,192,58141,1,0,0:0:0:0:
256,192,58141,128,0,58457:0:0:0:0:
182,192,58141,1,0,0:0:0:0:
36,192,58299,1,0,0:0:0:0:
402,192,58299,1,0,0:0:0:0:
109,192,58299,1,0,0:0:0:0:
182,192,58378,1,0,0:0:0:0:
475,192,58457,128,0,58536:0:0:0:0:
402,192,58457,1,0,0:0:0:0:
109,192,58457,128,0,58536:0:0:0:0:
36,192,58457,128,0,58536:0:0:0:0:
329,192,58457,128,0,58536:0:0:0:0:
475,192,58615,128,0,58773:0:0:0:0:
182,192,58615,1,0,0:0:0:0:
329,192,58615,1,0,0:0:0:0:
36,192,58615,1,0,0:0:0:0:
109,192,58773,128,0,59009:0:0:0:0:
36,192,58773,1,0,0:0:0:0:
256,192,58773,1,0,0:0:0:0:
402,192,58773,1,0,0:0:0:0:
329,192,58852,1,0,0:0:0:0:
402,192,58930,1,0,0:0:0:0:
475,192,58930,1,0,0:0:0:0:
182,192,58930,1,0,0:0:0:0:
36,192,59088,128,0,59167:0:0:0:0:
475,192,59088,128,0,59167:0:0:0:0:
256,192,59088,128,0,59167:0:0:0:0:
182,192,59167,1,0,0:0:0:0:
256,192,59246,128,0,59404:0:0:0:0:
109,192,59246,1,0,0:0:0:0:
402,192,59246,1,0,0:0:0:0:
329,192,59325,1,0,0:0:0:0:
182,192,59404,1,0,0:0:0:0:
36,192,59404,1,0,0:0:0:0:
109,192,59404,128,0,59641:0:0:0:0:
402,192,59404,1,0,0:0:0:0:
475,192,59404,1,0,0:0:0:0:
402,192,59562,128,0,59799:0:0:0:0:
256,192,59562,1,0,0:0:0:0:
36,192,59562,1,0,0:0:0:0:
475,192,59562,1,0,0:0:0:0:
182,192,59720,128,0,60273:0:0:0:0:
475,192,59720,1,0,0:0:0:0:
109,192,59720,1,0,0:0:0:0:
36,192,59720,1,0,0:0:0:0:
329,192,59720,1,0,0:0:0:0:
329,192,59878,128,0,59977:0:0:0:0:
475,192,59878,128,0,59977:0:0:0:0:
36,192,59878,1,0,0:0:0:0:
109,192,59957,1,0,0:0:0:0:
256,192,60036,1,0,0:0:0:0:
36,192,60036,1,0,0:0:0:0:
402,192,60036,1,0,0:0:0:0:
475,192,60036,1,0,0:0:0:0:
329,192,60115,1,0,0:0:0:0:
36,192,60194,1,0,0:0:0:0:
329,192,60273,1,0,0:0:0:0:
256,192,60352,128,0,60450:0:0:0:0:
402,192,60352,128,0,60450:0:0:0:0:
36,192,60352,1,0,0:0:0:0:
109,192,60430,1,0,0:0:0:0:
36,192,60509,1,0,0:0:0:0:
329,192,60509,1,0,0:0:0:0:
182,192,60588,1,0,0:0:0:0:
36,192,60667,1,0,0:0:0:0:
109,192,60667,1,0,0:0:0:0:
402,192,60667,1,0,0:0:0:0:
256,192,60667,1,0,0:0:0:0:
182,192,60825,1,0,0:0:0:0:
402,192,60825,1,0,0:0:0:0:
109,192,60983,128,0,61062:0:0:0:0:
329,192,60983,128,0,61062:0:0:0:0:
36,192,60983,1,0,0:0:0:0:
256,192,60983,1,0,0:0:0:0:
475,192,60983,1,0,0:0:0:0:
182,192,61141,128,0,61220:0:0:0:0:
402,192,61141,128,0,61220:0:0:0:0:
475,192,61141,1,0,0:0:0:0:
256,192,61299,128,0,61457:0:0:0:0:
475,192,61299,128,0,61457:0:0:0:0:
36,192,61299,128,0,61852:0:0:0:0:
109,192,61299,1,0,0:0:0:0:
402,192,61299,1,0,0:0:0:0:
329,192,61378,1,0,0:0:0:0:
109,192,61457,1,0,0:0:0:0:
182,192,61457,128,0,61615:0:0:0:0:
402,192,61457,1,0,0:0:0:0:
475,192,61615,128,0,61852:0:0:0:0:
329,192,61615,1,0,0:0:0:0:
402,192,61615,1,0,0:0:0:0:
109,192,61615,1,0,0:0:0:0:
256,192,61694,1,0,0:0:0:0:
329,192,61773,128,0,61852:0:0:0:0:
109,192,61773,1,0,0:0:0:0:
256,192,61852,1,0,0:0:0:0:
182,192,61930,128,0,62167:0:0:0:0:
402,192,61930,1,0,0:0:0:0:
36,192,61930,128,0,62325:0:0:0:0:
109,192,61930,1,0,0:0:0:0:
475,192,61930,1,0,0:0:0:0:
329,192,61930,128,0,62009:0:0:0:0:
329,192,62088,1,0,0:0:0:0:
475,192,62088,1,0,0:0:0:0:
109,192,62088,1,0,0:0:0:0:
256,192,62167,1,0,0:0:0:0:
182,192,62246,1,0,0:0:0:0:
475,192,62246,128,0,62325:0:0:0:0:
402,192,62246,128,0,62325:0:0:0:0:
109,192,62246,1,0,0:0:0:0:
475,192,62404,128,0,62799:0:0:0:0:
402,192,62404,1,0,0:0:0:0:
109,192,62404,128,0,62799:0:0:0:0:
256,192,62404,128,0,62799:0:0:0:0:
36,192,62404,1,0,0:0:0:0:
329,192,62483,1,0,0:0:0:0:
182,192,62562,1,0,0:0:0:0:
402,192,62641,1,0,0:0:0:0:
182,192,62720,1,0,0:0:0:0:
329,192,62720,1,0,0:0:0:0:
36,192,62720,1,0,0:0:0:0:
402,192,62878,128,0,63115:0:0:0:0:
109,192,62878,1,0,0:0:0:0:
475,192,62878,1,0,0:0:0:0:
256,192,62878,128,0,62957:0:0:0:0:
36,192,62878,128,0,62957:0:0:0:0:
329,192,62957,128,0,63036:0:0:0:0:
475,192,63036,1,0,0:0:0:0:
182,192,63036,128,0,63115:0:0:0:0:
36,192,63036,1,0,0:0:0:0:
256,192,63115,128,0,63194:0:0:0:0:
109,192,63194,128,0,63430:0:0:0:0:
402,192,63194,1,0,0:0:0:0:
182,192,63194,1,0,0:0:0:0:
36,192,63194,1,0,0:0:0:0:
329,192,63194,1,0,0:0:0:0:
475,192,63194,128,0,63273:0:0:0:0:
256,192,63273,128,0,63352:0:0:0:0:
402,192,63352,128,0,63430:0:0:0:0:
475,192,63352,1,0,0:0:0:0:
36,192,63352,1,0,0:0:0:0:
329,192,63430,128,0,63509:0:0:0:0:
36,192,63509,1,0,0:0:0:0:
109,192,63509,1,0,0:0:0:0:
182,192,63509,128,0,63746:0:0:0:0:
256,192,63509,128,0,63588:0:0:0:0:
475,192,63509,1,0,0:0:0:0:
402,192,63667,1,0,0:0:0:0:
36,192,63667,1,0,0:0:0:0:
329,192,63667,128,0,63904:0:0:0:0:
475,192,63667,1,0,0:0:0:0:
36,192,63825,128,0,64062:0:0:0:0:
109,192,63825,1,0,0:0:0:0:
475,192,63825,1,0,0:0:0:0:
182,192,63825,1,0,0:0:0:0:
256,192,63904,1,0,0:0:0:0:
182,192,63983,128,0,64062:0:0:0:0:
402,192,63983,128,0,64062:0:0:0:0:
475,192,63983,128,0,64062:0:0:0:0:
36,192,64141,1,0,0:0:0:0:
475,192,64141,1,0,0:0:0:0:
109,192,64141,128,0,64299:0:0:0:0:
256,192,64141,1,0,0:0:0:0:
256,192,64299,128,0,64457:0:0:0:0:
182,192,64299,1,0,0:0:0:0:
402,192,64299,1,0,0:0:0:0:
109,192,64457,1,0,0:0:0:0:
475,192,64457,128,0,64536:0:0:0:0:
182,192,64457,1,0,0:0:0:0:
402,192,64457,1,0,0:0:0:0:
329,192,64457,1,0,0:0:0:0:
36,192,64457,128,0,64852:0:0:0:0:
402,192,64615,1,0,0:0:0:0:
109,192,64615,1,0,0:0:0:0:
475,192,64615,128,0,64694:0:0:0:0:
329,192,64615,1,0,0:0:0:0:
182,192,64694,1,0,0:0:0:0:
475,192,64773,128,0,65167:0:0:0:0:
109,192,64773,128,0,64852:0:0:0:0:
329,192,64773,128,0,64852:0:0:0:0:
402,192,64773,128,0,64852:0:0:0:0:
256,192,64773,128,0,64852:0:0:0:0:
182,192,64930,128,0,65009:0:0:0:0:
36,192,64930,128,0,65325:0:0:0:0:
256,192,64930,128,0,65009:0:0:0:0:
402,192,64930,128,0,65009:0:0:0:0:
329,192,65009,1,0,0:0:0:0:
109,192,65088,1,0,0:0:0:0:
402,192,65088,1,0,0:0:0:0:
182,192,65088,1,0,0:0:0:0:
256,192,65167,1,0,0:0:0:0:
329,192,65246,128,0,65325:0:0:0:0:
402,192,65246,128,0,65325:0:0:0:0:
475,192,65246,128,0,65325:0:0:0:0:
182,192,65246,128,0,65325:0:0:0:0:
256,192,65325,1,0,0:0:0:0:
36,192,65404,128,0,65641:0:0:0:0:
475,192,65404,128,0,65641:0:0:0:0:
109,192,65404,128,0,65483:0:0:0:0:
402,192,65404,128,0,65483:0:0:0:0:
182,192,65404,1,0,0:0:0:0:
256,192,65483,128,0,65562:0:0:0:0:
182,192,65562,128,0,65641:0:0:0:0:
109,192,65562,1,0,0:0:0:0:
402,192,65562,1,0,0:0:0:0:
256,192,65720,1,0,0:0:0:0:
36,192,65720,1,0,0:0:0:0:
475,192,65720,1,0,0:0:0:0:
402,192,65720,1,0,0:0:0:0:
109,192,65720,1,0,0:0:0:0:
182,192,65878,1,0,0:0:0:0:
329,192,65878,1,0,0:0:0:0:
475,192,65878,1,0,0:0:0:0:
402,192,65878,1,0,0:0:0:0:
256,192,66036,1,0,0:0:0:0:
109,192,66036,1,0,0:0:0:0:
36,192,66036,1,0,0:0:0:0:
475,192,66036,1,0,0:0:0:0:
329,192,66115,1,0,0:0:0:0:
402,192,66115,1,0,0:0:0:0:
182,192,66194,1,0,0:0:0:0:
109,192,66194,1,0,0:0:0:0:
36,192,66194,1,0,0:0:0:0:
182,192,66352,1,0,0:0:0:0:
36,192,66352,1,0,0:0:0:0:
329,192,66352,1,0,0:0:0:0:
256,192,66352,1,0,0:0:0:0:
109,192,66352,1,0,0:0:0:0:
402,192,66430,1,0,0:0:0:0:
475,192,66430,1,0,0:0:0:0:
256,192,66509,1,0,0:0:0:0:
109,192,66509,1,0,0:0:0:0:
182,192,66509,1,0,0:0:0:0:
256,192,66667,1,0,0:0:0:0:
329,192,66667,1,0,0:0:0:0:
182,192,66667,1,0,0:0:0:0:
402,192,66825,1,0,0:0:0:0:
329,192,66825,1,0,0:0:0:0:
256,192,66825,1,0,0:0:0:0:
182,192,66983,1,0,0:0:0:0:
36,192,66983,1,0,0:0:0:0:
329,192,66983,1,0,0:0:0:0:
402,192,66983,1,0,0:0:0:0:
475,192,66983,1,0,0:0:0:0:
109,192,66983,128,0,68799:0:0:0:0:
402,192,67141,1,0,0:0:0:0:
329,192,67220,1,0,0:0:0:0:
182,192,67299,1,0,0:0:0:0:
475,192,67299,1,0,0:0:0:0:
256,192,67299,1,0,0:0:0:0:
36,192,67299,1,0,0:0:0:0:
402,192,67457,1,0,0:0:0:0:
182,192,67457,1,0,0:0:0:0:
329,192,67536,1,0,0:0:0:0:
256,192,67615,1,0,0:0:0:0:
402,192,67615,1,0,0:0:0:0:
475,192,67615,1,0,0:0:0:0:
36,192,67615,1,0,0:0:0:0:
329,192,67773,1,0,0:0:0:0:
475,192,67773,1,0,0:0:0:0:
256,192,67930,1,0,0:0:0:0:
36,192,67930,1,0,0:0:0:0:
402,192,67930,1,0,0:0:0:0:
475,192,67930,1,0,0:0:0:0:
256,192,68088,1,0,0:0:0:0:
36,192,68246,1,0,0:0:0:0:
182,192,68246,1,0,0:0:0:0:
402,192,68246,1,0,0:0:0:0:
329,192,68404,1,0,0:0:0:0:
182,192,68404,1,0,0:0:0:0:
256,192,68562,1,0,0:0:0:0:
402,192,68562,1,0,0:0:0:0:
475,192,68720,1,0,0:0:0:0:
329,192,68720,1,0,0:0:0:0:
256,192,68878,1,0,0:0:0:0:
402,192,68878,128,0,69378:0:0:0:0:
36,192,68878,1,0,0:0:0:0:
109,192,68878,1,0,0:0:0:0:
182,192,69036,1,0,0:0:0:0:
36,192,69194,1,0,0:0:0:0:
182,192,69194,1,0,0:0:0:0:
329,192,69352,128,0,69430:0:0:0:0:
256,192,69404,128,0,69483:0:0:0:0:
182,192,69457,128,0,69536:0:0:0:0:
36,192,69509,1,0,0:0:0:0:
109,192,69509,128,0,70062:0:0:0:0:
475,192,69509,1,0,0:0:0:0:
402,192,69509,1,0,0:0:0:0:
329,192,69667,1,0,0:0:0:0:
182,192,69825,1,0,0:0:0:0:
329,192,69825,1,0,0:0:0:0:
475,192,69825,1,0,0:0:0:0:
256,192,69983,1,0,0:0:0:0:
402,192,69983,1,0,0:0:0:0:
329,192,70062,128,0,70141:0:0:0:0:
36,192,70141,128,0,71720:0:0:0:0:
182,192,70141,1,0,0:0:0:0:
109,192,70141,1,0,0:0:0:0:
475,192,70141,1,0,0:0:0:0:
402,192,70299,1,0,0:0:0:0:
256,192,70457,1,0,0:0:0:0:
402,192,70457,1,0,0:0:0:0:
475,192,70457,1,0,0:0:0:0:
109,192,70457,1,0,0:0:0:0:
256,192,70615,1,0,0:0:0:0:
475,192,70773,1,0,0:0:0:0:
109,192,70773,1,0,0:0:0:0:
329,192,70773,1,0,0:0:0:0:
402,192,70930,1,0,0:0:0:0:
182,192,71088,1,0,0:0:0:0:
475,192,71088,1,0,0:0:0:0:
256,192,71246,1,0,0:0:0:0:
329,192,71404,1,0,0:0:0:0:
475,192,71404,1,0,0:0:0:0:
182,192,71404,1,0,0:0:0:0:
109,192,71404,1,0,0:0:0:0:
329,192,71562,1,0,0:0:0:0:
182,192,71720,1,0,0:0:0:0:
402,192,71720,1,0,0:0:0:0:
475,192,71720,128,0,72036:0:0:0:0:
109,192,71878,1,0,0:0:0:0:
182,192,71957,1,0,0:0:0:0:
329,192,72036,128,0,72865:0:0:0:0:
256,192,72036,1,0,0:0:0:0:
36,192,72036,1,0,0:0:0:0:
109,192,72036,1,0,0:0:0:0:
402,192,72036,1,0,0:0:0:0:
182,192,72194,1,0,0:0:0:0:
182,192,72352,1,0,0:0:0:0:
36,192,72352,1,0,0:0:0:0:
475,192,72352,1,0,0:0:0:0:
256,192,72509,1,0,0:0:0:0:
182,192,72667,1,0,0:0:0:0:
36,192,72667,1,0,0:0:0:0:
475,192,72667,1,0,0:0:0:0:
402,192,72667,1,0,0:0:0:0:
256,192,72825,128,0,72944:0:0:0:0:
182,192,72904,128,0,73023:0:0:0:0:
109,192,72983,128,0,73141:0:0:0:0:
329,192,72983,1,0,0:0:0:0:
475,192,72983,1,0,0:0:0:0:
36,192,72983,1,0,0:0:0:0:
329,192,73141,128,0,73299:0:0:0:0:
402,192,73141,1,0,0:0:0:0:
182,192,73299,128,0,73358:0:0:0:0:
475,192,73299,1,0,0:0:0:0:
109,192,73338,128,0,73398:0:0:0:0:
36,192,73378,128,0,75115:0:0:0:0:
256,192,73457,1,0,0:0:0:0:
402,192,73457,1,0,0:0:0:0:
182,192,73615,1,0,0:0:0:0:
329,192,73615,1,0,0:0:0:0:
109,192,73773,1,0,0:0:0:0:
256,192,73773,1,0,0:0:0:0:
402,192,73773,1,0,0:0:0:0:
256,192,73930,1,0,0:0:0:0:
475,192,73930,1,0,0:0:0:0:
402,192,73930,1,0,0:0:0:0:
182,192,74088,1,0,0:0:0:0:
109,192,74088,1,0,0:0:0:0:
329,192,74246,1,0,0:0:0:0:
402,192,74246,1,0,0:0:0:0:
256,192,74404,1,0,0:0:0:0:
182,192,74404,1,0,0:0:0:0:
329,192,74483,1,0,0:0:0:0:
475,192,74562,1,0,0:0:0:0:
182,192,74562,1,0,0:0:0:0:
109,192,74562,1,0,0:0:0:0:
402,192,74562,1,0,0:0:0:0:
329,192,74720,1,0,0:0:0:0:
475,192,74720,1,0,0:0:0:0:
256,192,74878,1,0,0:0:0:0:
402,192,74878,1,0,0:0:0:0:
182,192,75036,1,0,0:0:0:0:
329,192,75036,1,0,0:0:0:0:
109,192,75194,128,0,75509:0:0:0:0:
182,192,75194,1,0,0:0:0:0:
329,192,75194,1,0,0:0:0:0:
475,192,75194,1,0,0:0:0:0:
36,192,75194,1,0,0:0:0:0:
256,192,75352,1,0,0:0:0:0:
475,192,75509,128,0,75786:0:0:0:0:
182,192,75509,1,0,0:0:0:0:
36,192,75509,1,0,0:0:0:0:
329,192,75509,1,0,0:0:0:0:
402,192,75509,1,0,0:0:0:0:
109,192,75667,1,0,0:0:0:0:
402,192,75746,128,0,75805:0:0:0:0:
329,192,75786,128,0,75845:0:0:0:0:
256,192,75825,128,0,76161:0:0:0:0:
109,192,75825,1,0,0:0:0:0:
36,192,75825,1,0,0:0:0:0:
402,192,75983,1,0,0:0:0:0:
475,192,75983,1,0,0:0:0:0:
182,192,76141,128,0,76200:0:0:0:0:
329,192,76141,1,0,0:0:0:0:
475,192,76141,1,0,0:0:0:0:
109,192,76180,128,0,76240:0:0:0:0:
36,192,76220,128,0,76773:0:0:0:0:
182,192,76299,1,0,0:0:0:0:
329,192,76299,1,0,0:0:0:0:
475,192,76299,1,0,0:0:0:0:
256,192,76457,1,0,0:0:0:0:
109,192,76457,1,0,0:0:0:0:
402,192,76457,1,0,0:0:0:0:
475,192,76457,1,0,0:0:0:0:
182,192,76615,1,0,0:0:0:0:
182,192,76773,1,0,0:0:0:0:
475,192,76773,128,0,77009:0:0:0:0:
329,192,76773,1,0,0:0:0:0:
109,192,76773,1,0,0:0:0:0:
36,192,76930,1,0,0:0:0:0:
109,192,76930,1,0,0:0:0:0:
329,192,76930,1,0,0:0:0:0:
182,192,77009,1,0,0:0:0:0:
36,192,77088,1,0,0:0:0:0:
475,192,77088,1,0,0:0:0:0:
109,192,77088,1,0,0:0:0:0:
402,192,77088,1,0,0:0:0:0:
256,192,77088,128,0,78904:0:0:0:0:
36,192,77404,1,0,0:0:0:0:
109,192,77404,1,0,0:0:0:0:
109,192,77562,1,0,0:0:0:0:
402,192,77562,1,0,0:0:0:0:
329,192,77562,1,0,0:0:0:0:
36,192,77720,1,0,0:0:0:0:
182,192,77720,1,0,0:0:0:0:
475,192,77720,1,0,0:0:0:0:
329,192,77720,1,0,0:0:0:0:
109,192,77878,1,0,0:0:0:0:
402,192,77878,1,0,0:0:0:0:
36,192,78036,1,0,0:0:0:0:
475,192,78036,1,0,0:0:0:0:
182,192,78036,1,0,0:0:0:0:
329,192,78036,1,0,0:0:0:0:
402,192,78194,1,0,0:0:0:0:
475,192,78194,1,0,0:0:0:0:
182,192,78352,1,0,0:0:0:0:
475,192,78352,1,0,0:0:0:0:
109,192,78509,1,0,0:0:0:0:
329,192,78509,1,0,0:0:0:0:
36,192,78509,1,0,0:0:0:0:
109,192,78667,1,0,0:0:0:0:
182,192,78667,1,0,0:0:0:0:
329,192,78667,1,0,0:0:0:0:
402,192,78667,1,0,0:0:0:0:
402,192,78825,1,0,0:0:0:0:
475,192,78825,1,0,0:0:0:0:
109,192,78983,128,0,79430:0:0:0:0:
329,192,78983,1,0,0:0:0:0:
36,192,78983,1,0,0:0:0:0:
256,192,78983,1,0,0:0:0:0:
475,192,78983,1,0,0:0:0:0:
402,192,79141,1,0,0:0:0:0:
475,192,79141,1,0,0:0:0:0:
256,192,79141,1,0,0:0:0:0:
329,192,79299,1,0,0:0:0:0:
36,192,79299,1,0,0:0:0:0:
475,192,79299,1,0,0:0:0:0:
182,192,79378,128,0,79509:0:0:0:0:
256,192,79457,128,0,79562:0:0:0:0:
329,192,79509,128,0,79615:0:0:0:0:
402,192,79562,128,0,79667:0:0:0:0:
475,192,79615,128,0,80088:0:0:0:0:
109,192,79615,1,0,0:0:0:0:
36,192,79615,1,0,0:0:0:0:
182,192,79615,1,0,0:0:0:0:
256,192,79773,1,0,0:0:0:0:
256,192,79930,1,0,0:0:0:0:
109,192,79930,1,0,0:0:0:0:
402,192,79930,1,0,0:0:0:0:
109,192,80088,1,0,0:0:0:0:
36,192,80088,1,0,0:0:0:0:
402,192,80088,128,0,80246:0:0:0:0:
182,192,80088,1,0,0:0:0:0:
182,192,80246,1,0,0:0:0:0:
109,192,80246,128,0,81746:0:0:0:0:
475,192,80246,1,0,0:0:0:0:
256,192,80246,1,0,0:0:0:0:
402,192,80404,1,0,0:0:0:0:
329,192,80404,1,0,0:0:0:0:
256,192,80404,1,0,0:0:0:0:
475,192,80562,1,0,0:0:0:0:
36,192,80562,1,0,0:0:0:0:
329,192,80562,1,0,0:0:0:0:
402,192,80562,1,0,0:0:0:0:
256,192,80720,1,0,0:0:0:0:
402,192,80720,1,0,0:0:0:0:
182,192,80878,1,0,0:0:0:0:
329,192,80878,1,0,0:0:0:0:
475,192,80878,1,0,0:0:0:0:
329,192,81036,1,0,0:0:0:0:
402,192,81036,1,0,0:0:0:0:
256,192,81036,1,0,0:0:0:0:
475,192,81194,1,0,0:0:0:0:
329,192,81194,1,0,0:0:0:0:
402,192,81194,1,0,0:0:0:0:
36,192,81194,1,0,0:0:0:0:
256,192,81352,1,0,0:0:0:0:
256,192,81509,1,0,0:0:0:0:
402,192,81509,1,0,0:0:0:0:
475,192,81509,1,0,0:0:0:0:
36,192,81509,1,0,0:0:0:0:
329,192,81667,1,0,0:0:0:0:
475,192,81667,1,0,0:0:0:0:
182,192,81667,1,0,0:0:0:0:
182,192,81825,128,0,82062:0:0:0:0:
36,192,81825,1,0,0:0:0:0:
329,192,81825,1,0,0:0:0:0:
475,192,81825,1,0,0:0:0:0:
329,192,81983,1,0,0:0:0:0:
402,192,81983,1,0,0:0:0:0:
182,192,82141,128,0,82352:0:0:0:0:
329,192,82141,1,0,0:0:0:0:
36,192,82141,1,0,0:0:0:0:
475,192,82141,1,0,0:0:0:0:
109,192,82141,1,0,0:0:0:0:
256,192,82299,128,0,82404:0:0:0:0:
329,192,82352,128,0,82457:0:0:0:0:
402,192,82404,128,0,82509:0:0:0:0:
475,192,82457,128,0,84588:0:0:0:0:
36,192,82457,1,0,0:0:0:0:
182,192,82457,1,0,0:0:0:0:
256,192,82615,1,0,0:0:0:0:
109,192,82615,1,0,0:0:0:0:
36,192,82615,1,0,0:0:0:0:
182,192,82773,1,0,0:0:0:0:
36,192,82773,1,0,0:0:0:0:
329,192,82773,1,0,0:0:0:0:
402,192,82773,1,0,0:0:0:0:
182,192,82930,1,0,0:0:0:0:
256,192,82930,1,0,0:0:0:0:
329,192,82930,1,0,0:0:0:0:
182,192,83088,1,0,0:0:0:0:
36,192,83088,1,0,0:0:0:0:
329,192,83088,1,0,0:0:0:0:
402,192,83088,1,0,0:0:0:0:
256,192,83246,1,0,0:0:0:0:
256,192,83404,1,0,0:0:0:0:
402,192,83404,1,0,0:0:0:0:
109,192,83404,1,0,0:0:0:0:
109,192,83562,1,0,0:0:0:0:
36,192,83562,1,0,0:0:0:0:
182,192,83562,1,0,0:0:0:0:
182,192,83720,1,0,0:0:0:0:
329,192,83720,1,0,0:0:0:0:
36,192,83720,1,0,0:0:0:0:
402,192,83720,1,0,0:0:0:0:
256,192,83878,1,0,0:0:0:0:
109,192,83878,1,0,0:0:0:0:
109,192,84036,1,0,0:0:0:0:
36,192,84036,1,0,0:0:0:0:
182,192,84036,1,0,0:0:0:0:
329,192,84036,1,0,0:0:0:0:
256,192,84194,1,0,0:0:0:0:
402,192,84194,1,0,0:0:0:0:
256,192,84352,1,0,0:0:0:0:
109,192,84352,1,0,0:0:0:0:
36,192,84352,1,0,0:0:0:0:
402,192,84352,1,0,0:0:0:0:
182,192,84509,1,0,0:0:0:0:
329,192,84509,1,0,0:0:0:0:
256,192,84667,1,0,0:0:0:0:
109,192,84667,1,0,0:0:0:0:
475,192,84667,1,0,0:0:0:0:
402,192,84667,1,0,0:0:0:0:
36,192,84667,1,0,0:0:0:0:
329,192,84825,1,0,0:0:0:0:
475,192,84825,1,0,0:0:0:0:
182,192,84825,1,0,0:0:0:0:
256,192,84983,1,0,0:0:0:0:
36,192,84983,1,0,0:0:0:0:
475,192,84983,1,0,0:0:0:0:
402,192,84983,1,0,0:0:0:0:
329,192,85141,1,0,0:0:0:0:
402,192,85141,1,0,0:0:0:0:
182,192,85141,1,0,0:0:0:0:
36,192,85299,1,0,0:0:0:0:
182,192,85299,1,0,0:0:0:0:
329,192,85299,1,0,0:0:0:0:
475,192,85299,1,0,0:0:0:0:
109,192,85457,1,0,0:0:0:0:
402,192,85457,1,0,0:0:0:0:
256,192,85457,1,0,0:0:0:0:
109,192,85615,1,0,0:0:0:0:
36,192,85615,1,0,0:0:0:0:
256,192,85615,1,0,0:0:0:0:
402,192,85615,1,0,0:0:0:0:
475,192,85615,1,0,0:0:0:0:
182,192,85773,1,0,0:0:0:0:
329,192,85773,1,0,0:0:0:0:
36,192,85930,1,0,0:0:0:0:
256,192,85930,1,0,0:0:0:0:
109,192,85930,1,0,0:0:0:0:
182,192,86088,1,0,0:0:0:0:
402,192,86088,1,0,0:0:0:0:
256,192,86088,1,0,0:0:0:0:
475,192,86088,1,0,0:0:0:0:
256,192,86246,1,0,0:0:0:0:
109,192,86246,1,0,0:0:0:0:
36,192,86246,1,0,0:0:0:0:
329,192,86246,1,0,0:0:0:0:
402,192,86246,1,0,0:0:0:0:
402,192,86404,1,0,0:0:0:0:
182,192,86404,1,0,0:0:0:0:
475,192,86404,1,0,0:0:0:0:
329,192,86404,1,0,0:0:0:0:
256,192,86562,1,0,0:0:0:0:
36,192,86562,1,0,0:0:0:0:
402,192,86562,1,0,0:0:0:0:
109,192,86562,1,0,0:0:0:0:
329,192,86562,1,0,0:0:0:0:
329,192,86720,1,0,0:0:0:0:
182,192,86720,1,0,0:0:0:0:
475,192,86720,1,0,0:0:0:0:
36,192,86720,1,0,0:0:0:0:
256,192,86720,1,0,0:0:0:0:
109,192,86878,128,0,86957:0:0:0:0:
182,192,86878,128,0,86957:0:0:0:0:
36,192,86878,128,0,86957:0:0:0:0:
402,192,87036,128,0,87115:0:0:0:0:
329,192,87036,128,0,87115:0:0:0:0:
475,192,87036,128,0,87115:0:0:0:0:
402,192,87194,128,0,87292:0:0:0:0:
329,192,87194,128,0,87292:0:0:0:0:
256,192,87194,128,0,87292:0:0:0:0:
475,192,87194,128,0,87292:0:0:0:0:
182,192,87273,128,0,87371:0:0:0:0:
109,192,87273,128,0,87371:0:0:0:0:
36,192,87273,128,0,87371:0:0:0:0:
329,192,87352,128,0,87450:0:0:0:0:
402,192,87352,128,0,87450:0:0:0:0:
475,192,87352,128,0,87450:0:0:0:0:
109,192,87430,128,0,87529:0:0:0:0:
36,192,87430,128,0,87529:0:0:0:0:
329,192,87509,128,0,87608:0:0:0:0:
402,192,87509,128,0,87608:0:0:0:0:
475,192,87509,128,0,87608:0:0:0:0:
256,192,87509,128,0,87608:0:0:0:0:
182,192,87588,128,0,87687:0:0:0:0:
36,192,87588,128,0,87687:0:0:0:0:
109,192,87588,128,0,87687:0:0:0:0:
256,192,87667,128,0,87766:0:0:0:0:
329,192,87667,128,0,87766:0:0:0:0:
475,192,87667,128,0,87766:0:0:0:0:
36,192,87746,128,0,87845:0:0:0:0:
109,192,87746,128,0,87845:0:0:0:0:
329,192,87825,128,0,87924:0:0:0:0:
402,192,87825,128,0,87924:0:0:0:0:
182,192,87825,128,0,87924:0:0:0:0:
475,192,87825,128,0,87924:0:0:0:0:
109,192,87904,128,0,88003:0:0:0:0:
256,192,87904,128,0,88003:0:0:0:0:
36,192,87904,128,0,88003:0:0:0:0:
329,192,87983,128,0,88082:0:0:0:0:
402,192,87983,128,0,88082:0:0:0:0:
475,192,87983,128,0,88082:0:0:0:0:
182,192,88062,128,0,88161:0:0:0:0:
36,192,88062,128,0,88161:0:0:0:0:
402,192,88141,128,0,88240:0:0:0:0:
109,192,88141,128,0,88246:0:0:0:0:
329,192,88141,128,0,88240:0:0:0:0:
475,192,88141,128,0,88240:0:0:0:0:
256,192,88220,128,0,88319:0:0:0:0:
36,192,88220,128,0,88319:0:0:0:0:
182,192,88220,128,0,88319:0:0:0:0:
329,192,88299,128,0,88398:0:0:0:0:
475,192,88299,128,0,88398:0:0:0:0:
402,192,88299,128,0,88398:0:0:0:0:
36,192,88378,128,0,88477:0:0:0:0:
109,192,88378,128,0,88477:0:0:0:0:
329,192,88457,128,0,88555:0:0:0:0:
402,192,88457,128,0,88555:0:0:0:0:
475,192,88457,128,0,88555:0:0:0:0:
256,192,88457,128,0,88555:0:0:0:0:
109,192,88536,128,0,88634:0:0:0:0:
36,192,88536,128,0,88634:0:0:0:0:
182,192,88536,128,0,88634:0:0:0:0:
329,192,88615,128,0,88713:0:0:0:0:
402,192,88615,128,0,88713:0:0:0:0:
475,192,88615,128,0,88713:0:0:0:0:
182,192,88694,128,0,88792:0:0:0:0:
109,192,88694,128,0,88792:0:0:0:0:
402,192,88773,128,0,88871:0:0:0:0:
256,192,88773,128,0,88871:0:0:0:0:
329,192,88773,128,0,88871:0:0:0:0:
182,192,88852,128,0,88950:0:0:0:0:
109,192,88852,128,0,88950:0:0:0:0:
36,192,88852,128,0,88950:0:0:0:0:
329,192,88930,128,0,89029:0:0:0:0:
402,192,88930,128,0,89029:0:0:0:0:
475,192,88930,128,0,89029:0:0:0:0:
36,192,89009,128,0,89108:0:0:0:0:
109,192,89009,128,0,89108:0:0:0:0:
402,192,89088,128,0,89187:0:0:0:0:
182,192,89088,128,0,89187:0:0:0:0:
256,192,89088,128,0,89187:0:0:0:0:
329,192,89167,128,0,89266:0:0:0:0:
475,192,89167,128,0,89266:0:0:0:0:
256,192,89246,128,0,89345:0:0:0:0:
36,192,89246,128,0,89345:0:0:0:0:
109,192,89246,128,0,89345:0:0:0:0:
475,192,89325,128,0,89424:0:0:0:0:
182,192,89325,128,0,89424:0:0:0:0:
402,192,89325,128,0,89424:0:0:0:0:
329,192,89404,128,0,89503:0:0:0:0:
109,192,89404,128,0,89503:0:0:0:0:
36,192,89404,128,0,89503:0:0:0:0:
256,192,89404,128,0,89503:0:0:0:0:
402,192,89483,128,0,89582:0:0:0:0:
475,192,89483,128,0,89582:0:0:0:0:
256,192,89562,128,0,89661:0:0:0:0:
182,192,89562,128,0,89661:0:0:0:0:
36,192,89562,128,0,89661:0:0:0:0:
329,192,89641,128,0,89740:0:0:0:0:
475,192,89641,128,0,89740:0:0:0:0:
402,192,89641,128,0,89740:0:0:0:0:
182,192,89720,128,0,89819:0:0:0:0:
36,192,89720,128,0,89819:0:0:0:0:
256,192,89720,128,0,89819:0:0:0:0:
109,192,89720,128,0,89819:0:0:0:0:
402,192,89799,128,0,89898:0:0:0:0:
329,192,89799,128,0,89898:0:0:0:0:
182,192,89878,128,0,89977:0:0:0:0:
109,192,89878,128,0,89977:0:0:0:0:
256,192,89878,128,0,89977:0:0:0:0:
475,192,89957,128,0,90055:0:0:0:0:
329,192,89957,128,0,90055:0:0:0:0:
402,192,89957,128,0,90055:0:0:0:0:
182,192,90036,128,0,90134:0:0:0:0:
109,192,90036,128,0,90134:0:0:0:0:
36,192,90036,128,0,90134:0:0:0:0:
256,192,90115,128,0,90213:0:0:0:0:
329,192,90115,128,0,90213:0:0:0:0:
402,192,90115,128,0,90213:0:0:0:0:
182,192,90194,128,0,90292:0:0:0:0:
36,192,90194,128,0,90292:0:0:0:0:
109,192,90194,128,0,90292:0:0:0:0:
402,192,90273,128,0,90371:0:0:0:0:
475,192,90273,128,0,90371:0:0:0:0:
329,192,90352,128,0,90450:0:0:0:0:
256,192,90352,128,0,90450:0:0:0:0:
109,192,90352,128,0,90450:0:0:0:0:
36,192,90352,128,0,90450:0:0:0:0:
182,192,90430,128,0,90529:0:0:0:0:
402,192,90430,128,0,90529:0:0:0:0:
475,192,90430,128,0,90529:0:0:0:0:
36,192,90509,128,0,90608:0:0:0:0:
256,192,90509,128,0,90608:0:0:0:0:
109,192,90509,128,0,90608:0:0:0:0:
475,192,90588,128,0,90687:0:0:0:0:
402,192,90588,128,0,90687:0:0:0:0:
182,192,90667,128,0,90766:0:0:0:0:
329,192,90667,128,0,90766:0:0:0:0:
256,192,90667,128,0,90766:0:0:0:0:
36,192,90667,128,0,90766:0:0:0:0:
402,192,90746,128,0,90845:0:0:0:0:
109,192,90746,128,0,90845:0:0:0:0:
475,192,90746,128,0,90845:0:0:0:0:
256,192,90825,128,0,90924:0:0:0:0:
36,192,90825,128,0,90924:0:0:0:0:
182,192,90825,128,0,90924:0:0:0:0:
329,192,90904,128,0,91003:0:0:0:0:
402,192,90904,128,0,91003:0:0:0:0:
475,192,90904,128,0,91003:0:0:0:0:
36,192,90983,128,0,91082:0:0:0:0:
109,192,90983,128,0,91082:0:0:0:0:
182,192,90983,128,0,91082:0:0:0:0:
256,192,90983,128,0,91082:0:0:0:0:
329,192,91062,128,0,91161:0:0:0:0:
402,192,91062,128,0,91161:0:0:0:0:
475,192,91062,128,0,91161:0:0:0:0:
182,192,91141,128,0,91240:0:0:0:0:
109,192,91141,128,0,91240:0:0:0:0:
36,192,91141,128,0,91240:0:0:0:0:
402,192,91220,128,0,91319:0:0:0:0:
475,192,91220,128,0,91319:0:0:0:0:
329,192,91299,128,0,91398:0:0:0:0:
109,192,91299,128,0,91398:0:0:0:0:
36,192,91299,128,0,91398:0:0:0:0:
256,192,91299,128,0,91398:0:0:0:0:
182,192,91378,128,0,91477:0:0:0:0:
402,192,91378,128,0,91477:0:0:0:0:
475,192,91378,128,0,91477:0:0:0:0:
36,192,91457,128,0,91555:0:0:0:0:
109,192,91457,128,0,91555:0:0:0:0:
256,192,91457,128,0,91555:0:0:0:0:
402,192,91536,128,0,91634:0:0:0:0:
475,192,91536,128,0,91634:0:0:0:0:
182,192,91615,128,0,91713:0:0:0:0:
256,192,91615,128,0,91713:0:0:0:0:
329,192,91615,128,0,91713:0:0:0:0:
36,192,91615,128,0,91713:0:0:0:0:
109,192,91694,128,0,91792:0:0:0:0:
475,192,91694,128,0,91792:0:0:0:0:
329,192,91773,128,0,91871:0:0:0:0:
402,192,91773,128,0,91871:0:0:0:0:
256,192,91773,128,0,91871:0:0:0:0:
36,192,91852,128,0,91950:0:0:0:0:
109,192,91930,128,0,92029:0:0:0:0:
475,192,91930,128,0,92029:0:0:0:0:
182,192,91930,128,0,92029:0:0:0:0:
256,192,91930,128,0,92029:0:0:0:0:
402,192,92009,128,0,92108:0:0:0:0:
36,192,92009,128,0,92108:0:0:0:0:
182,192,92088,128,0,92187:0:0:0:0:
329,192,92088,128,0,92187:0:0:0:0:
256,192,92088,128,0,92187:0:0:0:0:
475,192,92167,128,0,92266:0:0:0:0:
109,192,92246,128,0,92345:0:0:0:0:
36,192,92246,128,0,92345:0:0:0:0:
329,192,92246,128,0,92345:0:0:0:0:
182,192,92246,128,0,92345:0:0:0:0:
402,192,92325,128,0,92424:0:0:0:0:
475,192,92325,128,0,92424:0:0:0:0:
256,192,92325,128,0,92424:0:0:0:0:
109,192,92404,128,0,92503:0:0:0:0:
36,192,92404,128,0,92503:0:0:0:0:
182,192,92404,128,0,92503:0:0:0:0:
329,192,92483,128,0,92582:0:0:0:0:
475,192,92483,128,0,92582:0:0:0:0:
109,192,92562,128,0,92661:0:0:0:0:
256,192,92562,128,0,92661:0:0:0:0:
402,192,92562,128,0,92661:0:0:0:0:
36,192,92562,128,0,92661:0:0:0:0:
329,192,92641,128,0,92740:0:0:0:0:
475,192,92641,128,0,92740:0:0:0:0:
182,192,92641,128,0,92740:0:0:0:0:
256,192,92720,128,0,92819:0:0:0:0:
109,192,92720,128,0,92819:0:0:0:0:
36,192,92720,128,0,92819:0:0:0:0:
402,192,92799,128,0,92898:0:0:0:0:
475,192,92799,128,0,92898:0:0:0:0:
256,192,92878,128,0,92977:0:0:0:0:
36,192,92878,128,0,92977:0:0:0:0:
109,192,92878,128,0,92977:0:0:0:0:
182,192,92878,128,0,92977:0:0:0:0:
402,192,92957,128,0,93055:0:0:0:0:
329,192,92957,128,0,93055:0:0:0:0:
475,192,92957,128,0,93055:0:0:0:0:
256,192,93036,128,0,93134:0:0:0:0:
36,192,93036,128,0,93134:0:0:0:0:
182,192,93036,128,0,93134:0:0:0:0:
402,192,93115,128,0,93213:0:0:0:0:
109,192,93115,128,0,93213:0:0:0:0:
36,192,93194,128,0,93292:0:0:0:0:
475,192,93194,128,0,93292:0:0:0:0:
329,192,93194,128,0,93292:0:0:0:0:
256,192,93194,128,0,93292:0:0:0:0:
182,192,93273,128,0,93371:0:0:0:0:
109,192,93273,128,0,93371:0:0:0:0:
402,192,93273,128,0,93352:0:0:0:0:
256,192,93352,128,0,93450:0:0:0:0:
475,192,93352,128,0,93450:0:0:0:0:
36,192,93352,128,0,93450:0:0:0:0:
329,192,93430,128,0,93529:0:0:0:0:
402,192,93430,128,0,93529:0:0:0:0:
109,192,93509,128,0,93608:0:0:0:0:
182,192,93509,128,0,93608:0:0:0:0:
36,192,93509,128,0,93608:0:0:0:0:
475,192,93509,128,0,93608:0:0:0:0:
256,192,93588,128,0,93687:0:0:0:0:
402,192,93588,128,0,93687:0:0:0:0:
329,192,93588,128,0,93687:0:0:0:0:
36,192,93667,128,0,93766:0:0:0:0:
182,192,93667,128,0,93766:0:0:0:0:
475,192,93667,128,0,93766:0:0:0:0:
329,192,93746,128,0,93845:0:0:0:0:
402,192,93746,128,0,93845:0:0:0:0:
256,192,93825,128,0,93924:0:0:0:0:
109,192,93825,128,0,93924:0:0:0:0:
36,192,93825,128,0,93924:0:0:0:0:
475,192,93825,128,0,93924:0:0:0:0:
182,192,93904,128,0,94003:0:0:0:0:
329,192,93904,128,0,94003:0:0:0:0:
402,192,93904,128,0,94003:0:0:0:0:
36,192,93983,128,0,94082:0:0:0:0:
256,192,93983,128,0,94082:0:0:0:0:
109,192,93983,128,0,94082:0:0:0:0:
402,192,94062,128,0,94161:0:0:0:0:
475,192,94062,128,0,94161:0:0:0:0:
256,192,94141,128,0,94240:0:0:0:0:
109,192,94141,128,0,94240:0:0:0:0:
36,192,94141,128,0,94240:0:0:0:0:
329,192,94141,128,0,94240:0:0:0:0:
182,192,94220,128,0,94319:0:0:0:0:
402,192,94220,128,0,94319:0:0:0:0:
475,192,94220,128,0,94319:0:0:0:0:
109,192,94299,128,0,94398:0:0:0:0:
256,192,94299,128,0,94398:0:0:0:0:
36,192,94299,128,0,94398:0:0:0:0:
329,192,94378,128,0,94477:0:0:0:0:
402,192,94378,128,0,94477:0:0:0:0:
256,192,94457,128,0,94555:0:0:0:0:
182,192,94457,128,0,94555:0:0:0:0:
36,192,94457,128,0,94555:0:0:0:0:
475,192,94457,128,0,94555:0:0:0:0:
329,192,94536,128,0,94634:0:0:0:0:
402,192,94536,128,0,94634:0:0:0:0:
109,192,94615,128,0,94713:0:0:0:0:
36,192,94615,128,0,94713:0:0:0:0:
256,192,94615,128,0,94713:0:0:0:0:
402,192,94694,128,0,94792:0:0:0:0:
475,192,94694,128,0,94792:0:0:0:0:
182,192,94773,128,0,94871:0:0:0:0:
256,192,94773,128,0,94871:0:0:0:0:
36,192,94773,128,0,94871:0:0:0:0:
109,192,94773,128,0,94871:0:0:0:0:
475,192,94852,128,0,94950:0:0:0:0:
402,192,94852,128,0,94950:0:0:0:0:
329,192,94852,128,0,94950:0:0:0:0:
36,192,94930,128,0,95029:0:0:0:0:
109,192,94930,128,0,95029:0:0:0:0:
182,192,94930,128,0,95029:0:0:0:0:
402,192,95009,128,0,95108:0:0:0:0:
329,192,95009,128,0,95108:0:0:0:0:
256,192,95088,128,0,95187:0:0:0:0:
182,192,95088,128,0,95187:0:0:0:0:
109,192,95088,128,0,95187:0:0:0:0:
36,192,95088,128,0,95187:0:0:0:0:
475,192,95167,128,0,95266:0:0:0:0:
402,192,95167,128,0,95266:0:0:0:0:
329,192,95246,128,0,95345:0:0:0:0:
256,192,95246,128,0,95345:0:0:0:0:
182,192,95246,128,0,95345:0:0:0:0:
109,192,95325,128,0,95424:0:0:0:0:
36,192,95325,128,0,95424:0:0:0:0:
329,192,95404,128,0,95503:0:0:0:0:
402,192,95404,128,0,95503:0:0:0:0:
256,192,95404,128,0,95503:0:0:0:0:
475,192,95404,128,0,95503:0:0:0:0:
109,192,95483,128,0,95582:0:0:0:0:
182,192,95483,128,0,95582:0:0:0:0:
329,192,95562,128,0,95661:0:0:0:0:
402,192,95562,128,0,95661:0:0:0:0:
475,192,95562,128,0,95661:0:0:0:0:
109,192,95641,128,0,95740:0:0:0:0:
36,192,95641,128,0,95740:0:0:0:0:
182,192,95720,128,0,95819:0:0:0:0:
329,192,95720,128,0,95819:0:0:0:0:
256,192,95720,128,0,95819:0:0:0:0:
402,192,95720,128,0,95819:0:0:0:0:
109,192,95799,128,0,95898:0:0:0:0:
36,192,95799,128,0,95898:0:0:0:0:
256,192,95878,128,0,95977:0:0:0:0:
329,192,95878,128,0,95977:0:0:0:0:
475,192,95957,128,0,96055:0:0:0:0:
402,192,95957,128,0,96055:0:0:0:0:
256,192,96036,128,0,96134:0:0:0:0:
36,192,96036,128,0,96134:0:0:0:0:
109,192,96036,128,0,96134:0:0:0:0:
182,192,96036,128,0,96134:0:0:0:0:
329,192,96115,128,0,96213:0:0:0:0:
402,192,96115,128,0,96213:0:0:0:0:
36,192,96194,128,0,96292:0:0:0:0:
109,192,96194,128,0,96292:0:0:0:0:
182,192,96194,128,0,96292:0:0:0:0:
256,192,96273,128,0,96371:0:0:0:0:
329,192,96273,128,0,96371:0:0:0:0:
109,192,96352,128,0,96450:0:0:0:0:
36,192,96352,128,0,96450:0:0:0:0:
402,192,96352,128,0,96450:0:0:0:0:
475,192,96352,128,0,96450:0:0:0:0:
182,192,96430,128,0,96529:0:0:0:0:
256,192,96430,128,0,96529:0:0:0:0:
329,192,96430,128,0,96529:0:0:0:0:
402,192,96509,128,0,96608:0:0:0:0:
475,192,96509,128,0,96608:0:0:0:0:
36,192,96509,128,0,96608:0:0:0:0:
256,192,96588,128,0,96687:0:0:0:0:
109,192,96588,128,0,96687:0:0:0:0:
182,192,96588,128,0,96687:0:0:0:0:
36,192,96667,128,0,96766:0:0:0:0:
329,192,96667,128,0,96766:0:0:0:0:
402,192,96667,128,0,96766:0:0:0:0:
475,192,96667,128,0,96766:0:0:0:0:
109,192,96746,128,0,96845:0:0:0:0:
182,192,96746,128,0,96845:0:0:0:0:
256,192,96825,128,0,96924:0:0:0:0:
402,192,96825,128,0,96924:0:0:0:0:
475,192,96825,128,0,96924:0:0:0:0:
36,192,96825,128,0,96924:0:0:0:0:
182,192,96904,128,0,96983:0:0:0:0:
329,192,96904,128,0,96983:0:0:0:0:
256,192,96983,128,0,97082:0:0:0:0:
109,192,96983,128,0,97082:0:0:0:0:
36,192,96983,128,0,97082:0:0:0:0:
475,192,96983,128,0,97082:0:0:0:0:
182,192,97062,128,0,97161:0:0:0:0:
402,192,97062,128,0,97161:0:0:0:0:
329,192,97062,128,0,97161:0:0:0:0:
475,192,97141,128,0,97240:0:0:0:0:
256,192,97141,128,0,97240:0:0:0:0:
109,192,97141,128,0,97240:0:0:0:0:
36,192,97141,128,0,97240:0:0:0:0:
182,192,97220,128,0,97299:0:0:0:0:
402,192,97220,128,0,97299:0:0:0:0:
109,192,97299,1,0,0:0:0:0:
36,192,97299,1,0,0:0:0:0:
475,192,97299,1,0,0:0:0:0:
329,192,97299,1,0,0:0:0:0:
256,192,97299,1,0,0:0:0:0:
256,192,97404,1,0,0:0:0:0:
109,192,97404,1,0,0:0:0:0:
475,192,97404,1,0,0:0:0:0:
329,192,97404,1,0,0:0:0:0:
256,192,97509,1,0,0:0:0:0:
109,192,97509,1,0,0:0:0:0:
475,192,97509,1,0,0:0:0:0:
329,192,97509,1,0,0:0:0:0:
182,192,97615,1,0,0:0:0:0:
36,192,97615,1,0,0:0:0:0:
402,192,97615,1,0,0:0:0:0:
329,192,97615,1,0,0:0:0:0:
182,192,97720,1,0,0:0:0:0:
329,192,97720,1,0,0:0:0:0:
402,192,97720,1,0,0:0:0:0:
36,192,97720,1,0,0:0:0:0:
36,192,97825,1,0,0:0:0:0:
182,192,97825,1,0,0:0:0:0:
329,192,97825,1,0,0:0:0:0:
402,192,97825,1,0,0:0:0:0:
109,192,97930,1,0,0:0:0:0:
256,192,97930,1,0,0:0:0:0:
329,192,97930,1,0,0:0:0:0:
475,192,97930,1,0,0:0:0:0:
329,192,98036,1,0,0:0:0:0:
256,192,98036,1,0,0:0:0:0:
475,192,98036,1,0,0:0:0:0:
109,192,98036,1,0,0:0:0:0:
109,192,98141,1,0,0:0:0:0:
256,192,98141,1,0,0:0:0:0:
329,192,98141,1,0,0:0:0:0:
475,192,98141,1,0,0:0:0:0:
256,192,98246,1,0,0:0:0:0:
402,192,98246,1,0,0:0:0:0:
36,192,98246,1,0,0:0:0:0:
182,192,98246,1,0,0:0:0:0:
36,192,98352,1,0,0:0:0:0:
182,192,98352,1,0,0:0:0:0:
402,192,98352,1,0,0:0:0:0:
256,192,98352,1,0,0:0:0:0:
402,192,98457,1,0,0:0:0:0:
256,192,98457,1,0,0:0:0:0:
182,192,98457,1,0,0:0:0:0:
36,192,98457,1,0,0:0:0:0:
109,192,98562,1,0,0:0:0:0:
182,192,98562,1,0,0:0:0:0:
329,192,98562,1,0,0:0:0:0:
475,192,98562,1,0,0:0:0:0:
182,192,98667,1,0,0:0:0:0:
329,192,98667,1,0,0:0:0:0:
109,192,98667,1,0,0:0:0:0:
475,192,98667,1,0,0:0:0:0:
475,192,98773,1,0,0:0:0:0:
182,192,98773,1,0,0:0:0:0:
329,192,98773,1,0,0:0:0:0:
109,192,98773,1,0,0:0:0:0:
256,192,98878,1,0,0:0:0:0:
402,192,98878,1,0,0:0:0:0:
475,192,98878,1,0,0:0:0:0:
36,192,98878,1,0,0:0:0:0:
36,192,98983,1,0,0:0:0:0:
402,192,98983,1,0,0:0:0:0:
475,192,98983,1,0,0:0:0:0:
256,192,98983,1,0,0:0:0:0:
475,192,99088,1,0,0:0:0:0:
402,192,99088,1,0,0:0:0:0:
36,192,99088,1,0,0:0:0:0:
256,192,99088,1,0,0:0:0:0:
36,192,99194,1,0,0:0:0:0:
182,192,99194,1,0,0:0:0:0:
109,192,99194,1,0,0:0:0:0:
256,192,99194,1,0,0:0:0:0:
182,192,99299,1,0,0:0:0:0:
109,192,99299,1,0,0:0:0:0:
329,192,99299,1,0,0:0:0:0:
256,192,99299,1,0,0:0:0:0:
182,192,99404,1,0,0:0:0:0:
329,192,99404,1,0,0:0:0:0:
256,192,99404,1,0,0:0:0:0:
402,192,99404,1,0,0:0:0:0:
256,192,99509,1,0,0:0:0:0:
329,192,99509,1,0,0:0:0:0:
402,192,99509,1,0,0:0:0:0:
475,192,99509,1,0,0:0:0:0:
329,192,99615,1,0,0:0:0:0:
256,192,99615,1,0,0:0:0:0:
182,192,99615,1,0,0:0:0:0:
402,192,99615,1,0,0:0:0:0:
329,192,99720,1,0,0:0:0:0:
256,192,99720,1,0,0:0:0:0:
182,192,99720,1,0,0:0:0:0:
109,192,99720,1,0,0:0:0:0:
475,192,99825,1,0,0:0:0:0:
402,192,99825,1,0,0:0:0:0:
256,192,99825,1,0,0:0:0:0:
109,192,99825,1,0,0:0:0:0:
36,192,99825,1,0,0:0:0:0:
36,192,99930,1,0,0:0:0:0:
109,192,99930,1,0,0:0:0:0:
402,192,99930,1,0,0:0:0:0:
256,192,99930,1,0,0:0:0:0:
36,192,100036,1,0,0:0:0:0:
109,192,100036,1,0,0:0:0:0:
402,192,100036,1,0,0:0:0:0:
256,192,100036,1,0,0:0:0:0:
329,192,100141,1,0,0:0:0:0:
475,192,100141,1,0,0:0:0:0:
36,192,100141,1,0,0:0:0:0:
182,192,100141,1,0,0:0:0:0:
36,192,100246,1,0,0:0:0:0:
182,192,100246,1,0,0:0:0:0:
329,192,100246,1,0,0:0:0:0:
475,192,100246,1,0,0:0:0:0:
182,192,100352,1,0,0:0:0:0:
36,192,100352,1,0,0:0:0:0:
475,192,100352,1,0,0:0:0:0:
329,192,100352,1,0,0:0:0:0:
475,192,100457,1,0,0:0:0:0:
402,192,100457,1,0,0:0:0:0:
256,192,100457,1,0,0:0:0:0:
109,192,100457,1,0,0:0:0:0:
109,192,100562,1,0,0:0:0:0:
256,192,100562,1,0,0:0:0:0:
475,192,100562,1,0,0:0:0:0:
402,192,100562,1,0,0:0:0:0:
109,192,100667,1,0,0:0:0:0:
256,192,100667,1,0,0:0:0:0:
475,192,100667,1,0,0:0:0:0:
402,192,100667,1,0,0:0:0:0:
329,192,100773,1,0,0:0:0:0:
36,192,100773,1,0,0:0:0:0:
182,192,100773,1,0,0:0:0:0:
402,192,100773,1,0,0:0:0:0:
329,192,100878,1,0,0:0:0:0:
36,192,100878,1,0,0:0:0:0:
402,192,100878,1,0,0:0:0:0:
182,192,100878,1,0,0:0:0:0:
329,192,100983,1,0,0:0:0:0:
36,192,100983,1,0,0:0:0:0:
182,192,100983,1,0,0:0:0:0:
402,192,100983,1,0,0:0:0:0:
109,192,101088,1,0,0:0:0:0:
329,192,101088,1,0,0:0:0:0:
182,192,101088,1,0,0:0:0:0:
475,192,101088,1,0,0:0:0:0:
109,192,101194,1,0,0:0:0:0:
182,192,101194,1,0,0:0:0:0:
329,192,101194,1,0,0:0:0:0:
475,192,101194,1,0,0:0:0:0:
109,192,101299,1,0,0:0:0:0:
182,192,101299,1,0,0:0:0:0:
329,192,101299,1,0,0:0:0:0:
475,192,101299,1,0,0:0:0:0:
402,192,101404,1,0,0:0:0:0:
109,192,101404,1,0,0:0:0:0:
36,192,101404,1,0,0:0:0:0:
256,192,101404,1,0,0:0:0:0:
256,192,101509,1,0,0:0:0:0:
402,192,101509,1,0,0:0:0:0:
109,192,101509,1,0,0:0:0:0:
36,192,101509,1,0,0:0:0:0:
36,192,101615,1,0,0:0:0:0:
109,192,101615,1,0,0:0:0:0:
402,192,101615,1,0,0:0:0:0:
256,192,101615,1,0,0:0:0:0:
182,192,101720,1,0,0:0:0:0:
256,192,101720,1,0,0:0:0:0:
402,192,101720,1,0,0:0:0:0:
329,192,101720,1,0,0:0:0:0:
182,192,101825,1,0,0:0:0:0:
256,192,101825,1,0,0:0:0:0:
36,192,101825,1,0,0:0:0:0:
109,192,101825,1,0,0:0:0:0:
109,192,101930,1,0,0:0:0:0:
182,192,101930,1,0,0:0:0:0:
329,192,101930,1,0,0:0:0:0:
256,192,101930,1,0,0:0:0:0:
182,192,102036,1,0,0:0:0:0:
256,192,102036,1,0,0:0:0:0:
329,192,102036,1,0,0:0:0:0:
402,192,102036,1,0,0:0:0:0:
402,192,102141,1,0,0:0:0:0:
475,192,102141,1,0,0:0:0:0:
256,192,102141,1,0,0:0:0:0:
329,192,102141,1,0,0:0:0:0:
402,192,102246,1,0,0:0:0:0:
329,192,102246,1,0,0:0:0:0:
256,192,102246,1,0,0:0:0:0:
182,192,102246,1,0,0:0:0:0:
329,192,102352,1,0,0:0:0:0:
109,192,102352,1,0,0:0:0:0:
182,192,102352,1,0,0:0:0:0:
475,192,102352,1,0,0:0:0:0:
36,192,102352,1,0,0:0:0:0:
36,192,102457,1,0,0:0:0:0:
182,192,102457,1,0,0:0:0:0:
475,192,102457,1,0,0:0:0:0:
329,192,102457,1,0,0:0:0:0:
36,192,102562,1,0,0:0:0:0:
182,192,102562,1,0,0:0:0:0:
329,192,102562,1,0,0:0:0:0:
475,192,102562,1,0,0:0:0:0:
109,192,102667,1,0,0:0:0:0:
256,192,102667,1,0,0:0:0:0:
402,192,102667,1,0,0:0:0:0:
475,192,102667,1,0,0:0:0:0:
402,192,102773,1,0,0:0:0:0:
109,192,102773,1,0,0:0:0:0:
256,192,102773,1,0,0:0:0:0:
475,192,102773,1,0,0:0:0:0:
256,192,102878,1,0,0:0:0:0:
475,192,102878,1,0,0:0:0:0:
402,192,102878,1,0,0:0:0:0:
109,192,102878,1,0,0:0:0:0:
109,192,102983,1,0,0:1:0:0:
36,192,102983,1,0,0:1:0:0:
329,192,102983,1,0,0:1:0:0:
182,192,102983,1,0,0:1:0:0:
109,192,103088,1,0,0:1:0:0:
36,192,103088,1,0,0:1:0:0:
329,192,103088,1,0,0:1:0:0:
182,192,103088,1,0,0:1:0:0:
182,192,103194,1,0,0:1:0:0:
329,192,103194,1,0,0:1:0:0:
36,192,103194,1,0,0:1:0:0:
109,192,103194,1,0,0:1:0:0:
109,192,103299,1,0,0:0:0:0:
256,192,103299,1,0,0:0:0:0:
402,192,103299,1,0,0:0:0:0:
475,192,103299,1,0,0:0:0:0:
256,192,103404,1,0,0:0:0:0:
475,192,103404,1,0,0:0:0:0:
402,192,103404,1,0,0:0:0:0:
109,192,103404,1,0,0:0:0:0:
109,192,103509,1,0,0:0:0:0:
402,192,103509,1,0,0:0:0:0:
256,192,103509,1,0,0:0:0:0:
475,192,103509,1,0,0:0:0:0:
329,192,103615,1,0,0:0:0:0:
475,192,103615,1,0,0:0:0:0:
182,192,103615,1,0,0:0:0:0:
36,192,103615,1,0,0:0:0:0:
36,192,103720,1,0,0:0:0:0:
182,192,103720,1,0,0:0:0:0:
329,192,103720,1,0,0:0:0:0:
475,192,103720,1,0,0:0:0:0:
182,192,103825,1,0,0:0:0:0:
36,192,103825,1,0,0:0:0:0:
475,192,103825,1,0,0:0:0:0:
329,192,103825,1,0,0:0:0:0:
402,192,103930,1,0,0:0:0:0:
475,192,103930,1,0,0:0:0:0:
182,192,103930,1,0,0:0:0:0:
109,192,103930,1,0,0:0:0:0:
402,192,104036,1,0,0:0:0:0:
182,192,104036,1,0,0:0:0:0:
475,192,104036,1,0,0:0:0:0:
109,192,104036,1,0,0:0:0:0:
475,192,104141,1,0,0:0:0:0:
109,192,104141,1,0,0:0:0:0:
402,192,104141,1,0,0:0:0:0:
182,192,104141,1,0,0:0:0:0:
256,192,104246,1,0,0:0:0:0:
182,192,104246,1,0,0:0:0:0:
109,192,104246,1,0,0:0:0:0:
36,192,104246,1,0,0:0:0:0:
402,192,104352,1,0,0:0:0:0:
329,192,104352,1,0,0:0:0:0:
256,192,104352,1,0,0:0:0:0:
475,192,104352,1,0,0:0:0:0:
36,192,104457,1,0,0:0:0:0:
182,192,104457,1,0,0:0:0:0:
256,192,104457,1,0,0:0:0:0:
109,192,104457,1,0,0:0:0:0:
329,192,104562,1,0,0:0:0:0:
256,192,104562,1,0,0:0:0:0:
475,192,104562,1,0,0:0:0:0:
402,192,104562,1,0,0:0:0:0:
36,192,104667,1,0,0:0:0:0:
256,192,104667,1,0,0:0:0:0:
109,192,104667,1,0,0:0:0:0:
182,192,104667,1,0,0:0:0:0:
256,192,104773,1,0,0:0:0:0:
329,192,104773,1,0,0:0:0:0:
402,192,104773,1,0,0:0:0:0:
475,192,104773,1,0,0:0:0:0:
36,192,104878,1,0,0:0:0:0:
109,192,104878,1,0,0:0:0:0:
475,192,104878,1,0,0:0:0:0:
256,192,104878,1,0,0:0:0:0:
402,192,104878,1,0,0:0:0:0:
256,192,104983,1,0,0:0:0:0:
109,192,104983,1,0,0:0:0:0:
36,192,104983,1,0,0:0:0:0:
402,192,104983,1,0,0:0:0:0:
109,192,105088,1,0,0:0:0:0:
36,192,105088,1,0,0:0:0:0:
402,192,105088,1,0,0:0:0:0:
256,192,105088,1,0,0:0:0:0:
109,192,105194,1,0,0:0:0:0:
329,192,105194,1,0,0:0:0:0:
402,192,105194,1,0,0:0:0:0:
182,192,105194,1,0,0:0:0:0:
109,192,105299,1,0,0:0:0:0:
402,192,105299,1,0,0:0:0:0:
182,192,105299,1,0,0:0:0:0:
329,192,105299,1,0,0:0:0:0:
329,192,105404,1,0,0:0:0:0:
402,192,105404,1,0,0:0:0:0:
109,192,105404,1,0,0:0:0:0:
182,192,105404,1,0,0:0:0:0:
256,192,105509,1,0,0:0:0:0:
36,192,105509,1,0,0:0:0:0:
402,192,105509,1,0,0:0:0:0:
475,192,105509,1,0,0:0:0:0:
36,192,105615,1,0,0:0:0:0:
256,192,105615,1,0,0:0:0:0:
402,192,105615,1,0,0:0:0:0:
475,192,105615,1,0,0:0:0:0:
36,192,105720,1,0,0:0:0:0:
256,192,105720,1,0,0:0:0:0:
402,192,105720,1,0,0:0:0:0:
475,192,105720,1,0,0:0:0:0:
182,192,105825,1,0,0:0:0:0:
402,192,105825,1,0,0:0:0:0:
329,192,105825,1,0,0:0:0:0:
109,192,105825,1,0,0:0:0:0:
109,192,105930,1,0,0:0:0:0:
182,192,105930,1,0,0:0:0:0:
329,192,105930,1,0,0:0:0:0:
402,192,105930,1,0,0:0:0:0:
182,192,106036,1,0,0:0:0:0:
109,192,106036,1,0,0:0:0:0:
329,192,106036,1,0,0:0:0:0:
402,192,106036,1,0,0:0:0:0:
36,192,106141,1,0,0:0:0:0:
109,192,106141,1,0,0:0:0:0:
256,192,106141,1,0,0:0:0:0:
475,192,106141,1,0,0:0:0:0:
475,192,106246,1,0,0:0:0:0:
256,192,106246,1,0,0:0:0:0:
36,192,106246,1,0,0:0:0:0:
109,192,106246,1,0,0:0:0:0:
36,192,106352,1,0,0:0:0:0:
256,192,106352,1,0,0:0:0:0:
475,192,106352,1,0,0:0:0:0:
109,192,106352,1,0,0:0:0:0:
182,192,106457,1,0,0:0:0:0:
256,192,106457,1,0,0:0:0:0:
402,192,106457,1,0,0:0:0:0:
475,192,106457,1,0,0:0:0:0:
402,192,106562,1,0,0:0:0:0:
475,192,106562,1,0,0:0:0:0:
182,192,106562,1,0,0:0:0:0:
256,192,106562,1,0,0:0:0:0:
402,192,106667,1,0,0:0:0:0:
475,192,106667,1,0,0:0:0:0:
182,192,106667,1,0,0:0:0:0:
256,192,106667,1,0,0:0:0:0:
109,192,106773,1,0,0:0:0:0:
182,192,106773,1,0,0:0:0:0:
329,192,106773,1,0,0:0:0:0:
36,192,106773,1,0,0:0:0:0:
475,192,106773,1,0,0:0:0:0:
36,192,106878,1,0,0:0:0:0:
109,192,106878,1,0,0:0:0:0:
182,192,106878,1,0,0:0:0:0:
329,192,106878,1,0,0:0:0:0:
36,192,106983,1,0,0:0:0:0:
109,192,106983,1,0,0:0:0:0:
182,192,106983,1,0,0:0:0:0:
329,192,106983,1,0,0:0:0:0:
182,192,107088,1,0,0:0:0:0:
475,192,107088,1,0,0:0:0:0:
36,192,107088,1,0,0:0:0:0:
402,192,107088,1,0,0:0:0:0:
256,192,107088,1,0,0:0:0:0:
475,192,107194,1,0,0:0:0:0:
182,192,107194,1,0,0:0:0:0:
402,192,107194,1,0,0:0:0:0:
256,192,107194,1,0,0:0:0:0:
475,192,107299,1,0,0:0:0:0:
256,192,107299,1,0,0:0:0:0:
182,192,107299,1,0,0:0:0:0:
402,192,107299,1,0,0:0:0:0:
182,192,107404,1,0,0:0:0:0:
109,192,107404,1,0,0:0:0:0:
36,192,107404,1,0,0:0:0:0:
329,192,107404,1,0,0:0:0:0:
475,192,107404,1,0,0:0:0:0:
402,192,107404,1,0,0:0:0:0:
256,192,107404,1,0,0:0:0:0:
182,192,107720,1,0,0:0:0:0:
329,192,108036,1,0,0:0:0:0:
475,192,108036,1,0,0:0:0:0:
109,192,108352,1,0,0:0:0:0:
402,192,108509,1,0,0:0:0:0:
182,192,108667,1,0,0:0:0:0:
36,192,108667,1,0,0:0:0:0:
402,192,108825,1,0,0:0:0:0:
329,192,108904,1,0,0:0:0:0:
256,192,108983,1,0,0:0:0:0:
109,192,108983,1,0,0:0:0:0:
329,192,109141,1,0,0:0:0:0:
475,192,109299,1,0,0:0:0:0:
182,192,109299,1,0,0:0:0:0:
402,192,109378,1,0,0:0:0:0:
329,192,109457,1,0,0:0:0:0:
109,192,109615,1,0,0:0:0:0:
402,192,109773,1,0,0:0:0:0:
256,192,109930,1,0,0:0:0:0:
109,192,109930,1,0,0:0:0:0:
109,192,110088,1,0,0:0:0:0:
329,192,110246,1,0,0:0:0:0:
36,192,110404,1,0,0:0:0:0:
109,192,110483,1,0,0:0:0:0:
182,192,110562,1,0,0:0:0:0:
402,192,110562,1,0,0:0:0:0:
256,192,110720,1,0,0:0:0:0:
475,192,110878,1,0,0:0:0:0:
329,192,111036,1,0,0:0:0:0:
329,192,111194,1,0,0:0:0:0:
182,192,111194,1,0,0:0:0:0:
182,192,111352,1,0,0:0:0:0:
329,192,111509,1,0,0:0:0:0:
475,192,111509,1,0,0:0:0:0:
109,192,111667,1,0,0:0:0:0:
402,192,111825,1,0,0:0:0:0:
329,192,111904,1,0,0:0:0:0:
256,192,111983,1,0,0:0:0:0:
182,192,112141,1,0,0:0:0:0:
329,192,112299,1,0,0:0:0:0:
256,192,112457,1,0,0:0:0:0:
36,192,112457,1,0,0:0:0:0:
256,192,112615,1,0,0:0:0:0:
109,192,112773,1,0,0:0:0:0:
475,192,112930,1,0,0:0:0:0:
402,192,113009,1,0,0:0:0:0:
329,192,113088,1,0,0:0:0:0:
182,192,113088,1,0,0:0:0:0:
36,192,113246,1,0,0:0:0:0:
329,192,113404,1,0,0:0:0:0:
182,192,113562,1,0,0:0:0:0:
182,192,113720,1,0,0:0:0:0:
329,192,113720,1,0,0:0:0:0:
329,192,113878,1,0,0:0:0:0:
109,192,114036,1,0,0:0:0:0:
402,192,114036,1,0,0:0:0:0:
256,192,114194,1,0,0:0:0:0:
475,192,114352,1,0,0:0:0:0:
402,192,114430,1,0,0:0:0:0:
329,192,114509,1,0,0:0:0:0:
109,192,114667,1,0,0:0:0:0:
402,192,114667,1,0,0:0:0:0:
256,192,114825,1,0,0:0:0:0:
256,192,114983,1,0,0:0:0:0:
109,192,114983,1,0,0:0:0:0:
109,192,115141,1,0,0:0:0:0:
256,192,115299,1,0,0:0:0:0:
402,192,115299,1,0,0:0:0:0:
109,192,115457,1,0,0:0:0:0:
475,192,115615,1,0,0:0:0:0:
329,192,115615,1,0,0:0:0:0:
329,192,115930,1,0,0:0:0:0:
36,192,115930,1,0,0:0:0:0:
182,192,116088,1,0,0:0:0:0:
402,192,116246,1,0,0:0:0:0:
329,192,116325,1,0,0:0:0:0:
256,192,116404,1,0,0:0:0:0:
182,192,116562,1,0,0:0:0:0:
329,192,116562,1,0,0:0:0:0:
182,192,116720,1,0,0:0:0:0:
402,192,116878,1,0,0:0:0:0:
109,192,116878,1,0,0:0:0:0:
329,192,116957,1,0,0:0:0:0:
256,192,117036,1,0,0:0:0:0:
109,192,117194,1,0,0:0:0:0:
402,192,117194,1,0,0:0:0:0:
256,192,117352,1,0,0:0:0:0:
329,192,117509,1,0,0:0:0:0:
182,192,117509,1,0,0:0:0:0:
36,192,117509,1,0,0:0:0:0:
475,192,117509,1,0,0:0:0:0:
