osu file format v14

[General]
AudioFilename: M2U - Moon Halo.mp3
AudioLeadIn: 0
PreviewTime: 16670
Countdown: 0
SampleSet: Soft
StackLeniency: 0.7
Mode: 3
LetterboxInBreaks: 0
SpecialStyle: 0
WidescreenStoryboard: 1

[Editor]
DistanceSpacing: 1.5
BeatDivisor: 8
GridSize: 4
TimelineZoom: 2.1

[Metadata]
Title:M2U Pack
TitleUnicode:M2U Pack
Artist:M2U
ArtistUnicode:M2U
Creator:Kim_GodSSI
Version:Moon Halo 4K
Source:
Tags:arpia97 lami- buschan ezmmr micleak nabi- ruka takjun roasted chicken murumoo other nicode sherie 約束之歌 guriri 구리리 howling redeye red eye lucy egoist 最後の花弁 나래
BeatmapID:3849578
BeatmapSetID:1572720

[Difficulty]
HPDrainRate:8
CircleSize:4
OverallDifficulty:7
ApproachRate:5
SliderMultiplier:1.4
SliderTickRate:1

[Events]
//Background and Video events
0,0,"M2U - Moon Halo.jpg",0,0
//Break Periods
//Storyboard Layer 0 (Background)
//Storyboard Layer 1 (Fail)
//Storyboard Layer 2 (Pass)
//Storyboard Layer 3 (Foreground)
//Storyboard Layer 4 (Overlay)
//Storyboard Sound Samples

[TimingPoints]
670,666.666666666667,4,2,0,0,1,0
97003,810.810810810811,4,2,0,0,1,0
97003,-81.9672131147541,4,2,0,0,0,0
97813,666.666666666667,4,2,0,0,1,0
97813,-100,4,2,0,0,0,0
98479,1200,4,2,0,0,1,0
98479,-55.5555555555556,4,2,0,0,0,0
100460,666.666666666667,4,2,0,0,1,0
100460,-100,4,2,0,0,0,0

[HitObjects]
64,192,670,128,0,1003:0:0:0:0:
192,192,670,1,0,0:0:0:0:
448,192,670,1,0,0:0:0:0:
448,192,1003,128,0,1253:0:0:0:0:
320,192,1003,128,0,1253:0:0:0:0:
192,192,1336,128,0,1586:0:0:0:0:
320,192,1336,128,0,1586:0:0:0:0:
64,192,1670,128,0,2003:0:0:0:0:
448,192,1670,1,0,0:0:0:0:
320,192,1836,1,0,0:0:0:0:
192,192,2003,128,0,2253:0:0:0:0:
448,192,2003,128,0,2253:0:0:0:0:
320,192,2336,128,0,2503:0:0:0:0:
64,192,2503,128,0,2670:0:0:0:0:
192,192,2670,128,0,3003:0:0:0:0:
448,192,2670,1,0,0:0:0:0:
320,192,2836,1,0,0:0:0:0:
448,192,3003,128,0,3336:0:0:0:0:
64,192,3003,1,0,0:0:0:0:
192,192,3170,1,0,0:0:0:0:
64,192,3336,128,0,3503:0:0:0:0:
320,192,3336,1,0,0:0:0:0:
448,192,3503,1,0,0:0:0:0:
320,192,3586,1,0,0:0:0:0:
64,192,3628,128,0,4003:0:0:0:0:
192,192,3670,128,0,4003:0:0:0:0:
320,192,4003,1,0,0:0:0:0:
448,192,4003,1,0,0:0:0:0:
448,192,4170,128,0,4336:0:0:0:0:
192,192,4170,1,0,0:0:0:0:
320,192,4336,128,0,4503:0:0:0:0:
64,192,4336,1,0,0:0:0:0:
192,192,4503,128,0,4670:0:0:0:0:
448,192,4503,1,0,0:0:0:0:
64,192,4670,128,0,5170:0:0:0:0:
320,192,4670,1,0,0:0:0:0:
448,192,4670,1,0,0:0:0:0:
448,192,4836,1,0,0:0:0:0:
320,192,4920,1,0,0:0:0:0:
448,192,5003,1,0,0:0:0:0:
192,192,5170,128,0,5336:0:0:0:0:
320,192,5336,128,0,5503:0:0:0:0:
64,192,5336,1,0,0:0:0:0:
448,192,5503,128,0,5670:0:0:0:0:
192,192,5670,128,0,6003:0:0:0:0:
64,192,5670,1,0,0:0:0:0:
64,192,6003,1,0,0:0:0:0:
320,192,6003,1,0,0:0:0:0:
448,192,6003,1,0,0:0:0:0:
64,192,6170,128,0,6336:0:0:0:0:
192,192,6336,128,0,6503:0:0:0:0:
448,192,6336,1,0,0:0:0:0:
448,192,6503,128,0,6670:0:0:0:0:
64,192,6503,1,0,0:0:0:0:
320,192,6670,128,0,6920:0:0:0:0:
64,192,6670,1,0,0:0:0:0:
192,192,6836,128,0,7086:0:0:0:0:
320,192,7003,128,0,7253:0:0:0:0:
448,192,7003,1,0,0:0:0:0:
64,192,7170,128,0,7420:0:0:0:0:
192,192,7336,128,0,7586:0:0:0:0:
448,192,7336,1,0,0:0:0:0:
64,192,7503,128,0,7753:0:0:0:0:
320,192,7670,128,0,7836:0:0:0:0:
448,192,7670,128,0,8003:0:0:0:0:
192,192,7670,1,0,0:0:0:0:
64,192,7836,128,0,8003:0:0:0:0:
320,192,8003,128,0,8253:0:0:0:0:
64,192,8170,128,0,8586:0:0:0:0:
192,192,8170,1,0,0:0:0:0:
448,192,8336,128,0,8586:0:0:0:0:
320,192,8336,1,0,0:0:0:0:
192,192,8670,1,0,0:0:0:0:
448,192,8670,1,0,0:0:0:0:
64,192,8670,128,0,9003:0:0:0:0:
320,192,9003,128,0,9253:0:0:0:0:
448,192,9003,128,0,9253:0:0:0:0:
192,192,9336,128,0,9586:0:0:0:0:
320,192,9336,128,0,9586:0:0:0:0:
64,192,9670,128,0,10003:0:0:0:0:
448,192,9670,1,0,0:0:0:0:
320,192,9836,1,0,0:0:0:0:
192,192,10003,128,0,10336:0:0:0:0:
448,192,10003,128,0,10336:0:0:0:0:
320,192,10336,128,0,10503:0:0:0:0:
64,192,10336,1,0,0:0:0:0:
64,192,10503,128,0,10670:0:0:0:0:
448,192,10503,1,0,0:0:0:0:
320,192,10670,128,0,11003:0:0:0:0:
448,192,10670,1,0,0:0:0:0:
64,192,10836,128,0,11336:0:0:0:0:
192,192,10836,1,0,0:0:0:0:
448,192,11003,128,0,11336:0:0:0:0:
192,192,11170,128,0,11336:0:0:0:0:
320,192,11170,1,0,0:0:0:0:
320,192,11336,128,0,11503:0:0:0:0:
64,192,11503,1,0,0:0:0:0:
448,192,11586,128,0,11920:0:0:0:0:
320,192,11628,128,0,11920:0:0:0:0:
64,192,11670,128,0,11920:0:0:0:0:
192,192,12003,128,0,12336:0:0:0:0:
64,192,12003,1,0,0:0:0:0:
448,192,12170,128,0,12336:0:0:0:0:
320,192,12170,1,0,0:0:0:0:
64,192,12336,128,0,12503:0:0:0:0:
320,192,12503,128,0,12670:0:0:0:0:
448,192,12670,128,0,13170:0:0:0:0:
192,192,12670,1,0,0:0:0:0:
64,192,12670,1,0,0:0:0:0:
64,192,12836,1,0,0:0:0:0:
192,192,12920,1,0,0:0:0:0:
64,192,13003,1,0,0:0:0:0:
64,192,13170,128,0,13420:0:0:0:0:
192,192,13336,128,0,13586:0:0:0:0:
448,192,13336,1,0,0:0:0:0:
320,192,13503,128,0,13753:0:0:0:0:
64,192,13670,128,0,13920:0:0:0:0:
192,192,13670,1,0,0:0:0:0:
448,192,13670,1,0,0:0:0:0:
448,192,13836,128,0,14086:0:0:0:0:
64,192,14003,1,0,0:0:0:0:
192,192,14003,1,0,0:0:0:0:
320,192,14003,1,0,0:0:0:0:
192,192,14170,128,0,14503:0:0:0:0:
320,192,14336,1,0,0:0:0:0:
448,192,14503,128,0,14670:0:0:0:0:
320,192,14670,1,0,0:0:0:0:
64,192,14670,128,0,15336:0:0:0:0:
192,192,14670,1,0,0:0:0:0:
320,192,14836,1,0,0:0:0:0:
192,192,15003,1,0,0:0:0:0:
448,192,15003,1,0,0:0:0:0:
192,192,15170,1,0,0:0:0:0:
320,192,15336,1,0,0:0:0:0:
448,192,15336,1,0,0:0:0:0:
64,192,15503,1,0,0:0:0:0:
64,192,15670,1,0,0:0:0:0:
192,192,15670,1,0,0:0:0:0:
448,192,15670,1,0,0:0:0:0:
448,192,16336,128,0,16586:0:0:0:0:
64,192,16503,128,0,16670:0:0:0:0:
192,192,16586,128,0,16670:0:0:0:0:
448,192,16670,1,0,0:0:0:0:
320,192,16670,128,0,17003:0:0:0:0:
192,192,16836,128,0,17170:0:0:0:0:
448,192,17003,128,0,17170:0:0:0:0:
64,192,17003,1,0,0:0:0:0:
320,192,17170,128,0,17336:0:0:0:0:
448,192,17336,128,0,17586:0:0:0:0:
64,192,17336,1,0,0:0:0:0:
192,192,17503,128,0,17586:0:0:0:0:
320,192,17503,1,0,0:0:0:0:
320,192,17670,128,0,18003:0:0:0:0:
64,192,17670,1,0,0:0:0:0:
448,192,17670,1,0,0:0:0:0:
448,192,17836,128,0,18170:0:0:0:0:
192,192,18003,128,0,18170:0:0:0:0:
64,192,18003,1,0,0:0:0:0:
320,192,18170,128,0,18336:0:0:0:0:
64,192,18336,128,0,18586:0:0:0:0:
448,192,18336,1,0,0:0:0:0:
320,192,18503,128,0,18586:0:0:0:0:
448,192,18670,128,0,19170:0:0:0:0:
192,192,18670,1,0,0:0:0:0:
64,192,18670,1,0,0:0:0:0:
64,192,19003,128,0,19170:0:0:0:0:
320,192,19003,1,0,0:0:0:0:
320,192,19170,128,0,19336:0:0:0:0:
448,192,19336,1,0,0:0:0:0:
192,192,19336,128,0,19503:0:0:0:0:
64,192,19336,1,0,0:0:0:0:
448,192,19503,128,0,19670:0:0:0:0:
320,192,19503,1,0,0:0:0:0:
64,192,19670,128,0,19836:0:0:0:0:
192,192,19670,1,0,0:0:0:0:
320,192,19670,1,0,0:0:0:0:
448,192,19836,128,0,20003:0:0:0:0:
64,192,20003,128,0,20336:0:0:0:0:
320,192,20003,1,0,0:0:0:0:
192,192,20003,1,0,0:0:0:0:
192,192,20170,1,0,0:0:0:0:
448,192,20336,128,0,20503:0:0:0:0:
320,192,20336,1,0,0:0:0:0:
64,192,20503,128,0,20670:0:0:0:0:
192,192,20586,128,0,20670:0:0:0:0:
320,192,20670,128,0,21003:0:0:0:0:
448,192,20670,1,0,0:0:0:0:
192,192,20836,128,0,21170:0:0:0:0:
448,192,21003,128,0,21170:0:0:0:0:
64,192,21003,1,0,0:0:0:0:
320,192,21170,128,0,21336:0:0:0:0:
64,192,21336,128,0,21586:0:0:0:0:
448,192,21336,1,0,0:0:0:0:
192,192,21503,128,0,21586:0:0:0:0:
320,192,21503,1,0,0:0:0:0:
320,192,21670,128,0,22003:0:0:0:0:
64,192,21670,1,0,0:0:0:0:
448,192,21670,1,0,0:0:0:0:
448,192,21836,128,0,22170:0:0:0:0:
192,192,22003,128,0,22170:0:0:0:0:
64,192,22003,1,0,0:0:0:0:
320,192,22170,128,0,22336:0:0:0:0:
64,192,22336,128,0,22503:0:0:0:0:
448,192,22336,1,0,0:0:0:0:
320,192,22503,128,0,22670:0:0:0:0:
192,192,22670,128,0,22920:0:0:0:0:
64,192,22670,1,0,0:0:0:0:
448,192,22670,1,0,0:0:0:0:
320,192,22836,128,0,23086:0:0:0:0:
192,192,23003,128,0,23170:0:0:0:0:
320,192,23170,128,0,23336:0:0:0:0:
64,192,23170,1,0,0:0:0:0:
448,192,23170,128,0,23336:0:0:0:0:
192,192,23336,128,0,23503:0:0:0:0:
64,192,23336,128,0,23503:0:0:0:0:
320,192,23503,128,0,23670:0:0:0:0:
448,192,23503,128,0,23670:0:0:0:0:
64,192,23670,128,0,23920:0:0:0:0:
192,192,23670,1,0,0:0:0:0:
320,192,23836,128,0,24003:0:0:0:0:
192,192,24003,1,0,0:0:0:0:
64,192,24003,1,0,0:0:0:0:
448,192,24003,128,0,24503:0:0:0:0:
64,192,24170,1,0,0:0:0:0:
192,192,24336,1,0,0:0:0:0:
64,192,24503,128,0,24670:0:0:0:0:
320,192,24503,1,0,0:0:0:0:
320,192,24670,1,0,0:0:0:0:
448,192,24670,1,0,0:0:0:0:
192,192,24670,128,0,25170:0:0:0:0:
320,192,25003,1,0,0:0:0:0:
448,192,25003,1,0,0:0:0:0:
64,192,25170,128,0,25336:0:0:0:0:
192,192,25336,128,0,25503:0:0:0:0:
320,192,25336,1,0,0:0:0:0:
448,192,25503,128,0,25670:0:0:0:0:
320,192,25670,128,0,26003:0:0:0:0:
192,192,25670,1,0,0:0:0:0:
64,192,25670,1,0,0:0:0:0:
64,192,25836,128,0,26170:0:0:0:0:
192,192,26003,128,0,26336:0:0:0:0:
448,192,26003,1,0,0:0:0:0:
448,192,26170,128,0,26503:0:0:0:0:
64,192,26336,128,0,26503:0:0:0:0:
320,192,26336,1,0,0:0:0:0:
320,192,26503,128,0,26670:0:0:0:0:
64,192,26586,128,0,26920:0:0:0:0:
192,192,26670,128,0,26920:0:0:0:0:
448,192,26670,1,0,0:0:0:0:
192,192,27003,128,0,27253:0:0:0:0:
320,192,27003,128,0,27253:0:0:0:0:
64,192,27003,1,0,0:0:0:0:
320,192,27336,128,0,27586:0:0:0:0:
448,192,27336,128,0,27586:0:0:0:0:
64,192,27336,1,0,0:0:0:0:
64,192,27670,1,0,0:0:0:0:
192,192,27670,128,0,28086:0:0:0:0:
448,192,27670,128,0,28086:0:0:0:0:
64,192,28170,128,0,28586:0:0:0:0:
320,192,28170,128,0,28586:0:0:0:0:
448,192,28170,128,0,28586:0:0:0:0:
192,192,28670,128,0,29170:0:0:0:0:
64,192,28670,1,0,0:0:0:0:
448,192,28670,1,0,0:0:0:0:
320,192,29003,1,0,0:0:0:0:
448,192,29003,1,0,0:0:0:0:
64,192,29170,128,0,29336:0:0:0:0:
448,192,29336,1,0,0:0:0:0:
320,192,29336,1,0,0:0:0:0:
192,192,29336,128,0,29503:0:0:0:0:
448,192,29503,128,0,29670:0:0:0:0:
64,192,29670,1,0,0:0:0:0:
192,192,29670,1,0,0:0:0:0:
320,192,29670,128,0,30170:0:0:0:0:
64,192,30003,1,0,0:0:0:0:
192,192,30003,1,0,0:0:0:0:
448,192,30170,128,0,30336:0:0:0:0:
64,192,30336,128,0,30503:0:0:0:0:
320,192,30336,1,0,0:0:0:0:
192,192,30503,128,0,30670:0:0:0:0:
448,192,30670,128,0,31170:0:0:0:0:
64,192,30670,1,0,0:0:0:0:
320,192,30670,1,0,0:0:0:0:
64,192,31003,128,0,31170:0:0:0:0:
192,192,31003,1,0,0:0:0:0:
320,192,31336,1,0,0:0:0:0:
448,192,31336,128,0,31503:0:0:0:0:
64,192,31336,128,0,31503:0:0:0:0:
192,192,31503,1,0,0:0:0:0:
64,192,31670,1,0,0:0:0:0:
448,192,31670,1,0,0:0:0:0:
320,192,31670,1,0,0:0:0:0:
192,192,31836,1,0,0:0:0:0:
64,192,32003,1,0,0:0:0:0:
192,192,32003,1,0,0:0:0:0:
448,192,32003,1,0,0:0:0:0:
320,192,32170,1,0,0:0:0:0:
448,192,32170,1,0,0:0:0:0:
320,192,32336,1,0,0:0:0:0:
192,192,32336,1,0,0:0:0:0:
192,192,32503,1,0,0:0:0:0:
64,192,32503,1,0,0:0:0:0:
64,192,32670,128,0,32920:0:0:0:0:
320,192,32670,1,0,0:0:0:0:
448,192,32670,128,0,32920:0:0:0:0:
448,192,33003,128,0,33086:0:0:0:0:
192,192,33003,1,0,0:0:0:0:
320,192,33170,1,0,0:0:0:0:
320,192,33336,128,0,33420:0:0:0:0:
64,192,33336,1,0,0:0:0:0:
192,192,33503,1,0,0:0:0:0:
64,192,33670,128,0,33920:0:0:0:0:
320,192,33670,128,0,33920:0:0:0:0:
448,192,33670,1,0,0:0:0:0:
64,192,34003,128,0,34336:0:0:0:0:
448,192,34003,1,0,0:0:0:0:
192,192,34045,128,0,34336:0:0:0:0:
448,192,34336,128,0,34420:0:0:0:0:
192,192,34503,128,0,34586:0:0:0:0:
320,192,34670,128,0,34878:0:0:0:0:
448,192,34670,128,0,34878:0:0:0:0:
64,192,34670,1,0,0:0:0:0:
64,192,34920,128,0,35253:0:0:0:0:
192,192,34961,128,0,35253:0:0:0:0:
320,192,35003,128,0,35253:0:0:0:0:
448,192,35336,128,0,35420:0:0:0:0:
192,192,35336,1,0,0:0:0:0:
64,192,35503,1,0,0:0:0:0:
448,192,35586,128,0,35920:0:0:0:0:
320,192,35628,128,0,35920:0:0:0:0:
192,192,35670,128,0,35920:0:0:0:0:
64,192,36003,1,0,0:0:0:0:
192,192,36003,1,0,0:0:0:0:
448,192,36045,128,0,36128:0:0:0:0:
320,192,36170,128,0,36253:0:0:0:0:
64,192,36336,128,0,36420:0:0:0:0:
448,192,36336,1,0,0:0:0:0:
192,192,36503,128,0,36586:0:0:0:0:
320,192,36670,1,0,0:0:0:0:
64,192,36670,128,0,37003:0:0:0:0:
448,192,36670,1,0,0:0:0:0:
192,192,37003,1,0,0:0:0:0:
448,192,37003,1,0,0:0:0:0:
64,192,37170,128,0,37253:0:0:0:0:
192,192,37336,128,0,37420:0:0:0:0:
448,192,37336,1,0,0:0:0:0:
320,192,37503,128,0,37586:0:0:0:0:
192,192,37670,128,0,38003:0:0:0:0:
64,192,37670,1,0,0:0:0:0:
448,192,37670,1,0,0:0:0:0:
448,192,38003,1,0,0:0:0:0:
320,192,38045,128,0,38128:0:0:0:0:
64,192,38170,128,0,38253:0:0:0:0:
192,192,38336,128,0,38420:0:0:0:0:
448,192,38336,1,0,0:0:0:0:
320,192,38503,128,0,38586:0:0:0:0:
192,192,38670,128,0,38920:0:0:0:0:
64,192,38670,1,0,0:0:0:0:
448,192,38670,1,0,0:0:0:0:
448,192,38836,128,0,39086:0:0:0:0:
64,192,39003,128,0,39253:0:0:0:0:
192,192,39003,1,0,0:0:0:0:
320,192,39170,128,0,39420:0:0:0:0:
448,192,39170,1,0,0:0:0:0:
64,192,39336,128,0,39586:0:0:0:0:
192,192,39336,1,0,0:0:0:0:
448,192,39586,128,0,39920:0:0:0:0:
320,192,39628,128,0,39920:0:0:0:0:
192,192,39670,128,0,39920:0:0:0:0:
64,192,39670,1,0,0:0:0:0:
64,192,40003,128,0,40336:0:0:0:0:
448,192,40003,128,0,40170:0:0:0:0:
320,192,40003,1,0,0:0:0:0:
192,192,40253,128,0,40503:0:0:0:0:
320,192,40295,128,0,40503:0:0:0:0:
448,192,40336,128,0,40503:0:0:0:0:
64,192,40503,128,0,40670:0:0:0:0:
320,192,40670,128,0,40920:0:0:0:0:
448,192,40670,1,0,0:0:0:0:
192,192,40670,128,0,40920:0:0:0:0:
448,192,41003,128,0,41086:0:0:0:0:
64,192,41003,1,0,0:0:0:0:
320,192,41170,1,0,0:0:0:0:
320,192,41336,128,0,41420:0:0:0:0:
64,192,41336,1,0,0:0:0:0:
192,192,41503,1,0,0:0:0:0:
192,192,41670,128,0,41920:0:0:0:0:
64,192,41670,128,0,41920:0:0:0:0:
448,192,41670,1,0,0:0:0:0:
448,192,42003,128,0,42336:0:0:0:0:
64,192,42003,1,0,0:0:0:0:
320,192,42045,128,0,42336:0:0:0:0:
64,192,42336,128,0,42420:0:0:0:0:
192,192,42503,128,0,42586:0:0:0:0:
320,192,42670,128,0,42836:0:0:0:0:
448,192,42670,1,0,0:0:0:0:
64,192,42836,128,0,43003:0:0:0:0:
192,192,42920,128,0,43253:0:0:0:0:
320,192,43003,128,0,43253:0:0:0:0:
448,192,43045,128,0,43253:0:0:0:0:
448,192,43336,128,0,43503:0:0:0:0:
64,192,43336,1,0,0:0:0:0:
64,192,43586,128,0,43920:0:0:0:0:
192,192,43628,128,0,43920:0:0:0:0:
320,192,43670,128,0,43920:0:0:0:0:
448,192,43670,1,0,0:0:0:0:
448,192,44003,128,0,44170:0:0:0:0:
64,192,44003,1,0,0:0:0:0:
320,192,44170,128,0,44336:0:0:0:0:
64,192,44336,128,0,44503:0:0:0:0:
448,192,44336,1,0,0:0:0:0:
320,192,44503,128,0,44670:0:0:0:0:
448,192,44670,128,0,45170:0:0:0:0:
64,192,44670,1,0,0:0:0:0:
192,192,44670,1,0,0:0:0:0:
320,192,45003,1,0,0:0:0:0:
192,192,45003,1,0,0:0:0:0:
64,192,45170,128,0,45503:0:0:0:0:
448,192,45336,128,0,45503:0:0:0:0:
192,192,45336,1,0,0:0:0:0:
320,192,45503,128,0,45670:0:0:0:0:
192,192,45670,128,0,45920:0:0:0:0:
64,192,45670,1,0,0:0:0:0:
448,192,45670,1,0,0:0:0:0:
448,192,45836,128,0,45961:0:0:0:0:
320,192,45920,128,0,46045:0:0:0:0:
64,192,46003,1,0,0:0:0:0:
64,192,46170,128,0,46503:0:0:0:0:
448,192,46336,1,0,0:0:0:0:
192,192,46336,1,0,0:0:0:0:
448,192,46503,128,0,46670:0:0:0:0:
192,192,46670,128,0,48336:0:0:0:0:
64,192,46670,1,0,0:0:0:0:
320,192,46670,1,0,0:0:0:0:
448,192,47003,1,0,0:0:0:0:
64,192,47170,1,0,0:0:0:0:
448,192,47170,1,0,0:0:0:0:
320,192,47336,1,0,0:0:0:0:
64,192,47503,1,0,0:0:0:0:
320,192,47670,1,0,0:0:0:0:
448,192,47670,1,0,0:0:0:0:
64,192,47670,1,0,0:0:0:0:
320,192,48336,128,0,48503:0:0:0:0:
64,192,48503,1,0,0:0:0:0:
192,192,48586,1,0,0:0:0:0:
448,192,48670,128,0,48836:0:0:0:0:
320,192,48670,1,0,0:0:0:0:
64,192,48670,1,0,0:0:0:0:
64,192,48836,128,0,49003:0:0:0:0:
192,192,49003,128,0,49170:0:0:0:0:
320,192,49003,1,0,0:0:0:0:
448,192,49003,1,0,0:0:0:0:
448,192,49170,128,0,49336:0:0:0:0:
64,192,49336,128,0,49503:0:0:0:0:
192,192,49503,128,0,49670:0:0:0:0:
448,192,49670,128,0,49836:0:0:0:0:
64,192,49670,1,0,0:0:0:0:
64,192,49836,128,0,50003:0:0:0:0:
192,192,50003,128,0,50170:0:0:0:0:
320,192,50003,1,0,0:0:0:0:
448,192,50003,1,0,0:0:0:0:
448,192,50170,128,0,50670:0:0:0:0:
64,192,50336,128,0,50503:0:0:0:0:
192,192,50503,128,0,50670:0:0:0:0:
320,192,50670,128,0,51170:0:0:0:0:
64,192,50670,1,0,0:0:0:0:
64,192,51003,1,0,0:0:0:0:
192,192,51003,1,0,0:0:0:0:
448,192,51170,128,0,51336:0:0:0:0:
320,192,51336,128,0,51503:0:0:0:0:
192,192,51503,128,0,51670:0:0:0:0:
64,192,51670,128,0,51836:0:0:0:0:
448,192,51670,1,0,0:0:0:0:
448,192,51836,128,0,52003:0:0:0:0:
64,192,52003,128,0,52170:0:0:0:0:
192,192,52003,1,0,0:0:0:0:
320,192,52003,1,0,0:0:0:0:
320,192,52170,128,0,52336:0:0:0:0:
64,192,52336,128,0,52503:0:0:0:0:
192,192,52336,1,0,0:0:0:0:
448,192,52336,1,0,0:0:0:0:
192,192,52503,128,0,52670:0:0:0:0:
448,192,52670,128,0,52836:0:0:0:0:
64,192,52670,1,0,0:0:0:0:
64,192,52836,128,0,53003:0:0:0:0:
192,192,53003,128,0,53170:0:0:0:0:
320,192,53003,1,0,0:0:0:0:
448,192,53003,1,0,0:0:0:0:
448,192,53170,128,0,53336:0:0:0:0:
64,192,53336,128,0,53503:0:0:0:0:
192,192,53503,128,0,53670:0:0:0:0:
448,192,53670,128,0,53836:0:0:0:0:
64,192,53670,1,0,0:0:0:0:
64,192,53836,128,0,54003:0:0:0:0:
192,192,54003,128,0,54170:0:0:0:0:
320,192,54003,1,0,0:0:0:0:
448,192,54003,1,0,0:0:0:0:
448,192,54170,128,0,54503:0:0:0:0:
64,192,54336,128,0,54503:0:0:0:0:
192,192,54503,128,0,54670:0:0:0:0:
320,192,54670,128,0,55003:0:0:0:0:
64,192,54670,1,0,0:0:0:0:
448,192,54670,1,0,0:0:0:0:
64,192,55003,128,0,55170:0:0:0:0:
192,192,55003,128,0,55836:0:0:0:0:
448,192,55003,128,0,55170:0:0:0:0:
320,192,55336,128,0,55503:0:0:0:0:
448,192,55336,128,0,55836:0:0:0:0:
64,192,55336,128,0,55503:0:0:0:0:
64,192,55670,128,0,55836:0:0:0:0:
320,192,55670,128,0,56170:0:0:0:0:
192,192,56003,128,0,56170:0:0:0:0:
448,192,56003,128,0,56586:0:0:0:0:
64,192,56003,1,0,0:0:0:0:
64,192,56170,1,0,0:0:0:0:
320,192,56336,128,0,56586:0:0:0:0:
64,192,56336,1,0,0:0:0:0:
192,192,56336,1,0,0:0:0:0:
192,192,56503,1,0,0:0:0:0:
64,192,56670,128,0,57253:0:0:0:0:
320,192,56670,1,0,0:0:0:0:
448,192,56670,1,0,0:0:0:0:
448,192,57003,1,0,0:0:0:0:
192,192,57170,1,0,0:0:0:0:
448,192,57336,128,0,57586:0:0:0:0:
320,192,57336,1,0,0:0:0:0:
64,192,57336,1,0,0:0:0:0:
192,192,57503,1,0,0:0:0:0:
192,192,57670,128,0,58003:0:0:0:0:
64,192,57670,1,0,0:0:0:0:
448,192,57670,1,0,0:0:0:0:
64,192,58003,1,0,0:0:0:0:
320,192,58003,1,0,0:0:0:0:
64,192,58170,128,0,58503:0:0:0:0:
192,192,58170,1,0,0:0:0:0:
448,192,58170,1,0,0:0:0:0:
320,192,58503,128,0,58670:0:0:0:0:
64,192,58670,1,0,0:0:0:0:
448,192,58670,1,0,0:0:0:0:
192,192,58670,128,0,59586:0:0:0:0:
64,192,59003,1,0,0:0:0:0:
320,192,59003,1,0,0:0:0:0:
448,192,59003,128,0,59253:0:0:0:0:
64,192,59170,1,0,0:0:0:0:
64,192,59336,128,0,59586:0:0:0:0:
320,192,59336,1,0,0:0:0:0:
448,192,59336,1,0,0:0:0:0:
448,192,59503,1,0,0:0:0:0:
320,192,59670,128,0,60003:0:0:0:0:
64,192,59670,1,0,0:0:0:0:
192,192,59670,1,0,0:0:0:0:
448,192,59670,1,0,0:0:0:0:
192,192,60003,128,0,60336:0:0:0:0:
64,192,60003,1,0,0:0:0:0:
448,192,60003,1,0,0:0:0:0:
320,192,60336,1,0,0:0:0:0:
448,192,60336,1,0,0:0:0:0:
64,192,60336,128,0,60670:0:0:0:0:
320,192,60670,128,0,61170:0:0:0:0:
64,192,61003,1,0,0:0:0:0:
448,192,61003,1,0,0:0:0:0:
192,192,61003,1,0,0:0:0:0:
64,192,61170,128,0,61586:0:0:0:0:
192,192,61336,128,0,61586:0:0:0:0:
448,192,61503,128,0,61586:0:0:0:0:
448,192,61670,1,0,0:0:0:0:
64,192,61670,128,0,61920:0:0:0:0:
320,192,61670,128,0,61920:0:0:0:0:
192,192,62003,128,0,62253:0:0:0:0:
448,192,62003,128,0,62253:0:0:0:0:
64,192,62003,1,0,0:0:0:0:
320,192,62336,128,0,62586:0:0:0:0:
448,192,62336,128,0,62586:0:0:0:0:
64,192,62336,1,0,0:0:0:0:
64,192,62670,128,0,63503:0:0:0:0:
448,192,62670,128,0,63586:0:0:0:0:
192,192,62670,1,0,0:0:0:0:
320,192,62670,1,0,0:0:0:0:
192,192,63003,1,0,0:0:0:0:
320,192,63003,1,0,0:0:0:0:
192,192,63336,1,0,0:0:0:0:
320,192,63503,1,0,0:0:0:0:
64,192,63628,128,0,63920:0:0:0:0:
192,192,63670,128,0,63920:0:0:0:0:
448,192,63670,1,0,0:0:0:0:
320,192,63836,1,0,0:0:0:0:
64,192,64003,1,0,0:0:0:0:
192,192,64003,1,0,0:0:0:0:
448,192,64003,128,0,64086:0:0:0:0:
320,192,64170,1,0,0:0:0:0:
64,192,64336,128,0,64503:0:0:0:0:
448,192,64336,1,0,0:0:0:0:
320,192,64503,128,0,64670:0:0:0:0:
448,192,64670,128,0,64920:0:0:0:0:
192,192,64670,1,0,0:0:0:0:
64,192,64670,128,0,64920:0:0:0:0:
64,192,65003,128,0,65086:0:0:0:0:
320,192,65003,1,0,0:0:0:0:
192,192,65170,1,0,0:0:0:0:
192,192,65336,128,0,65420:0:0:0:0:
448,192,65336,1,0,0:0:0:0:
320,192,65503,1,0,0:0:0:0:
448,192,65670,128,0,65920:0:0:0:0:
192,192,65670,128,0,65920:0:0:0:0:
64,192,65670,1,0,0:0:0:0:
448,192,66003,128,0,66336:0:0:0:0:
64,192,66003,1,0,0:0:0:0:
320,192,66045,128,0,66336:0:0:0:0:
64,192,66336,128,0,66420:0:0:0:0:
320,192,66503,128,0,66586:0:0:0:0:
448,192,66670,1,0,0:0:0:0:
192,192,66670,128,0,66878:0:0:0:0:
64,192,66670,128,0,66878:0:0:0:0:
448,192,66920,128,0,67253:0:0:0:0:
320,192,66961,128,0,67253:0:0:0:0:
192,192,67003,128,0,67253:0:0:0:0:
64,192,67336,128,0,67420:0:0:0:0:
320,192,67336,1,0,0:0:0:0:
448,192,67503,1,0,0:0:0:0:
64,192,67586,128,0,67920:0:0:0:0:
192,192,67628,128,0,67920:0:0:0:0:
320,192,67670,128,0,67920:0:0:0:0:
448,192,68003,1,0,0:0:0:0:
320,192,68003,1,0,0:0:0:0:
64,192,68045,128,0,68128:0:0:0:0:
192,192,68170,128,0,68253:0:0:0:0:
448,192,68336,128,0,68420:0:0:0:0:
64,192,68336,1,0,0:0:0:0:
320,192,68503,128,0,68586:0:0:0:0:
448,192,68670,128,0,69003:0:0:0:0:
64,192,68670,1,0,0:0:0:0:
192,192,68670,1,0,0:0:0:0:
320,192,69003,1,0,0:0:0:0:
64,192,69003,1,0,0:0:0:0:
448,192,69170,128,0,69253:0:0:0:0:
320,192,69336,128,0,69420:0:0:0:0:
64,192,69336,1,0,0:0:0:0:
192,192,69503,128,0,69586:0:0:0:0:
320,192,69670,128,0,70003:0:0:0:0:
448,192,69670,1,0,0:0:0:0:
64,192,69670,1,0,0:0:0:0:
64,192,70003,1,0,0:0:0:0:
192,192,70045,128,0,70128:0:0:0:0:
448,192,70170,128,0,70253:0:0:0:0:
320,192,70336,128,0,70420:0:0:0:0:
64,192,70336,1,0,0:0:0:0:
192,192,70503,128,0,70586:0:0:0:0:
320,192,70670,128,0,70920:0:0:0:0:
448,192,70670,1,0,0:0:0:0:
64,192,70670,1,0,0:0:0:0:
64,192,70836,128,0,71086:0:0:0:0:
448,192,71003,128,0,71253:0:0:0:0:
320,192,71003,1,0,0:0:0:0:
192,192,71170,128,0,71420:0:0:0:0:
64,192,71170,1,0,0:0:0:0:
448,192,71336,128,0,71586:0:0:0:0:
320,192,71336,1,0,0:0:0:0:
64,192,71586,128,0,71920:0:0:0:0:
192,192,71628,128,0,71920:0:0:0:0:
320,192,71670,128,0,71920:0:0:0:0:
448,192,71670,1,0,0:0:0:0:
448,192,72003,128,0,72336:0:0:0:0:
64,192,72003,128,0,72170:0:0:0:0:
192,192,72003,1,0,0:0:0:0:
320,192,72253,128,0,72503:0:0:0:0:
192,192,72295,128,0,72503:0:0:0:0:
64,192,72336,128,0,72503:0:0:0:0:
448,192,72503,128,0,72670:0:0:0:0:
320,192,72670,128,0,72920:0:0:0:0:
192,192,72670,128,0,72920:0:0:0:0:
64,192,72670,1,0,0:0:0:0:
64,192,73003,128,0,73086:0:0:0:0:
448,192,73003,1,0,0:0:0:0:
192,192,73170,1,0,0:0:0:0:
192,192,73336,128,0,73420:0:0:0:0:
448,192,73336,1,0,0:0:0:0:
320,192,73503,1,0,0:0:0:0:
320,192,73670,128,0,73920:0:0:0:0:
448,192,73670,128,0,73920:0:0:0:0:
64,192,73670,1,0,0:0:0:0:
64,192,74003,128,0,74336:0:0:0:0:
448,192,74003,1,0,0:0:0:0:
192,192,74045,128,0,74336:0:0:0:0:
448,192,74336,128,0,74420:0:0:0:0:
320,192,74503,128,0,74586:0:0:0:0:
192,192,74670,128,0,74836:0:0:0:0:
64,192,74670,1,0,0:0:0:0:
448,192,74670,1,0,0:0:0:0:
448,192,74836,128,0,75003:0:0:0:0:
320,192,74920,128,0,75253:0:0:0:0:
192,192,75003,128,0,75253:0:0:0:0:
64,192,75045,128,0,75253:0:0:0:0:
64,192,75336,128,0,75503:0:0:0:0:
448,192,75336,1,0,0:0:0:0:
320,192,75336,1,0,0:0:0:0:
448,192,75586,128,0,75920:0:0:0:0:
320,192,75628,128,0,75920:0:0:0:0:
192,192,75670,128,0,75920:0:0:0:0:
64,192,75670,1,0,0:0:0:0:
64,192,76003,128,0,76170:0:0:0:0:
448,192,76003,1,0,0:0:0:0:
320,192,76003,1,0,0:0:0:0:
192,192,76170,128,0,76336:0:0:0:0:
320,192,76170,1,0,0:0:0:0:
448,192,76336,128,0,76503:0:0:0:0:
192,192,76503,128,0,76670:0:0:0:0:
64,192,76670,128,0,77170:0:0:0:0:
448,192,76670,1,0,0:0:0:0:
320,192,76670,1,0,0:0:0:0:
448,192,77003,1,0,0:0:0:0:
192,192,77003,1,0,0:0:0:0:
448,192,77170,128,0,77503:0:0:0:0:
64,192,77336,128,0,77503:0:0:0:0:
320,192,77336,1,0,0:0:0:0:
192,192,77503,128,0,77670:0:0:0:0:
320,192,77670,128,0,77920:0:0:0:0:
448,192,77670,1,0,0:0:0:0:
64,192,77670,1,0,0:0:0:0:
64,192,77836,128,0,77961:0:0:0:0:
192,192,77920,128,0,78045:0:0:0:0:
448,192,78003,1,0,0:0:0:0:
448,192,78170,128,0,78503:0:0:0:0:
64,192,78336,1,0,0:0:0:0:
320,192,78336,1,0,0:0:0:0:
64,192,78503,128,0,78670:0:0:0:0:
448,192,78670,1,0,0:0:0:0:
192,192,78670,1,0,0:0:0:0:
320,192,78670,128,0,78836:0:0:0:0:
64,192,78860,128,0,79050:0:0:0:0:
192,192,78920,128,0,79086:0:0:0:0:
448,192,78961,128,0,79336:0:0:0:0:
320,192,79336,1,0,0:0:0:0:
64,192,79336,128,0,79670:0:0:0:0:
192,192,79336,128,0,79670:0:0:0:0:
448,192,79670,128,0,80003:0:0:0:0:
320,192,79711,128,0,80003:0:0:0:0:
64,192,80003,128,0,80170:0:0:0:0:
192,192,80045,128,0,80170:0:0:0:0:
320,192,80170,128,0,80336:0:0:0:0:
448,192,80170,1,0,0:0:0:0:
64,192,80336,128,0,80420:0:0:0:0:
192,192,80336,1,0,0:0:0:0:
192,192,80503,128,0,80586:0:0:0:0:
320,192,80503,1,0,0:0:0:0:
64,192,80670,128,0,80920:0:0:0:0:
320,192,80670,1,0,0:0:0:0:
448,192,80670,128,0,80920:0:0:0:0:
64,192,81003,1,0,0:0:0:0:
448,192,81003,128,0,81086:0:0:0:0:
320,192,81170,1,0,0:0:0:0:
448,192,81336,1,0,0:0:0:0:
64,192,81336,128,0,81420:0:0:0:0:
192,192,81503,1,0,0:0:0:0:
448,192,81670,1,0,0:0:0:0:
320,192,81670,128,0,81920:0:0:0:0:
64,192,81670,1,0,0:0:0:0:
448,192,82003,1,0,0:0:0:0:
64,192,82003,128,0,82336:0:0:0:0:
192,192,82045,128,0,82336:0:0:0:0:
448,192,82336,128,0,82420:0:0:0:0:
320,192,82336,1,0,0:0:0:0:
192,192,82503,128,0,82586:0:0:0:0:
64,192,82670,1,0,0:0:0:0:
448,192,82670,128,0,82878:0:0:0:0:
320,192,82670,128,0,82878:0:0:0:0:
64,192,82920,128,0,83253:0:0:0:0:
192,192,82961,128,0,83253:0:0:0:0:
320,192,83003,128,0,83253:0:0:0:0:
448,192,83003,128,0,83503:0:0:0:0:
192,192,83336,128,0,83420:0:0:0:0:
64,192,83503,1,0,0:0:0:0:
320,192,83586,128,0,83920:0:0:0:0:
192,192,83628,128,0,83920:0:0:0:0:
64,192,83670,128,0,83920:0:0:0:0:
448,192,83670,1,0,0:0:0:0:
64,192,84003,1,0,0:0:0:0:
192,192,84003,128,0,84420:0:0:0:0:
448,192,84045,128,0,84128:0:0:0:0:
320,192,84170,128,0,84253:0:0:0:0:
64,192,84336,128,0,84420:0:0:0:0:
448,192,84336,128,0,84586:0:0:0:0:
192,192,84503,128,0,84586:0:0:0:0:
448,192,84670,1,0,0:0:0:0:
64,192,84670,128,0,85003:0:0:0:0:
320,192,84670,128,0,84836:0:0:0:0:
320,192,85003,1,0,0:0:0:0:
448,192,85003,128,0,85253:0:0:0:0:
192,192,85003,128,0,85253:0:0:0:0:
64,192,85170,128,0,85253:0:0:0:0:
448,192,85336,1,0,0:0:0:0:
192,192,85336,128,0,85420:0:0:0:0:
320,192,85503,128,0,85586:0:0:0:0:
64,192,85670,1,0,0:0:0:0:
192,192,85670,128,0,86003:0:0:0:0:
448,192,85670,128,0,85836:0:0:0:0:
448,192,86003,1,0,0:0:0:0:
320,192,86045,128,0,86128:0:0:0:0:
64,192,86170,128,0,86253:0:0:0:0:
448,192,86336,1,0,0:0:0:0:
192,192,86336,128,0,86420:0:0:0:0:
320,192,86503,128,0,86586:0:0:0:0:
448,192,86670,1,0,0:0:0:0:
192,192,86670,128,0,86920:0:0:0:0:
64,192,86670,128,0,86753:0:0:0:0:
448,192,86836,128,0,87086:0:0:0:0:
192,192,87003,1,0,0:0:0:0:
64,192,87003,128,0,87253:0:0:0:0:
320,192,87170,128,0,87420:0:0:0:0:
448,192,87170,128,0,87253:0:0:0:0:
64,192,87336,128,0,87586:0:0:0:0:
192,192,87336,1,0,0:0:0:0:
448,192,87586,128,0,87836:0:0:0:0:
320,192,87628,128,0,87836:0:0:0:0:
64,192,87670,1,0,0:0:0:0:
192,192,87670,128,0,87836:0:0:0:0:
64,192,87836,128,0,88003:0:0:0:0:
192,192,88003,128,0,88170:0:0:0:0:
448,192,88003,1,0,0:0:0:0:
448,192,88170,128,0,88586:0:0:0:0:
64,192,88170,128,0,88586:0:0:0:0:
320,192,88170,128,0,88336:0:0:0:0:
192,192,88336,128,0,88586:0:0:0:0:
320,192,88503,128,0,88586:0:0:0:0:
64,192,88670,1,0,0:0:0:0:
192,192,88670,128,0,88920:0:0:0:0:
448,192,88670,128,0,88920:0:0:0:0:
64,192,89003,1,0,0:0:0:0:
448,192,89003,128,0,89086:0:0:0:0:
192,192,89170,1,0,0:0:0:0:
64,192,89336,1,0,0:0:0:0:
320,192,89336,128,0,89420:0:0:0:0:
448,192,89503,1,0,0:0:0:0:
320,192,89670,1,0,0:0:0:0:
64,192,89670,128,0,89920:0:0:0:0:
192,192,89670,128,0,89920:0:0:0:0:
64,192,90003,1,0,0:0:0:0:
448,192,90003,128,0,90336:0:0:0:0:
320,192,90045,128,0,90336:0:0:0:0:
64,192,90336,128,0,90420:0:0:0:0:
192,192,90503,128,0,90586:0:0:0:0:
320,192,90670,128,0,90836:0:0:0:0:
448,192,90670,1,0,0:0:0:0:
192,192,90670,1,0,0:0:0:0:
64,192,90670,1,0,0:0:0:0:
64,192,90836,128,0,91003:0:0:0:0:
192,192,90920,128,0,91253:0:0:0:0:
320,192,91003,128,0,91253:0:0:0:0:
448,192,91045,128,0,91253:0:0:0:0:
64,192,91336,1,0,0:0:0:0:
448,192,91336,128,0,91586:0:0:0:0:
192,192,91336,1,0,0:0:0:0:
320,192,91336,128,0,91545:0:0:0:0:
64,192,91586,128,0,91920:0:0:0:0:
192,192,91628,128,0,91920:0:0:0:0:
448,192,91670,1,0,0:0:0:0:
320,192,91670,128,0,91920:0:0:0:0:
448,192,92003,128,0,92170:0:0:0:0:
320,192,92045,128,0,92170:0:0:0:0:
64,192,92170,128,0,92336:0:0:0:0:
192,192,92170,1,0,0:0:0:0:
320,192,92336,128,0,92670:0:0:0:0:
192,192,92503,128,0,92670:0:0:0:0:
64,192,92670,1,0,0:0:0:0:
448,192,92670,128,0,93086:0:0:0:0:
320,192,93003,1,0,0:0:0:0:
64,192,93003,128,0,93253:0:0:0:0:
192,192,93003,1,0,0:0:0:0:
448,192,93170,128,0,93586:0:0:0:0:
320,192,93336,128,0,93586:0:0:0:0:
192,192,93503,128,0,93586:0:0:0:0:
64,192,93503,128,0,93586:0:0:0:0:
448,192,93670,1,0,0:0:0:0:
320,192,93670,1,0,0:0:0:0:
64,192,93670,128,0,93920:0:0:0:0:
448,192,93836,128,0,93961:0:0:0:0:
320,192,93920,128,0,94045:0:0:0:0:
64,192,94003,1,0,0:0:0:0:
192,192,94003,1,0,0:0:0:0:
64,192,94170,128,0,94503:0:0:0:0:
192,192,94336,1,0,0:0:0:0:
448,192,94336,1,0,0:0:0:0:
448,192,94503,128,0,94670:0:0:0:0:
320,192,94670,1,0,0:0:0:0:
64,192,94670,1,0,0:0:0:0:
192,192,94670,128,0,96503:0:0:0:0:
448,192,95003,128,0,95586:0:0:0:0:
64,192,95336,128,0,95586:0:0:0:0:
320,192,95503,128,0,95586:0:0:0:0:
64,192,95670,128,0,96461:0:0:0:0:
320,192,95670,128,0,96545:0:0:0:0:
448,192,95670,128,0,96586:0:0:0:0:
64,192,96586,128,0,96753:0:0:0:0:
192,192,96628,128,0,96795:0:0:0:0:
320,192,96670,128,0,97155:0:0:0:0:
448,192,97003,128,0,97813:0:0:0:0:
64,192,97003,1,0,0:0:0:0:
192,192,97003,1,0,0:0:0:0:
64,192,97205,128,0,97408:0:0:0:0:
192,192,97408,128,0,97611:0:0:0:0:
320,192,97611,128,0,97813:0:0:0:0:
64,192,97813,128,0,98035:0:0:0:0:
448,192,98035,128,0,98257:0:0:0:0:
192,192,98257,128,0,98479:0:0:0:0:
448,192,98479,128,0,99079:0:0:0:0:
64,192,98479,1,0,0:0:0:0:
64,192,99079,128,0,100460:0:0:0:0:
448,192,100460,1,0,0:0:0:0:
320,192,100515,1,0,0:0:0:0:
64,192,100585,1,0,0:0:0:0:
192,192,100668,1,0,0:0:0:0:
192,192,101710,1,0,0:0:0:0:
448,192,101751,1,0,0:0:0:0:
64,192,102793,1,0,0:0:0:0:
320,192,102835,1,0,0:0:0:0:
