osu file format v14

[General]
AudioFilename: M2U - Marigold.mp3
AudioLeadIn: 0
PreviewTime: 25480
Countdown: 0
SampleSet: Soft
StackLeniency: 0.7
Mode: 3
LetterboxInBreaks: 0
SpecialStyle: 0
WidescreenStoryboard: 0

[Editor]
Bookmarks: 91584
DistanceSpacing: 0.8
BeatDivisor: 4
GridSize: 8
TimelineZoom: 2.1

[Metadata]
Title:M2U Pack
TitleUnicode:M2U Pack
Artist:M2U
ArtistUnicode:M2U
Creator:Kim_GodSSI
Version:Marigold 7K
Source:
Tags:arpia97 lami- buschan ezmmr micleak nabi- ruka takjun roasted chicken murumoo other nicode sherie 約束之歌 guriri 구리리 howling redeye red eye lucy egoist 最後の花弁 나래
BeatmapID:3856446
BeatmapSetID:1572720

[Difficulty]
HPDrainRate:8
CircleSize:7
OverallDifficulty:7
ApproachRate:5
SliderMultiplier:1.4
SliderTickRate:1

[Events]
//Background and Video events
0,0,"M2U - Marigold.jpg",0,0
//Break Periods
//Storyboard Layer 0 (Background)
//Storyboard Layer 1 (Fail)
//Storyboard Layer 2 (Pass)
//Storyboard Layer 3 (Foreground)
//Storyboard Layer 4 (Overlay)
//Storyboard Sound Samples
Sample,1754,0,"F#6S_Gb6S_s.wav",66
Sample,2129,0,"F7S_s.wav",71
Sample,2504,0,"F#6S_Gb6S_s.wav",48
Sample,3067,0,"C#7S_Db7S_s.wav",81
Sample,3254,0,"D6S_s.wav",54
Sample,4567,0,"F#6S_Gb6S_s.wav",76
Sample,4567,0,"A#6S_Bb6S_s.wav",82
Sample,6067,0,"E6S_s.wav",70
Sample,6067,0,"A#6S_Bb6S_s.wav",88
Sample,6817,0,"D#6S_Eb6S_s.wav",82
Sample,6817,0,"E5S_s.wav",83
Sample,7754,0,"F#5S_Gb5S_s.wav",77
Sample,9067,0,"A#6S_Bb6S_s.wav",86
Sample,9817,0,"A#5S_Bb5S_s.wav",62
Sample,9817,0,"A#6S_Bb6S_s.wav",88
Sample,10192,0,"D#6S_Eb6S_s.wav",84
Sample,12067,0,"C#6S_Db6S_s.wav",88
Sample,13192,0,"D6S_s.wav",90
Sample,13192,0,"A#6S_Bb6S_s.wav",90
Sample,19567,0,"A#4S_Bb4S_s.wav",94
Sample,19567,0,"D#6S_Eb6S_s.wav",94
Sample,19567,0,"D#5S_Eb5S_s.wav",94
Sample,19567,0,"F#5S_Gb5S_s.wav",94
Sample,20317,0,"A#6S_Bb6S_s.wav",88
Sample,22004,0,"G#4S_Ab4S_s.wav",65
Sample,23223,0,"A4S_s.wav",88
Sample,23317,0,"A#6S_Bb6S_s.wav",95
Sample,23317,0,"F#6S_Gb6S_s.wav",95
Sample,23692,0,"D6S_s.wav",99
Sample,23692,0,"A#6S_Bb6S_s.wav",96
Sample,23692,0,"F6S_s.wav",96
Sample,24817,0,"D6S_s.wav",98
Sample,24817,0,"A#6S_Bb6S_s.wav",89
Sample,26223,0,"A#7S_Bb7S_s.wav",88
Sample,26317,0,"A#7S_Bb7S_s.wav",88
Sample,26317,0,"A#6S_Bb6S_s.wav",88
Sample,27067,0,"E7S_s.wav",87
Sample,27442,0,"D#7S_Eb7S_s.wav",100
Sample,27442,0,"G6S_s.wav",88
Sample,28567,0,"A#6S_Bb6S_s.wav",93
Sample,28567,0,"F6S_s.wav",98
Sample,29317,0,"A#6S_Bb6S_s.wav",99
Sample,29317,0,"F#6S_Gb6S_s.wav",93
Sample,29317,0,"D6S_s.wav",100
Sample,29692,0,"A#6S_Bb6S_s.wav",96
Sample,29692,0,"D6S_s.wav",99
Sample,29692,0,"F6S_s.wav",96
Sample,31660,0,"D#5S_Eb5S_s.wav",71
Sample,31848,0,"A#5S_Bb5S_s.wav",73
Sample,32035,0,"D#5S_Eb5S_s.wav",73
Sample,32223,0,"D#5S_Eb5S_s.wav",81
Sample,34660,0,"D#6S_Eb6S_s.wav",71
Sample,34848,0,"B6S_s.wav",73
Sample,35317,0,"D#7S_Eb7S_s.wav",88
Sample,35504,0,"F#7S_Gb7S_s.wav",88
Sample,35692,0,"A#7S_Bb7S_s.wav",88
Sample,35879,0,"C#8S_Db8S_s.wav",88
Sample,37192,0,"A#5S_Bb5S_s.wav",72
Sample,40567,0,"B5S_s.wav",77
Sample,41317,0,"C#6S_Db6S_s.wav",75
Sample,41317,0,"G#5S_Ab5S_s.wav",68
Sample,42817,0,"F#6S_Gb6S_s.wav",77
Sample,42817,0,"D6S_s.wav",77
Sample,43004,0,"E6S_s.wav",69
Sample,47129,0,"F#5S_Gb5S_s.wav",83
Sample,47223,0,"D#5S_Eb5S_s.wav",76
Sample,47317,0,"A#5S_Bb5S_s.wav",90
Sample,48067,0,"A#5S_Bb5S_s.wav",74
Sample,48067,0,"D#5S_Eb5S_s.wav",74
Sample,51629,0,"F5S_s.wav",81
Sample,53317,0,"D5S_s.wav",96
Sample,53317,0,"A#5S_Bb5S_s.wav",87
Sample,53692,0,"D6S_s.wav",96
Sample,54067,0,"F#6S_Gb6S_s.wav",79
Sample,56317,0,"G#5S_Ab5S_s.wav",66
Sample,56317,0,"C#6S_Db6S_s.wav",82
Sample,57254,0,"G#4S_Ab4S_s.wav",70
Sample,57254,0,"G#5S_Ab5S_s.wav",72
Sample,57817,0,"A#6S_Bb6S_s.wav",92
Sample,58192,0,"A#6S_Bb6S_s.wav",92
Sample,58192,0,"D6S_s.wav",86
Sample,58473,0,"C#4S_Db4S_s.wav",87
Sample,58473,0,"C#3S_Db3S_s.wav",87
Sample,58567,0,"A#6S_Bb6S_s.wav",97
Sample,58567,0,"D#6S_Eb6S_s.wav",90
Sample,59317,0,"A#6S_Bb6S_s.wav",96
Sample,59317,0,"F6S_s.wav",90
Sample,59317,0,"A#5S_Bb5S_s.wav",90
Sample,60067,0,"F6S_s.wav",89
Sample,61567,0,"C#6S_Db6S_s.wav",88
Sample,61567,0,"G#5S_Ab5S_s.wav",88
Sample,61567,0,"F#5S_Gb5S_s.wav",88
Sample,63067,0,"A#5S_Bb5S_s.wav",89
Sample,63817,0,"A#5S_Bb5S_s.wav",90
Sample,64567,0,"E5S_s.wav",96
Sample,64567,0,"D#6S_Eb6S_s.wav",88
Sample,64567,0,"G#5S_Ab5S_s.wav",85
Sample,64567,0,"A#5S_Bb5S_s.wav",86
Sample,65317,0,"D#6S_Eb6S_s.wav",90
Sample,65317,0,"G#5S_Ab5S_s.wav",88
Sample,65317,0,"A#5S_Bb5S_s.wav",90
Sample,66067,0,"F6S_s.wav",89
Sample,67567,0,"C#7S_Db7S_s.wav",86
Sample,68504,0,"D6S_s.wav",82
Sample,68692,0,"D#6S_Eb6S_s.wav",88
Sample,69254,0,"A#5S_Bb5S_s.wav",81
Sample,71317,0,"A#5S_Bb5S_s.wav",85
Sample,71692,0,"A#6S_Bb6S_s.wav",90
Sample,77317,0,"D#5S_Eb5S_s.wav",96
Sample,77317,0,"A#5S_Bb5S_s.wav",96
Sample,77692,0,"A#6S_Bb6S_s.wav",94
Sample,77692,0,"A#5S_Bb5S_s.wav",96
Sample,77692,0,"D6S_s.wav",100
Sample,78067,0,"A#5S_Bb5S_s.wav",96
Sample,78067,0,"F5S_s.wav",99
Sample,80504,0,"C#7S_Db7S_s.wav",92
Sample,80785,0,"C#7S_Db7S_s.wav",87
Sample,81348,0,"F#7S_Gb7S_s.wav",86
Sample,81348,0,"A#6S_Bb6S_s.wav",88
Sample,81535,0,"F#7S_Gb7S_s.wav",90
Sample,81535,0,"A#6S_Bb6S_s.wav",88
Sample,81723,0,"A#5S_Bb5S_s.wav",92
Sample,82379,0,"E7S_s.wav",96
Sample,82942,0,"C#7S_Db7S_s.wav",86
Sample,82942,0,"F#6S_Gb6S_s.wav",89
Sample,83035,0,"C#7S_Db7S_s.wav",86
Sample,83035,0,"F#6S_Gb6S_s.wav",89
Sample,83223,0,"C#7S_Db7S_s.wav",90
Sample,83223,0,"F#6S_Gb6S_s.wav",90
Sample,83504,0,"G#6S_Ab6S_s.wav",94
Sample,84348,0,"E6S_s.wav",77
Sample,84535,0,"E6S_s.wav",81
Sample,84535,0,"A#5S_Bb5S_s.wav",81
Sample,84535,0,"G5S_s.wav",81
Sample,84723,0,"D#3S_Eb3S_s.wav",81
Sample,84723,0,"D#5S_Eb5S_s.wav",88
Sample,85848,0,"D#6S_Eb6S_s.wav",87
Sample,85848,0,"A#6S_Bb6S_s.wav",86
Sample,86035,0,"A#6S_Bb6S_s.wav",87
Sample,86223,0,"G#5S_Ab5S_s.wav",96
Sample,86317,0,"F#6S_Gb6S_s.wav",96
Sample,86504,0,"F#6S_Gb6S_s.wav",86
Sample,86598,0,"F#6S_Gb6S_s.wav",86
Sample,86785,0,"F#6S_Gb6S_s.wav",93
Sample,87348,0,"F#6S_Gb6S_s.wav",86
Sample,87723,0,"A#4S_Bb4S_s.wav",88
Sample,87910,0,"D#6S_Eb6S_s.wav",85
Sample,87910,0,"F#6S_Gb6S_s.wav",86
Sample,88004,0,"F#6S_Gb6S_s.wav",87
Sample,88098,0,"F#6S_Gb6S_s.wav",87
Sample,88098,0,"D#6S_Eb6S_s.wav",86
Sample,88285,0,"B5S_s.wav",88
Sample,88473,0,"A#4S_Bb4S_s.wav",99
Sample,88848,0,"F#7S_Gb7S_s.wav",93
Sample,89035,0,"A#6S_Bb6S_s.wav",94
Sample,89035,0,"F7S_s.wav",94
Sample,89129,0,"D#7S_Eb7S_s.wav",94
Sample,89504,0,"B6S_s.wav",94
Sample,89692,0,"D6S_s.wav",100
Sample,89692,0,"A#6S_Bb6S_s.wav",100
Sample,90504,0,"D#7S_Eb7S_s.wav",89
Sample,90567,0,"A#6S_Bb6S_s.wav",81
Sample,90692,0,"D7S_s.wav",70
Sample,90754,0,"A#6S_Bb6S_s.wav",70
Sample,90879,0,"A#6S_Bb6S_s.wav",71
Sample,90942,0,"F6S_s.wav",70
Sample,91067,0,"D#6S_Eb6S_s.wav",68
Sample,91129,0,"A#5S_Bb5S_s.wav",67
Sample,91254,0,"D6S_s.wav",72
Sample,91317,0,"G#5S_Ab5S_s.wav",76
Sample,91442,0,"A#5S_Bb5S_s.wav",80
Sample,91504,0,"F5S_s.wav",79
Sample,91629,0,"D#5S_Eb5S_s.wav",80
Sample,91692,0,"A#4S_Bb4S_s.wav",82
Sample,91817,0,"A#4S_Bb4S_s.wav",85
Sample,91879,0,"D#5S_Eb5S_s.wav",85
Sample,92004,0,"F#5S_Gb5S_s.wav",81
Sample,92067,0,"A#5S_Bb5S_s.wav",77
Sample,92192,0,"F#6S_Gb6S_s.wav",72
Sample,92254,0,"D#7S_Eb7S_s.wav",77
Sample,92504,0,"C#7S_Db7S_s.wav",92
Sample,92504,0,"F#6S_Gb6S_s.wav",90
Sample,92504,0,"G#6S_Ab6S_s.wav",89
Sample,92598,0,"C#7S_Db7S_s.wav",66
Sample,92598,0,"D6S_s.wav",66
Sample,92785,0,"C#7S_Db7S_s.wav",87
Sample,92785,0,"D6S_s.wav",87
Sample,93504,0,"A#7S_Bb7S_s.wav",87
Sample,93567,0,"F#7S_Gb7S_s.wav",89
Sample,93692,0,"A#7S_Bb7S_s.wav",88
Sample,93754,0,"F7S_s.wav",88
Sample,93879,0,"A#7S_Bb7S_s.wav",88
Sample,93942,0,"F7S_s.wav",88
Sample,94067,0,"A#7S_Bb7S_s.wav",88
Sample,94129,0,"D#7S_Eb7S_s.wav",88
Sample,94254,0,"F#7S_Gb7S_s.wav",88
Sample,94317,0,"D7S_s.wav",88
Sample,94442,0,"D#7S_Eb7S_s.wav",88
Sample,94504,0,"B6S_s.wav",88
Sample,94629,0,"D#7S_Eb7S_s.wav",88
Sample,94692,0,"A#6S_Bb6S_s.wav",88
Sample,94817,0,"D7S_s.wav",88
Sample,94879,0,"G#6S_Ab6S_s.wav",88
Sample,95004,0,"G#6S_Ab6S_s.wav",88
Sample,95067,0,"D#6S_Eb6S_s.wav",88
Sample,95192,0,"G#6S_Ab6S_s.wav",88
Sample,95254,0,"B5S_s.wav",88
Sample,95317,0,"B5S_s.wav",100
Sample,95504,0,"G#6S_Ab6S_s.wav",90
Sample,95504,0,"B5S_s.wav",90
Sample,95504,0,"D#6S_Eb6S_s.wav",90
Sample,95598,0,"G#6S_Ab6S_s.wav",85
Sample,95598,0,"D#6S_Eb6S_s.wav",85
Sample,95598,0,"B5S_s.wav",85
Sample,95785,0,"A#3S_Bb3S_s.wav",81
Sample,95785,0,"A#6S_Bb6S_s.wav",81
Sample,95785,0,"A#5S_Bb5S_s.wav",81
Sample,95785,0,"D6S_s.wav",81
Sample,95973,0,"A#2S_Bb2S_s.wav",96
Sample,95973,0,"A#6S_Bb6S_s.wav",96
Sample,95973,0,"G#5S_Ab5S_s.wav",96
Sample,95973,0,"D6S_s.wav",96
Sample,96692,0,"A#6S_Bb6S_s.wav",85
Sample,96754,0,"G6S_s.wav",88
Sample,96879,0,"A#6S_Bb6S_s.wav",85
Sample,96942,0,"E6S_s.wav",85
Sample,97067,0,"E6S_s.wav",84
Sample,97129,0,"D#6S_Eb6S_s.wav",84
Sample,97254,0,"D#6S_Eb6S_s.wav",84
Sample,97317,0,"A#5S_Bb5S_s.wav",88
Sample,97442,0,"A#5S_Bb5S_s.wav",92
Sample,97504,0,"G5S_s.wav",92
Sample,97942,0,"G#6S_Ab6S_s.wav",97
Sample,98192,0,"D#6S_Eb6S_s.wav",85
Sample,98254,0,"A5S_s.wav",77
Sample,98379,0,"D#6S_Eb6S_s.wav",80
Sample,98442,0,"A5S_s.wav",82
Sample,98567,0,"A5S_s.wav",76
Sample,98629,0,"F5S_s.wav",80
Sample,98754,0,"A5S_s.wav",77
Sample,98817,0,"F5S_s.wav",87
Sample,98942,0,"F5S_s.wav",92
Sample,99004,0,"C5S_s.wav",85
Sample,99254,0,"D#6S_Eb6S_s.wav",92
Sample,99629,0,"F6S_s.wav",100
Sample,99629,0,"A#6S_Bb6S_s.wav",100
Sample,99879,0,"G#6S_Ab6S_s.wav",81
Sample,99942,0,"F6S_s.wav",77
Sample,100067,0,"F6S_s.wav",75
Sample,100129,0,"D6S_s.wav",80
Sample,100254,0,"D6S_s.wav",74
Sample,100317,0,"A#5S_Bb5S_s.wav",84
Sample,100442,0,"A#5S_Bb5S_s.wav",92
Sample,100504,0,"G#5S_Ab5S_s.wav",96
Sample,101035,0,"D#5S_Eb5S_s.wav",100
Sample,101129,0,"A#6S_Bb6S_s.wav",93
Sample,101692,0,"F#7S_Gb7S_s.wav",100
Sample,101879,0,"G7S_s.wav",100
Sample,101879,0,"B6S_s.wav",100
Sample,102067,0,"E7S_s.wav",100
Sample,103567,0,"D7S_s.wav",77
Sample,103965,0,"F#8S_Gb8S_s.wav",77
Sample,104715,0,"F#8S_Gb8S_s.wav",77
Sample,104973,0,"C#6S_Db6S_s.wav",47
Sample,105020,0,"E6S_s.wav",46
Sample,105723,0,"B5S_s.wav",50
Sample,105770,0,"E6S_s.wav",58
Sample,105817,0,"A6S_s.wav",77
Sample,106520,0,"D#5S_Eb5S_s.wav",72
Sample,106965,0,"D#7S_Eb7S_s.wav",77
Sample,107223,0,"B4S_s.wav",59
Sample,107270,0,"D#5S_Eb5S_s.wav",62
Sample,107317,0,"G#5S_Ab5S_s.wav",73
Sample,107715,0,"D#7S_Eb7S_s.wav",77
Sample,107973,0,"A#4S_Bb4S_s.wav",47
Sample,108020,0,"C#5S_Db5S_s.wav",46
Sample,108723,0,"G#4S_Ab4S_s.wav",50
Sample,108770,0,"C#5S_Db5S_s.wav",58
Sample,109004,0,"G#4S_Ab4S_s.wav",64
Sample,109192,0,"F#5S_Gb5S_s.wav",55
Sample,109379,0,"G#5S_Ab5S_s.wav",59
Sample,109473,0,"G#6S_Ab6S_s.wav",62
Sample,109520,0,"C#7S_Db7S_s.wav",74
Sample,109567,0,"F#7S_Gb7S_s.wav",81
Sample,109567,0,"C#6S_Db6S.wav",62
Sample,109754,0,"G#6S_Ab6S_s.wav",71
Sample,110129,0,"G#6S_Ab6S_s.wav",62
Sample,110504,0,"G#6S_Ab6S_s.wav",82
Sample,110879,0,"G#6S_Ab6S_s.wav",85
Sample,110973,0,"G#5S_Ab5S_s.wav",62
Sample,111020,0,"D#6S_Eb6S_s.wav",71
Sample,111254,0,"G#5S_Ab5S_s.wav",74
Sample,111629,0,"G#5S_Ab5S_s.wav",73
Sample,111817,0,"F#6S_Gb6S_s.wav",83
Sample,112004,0,"G#5S_Ab5S_s.wav",66
Sample,112379,0,"A#5S_Bb5S_s.wav",51
Sample,117629,0,"B5S_s.wav",57
Sample,121379,0,"F#5S_Gb5S_s.wav",49
Sample,121754,0,"G#4S_Ab4S_s.wav",70
Sample,121754,0,"G#5S_Ab5S_s.wav",72
Sample,122692,0,"A#3S_Bb3S_s.wav",88
Sample,122692,0,"A#6S_Bb6S_s.wav",92
Sample,122692,0,"G#5S_Ab5S_s.wav",90
Sample,122692,0,"D6S_s.wav",86
Sample,122879,0,"B2S_s.wav",92
Sample,122879,0,"B3S_s.wav",92
Sample,122973,0,"C#3S_Db3S_s.wav",87
Sample,122973,0,"C#4S_Db4S_s.wav",87
Sample,123067,0,"A#6S_Bb6S_s.wav",97
Sample,123067,0,"A#5S_Bb5S_s.wav",85
Sample,123067,0,"D#6S_Eb6S_s.wav",90
Sample,123817,0,"A#6S_Bb6S_s.wav",96
Sample,123817,0,"F6S_s.wav",90
Sample,124004,0,"F#5S_Gb5S_s.wav",86
Sample,124192,0,"A#5S_Bb5S_s.wav",82
Sample,124567,0,"F6S_s.wav",89
Sample,124848,0,"F5S_s.wav",66
Sample,125035,0,"A#5S_Bb5S_s.wav",66
Sample,125223,0,"A#5S_Bb5S_s.wav",66
Sample,125410,0,"D#6S_Eb6S_s.wav",84
Sample,125598,0,"C#6S_Db6S_s.wav",80
Sample,125785,0,"F#5S_Gb5S_s.wav",74
Sample,126067,0,"G#5S_Ab5S_s.wav",88
Sample,126067,0,"C#6S_Db6S_s.wav",88
Sample,126348,0,"F#5S_Gb5S_s.wav",59
Sample,126535,0,"C#6S_Db6S_s.wav",68
Sample,126723,0,"G#6S_Ab6S_s.wav",82
Sample,127567,0,"A#5S_Bb5S_s.wav",89
Sample,127660,0,"D#4S_Eb4S_s.wav",73
Sample,127848,0,"F#5S_Gb5S_s.wav",85
Sample,128035,0,"D6S_s.wav",79
Sample,128223,0,"A#6S_Bb6S_s.wav",97
Sample,128317,0,"F#5S_Gb5S_s.wav",92
Sample,128317,0,"A#5S_Bb5S_s.wav",90
Sample,128598,0,"A#5S_Bb5S_s.wav",80
Sample,128785,0,"D#6S_Eb6S_s.wav",89
Sample,128973,0,"C#7S_Db7S_s.wav",96
Sample,129067,0,"D#6S_Eb6S_s.wav",88
Sample,129067,0,"A#5S_Bb5S_s.wav",86
Sample,129723,0,"D#7S_Eb7S_s.wav",96
Sample,129817,0,"A#5S_Bb5S_s.wav",90
Sample,129817,0,"D#6S_Eb6S_s.wav",90
Sample,130567,0,"F6S_s.wav",89
Sample,130848,0,"F5S_s.wav",66
Sample,131035,0,"A#5S_Bb5S_s.wav",66
Sample,131223,0,"A#5S_Bb5S_s.wav",66
Sample,131410,0,"D#6S_Eb6S_s.wav",84
Sample,131598,0,"C#6S_Db6S_s.wav",80
Sample,131785,0,"F#5S_Gb5S_s.wav",74
Sample,131973,0,"A#6S_Bb6S_s.wav",88
Sample,132067,0,"F#6S_Gb6S_s.wav",86
Sample,132067,0,"C#7S_Db7S_s.wav",86
Sample,132348,0,"B5S_s.wav",88
Sample,132535,0,"B5S_s.wav",77
Sample,132723,0,"F5S_s.wav",77
Sample,133004,0,"D7S_s.wav",82
Sample,133004,0,"F6S_s.wav",82
Sample,133285,0,"A#5S_Bb5S_s.wav",77
Sample,133473,0,"A#5S_Bb5S_s.wav",84
Sample,133660,0,"F#5S_Gb5S_s.wav",84
Sample,133848,0,"F6S_s.wav",88
Sample,134035,0,"F#5S_Gb5S_s.wav",77
Sample,134223,0,"A#5S_Bb5S_s.wav",72
Sample,134410,0,"A#5S_Bb5S_s.wav",72
Sample,134598,0,"A#6S_Bb6S_s.wav",92
Sample,134785,0,"A#5S_Bb5S_s.wav",79
Sample,134973,0,"D#6S_Eb6S_s.wav",92
Sample,136567,0,"A#6S_Bb6S_s.wav",58
Sample,136754,0,"F#6S_Gb6S_s.wav",58
Sample,136942,0,"A#6S_Bb6S_s.wav",52
Sample,137317,0,"A#6S_Bb6S_s.wav",73
Sample,137317,0,"F7S_s.wav",73
Sample,137504,0,"F#6S_Gb6S_s.wav",54
Sample,137692,0,"A#6S_Bb6S_s.wav",59
Sample,138067,0,"F#6S_Gb6S_s.wav",67
Sample,138067,0,"C#7S_Db7S_s.wav",67
Sample,138254,0,"D#6S_Eb6S_s.wav",44
Sample,138442,0,"F#6S_Gb6S_s.wav",49

[TimingPoints]
1567,375,4,2,1,20,1,0

[HitObjects]
36,192,1473,5,0,0:0:0:0:
109,192,1520,1,0,0:0:0:0:
182,192,1567,1,0,0:0:0:83:F7S_s.wav
329,192,1567,1,0,0:0:0:0:
475,192,1567,128,0,2129:0:0:0:72:B4S_s.wav
182,192,1754,128,0,2129:0:0:0:0:
256,192,1942,1,0,0:0:0:42:F#5S_Gb5S_s.wav
109,192,1942,1,0,0:0:0:77:A#6S_Bb6S_s.wav
402,192,1942,1,0,0:0:0:0:
36,192,1942,128,0,2879:0:0:0:0:
329,192,2129,128,0,2504:0:0:0:0:
475,192,2317,128,0,2879:0:0:0:81:D#7S_Eb7S_s.wav
402,192,2317,1,0,0:0:0:0:
109,192,2317,1,0,0:0:0:0:
182,192,2317,1,0,0:0:0:65:C#6S_Db6S_s.wav
256,192,2504,128,0,2879:0:0:0:0:
109,192,2692,128,0,3067:0:0:0:71:A#6S_Bb6S_s.wav
182,192,2692,1,0,0:0:0:0:
402,192,2879,128,0,3067:0:0:0:77:D#7S_Eb7S_s.wav
329,192,2879,1,0,0:0:0:0:
36,192,3043,1,0,0:0:0:65:D6S_s.wav
256,192,3067,128,0,3442:0:0:0:71:F#6S_Gb6S_s.wav
475,192,3067,128,0,3817:0:0:0:74:G#6S_Ab6S_s.wav
182,192,3067,1,0,0:0:0:69:E4S_s.wav
109,192,3442,128,0,3629:0:0:0:68:F#6S_Gb6S_s.wav
329,192,3442,1,0,0:0:0:55:B4S_s.wav
36,192,3442,1,0,0:0:0:0:
256,192,3629,128,0,3817:0:0:0:81:C#7S_Db7S_s.wav
402,192,3629,1,0,0:0:0:0:
36,192,3817,128,0,4567:0:0:0:64:F#5S_Gb5S_s.wav
402,192,3817,128,0,4192:0:0:0:81:B6S_s.wav
109,192,3817,1,0,0:0:0:81:D6S_s.wav
182,192,4004,128,0,4379:0:0:0:65:D6S_s.wav
109,192,4192,1,0,0:0:0:0:
475,192,4192,128,0,4379:0:0:0:63:G#5S_Ab5S_s.wav
329,192,4192,128,0,4379:0:0:0:77:E6S_s.wav
109,192,4379,128,0,4567:0:0:0:80:B6S_s.wav
256,192,4379,128,0,4567:0:0:0:0:
475,192,4567,128,0,4660:0:0:0:65:D#4S_Eb4S_s.wav
329,192,4567,1,0,0:0:0:0:
402,192,4567,128,0,4660:0:0:0:64:C#6S_Db6S_s.wav
109,192,4754,128,0,4848:0:0:0:83:C#6S_Db6S_s.wav
36,192,4754,128,0,4848:0:0:0:50:A#4S_Bb4S_s.wav
475,192,4942,1,0,0:0:0:0:
329,192,4942,128,0,5035:0:0:0:63:F5S_s.wav
182,192,4942,128,0,5035:0:0:0:84:F#6S_Gb6S_s.wav
402,192,5129,1,0,0:0:0:50:F#5S_Gb5S_s.wav
256,192,5129,128,0,5223:0:0:0:80:G#6S_Ab6S_s.wav
109,192,5129,128,0,5223:0:0:0:0:
475,192,5317,128,0,5692:0:0:0:82:D#6S_Eb6S_s.wav
329,192,5317,1,0,0:0:0:86:A#6S_Bb6S_s.wav
182,192,5317,128,0,5410:0:0:0:0:
36,192,5317,128,0,5410:0:0:0:77:G#3S_Ab3S_s.wav
182,192,5504,1,0,0:0:0:64:D#4S_Eb4S_s.wav
329,192,5504,128,0,5879:0:0:0:90:B5S_s.wav
182,192,5692,1,0,0:0:0:85:F#6S_Gb6S_s.wav
36,192,5692,1,0,0:0:0:70:G#4S_Ab4S_s.wav
109,192,5692,128,0,6067:0:0:0:0:
475,192,5879,128,0,6067:0:0:0:87:G#6S_Ab6S_s.wav
256,192,5879,128,0,6067:0:0:0:74:D#5S_Eb5S_s.wav
36,192,6067,128,0,6442:0:0:0:70:D#6S_Eb6S_s.wav
402,192,6067,128,0,6442:0:0:0:77:G#5S_Ab5S_s.wav
329,192,6067,1,0,0:0:0:83:C#4S_Db4S_s.wav
182,192,6254,128,0,6629:0:0:0:74:G#4S_Ab4S_s.wav
256,192,6254,1,0,0:0:0:87:E5S_s.wav
329,192,6442,128,0,6629:0:0:0:74:G#5S_Ab5S_s.wav
475,192,6442,128,0,6817:0:0:0:80:C#5S_Db5S_s.wav
109,192,6442,1,0,0:0:0:0:
256,192,6629,128,0,6817:0:0:0:87:D#6S_Eb6S_s.wav
36,192,6629,128,0,7567:0:0:0:0:
402,192,6817,128,0,7192:0:0:0:70:A#5S_Bb5S_s.wav
329,192,6817,1,0,0:0:0:77:G#5S_Ab5S_s.wav
109,192,6817,1,0,0:0:0:79:F#3S_Gb3S_s.wav
182,192,7004,128,0,7192:0:0:0:85:F#4S_Gb4S_s.wav
256,192,7004,1,0,0:0:0:92:E5S_s.wav
475,192,7192,128,0,7567:0:0:0:88:C#6S_Db6S_s.wav
329,192,7192,128,0,7379:0:0:0:77:G#5S_Ab5S_s.wav
109,192,7379,128,0,7567:0:0:0:88:B5S_s.wav
256,192,7379,128,0,7567:0:0:0:0:
402,192,7567,1,0,0:0:0:81:A#5S_Bb5S_s.wav
182,192,7567,1,0,0:0:0:85:G#3S_Ab3S_s.wav
256,192,7754,1,0,0:0:0:74:G#4S_Ab4S_s.wav
36,192,7754,128,0,8317:0:0:0:77:B4S_s.wav
475,192,7754,128,0,8129:0:0:0:0:
182,192,7754,128,0,7942:0:0:0:74:A#4S_Bb4S_s.wav
109,192,7942,1,0,0:0:0:0:
329,192,7942,1,0,0:0:0:0:
402,192,7942,128,0,8317:0:0:0:70:G#5S_Ab5S_s.wav
256,192,8129,128,0,8317:0:0:0:54:A#5S_Bb5S_s.wav
182,192,8129,1,0,0:0:0:0:
329,192,8317,128,0,8692:0:0:0:68:B5S_s.wav
109,192,8317,1,0,0:0:0:63:B4S_s.wav
475,192,8317,128,0,9067:0:0:0:0:
36,192,8504,128,0,8879:0:0:0:70:D#6S_Eb6S_s.wav
256,192,8504,1,0,0:0:0:0:
402,192,8692,128,0,8879:0:0:0:81:F#6S_Gb6S_s.wav
182,192,8692,128,0,8879:0:0:0:80:F#5S_Gb5S_s.wav
256,192,8879,128,0,9067:0:0:0:86:A#6S_Bb6S_s.wav
329,192,8879,1,0,0:0:0:0:
109,192,8879,128,0,9067:0:0:0:0:
36,192,9067,128,0,9817:0:0:0:85:D#6S_Eb6S_s.wav
182,192,9067,128,0,9254:0:0:0:86:F6S_s.wav
402,192,9067,128,0,9254:0:0:0:87:F3S_s.wav
329,192,9067,1,0,0:0:0:0:
329,192,9254,128,0,9442:0:0:0:74:G#5S_Ab5S_s.wav
475,192,9254,128,0,9629:0:0:0:64:B4S_s.wav
109,192,9442,128,0,9817:0:0:0:77:A#5S_Bb5S_s.wav
182,192,9442,1,0,0:0:0:85:F5S_s.wav
256,192,9629,128,0,9817:0:0:0:90:B6S_s.wav
402,192,9629,1,0,0:0:0:93:B5S_s.wav
329,192,9629,1,0,0:0:0:0:
329,192,9817,128,0,10285:0:0:0:79:A#3S_Bb3S_s.wav
475,192,9817,128,0,10285:0:0:0:79:A#2S_Bb2S_s.wav
182,192,9817,1,0,0:0:0:0:
402,192,9817,1,0,0:0:0:0:
109,192,10004,1,0,0:0:0:77:D6S_s.wav
256,192,10004,1,0,0:0:0:77:F5S_s.wav
36,192,10004,1,0,0:0:0:70:F4S_s.wav
36,192,10192,128,0,10473:0:0:0:84:F#5S_Gb5S_s.wav
182,192,10192,128,0,10473:0:0:0:76:D5S_s.wav
256,192,10379,1,0,0:0:0:85:G#5S_Ab5S_s.wav
475,192,10379,1,0,0:0:0:85:F6S_s.wav
402,192,10379,1,0,0:0:0:0:
475,192,10567,128,0,10660:0:0:0:93:F6S_s.wav
182,192,10567,1,0,0:0:0:84:D#3S_Eb3S_s.wav
329,192,10567,128,0,10848:0:0:0:81:A#5S_Bb5S_s.wav
36,192,10567,128,0,10660:0:0:0:84:F#5S_Gb5S_s.wav
109,192,10567,1,0,0:0:0:0:
256,192,10754,128,0,11035:0:0:0:77:F#5S_Gb5S_s.wav
475,192,10754,1,0,0:0:0:70:F#4S_Gb4S_s.wav
182,192,10942,128,0,11223:0:0:0:67:A#5S_Bb5S_s.wav
36,192,10942,1,0,0:0:0:72:D#5S_Eb5S_s.wav
402,192,10942,1,0,0:0:0:0:
109,192,11129,128,0,11223:0:0:0:0:
329,192,11129,1,0,0:0:0:87:D#6S_Eb6S_s.wav
475,192,11317,128,0,11410:0:0:0:86:A#5S_Bb5S_s.wav
36,192,11317,128,0,11410:0:0:0:84:F6S_s.wav
256,192,11317,128,0,11598:0:0:0:84:F#5S_Gb5S_s.wav
182,192,11317,1,0,0:0:0:77:C#3S_Db3S_s.wav
402,192,11317,1,0,0:0:0:0:
329,192,11504,128,0,11785:0:0:0:77:F#5S_Gb5S_s.wav
109,192,11504,1,0,0:0:0:70:F#4S_Gb4S_s.wav
402,192,11692,128,0,11973:0:0:0:0:
36,192,11692,1,0,0:0:0:74:A#5S_Bb5S_s.wav
182,192,11692,1,0,0:0:0:77:D#5S_Eb5S_s.wav
109,192,11879,128,0,11973:0:0:0:92:D#6S_Eb6S_s.wav
475,192,11879,128,0,11973:0:0:0:0:
256,192,11879,1,0,0:0:0:0:
475,192,12067,128,0,12254:0:0:0:81:F#5S_Gb5S_s.wav
36,192,12067,128,0,12723:0:0:0:81:D#5S_Eb5S_s.wav
329,192,12067,1,0,0:0:0:84:B2S_s.wav
182,192,12067,128,0,12348:0:0:0:84:B3S_s.wav
256,192,12254,128,0,12535:0:0:0:80:D#5S_Eb5S_s.wav
402,192,12254,1,0,0:0:0:71:D#4S_Eb4S_s.wav
109,192,12442,128,0,12723:0:0:0:83:F#5S_Gb5S_s.wav
475,192,12442,1,0,0:0:0:59:C#5S_Db5S_s.wav
329,192,12442,128,0,12723:0:0:0:0:
182,192,12629,128,0,12723:0:0:0:89:B5S_s.wav
475,192,12629,128,0,12723:0:0:0:0:
36,192,12817,128,0,13473:0:0:0:85:A#5S_Bb5S_s.wav
475,192,12817,128,0,13473:0:0:0:85:G#4S_Ab4S_s.wav
109,192,12817,128,0,12910:0:0:0:85:A#3S_Bb3S_s.wav
256,192,12817,128,0,12910:0:0:0:85:D5S_s.wav
182,192,13004,128,0,13098:0:0:0:88:F5S_s.wav
329,192,13004,128,0,13098:0:0:0:88:D6S_s.wav
402,192,13192,128,0,13285:0:0:0:90:G#5S_Ab5S_s.wav
256,192,13192,128,0,13285:0:0:0:90:A#4S_Bb4S_s.wav
256,192,13379,128,0,13473:0:0:0:95:G#6S_Ab6S_s.wav
402,192,13379,1,0,0:0:0:0:
109,192,13379,128,0,13473:0:0:0:95:F7S_s.wav
182,192,13567,1,0,0:0:0:58:F#6S_Gb6S_s.wav
329,192,13567,128,0,13660:0:0:0:58:D#5S_Eb5S_s.wav
36,192,13567,1,0,0:0:0:58:A#6S_Bb6S_s.wav
475,192,13754,1,0,0:0:0:58:F#5S_Gb5S_s.wav
402,192,13754,128,0,13848:0:0:0:58:F#6S_Gb6S_s.wav
109,192,13942,1,0,0:0:0:52:A#6S_Bb6S_s.wav
256,192,13942,128,0,14035:0:0:0:52:D#6S_Eb6S_s.wav
475,192,14129,1,0,0:0:0:0:
329,192,14129,128,0,14223:0:0:0:59:D#7S_Eb7S_s.wav
36,192,14317,1,0,0:0:0:73:A#6S_Bb6S_s.wav
329,192,14317,1,0,0:0:0:73:C#5S_Db5S_s.wav
109,192,14317,1,0,0:0:0:73:F7S_s.wav
182,192,14317,128,0,14410:0:0:0:73:F#6S_Gb6S_s.wav
475,192,14504,1,0,0:0:0:54:F#5S_Gb5S_s.wav
402,192,14504,128,0,14598:0:0:0:54:F#6S_Gb6S_s.wav
256,192,14692,1,0,0:0:0:59:D#6S_Eb6S_s.wav
109,192,14692,128,0,14785:0:0:0:59:A#6S_Bb6S_s.wav
475,192,14879,1,0,0:0:0:0:
329,192,14879,128,0,14973:0:0:0:68:D#7S_Eb7S_s.wav
36,192,15067,1,0,0:0:0:67:C#7S_Db7S_s.wav
256,192,15067,1,0,0:0:0:67:D#6S_Eb6S_s.wav
402,192,15067,1,0,0:0:0:67:B4S_s.wav
182,192,15067,128,0,15160:0:0:0:67:F#6S_Gb6S_s.wav
475,192,15254,1,0,0:0:0:44:D#5S_Eb5S_s.wav
329,192,15254,128,0,15348:0:0:0:44:D#6S_Eb6S_s.wav
182,192,15442,1,0,0:0:0:49:F#6S_Gb6S_s.wav
36,192,15442,128,0,15535:0:0:0:49:C#6S_Db6S_s.wav
475,192,15629,1,0,0:0:0:0:
329,192,15629,128,0,15723:0:0:0:57:B6S_s.wav
109,192,15817,128,0,15910:0:0:0:51:A#6S_Bb6S_s.wav
402,192,16067,128,0,16160:0:0:0:47:B6S_s.wav
182,192,16348,128,0,16442:0:0:0:58:D#7S_Eb7S_s.wav
329,192,16723,128,0,16817:0:0:0:62:F#7S_Gb7S_s.wav
36,192,17067,1,0,0:0:0:38:B5S.wav
109,192,17129,1,0,0:0:0:46:D#7S_Eb7S.wav
256,192,17160,1,0,0:0:0:55:A#6S_Bb6S.wav
182,192,17160,1,0,0:0:0:74:F#7S_Gb7S.wav
329,192,17223,1,0,0:0:0:81:C#8S_Db8S.wav
475,192,17223,1,0,0:0:0:77:B6S.wav
329,192,18629,128,0,19379:0:0:0:0:
36,192,19379,128,0,19442:0:0:0:0:
109,192,19442,128,0,19504:0:0:0:0:
182,192,19504,128,0,19567:0:0:0:0:
36,192,19567,1,0,0:0:0:94:F#4S_Gb4S_s.wav
475,192,19567,1,0,0:0:0:94:D#4S_Eb4S_s.wav
256,192,19567,1,0,0:0:0:94:D#3S_Eb3S_s.wav
329,192,19660,1,0,0:0:0:0:
109,192,19660,1,0,0:0:0:0:
182,192,19754,1,0,0:0:0:0:
402,192,19754,1,0,0:0:0:0:
256,192,19848,1,0,0:0:0:0:
475,192,19848,1,0,0:0:0:0:
36,192,19942,1,0,0:0:0:0:
329,192,19942,1,0,0:0:0:0:
182,192,19942,1,0,0:0:0:0:
109,192,19942,1,0,0:0:0:0:
402,192,20035,1,0,0:0:0:0:
475,192,20035,1,0,0:0:0:0:
182,192,20129,1,0,0:0:0:0:
109,192,20129,1,0,0:0:0:0:
329,192,20223,1,0,0:0:0:88:A#6S_Bb6S_s.wav
402,192,20223,1,0,0:0:0:88:D6S_s.wav
182,192,20317,1,0,0:0:0:92:G#5S_Ab5S_s.wav
109,192,20317,1,0,0:0:0:88:A#3S_Bb3S_s.wav
36,192,20317,128,0,20973:0:0:0:98:D6S_s.wav
475,192,20317,128,0,20973:0:0:0:0:
256,192,20410,1,0,0:0:0:84:G#6S_Ab6S_s.wav
329,192,20504,1,0,0:0:0:88:F6S_s.wav
402,192,20598,1,0,0:0:0:85:D6S_s.wav
109,192,20692,1,0,0:0:0:89:B5S_s.wav
256,192,20692,1,0,0:0:0:0:
329,192,20785,1,0,0:0:0:80:A#5S_Bb5S_s.wav
182,192,20879,1,0,0:0:0:88:G#5S_Ab5S_s.wav
402,192,20879,1,0,0:0:0:0:
256,192,20973,1,0,0:0:0:92:A#4S_Bb4S_s.wav
329,192,21067,1,0,0:0:0:90:D#6S_Eb6S_s.wav
109,192,21067,128,0,21348:0:0:0:95:A#5S_Bb5S_s.wav
402,192,21067,128,0,21348:0:0:0:87:E7S_s.wav
182,192,21067,1,0,0:0:0:97:G6S_s.wav
36,192,21067,128,0,21348:0:0:0:93:G4S_s.wav
475,192,21067,128,0,21348:0:0:0:93:G3S_s.wav
182,192,21442,128,0,21723:0:0:0:100:D#7S_Eb7S_s.wav
329,192,21442,128,0,21723:0:0:0:86:A#5S_Bb5S_s.wav
36,192,21442,128,0,21723:0:0:0:100:D#6S_Eb6S_s.wav
402,192,21442,1,0,0:0:0:93:G4S_s.wav
109,192,21442,1,0,0:0:0:93:G5S_s.wav
475,192,21442,128,0,21723:0:0:0:88:G6S_s.wav
256,192,21817,128,0,22098:0:0:0:100:C#7S_Db7S_s.wav
402,192,21817,128,0,22098:0:0:0:97:F#6S_Gb6S_s.wav
182,192,21817,1,0,0:0:0:97:D#6S_Eb6S_s.wav
36,192,21817,1,0,0:0:0:90:G#3S_Ab3S_s.wav
475,192,21817,1,0,0:0:0:0:
36,192,22098,1,0,0:0:0:95:D#6S_Eb6S_s.wav
182,192,22098,1,0,0:0:0:95:B6S_s.wav
36,192,22192,128,0,22379:0:0:0:90:F#6S_Gb6S_s.wav
182,192,22192,128,0,22379:0:0:0:90:D#6S_Eb6S_s.wav
402,192,22192,1,0,0:0:0:0:
475,192,22192,1,0,0:0:0:0:
256,192,22192,1,0,0:0:0:95:B6S_s.wav
329,192,22285,1,0,0:0:0:0:
475,192,22379,1,0,0:0:0:0:
329,192,22473,1,0,0:0:0:0:
475,192,22567,1,0,0:0:0:93:A#6S_Bb6S_s.wav
182,192,22567,1,0,0:0:0:93:D#6S_Eb6S_s.wav
36,192,22567,1,0,0:0:0:89:C#5S_Db5S_s.wav
256,192,22567,128,0,22848:0:0:0:89:C#4S_Db4S_s.wav
402,192,22567,1,0,0:0:0:98:F6S_s.wav
109,192,22567,128,0,22848:0:0:0:96:B5S_s.wav
475,192,22848,1,0,0:0:0:74:G#6S_Ab6S_s.wav
329,192,22848,1,0,0:0:0:74:B5S_s.wav
475,192,22942,128,0,23129:0:0:0:92:G#6S_Ab6S_s.wav
329,192,22942,128,0,23129:0:0:0:96:B5S_s.wav
182,192,22942,1,0,0:0:0:0:
36,192,22942,1,0,0:0:0:0:
109,192,23129,1,0,0:0:0:80:G#4S_Ab4S_s.wav
402,192,23129,1,0,0:0:0:80:G#3S_Ab3S_s.wav
182,192,23223,1,0,0:0:0:88:A3S_s.wav
256,192,23317,1,0,0:0:0:95:G#5S_Ab5S_s.wav
36,192,23317,1,0,0:0:0:95:D6S_s.wav
475,192,23317,1,0,0:0:0:95:A#4S_Bb4S_s.wav
402,192,23317,1,0,0:0:0:95:A#3S_Bb3S_s.wav
109,192,23317,1,0,0:0:0:0:
475,192,23692,128,0,23973:0:0:0:87:G#5S_Ab5S_s.wav
329,192,23692,128,0,23973:0:0:0:0:
36,192,23692,128,0,23973:0:0:0:95:A#3S_Bb3S_s.wav
182,192,23692,128,0,23973:0:0:0:95:A#2S_Bb2S_s.wav
329,192,24067,1,0,0:0:0:95:A#5S_Bb5S_s.wav
475,192,24067,1,0,0:0:0:94:F#5S_Gb5S_s.wav
182,192,24067,128,0,24348:0:0:0:92:D#3S_Eb3S_s.wav
36,192,24067,128,0,24348:0:0:0:98:F6S_s.wav
402,192,24348,1,0,0:0:0:89:D#6S_Eb6S_s.wav
475,192,24348,1,0,0:0:0:89:F#5S_Gb5S_s.wav
402,192,24442,128,0,24723:0:0:0:95:A#5S_Bb5S_s.wav
182,192,24442,1,0,0:0:0:0:
475,192,24442,128,0,24723:0:0:0:95:F#5S_Gb5S_s.wav
256,192,24442,128,0,24723:0:0:0:96:D#4S_Eb4S_s.wav
36,192,24442,1,0,0:0:0:0:
36,192,24817,1,0,0:0:0:100:A#3S_Bb3S_s.wav
475,192,24817,1,0,0:0:0:100:A#2S_Bb2S_s.wav
256,192,24817,128,0,25004:0:0:0:92:G#5S_Ab5S_s.wav
402,192,24817,1,0,0:0:0:0:
109,192,24817,1,0,0:0:0:0:
182,192,24910,128,0,25098:0:0:0:84:G#6S_Ab6S_s.wav
109,192,25004,128,0,25192:0:0:0:80:F6S_s.wav
329,192,25098,128,0,25285:0:0:0:82:D6S_s.wav
256,192,25192,128,0,25379:0:0:0:83:B5S_s.wav
36,192,25192,1,0,0:0:0:0:
475,192,25192,1,0,0:0:0:0:
402,192,25192,1,0,0:0:0:0:
182,192,25285,128,0,25473:0:0:0:80:A#5S_Bb5S_s.wav
402,192,25379,128,0,25473:0:0:0:86:G#5S_Ab5S_s.wav
329,192,25473,128,0,25567:0:0:0:94:A#4S_Bb4S_s.wav
109,192,25567,1,0,0:0:0:93:A#6S_Bb6S_s.wav
256,192,25567,128,0,25848:0:0:0:93:D#6S_Eb6S_s.wav
475,192,25567,128,0,25848:0:0:0:92:A#5S_Bb5S_s.wav
402,192,25567,1,0,0:0:0:93:F#5S_Gb5S_s.wav
36,192,25567,128,0,25848:0:0:0:90:D#5S_Eb5S_s.wav
182,192,25567,128,0,25848:0:0:0:88:D#4S_Eb4S_s.wav
256,192,25942,128,0,26035:0:0:0:0:
475,192,25942,1,0,0:0:0:0:
36,192,25942,1,0,0:0:0:0:
182,192,25942,1,0,0:0:0:0:
329,192,26035,128,0,26129:0:0:0:0:
402,192,26035,1,0,0:0:0:0:
182,192,26129,128,0,26223:0:0:0:0:
109,192,26129,1,0,0:0:0:0:
256,192,26223,128,0,26317:0:0:0:88:A#6S_Bb6S_s.wav
329,192,26223,1,0,0:0:0:88:D6S_s.wav
109,192,26317,1,0,0:0:0:88:A#3S_Bb3S_s.wav
36,192,26317,128,0,26504:0:0:0:98:D6S_s.wav
402,192,26317,128,0,26504:0:0:0:92:G#5S_Ab5S_s.wav
475,192,26317,128,0,26410:0:0:0:87:A#4S_Bb4S_s.wav
329,192,26410,128,0,26598:0:0:0:84:G#7S_Ab7S_s.wav
256,192,26504,128,0,26692:0:0:0:88:F7S_s.wav
182,192,26598,128,0,26785:0:0:0:85:D7S_s.wav
109,192,26692,128,0,26879:0:0:0:87:G#4S_Ab4S_s.wav
402,192,26692,128,0,26879:0:0:0:88:G#3S_Ab3S_s.wav
36,192,26692,1,0,0:0:0:0:
475,192,26692,1,0,0:0:0:0:
329,192,26785,128,0,26973:0:0:0:80:A#6S_Bb6S_s.wav
256,192,26879,128,0,27067:0:0:0:88:G#6S_Ab6S_s.wav
182,192,26973,128,0,27160:0:0:0:92:A#4S_Bb4S_s.wav
109,192,27067,1,0,0:0:0:90:D#6S_Eb6S_s.wav
36,192,27067,1,0,0:0:0:97:G6S_s.wav
475,192,27067,1,0,0:0:0:93:G3S_s.wav
402,192,27067,128,0,27348:0:0:0:93:G4S_s.wav
329,192,27160,128,0,27254:0:0:0:88:D#7S_Eb7S_s.wav
36,192,27254,1,0,0:0:0:0:
182,192,27254,128,0,27442:0:0:0:88:C#7S_Db7S_s.wav
109,192,27348,1,0,0:0:0:0:
256,192,27348,128,0,27535:0:0:0:88:A#6S_Bb6S.wav
36,192,27442,1,0,0:0:0:86:A#5S_Bb5S_s.wav
402,192,27442,1,0,0:0:0:93:G5S_s.wav
475,192,27442,1,0,0:0:0:93:G4S_s.wav
329,192,27442,128,0,27629:0:0:0:100:D#6S_Eb6S_s.wav
109,192,27535,128,0,27723:0:0:0:88:E6S_s.wav
182,192,27629,128,0,27817:0:0:0:86:A#5S_Bb5S_s.wav
402,192,27629,1,0,0:0:0:0:
256,192,27723,128,0,28004:0:0:0:0:
475,192,27817,1,0,0:0:0:100:C#7S_Db7S_s.wav
36,192,27817,1,0,0:0:0:97:D#6S_Eb6S_s.wav
329,192,27817,128,0,27910:0:0:0:90:G#3S_Ab3S_s.wav
402,192,27817,1,0,0:0:0:97:F#6S_Gb6S_s.wav
182,192,27910,128,0,28098:0:0:0:88:B6S_s.wav
109,192,28004,128,0,28192:0:0:0:88:G#6S_Ab6S_s.wav
475,192,28004,1,0,0:0:0:65:G#4S_Ab4S_s.wav
402,192,28098,128,0,28285:0:0:0:88:D#6S_Eb6S_s.wav
329,192,28192,128,0,28379:0:0:0:88:B5S_s.wav
36,192,28192,1,0,0:0:0:0:
256,192,28285,128,0,28473:0:0:0:88:A#5S_Bb5S_s.wav
182,192,28379,128,0,28567:0:0:0:88:G#5S_Ab5S_s.wav
475,192,28379,1,0,0:0:0:0:
109,192,28473,128,0,28567:0:0:0:88:D#5S_Eb5S_s.wav
402,192,28567,128,0,28848:0:0:0:93:D#6S_Eb6S_s.wav
475,192,28567,128,0,28848:0:0:0:89:C#5S_Db5S_s.wav
36,192,28567,1,0,0:0:0:96:B5S_s.wav
329,192,28567,128,0,28848:0:0:0:89:C#4S_Db4S_s.wav
109,192,28848,1,0,0:0:0:74:G#6S_Ab6S_s.wav
182,192,28848,1,0,0:0:0:74:B5S_s.wav
109,192,28942,128,0,29129:0:0:0:92:G#6S_Ab6S_s.wav
182,192,28942,128,0,29129:0:0:0:96:B5S_s.wav
329,192,28942,1,0,0:0:0:0:
475,192,28942,1,0,0:0:0:0:
36,192,29129,1,0,0:0:0:80:G#4S_Ab4S_s.wav
475,192,29129,1,0,0:0:0:80:G#3S_Ab3S_s.wav
109,192,29223,1,0,0:0:0:88:A4S_s.wav
402,192,29223,1,0,0:0:0:88:A3S_s.wav
36,192,29317,1,0,0:0:0:95:A#4S_Bb4S_s.wav
182,192,29317,128,0,29442:0:0:0:95:A#3S_Bb3S_s.wav
329,192,29317,1,0,0:0:0:0:
475,192,29317,1,0,0:0:0:92:G#5S_Ab5S_s.wav
256,192,29410,128,0,29535:0:0:0:0:
329,192,29504,128,0,29629:0:0:0:0:
402,192,29598,128,0,29723:0:0:0:0:
256,192,29692,1,0,0:0:0:87:G#5S_Ab5S_s.wav
36,192,29692,1,0,0:0:0:95:A#4S_Bb4S_s.wav
475,192,29692,1,0,0:0:0:95:A#2S_Bb2S_s.wav
109,192,29692,128,0,29879:0:0:0:95:A#3S_Bb3S_s.wav
182,192,29785,128,0,29973:0:0:0:0:
256,192,29879,128,0,30067:0:0:0:0:
329,192,29973,128,0,30067:0:0:0:0:
109,192,30067,1,0,0:0:0:70:D#4S_Eb4S_s.wav
182,192,30067,1,0,0:0:0:74:F6S_s.wav
475,192,30067,1,0,0:0:0:74:A#5S_Bb5S_s.wav
36,192,30067,1,0,0:0:0:74:F#5S_Gb5S_s.wav
329,192,30160,1,0,0:0:0:0:
402,192,30160,1,0,0:0:0:0:
109,192,30254,1,0,0:0:0:66:F#5S_Gb5S_s.wav
182,192,30254,1,0,0:0:0:77:A#4S_Bb4S_s.wav
402,192,30348,1,0,0:0:0:63:A#5S_Bb5S_s.wav
475,192,30348,1,0,0:0:0:0:
182,192,30442,1,0,0:0:0:77:F6S_s.wav
256,192,30442,1,0,0:0:0:0:
402,192,30535,1,0,0:0:0:61:F#5S_Gb5S_s.wav
475,192,30535,1,0,0:0:0:0:
109,192,30629,1,0,0:0:0:72:D#6S_Eb6S_s.wav
182,192,30629,1,0,0:0:0:0:
329,192,30723,1,0,0:0:0:66:F#5S_Gb5S_s.wav
402,192,30723,1,0,0:0:0:0:
475,192,30817,1,0,0:0:0:77:A#5S_Bb5S_s.wav
36,192,30817,1,0,0:0:0:70:C#4S_Db4S_s.wav
109,192,30817,1,0,0:0:0:77:F6S_s.wav
182,192,30910,1,0,0:0:0:55:F5S_s.wav
256,192,30910,1,0,0:0:0:0:
329,192,31004,1,0,0:0:0:52:F#5S_Gb5S_s.wav
402,192,31004,1,0,0:0:0:77:A#4S_Bb4S_s.wav
109,192,31098,1,0,0:0:0:62:A#5S_Bb5S_s.wav
36,192,31098,1,0,0:0:0:0:
256,192,31192,1,0,0:0:0:83:F6S_s.wav
329,192,31192,1,0,0:0:0:0:
109,192,31285,1,0,0:0:0:70:F#5S_Gb5S_s.wav
36,192,31285,1,0,0:0:0:0:
329,192,31379,1,0,0:0:0:87:D#6S_Eb6S_s.wav
402,192,31379,1,0,0:0:0:0:
109,192,31473,1,0,0:0:0:84:A#5S_Bb5S_s.wav
182,192,31473,1,0,0:0:0:0:
256,192,31567,1,0,0:0:0:83:C#6S_Db6S_s.wav
36,192,31567,1,0,0:0:0:0:
402,192,31567,128,0,31660:0:0:0:83:B3S_s.wav
475,192,31567,1,0,0:0:0:0:
182,192,31660,1,0,0:0:0:0:
256,192,31754,128,0,31848:0:0:0:72:F#5S_Gb5S_s.wav
402,192,31754,1,0,0:0:0:75:F#4S_Gb4S_s.wav
109,192,31754,1,0,0:0:0:0:
329,192,31848,1,0,0:0:0:0:
109,192,31942,128,0,32035:0:0:0:85:C#6S_Db6S_s.wav
36,192,31942,1,0,0:0:0:84:C#5S_Db5S_s.wav
402,192,31942,1,0,0:0:0:0:
475,192,31942,1,0,0:0:0:0:
182,192,32035,1,0,0:0:0:0:
256,192,32129,128,0,32223:0:0:0:88:B5S_s.wav
475,192,32129,1,0,0:0:0:0:
36,192,32129,1,0,0:0:0:0:
402,192,32223,1,0,0:0:0:0:
109,192,32317,128,0,32410:0:0:0:81:A#5S_Bb5S_s.wav
36,192,32317,1,0,0:0:0:81:D#5S_Eb5S_s.wav
475,192,32317,1,0,0:0:0:0:
329,192,32317,1,0,0:0:0:81:F3S_s.wav
182,192,32410,128,0,32504:0:0:0:51:B4S_s.wav
256,192,32410,1,0,0:0:0:0:
402,192,32504,128,0,32598:0:0:0:65:D#5S_Eb5S_s.wav
36,192,32504,1,0,0:0:0:81:F4S_s.wav
329,192,32598,128,0,32692:0:0:0:83:G#5S_Ab5S_s.wav
109,192,32598,1,0,0:0:0:0:
36,192,32692,128,0,32785:0:0:0:81:A#5S_Bb5S_s.wav
256,192,32692,1,0,0:0:0:81:A#3S_Bb3S_s.wav
475,192,32692,1,0,0:0:0:81:D5S_s.wav
182,192,32785,128,0,32879:0:0:0:73:D6S_s.wav
402,192,32785,1,0,0:0:0:0:
329,192,32879,128,0,32973:0:0:0:74:A#4S_Bb4S_s.wav
36,192,32879,1,0,0:0:0:74:F6S_s.wav
475,192,32973,128,0,33067:0:0:0:89:A#6S_Bb6S_s.wav
182,192,32973,1,0,0:0:0:0:
402,192,33067,1,0,0:0:0:74:F#6S_Gb6S_s.wav
36,192,33067,1,0,0:0:0:70:D#5S_Eb5S_s.wav
109,192,33067,1,0,0:0:0:90:F7S_s.wav
256,192,33067,1,0,0:0:0:0:
182,192,33160,1,0,0:0:0:0:
475,192,33254,1,0,0:0:0:66:F#6S_Gb6S_s.wav
109,192,33254,1,0,0:0:0:77:A#5S_Bb5S_s.wav
402,192,33254,1,0,0:0:0:0:
36,192,33348,1,0,0:0:0:63:A#6S_Bb6S_s.wav
329,192,33348,1,0,0:0:0:0:
475,192,33442,1,0,0:0:0:77:F7S_s.wav
402,192,33442,1,0,0:0:0:0:
256,192,33442,1,0,0:0:0:0:
109,192,33535,1,0,0:0:0:61:F#6S_Gb6S_s.wav
182,192,33535,1,0,0:0:0:0:
402,192,33629,1,0,0:0:0:72:D#7S_Eb7S_s.wav
475,192,33629,1,0,0:0:0:0:
182,192,33723,1,0,0:0:0:66:F#6S_Gb6S_s.wav
256,192,33723,1,0,0:0:0:0:
36,192,33817,1,0,0:0:0:77:A#6S_Bb6S_s.wav
402,192,33817,1,0,0:0:0:70:C#5S_Db5S_s.wav
475,192,33817,1,0,0:0:0:92:F7S_s.wav
109,192,33817,1,0,0:0:0:0:
329,192,33910,1,0,0:0:0:55:F6S_s.wav
36,192,34004,1,0,0:0:0:77:A#5S_Bb5S_s.wav
475,192,34004,1,0,0:0:0:0:
256,192,34004,1,0,0:0:0:52:F#6S_Gb6S_s.wav
402,192,34098,1,0,0:0:0:62:A#6S_Bb6S_s.wav
182,192,34098,1,0,0:0:0:0:
256,192,34192,1,0,0:0:0:83:F7S_s.wav
109,192,34192,1,0,0:0:0:0:
36,192,34192,1,0,0:0:0:0:
329,192,34285,1,0,0:0:0:70:F#6S_Gb6S_s.wav
402,192,34285,1,0,0:0:0:0:
36,192,34379,1,0,0:0:0:87:D#7S_Eb7S_s.wav
109,192,34379,1,0,0:0:0:0:
329,192,34473,1,0,0:0:0:84:A#6S_Bb6S_s.wav
256,192,34473,1,0,0:0:0:0:
109,192,34567,1,0,0:0:0:83:C#7S_Db7S_s.wav
182,192,34567,1,0,0:0:0:83:B4S_s.wav
475,192,34567,128,0,34942:0:0:0:0:
36,192,34567,128,0,34754:0:0:0:0:
329,192,34754,128,0,34942:0:0:0:72:F#6S_Gb6S_s.wav
182,192,34754,1,0,0:0:0:75:F#5S_Gb5S_s.wav
402,192,34942,1,0,0:0:0:0:
36,192,34942,128,0,35785:0:0:0:88:A#6S_Bb6S_s.wav
256,192,34942,128,0,35129:0:0:0:0:
109,192,34942,128,0,35504:0:0:0:74:C#6S_Db6S_s.wav
475,192,35129,128,0,35317:0:0:0:88:B6S_s.wav
329,192,35129,128,0,35504:0:0:0:74:D#6S_Eb6S_s.wav
402,192,35317,128,0,35785:0:0:0:68:F#6S_Gb6S_s.wav
182,192,35317,128,0,35785:0:0:0:0:
256,192,35504,128,0,35785:0:0:0:68:A#6S_Bb6S_s.wav
475,192,35504,128,0,35785:0:0:0:0:
329,192,35692,128,0,35785:0:0:0:68:D#7S_Eb7S_s.wav
109,192,35692,128,0,35785:0:0:0:0:
109,192,35879,128,0,36817:0:0:0:0:
402,192,35879,128,0,36817:0:0:0:0:
256,192,35879,128,0,36817:0:0:0:0:
329,192,37192,1,0,0:0:0:0:
256,192,37567,128,0,37754:0:0:0:0:
109,192,37567,128,0,37754:0:0:0:62:D#5S_Eb5S_s.wav
329,192,37567,128,0,38035:0:0:0:79:F#6S_Gb6S_s.wav
475,192,37567,128,0,38035:0:0:0:55:A#5S_Bb5S_s.wav
36,192,37567,128,0,37754:0:0:0:0:
182,192,37942,128,0,38035:0:0:0:0:
36,192,37942,128,0,38035:0:0:0:0:
402,192,37942,128,0,38035:0:0:0:0:
256,192,38317,128,0,38879:0:0:0:62:A#5S_Bb5S_s.wav
402,192,38317,128,0,38879:0:0:0:54:C#5S_Db5S_s.wav
475,192,38317,128,0,38879:0:0:0:65:F6S_s.wav
182,192,38317,128,0,38504:0:0:0:0:
109,192,38317,128,0,38504:0:0:0:0:
329,192,38317,128,0,38504:0:0:0:0:
109,192,38692,128,0,38879:0:0:0:0:
36,192,38692,128,0,38879:0:0:0:0:
182,192,39067,128,0,39535:0:0:0:72:D#6S_Eb6S_s.wav
329,192,39067,128,0,39254:0:0:0:75:A#5S_Bb5S_s.wav
36,192,39067,128,0,39535:0:0:0:75:A#6S_Bb6S_s.wav
109,192,39067,128,0,39535:0:0:0:0:
402,192,39067,128,0,39254:0:0:0:70:B4S_s.wav
256,192,39067,128,0,39254:0:0:0:0:
475,192,39442,128,0,39535:0:0:0:0:
402,192,39442,128,0,39535:0:0:0:0:
329,192,39442,128,0,39535:0:0:0:0:
329,192,39817,128,0,40379:0:0:0:62:G#6S_Ab6S_s.wav
475,192,39817,128,0,40379:0:0:0:68:C#6S_Db6S_s.wav
256,192,39817,128,0,40192:0:0:0:55:F#5S_Gb5S_s.wav
109,192,39817,128,0,40192:0:0:0:66:A#4S_Bb4S_s.wav
36,192,40192,128,0,40379:0:0:0:0:
182,192,40192,128,0,40379:0:0:0:0:
36,192,40567,128,0,41223:0:0:0:62:D#5S_Eb5S_s.wav
256,192,40567,128,0,40942:0:0:0:67:G#5S_Ab5S_s.wav
402,192,40567,128,0,40942:0:0:0:77:F#5S_Gb5S_s.wav
475,192,40567,128,0,40942:0:0:0:64:G#4S_Ab4S_s.wav
182,192,40942,128,0,41223:0:0:0:0:
329,192,41129,128,0,41223:0:0:0:0:
36,192,41317,1,0,0:0:0:74:F#4S_Gb4S_s.wav
402,192,41317,128,0,41879:0:0:0:72:C#5S_Db5S_s.wav
475,192,41317,1,0,0:0:0:0:
182,192,41317,1,0,0:0:0:83:F5S_s.wav
109,192,41692,128,0,41879:0:0:0:0:
36,192,41692,1,0,0:0:0:0:
256,192,41692,128,0,41879:0:0:0:0:
109,192,42067,128,0,42348:0:0:0:75:D#6S_Eb6S_s.wav
36,192,42067,1,0,0:0:0:75:A#5S_Bb5S_s.wav
329,192,42067,1,0,0:0:0:75:F5S_s.wav
475,192,42067,1,0,0:0:0:75:F4S_s.wav
182,192,42067,1,0,0:0:0:0:
256,192,42254,128,0,42535:0:0:0:67:B5S_s.wav
402,192,42254,1,0,0:0:0:0:
402,192,42442,128,0,42723:0:0:0:69:D#6S_Eb6S_s.wav
182,192,42442,1,0,0:0:0:0:
36,192,42442,1,0,0:0:0:0:
475,192,42442,1,0,0:0:0:0:
182,192,42629,128,0,42817:0:0:0:74:G#5S_Ab5S_s.wav
329,192,42629,1,0,0:0:0:0:
36,192,42817,128,0,43098:0:0:0:83:A#5S_Bb5S_s.wav
109,192,42817,128,0,43098:0:0:0:77:E5S_s.wav
256,192,42817,128,0,43098:0:0:0:0:
475,192,42817,128,0,42910:0:0:0:0:
329,192,42817,1,0,0:0:0:0:
402,192,43004,128,0,43098:0:0:0:0:
329,192,43192,128,0,43473:0:0:0:70:F#6S_Gb6S_s.wav
475,192,43192,128,0,43473:0:0:0:0:
256,192,43192,128,0,43285:0:0:0:0:
36,192,43192,128,0,43473:0:0:0:0:
182,192,43379,128,0,43473:0:0:0:77:G#6S_Ab6S_s.wav
109,192,43567,128,0,43660:0:0:0:79:F#6S_Gb6S_s.wav
475,192,43567,1,0,0:0:0:0:
256,192,43567,128,0,43660:0:0:0:55:A#5S_Bb5S_s.wav
329,192,43567,1,0,0:0:0:0:
402,192,43567,128,0,43660:0:0:0:62:D#5S_Eb5S_s.wav
256,192,43942,128,0,44223:0:0:0:0:
475,192,43942,128,0,44223:0:0:0:0:
36,192,43942,128,0,44223:0:0:0:0:
475,192,44317,128,0,44598:0:0:0:62:A#5S_Bb5S_s.wav
36,192,44317,128,0,44598:0:0:0:54:C#5S_Db5S_s.wav
329,192,44317,128,0,44598:0:0:0:65:F6S_s.wav
182,192,44317,128,0,44598:0:0:0:0:
475,192,44692,128,0,45067:0:0:0:0:
109,192,44692,128,0,44879:0:0:0:0:
256,192,44692,1,0,0:0:0:0:
329,192,44879,128,0,45067:0:0:0:0:
182,192,44879,1,0,0:0:0:0:
256,192,45067,128,0,45160:0:0:0:75:A#6S_Bb6S_s.wav
36,192,45067,128,0,45160:0:0:0:72:D#6S_Eb6S_s.wav
402,192,45067,128,0,45160:0:0:0:70:B4S_s.wav
109,192,45067,128,0,45160:0:0:0:75:A#5S_Bb5S_s.wav
329,192,45442,128,0,45723:0:0:0:0:
475,192,45442,128,0,45723:0:0:0:0:
109,192,45442,128,0,45723:0:0:0:0:
109,192,45817,1,0,0:0:0:66:A#4S_Bb4S_s.wav
475,192,45817,128,0,46473:0:0:0:68:C#6S_Db6S_s.wav
402,192,45817,1,0,0:0:0:0:
36,192,45817,128,0,46098:0:0:0:55:F#5S_Gb5S_s.wav
256,192,45817,128,0,46098:0:0:0:62:G#6S_Ab6S_s.wav
329,192,46004,128,0,46285:0:0:0:0:
36,192,46192,128,0,46473:0:0:0:0:
182,192,46192,128,0,46473:0:0:0:0:
109,192,46192,1,0,0:0:0:0:
402,192,46192,1,0,0:0:0:0:
256,192,46379,128,0,46473:0:0:0:0:
329,192,46379,1,0,0:0:0:0:
36,192,46567,1,0,0:0:0:79:F5S_s.wav
182,192,46567,1,0,0:0:0:79:B4S_s.wav
402,192,46567,128,0,46848:0:0:0:79:D#5S_Eb5S_s.wav
475,192,46567,128,0,46848:0:0:0:79:G#4S_Ab4S_s.wav
256,192,46567,128,0,46848:0:0:0:79:G#3S_Ab3S_s.wav
36,192,46942,1,0,0:0:0:0:
256,192,46942,128,0,47035:0:0:0:85:D#5S_Eb5S_s.wav
109,192,46942,1,0,0:0:0:0:
402,192,47035,128,0,47129:0:0:0:61:F5S_s.wav
475,192,47035,1,0,0:0:0:0:
182,192,47129,128,0,47223:0:0:0:61:D#4S_Eb4S_s.wav
36,192,47129,1,0,0:0:0:61:D#3S_Eb3S_s.wav
329,192,47223,128,0,47317:0:0:0:67:E4S_s.wav
36,192,47317,128,0,47504:0:0:0:90:F4S_s.wav
182,192,47317,128,0,47504:0:0:0:90:B4S_s.wav
475,192,47317,128,0,47504:0:0:0:90:F3S_s.wav
402,192,47317,128,0,47504:0:0:0:90:D#5S_Eb5S_s.wav
256,192,47692,128,0,48067:0:0:0:86:A#5S_Bb5S_s.wav
402,192,47692,128,0,48067:0:0:0:86:G#4S_Ab4S_s.wav
36,192,47692,128,0,47785:0:0:0:86:A#3S_Bb3S_s.wav
329,192,47692,1,0,0:0:0:86:A#2S_Bb2S_s.wav
475,192,47692,1,0,0:0:0:86:D5S_s.wav
109,192,47785,128,0,47879:0:0:0:0:
182,192,47879,128,0,47973:0:0:0:0:
109,192,47973,128,0,48067:0:0:0:0:
36,192,48067,128,0,48348:0:0:0:74:D#4S_Eb4S_s.wav
475,192,48067,128,0,48348:0:0:0:0:
329,192,48067,128,0,48348:0:0:0:74:D#3S_Eb3S_s.wav
182,192,48254,128,0,48535:0:0:0:62:A#4S_Bb4S_s.wav
329,192,48442,128,0,48723:0:0:0:81:F5S_s.wav
36,192,48442,1,0,0:0:0:0:
475,192,48442,1,0,0:0:0:0:
475,192,48629,128,0,48910:0:0:0:77:F#5S_Gb5S_s.wav
182,192,48629,1,0,0:0:0:0:
109,192,48817,128,0,49098:0:0:0:65:F5S_s.wav
182,192,48817,1,0,0:0:0:0:
36,192,48817,1,0,0:0:0:0:
402,192,48817,1,0,0:0:0:0:
329,192,48817,128,0,49098:0:0:0:54:C#4S_Db4S_s.wav
475,192,49004,1,0,0:0:0:62:A#4S_Bb4S_s.wav
256,192,49004,128,0,49285:0:0:0:0:
402,192,49192,128,0,49473:0:0:0:66:F5S_s.wav
182,192,49192,1,0,0:0:0:0:
36,192,49192,128,0,49285:0:0:0:0:
256,192,49379,1,0,0:0:0:77:A#5S_Bb5S_s.wav
109,192,49379,128,0,49473:0:0:0:0:
36,192,49567,1,0,0:0:0:70:B3S_s.wav
329,192,49567,1,0,0:0:0:0:
475,192,49567,128,0,49848:0:0:0:75:A#5S_Bb5S_s.wav
182,192,49567,128,0,49660:0:0:0:0:
329,192,49754,128,0,50035:0:0:0:73:B4S_s.wav
109,192,49754,128,0,49848:0:0:0:0:
182,192,49942,128,0,50223:0:0:0:72:D#5S_Eb5S_s.wav
475,192,49942,1,0,0:0:0:0:
36,192,49942,128,0,50035:0:0:0:0:
402,192,50129,128,0,50223:0:0:0:81:A#5S_Bb5S_s.wav
329,192,50223,128,0,50317:0:0:0:0:
256,192,50317,128,0,50973:0:0:0:66:G#5S_Ab5S_s.wav
475,192,50317,1,0,0:0:0:68:C#5S_Db5S_s.wav
36,192,50317,128,0,50410:0:0:0:66:A#3S_Bb3S_s.wav
182,192,50317,1,0,0:0:0:0:
402,192,50504,128,0,50598:0:0:0:55:F#4S_Gb4S_s.wav
475,192,50504,1,0,0:0:0:0:
109,192,50692,128,0,50785:0:0:0:62:G#4S_Ab4S_s.wav
36,192,50692,1,0,0:0:0:0:
475,192,50879,1,0,0:0:0:0:
329,192,50879,128,0,50973:0:0:0:65:C#5S_Db5S_s.wav
256,192,51067,1,0,0:0:0:77:B4S_s.wav
36,192,51067,1,0,0:0:0:64:G#3S_Ab3S_s.wav
475,192,51067,1,0,0:0:0:0:
402,192,51067,1,0,0:0:0:0:
109,192,51067,128,0,51723:0:0:0:77:F#5S_Gb5S_s.wav
256,192,51254,128,0,51535:0:0:0:62:D#4S_Eb4S_s.wav
402,192,51254,1,0,0:0:0:0:
402,192,51442,128,0,51723:0:0:0:67:G#4S_Ab4S_s.wav
36,192,51442,128,0,51723:0:0:0:0:
256,192,51629,128,0,51723:0:0:0:84:B4S_s.wav
36,192,51817,1,0,0:0:0:75:C#5S_Db5S_s.wav
402,192,51817,128,0,52473:0:0:0:68:G#4S_Ab4S_s.wav
109,192,51817,1,0,0:0:0:74:F#3S_Gb3S_s.wav
256,192,51817,1,0,0:0:0:83:F5S_s.wav
475,192,51817,1,0,0:0:0:0:
182,192,52004,128,0,52285:0:0:0:72:C#4S_Db4S_s.wav
36,192,52004,1,0,0:0:0:0:
329,192,52192,128,0,52473:0:0:0:75:G#4S_Ab4S_s.wav
256,192,52192,1,0,0:0:0:0:
475,192,52192,1,0,0:0:0:0:
36,192,52192,128,0,52473:0:0:0:0:
182,192,52379,128,0,52473:0:0:0:82:C#5S_Db5S_s.wav
402,192,52567,1,0,0:0:0:75:A#5S_Bb5S_s.wav
256,192,52567,128,0,53223:0:0:0:75:D#5S_Eb5S_s.wav
475,192,52567,1,0,0:0:0:75:F4S_s.wav
182,192,52567,1,0,0:0:0:75:F3S_s.wav
36,192,52567,128,0,53223:0:0:0:0:
475,192,52754,128,0,53223:0:0:0:67:B4S_s.wav
329,192,52754,1,0,0:0:0:0:
109,192,52942,128,0,53223:0:0:0:69:D#5S_Eb5S_s.wav
182,192,52942,1,0,0:0:0:0:
329,192,53129,128,0,53223:0:0:0:74:G#5S_Ab5S_s.wav
402,192,53129,1,0,0:0:0:0:
475,192,53317,1,0,0:0:0:87:A#2S_Bb2S_s.wav
36,192,53317,1,0,0:0:0:0:
402,192,53317,1,0,0:0:0:0:
329,192,53317,1,0,0:0:0:89:G#4S_Ab4S_s.wav
256,192,53410,1,0,0:0:0:0:
402,192,53504,128,0,53629:0:0:0:0:
182,192,53504,1,0,0:0:0:0:
329,192,53598,128,0,53723:0:0:0:79:A#3S_Bb3S_s.wav
109,192,53598,1,0,0:0:0:0:
256,192,53692,128,0,53817:0:0:0:92:A#5S_Bb5S_s.wav
36,192,53692,1,0,0:0:0:83:G#5S_Ab5S_s.wav
182,192,53785,128,0,53910:0:0:0:0:
475,192,53785,1,0,0:0:0:0:
402,192,53879,1,0,0:0:0:0:
109,192,53879,128,0,54004:0:0:0:0:
329,192,53973,1,0,0:0:0:0:
36,192,54067,1,0,0:0:0:79:A#5S_Bb5S_s.wav
475,192,54067,1,0,0:0:0:79:F#5S_Gb5S_s.wav
256,192,54067,1,0,0:0:0:15:A#4S_Bb4S_s.wav
402,192,54067,128,0,54442:0:0:0:62:D#4S_Eb4S_s.wav
109,192,54254,128,0,54723:0:0:0:62:A#4S_Bb4S_s.wav
182,192,54254,1,0,0:0:0:0:
329,192,54442,128,0,54817:0:0:0:81:F5S_s.wav
475,192,54442,1,0,0:0:0:0:
256,192,54442,1,0,0:0:0:0:
36,192,54442,1,0,0:0:0:0:
182,192,54629,128,0,55004:0:0:0:77:F#5S_Gb5S_s.wav
36,192,54817,128,0,55473:0:0:0:54:C#4S_Db4S_s.wav
109,192,54817,1,0,0:0:0:0:
475,192,54817,128,0,55473:0:0:0:65:F5S_s.wav
402,192,54817,1,0,0:0:0:0:
256,192,54817,1,0,0:0:0:0:
256,192,55004,128,0,55098:0:0:0:62:A#4S_Bb4S_s.wav
402,192,55004,1,0,0:0:0:0:
402,192,55192,128,0,55473:0:0:0:66:F5S_s.wav
182,192,55192,128,0,55285:0:0:0:0:
329,192,55192,1,0,0:0:0:0:
109,192,55379,128,0,55473:0:0:0:77:A#5S_Bb5S_s.wav
256,192,55379,1,0,0:0:0:0:
36,192,55567,1,0,0:0:0:0:
475,192,55567,1,0,0:0:0:70:B3S_s.wav
256,192,55567,128,0,55660:0:0:0:75:A#5S_Bb5S_s.wav
182,192,55754,1,0,0:0:0:0:
402,192,55754,1,0,0:0:0:73:B4S_s.wav
329,192,55754,128,0,55848:0:0:0:0:
36,192,55942,128,0,56223:0:0:0:72:D#5S_Eb5S_s.wav
475,192,55942,128,0,56223:0:0:0:0:
256,192,55942,1,0,0:0:0:0:
402,192,55942,1,0,0:0:0:0:
182,192,56035,1,0,0:0:0:0:
109,192,56129,1,0,0:0:0:81:A#5S_Bb5S_s.wav
329,192,56129,1,0,0:0:0:0:
256,192,56223,1,0,0:0:0:0:
402,192,56317,128,0,56410:0:0:0:68:C#5S_Db5S_s.wav
182,192,56317,128,0,56785:0:0:0:66:A#3S_Bb3S_s.wav
36,192,56317,128,0,56410:0:0:0:0:
109,192,56317,128,0,56410:0:0:0:0:
475,192,56317,1,0,0:0:0:0:
256,192,56504,128,0,56598:0:0:0:55:F#4S_Gb4S_s.wav
475,192,56504,128,0,56598:0:0:0:0:
329,192,56692,128,0,57067:0:0:0:62:G#4S_Ab4S_s.wav
36,192,56692,128,0,56785:0:0:0:0:
402,192,56692,128,0,56785:0:0:0:0:
475,192,56879,128,0,56973:0:0:0:65:F#5S_Gb5S_s.wav
109,192,56879,128,0,56973:0:0:0:65:C#5S_Db5S_s.wav
256,192,57067,128,0,57348:0:0:0:76:G#4S_Ab4S_s.wav
402,192,57067,1,0,0:0:0:76:B4S_s.wav
36,192,57067,128,0,57348:0:0:0:76:F#5S_Gb5S_s.wav
475,192,57067,128,0,57348:0:0:0:0:
109,192,57067,1,0,0:0:0:76:G#3S_Ab3S_s.wav
182,192,57348,128,0,57442:0:0:0:74:A#5S_Bb5S_s.wav
402,192,57348,128,0,57442:0:0:0:0:
329,192,57442,128,0,57535:0:0:0:70:D#5S_Eb5S_s.wav
109,192,57442,128,0,57535:0:0:0:66:B5S_s.wav
256,192,57535,128,0,57629:0:0:0:75:D#6S_Eb6S_s.wav
182,192,57629,128,0,57723:0:0:0:77:F#6S_Gb6S_s.wav
402,192,57629,128,0,57723:0:0:0:86:F#5S_Gb5S_s.wav
109,192,57723,128,0,57817:0:0:0:82:G#6S_Ab6S_s.wav
329,192,57723,128,0,57817:0:0:0:0:
36,192,57817,128,0,58098:0:0:0:90:A#5S_Bb5S_s.wav
182,192,57817,128,0,58098:0:0:0:89:A#4S_Bb4S_s.wav
475,192,57817,1,0,0:0:0:86:D6S_s.wav
256,192,57817,128,0,58098:0:0:0:87:A#3S_Bb3S_s.wav
256,192,58192,128,0,58379:0:0:0:90:A#2S_Bb2S_s.wav
36,192,58192,128,0,58379:0:0:0:90:G#5S_Ab5S_s.wav
182,192,58192,128,0,58379:0:0:0:88:A#3S_Bb3S_s.wav
475,192,58379,1,0,0:0:0:92:B2S_s.wav
402,192,58379,1,0,0:0:0:0:
329,192,58379,1,0,0:0:0:92:B3S_s.wav
182,192,58567,128,0,58754:0:0:0:85:A#5S_Bb5S_s.wav
329,192,58567,128,0,58754:0:0:0:92:F#5S_Gb5S_s.wav
475,192,58567,128,0,58754:0:0:0:90:D#4S_Eb4S_s.wav
36,192,58567,1,0,0:0:0:90:D#3S_Eb3S_s.wav
182,192,58942,1,0,0:0:0:88:F5S_s.wav
36,192,58942,1,0,0:0:0:0:
256,192,59035,1,0,0:0:0:81:F#5S_Gb5S_s.wav
109,192,59035,1,0,0:0:0:0:
182,192,59129,1,0,0:0:0:81:A#5S_Bb5S_s.wav
329,192,59129,1,0,0:0:0:0:
256,192,59223,1,0,0:0:0:87:D#6S_Eb6S_s.wav
402,192,59223,1,0,0:0:0:0:
329,192,59317,1,0,0:0:0:88:C#3S_Db3S_s.wav
36,192,59317,128,0,59973:0:0:0:87:C#4S_Db4S_s.wav
109,192,59317,128,0,59410:0:0:0:88:F#5S_Gb5S_s.wav
475,192,59317,128,0,59973:0:0:0:0:
182,192,59504,128,0,59598:0:0:0:86:F#5S_Gb5S_s.wav
329,192,59504,1,0,0:0:0:0:
402,192,59692,1,0,0:0:0:0:
256,192,59692,128,0,59785:0:0:0:82:A#5S_Bb5S_s.wav
329,192,59879,128,0,59973:0:0:0:96:D#6S_Eb6S_s.wav
182,192,59879,1,0,0:0:0:0:
256,192,60067,1,0,0:0:0:89:A#5S_Bb5S_s.wav
402,192,60067,1,0,0:0:0:89:F#5S_Gb5S_s.wav
475,192,60067,1,0,0:0:0:89:B3S_s.wav
36,192,60067,1,0,0:0:0:89:B2S_s.wav
182,192,60160,1,0,0:0:0:0:
329,192,60160,1,0,0:0:0:0:
256,192,60254,1,0,0:0:0:66:D#5S_Eb5S_s.wav
475,192,60254,1,0,0:0:0:73:F#4S_Gb4S_s.wav
109,192,60254,1,0,0:0:0:0:
182,192,60348,1,0,0:0:0:66:F5S_s.wav
36,192,60348,1,0,0:0:0:0:
256,192,60442,1,0,0:0:0:66:F#5S_Gb5S_s.wav
329,192,60442,1,0,0:0:0:77:C#5S_Db5S_s.wav
475,192,60442,1,0,0:0:0:0:
109,192,60535,1,0,0:0:0:66:A#5S_Bb5S_s.wav
36,192,60535,1,0,0:0:0:0:
182,192,60629,1,0,0:0:0:88:D#6S_Eb6S_s.wav
402,192,60629,1,0,0:0:0:66:D#5S_Eb5S_s.wav
475,192,60629,1,0,0:0:0:0:
256,192,60723,1,0,0:0:0:66:A#5S_Bb5S_s.wav
36,192,60723,1,0,0:0:0:0:
329,192,60817,1,0,0:0:0:88:F6S_s.wav
475,192,60817,1,0,0:0:0:0:
109,192,60817,1,0,0:0:0:58:A#5S_Bb5S_s.wav
402,192,60910,1,0,0:0:0:0:
182,192,60910,1,0,0:0:0:84:D#6S_Eb6S_s.wav
36,192,61004,1,0,0:0:0:0:
475,192,61004,1,0,0:0:0:0:
256,192,61004,1,0,0:0:0:77:F#5S_Gb5S_s.wav
329,192,61098,1,0,0:0:0:80:C#6S_Db6S_s.wav
109,192,61098,1,0,0:0:0:0:
256,192,61192,1,0,0:0:0:88:F5S_s.wav
402,192,61192,1,0,0:0:0:0:
475,192,61192,1,0,0:0:0:0:
109,192,61285,1,0,0:0:0:74:F#5S_Gb5S_s.wav
36,192,61285,1,0,0:0:0:0:
475,192,61379,1,0,0:0:0:88:D#6S_Eb6S_s.wav
329,192,61379,1,0,0:0:0:88:D#5S_Eb5S_s.wav
402,192,61379,1,0,0:0:0:0:
182,192,61473,1,0,0:0:0:0:
36,192,61473,1,0,0:0:0:0:
109,192,61473,1,0,0:0:0:0:
256,192,61567,1,0,0:0:0:79:D5S_s.wav
475,192,61567,1,0,0:0:0:90:E3S_s.wav
402,192,61567,1,0,0:0:0:0:
329,192,61660,1,0,0:0:0:0:
109,192,61660,1,0,0:0:0:0:
182,192,61754,1,0,0:0:0:54:D5S_s.wav
402,192,61754,1,0,0:0:0:0:
256,192,61848,1,0,0:0:0:59:F#5S_Gb5S_s.wav
109,192,61942,1,0,0:0:0:70:G#5S_Ab5S_s.wav
329,192,61942,1,0,0:0:0:67:D5S_s.wav
475,192,61942,1,0,0:0:0:0:
36,192,61942,1,0,0:0:0:0:
256,192,62035,1,0,0:0:0:68:C#6S_Db6S_s.wav
475,192,62129,1,0,0:0:0:77:F#6S_Gb6S_s.wav
36,192,62129,1,0,0:0:0:67:F#5S_Gb5S_s.wav
402,192,62129,1,0,0:0:0:0:
182,192,62223,1,0,0:0:0:82:G#6S_Ab6S_s.wav
256,192,62317,1,0,0:0:0:95:C#7S_Db7S_s.wav
36,192,62317,1,0,0:0:0:0:
109,192,62317,1,0,0:0:0:0:
475,192,62317,1,0,0:0:0:0:
402,192,62410,1,0,0:0:0:72:B6S_s.wav
329,192,62410,1,0,0:0:0:0:
182,192,62504,1,0,0:0:0:86:G#6S_Ab6S_s.wav
109,192,62504,1,0,0:0:0:0:
256,192,62598,1,0,0:0:0:79:F#6S_Gb6S_s.wav
329,192,62598,1,0,0:0:0:0:
109,192,62692,1,0,0:0:0:87:D6S_s.wav
475,192,62692,1,0,0:0:0:0:
36,192,62692,1,0,0:0:0:0:
256,192,62785,1,0,0:0:0:77:F#6S_Gb6S_s.wav
329,192,62785,1,0,0:0:0:0:
182,192,62879,1,0,0:0:0:0:
109,192,62879,1,0,0:0:0:0:
402,192,62973,1,0,0:0:0:77:G#5S_Ab5S_s.wav
329,192,62973,1,0,0:0:0:0:
36,192,63067,1,0,0:0:0:87:F#5S_Gb5S_s.wav
109,192,63067,1,0,0:0:0:88:C#5S_Db5S_s.wav
475,192,63067,1,0,0:0:0:85:D#3S_Eb3S_s.wav
256,192,63067,1,0,0:0:0:93:F5S_s.wav
182,192,63160,1,0,0:0:0:73:D#4S_Eb4S_s.wav
109,192,63254,1,0,0:0:0:0:
475,192,63254,1,0,0:0:0:70:F5S_s.wav
329,192,63254,1,0,0:0:0:0:
182,192,63348,1,0,0:0:0:85:F#5S_Gb5S_s.wav
475,192,63442,1,0,0:0:0:90:A#5S_Bb5S_s.wav
256,192,63442,1,0,0:0:0:0:
36,192,63442,1,0,0:0:0:0:
402,192,63535,1,0,0:0:0:79:D6S_s.wav
109,192,63535,1,0,0:0:0:0:
475,192,63629,1,0,0:0:0:92:D#6S_Eb6S_s.wav
256,192,63629,1,0,0:0:0:0:
36,192,63629,1,0,0:0:0:0:
329,192,63723,1,0,0:0:0:97:A#6S_Bb6S_s.wav
402,192,63817,1,0,0:0:0:92:F#5S_Gb5S_s.wav
109,192,63817,1,0,0:0:0:88:G#3S_Ab3S_s.wav
182,192,63817,128,0,63910:0:0:0:88:G#2S_Ab2S_s.wav
36,192,63817,1,0,0:0:0:90:D#5S_Eb5S_s.wav
475,192,63817,1,0,0:0:0:94:B4S_s.wav
329,192,63910,128,0,64004:0:0:0:0:
109,192,64004,1,0,0:0:0:65:G#5S_Ab5S_s.wav
475,192,64004,128,0,64098:0:0:0:0:
182,192,64098,1,0,0:0:0:80:A#5S_Bb5S_s.wav
402,192,64098,128,0,64192:0:0:0:0:
329,192,64192,1,0,0:0:0:0:
109,192,64192,128,0,64285:0:0:0:77:B5S_s.wav
36,192,64192,1,0,0:0:0:0:
256,192,64285,128,0,64379:0:0:0:89:D#6S_Eb6S_s.wav
402,192,64285,1,0,0:0:0:0:
475,192,64379,1,0,0:0:0:0:
182,192,64379,128,0,64473:0:0:0:90:F#6S_Gb6S_s.wav
36,192,64473,1,0,0:0:0:96:C#7S_Db7S_s.wav
329,192,64473,128,0,64567:0:0:0:0:
182,192,64567,1,0,0:0:0:88:C#4S_Db4S_s.wav
402,192,64567,1,0,0:0:0:88:C#3S_Db3S_s.wav
329,192,64660,1,0,0:0:0:0:
109,192,64660,1,0,0:0:0:0:
256,192,64754,1,0,0:0:0:68:C#5S_Db5S_s.wav
475,192,64754,1,0,0:0:0:0:
36,192,64754,1,0,0:0:0:0:
109,192,64848,1,0,0:0:0:79:D#5S_Eb5S_s.wav
329,192,64848,1,0,0:0:0:0:
182,192,64942,1,0,0:0:0:90:E5S_s.wav
402,192,64942,1,0,0:0:0:0:
256,192,65035,1,0,0:0:0:92:G#5S_Ab5S_s.wav
36,192,65035,1,0,0:0:0:0:
475,192,65035,1,0,0:0:0:0:
329,192,65129,1,0,0:0:0:94:D#6S_Eb6S_s.wav
109,192,65129,1,0,0:0:0:0:
402,192,65223,1,0,0:0:0:96:D#7S_Eb7S_s.wav
182,192,65223,1,0,0:0:0:0:
475,192,65317,128,0,65410:0:0:0:92:F#4S_Gb4S_s.wav
256,192,65317,1,0,0:0:0:92:F#3S_Gb3S_s.wav
36,192,65317,1,0,0:0:0:100:E5S_s.wav
402,192,65410,128,0,65504:0:0:0:88:C#6S_Db6S_s.wav
109,192,65410,1,0,0:0:0:0:
329,192,65504,128,0,65598:0:0:0:88:A#5S_Bb5S_s.wav
182,192,65504,1,0,0:0:0:0:
256,192,65598,128,0,65692:0:0:0:88:G#5S_Ab5S_s.wav
109,192,65598,1,0,0:0:0:0:
475,192,65692,128,0,65973:0:0:0:88:E5S_s.wav
182,192,65692,128,0,65785:0:0:0:0:
36,192,65692,1,0,0:0:0:0:
402,192,65785,128,0,65973:0:0:0:90:D#5S_Eb5S_s.wav
109,192,65785,128,0,65879:0:0:0:0:
329,192,65879,128,0,65973:0:0:0:88:C#5S_Db5S_s.wav
36,192,65879,128,0,65973:0:0:0:0:
256,192,65973,1,0,0:0:0:88:A#4S_Bb4S_s.wav
182,192,66067,1,0,0:0:0:88:A#5S_Bb5S_s.wav
36,192,66067,1,0,0:0:0:89:F#5S_Gb5S_s.wav
475,192,66067,1,0,0:0:0:89:B3S_s.wav
402,192,66067,1,0,0:0:0:89:B2S_s.wav
329,192,66160,1,0,0:0:0:0:
109,192,66160,1,0,0:0:0:0:
256,192,66254,1,0,0:0:0:73:F#4S_Gb4S_s.wav
475,192,66254,1,0,0:0:0:0:
36,192,66254,1,0,0:0:0:66:D#5S_Eb5S_s.wav
182,192,66348,1,0,0:0:0:66:F5S_s.wav
402,192,66348,1,0,0:0:0:0:
109,192,66442,1,0,0:0:0:66:F#5S_Gb5S_s.wav
36,192,66442,1,0,0:0:0:77:C#5S_Db5S_s.wav
475,192,66442,1,0,0:0:0:0:
329,192,66442,1,0,0:0:0:0:
256,192,66535,1,0,0:0:0:66:A#5S_Bb5S_s.wav
182,192,66629,1,0,0:0:0:88:D#6S_Eb6S_s.wav
402,192,66629,1,0,0:0:0:66:D#5S_Eb5S_s.wav
36,192,66629,1,0,0:0:0:0:
109,192,66723,1,0,0:0:0:66:A#5S_Bb5S_s.wav
329,192,66723,1,0,0:0:0:0:
256,192,66817,1,0,0:0:0:58:A#5S_Bb5S_s.wav
402,192,66817,1,0,0:0:0:88:F6S_s.wav
36,192,66817,1,0,0:0:0:0:
182,192,66910,1,0,0:0:0:84:D#6S_Eb6S_s.wav
475,192,66910,1,0,0:0:0:0:
109,192,67004,1,0,0:0:0:77:F#5S_Gb5S_s.wav
36,192,67004,1,0,0:0:0:0:
329,192,67004,1,0,0:0:0:0:
402,192,67098,1,0,0:0:0:80:C#6S_Db6S_s.wav
182,192,67098,1,0,0:0:0:0:
256,192,67192,1,0,0:0:0:0:
36,192,67192,1,0,0:0:0:0:
475,192,67192,1,0,0:0:0:88:F5S_s.wav
329,192,67285,1,0,0:0:0:74:F#5S_Gb5S_s.wav
109,192,67285,1,0,0:0:0:0:
402,192,67379,1,0,0:0:0:88:D#6S_Eb6S_s.wav
475,192,67379,1,0,0:0:0:0:
182,192,67379,1,0,0:0:0:0:
36,192,67379,1,0,0:0:0:0:
256,192,67473,1,0,0:0:0:88:A#6S_Bb6S_s.wav
475,192,67567,1,0,0:0:0:87:F4S_s.wav
329,192,67567,1,0,0:0:0:85:D#6S_Eb6S_s.wav
109,192,67567,1,0,0:0:0:87:F3S_s.wav
36,192,67567,1,0,0:0:0:86:F#6S_Gb6S_s.wav
256,192,67660,1,0,0:0:0:0:
402,192,67660,1,0,0:0:0:0:
182,192,67754,1,0,0:0:0:74:G#5S_Ab5S_s.wav
36,192,67754,1,0,0:0:0:64:B4S_s.wav
475,192,67848,1,0,0:0:0:88:B5S_s.wav
329,192,67848,1,0,0:0:0:0:
402,192,67942,1,0,0:0:0:88:D#6S_Eb6S_s.wav
182,192,67942,1,0,0:0:0:85:F5S_s.wav
109,192,67942,1,0,0:0:0:0:
36,192,67942,1,0,0:0:0:0:
329,192,68035,1,0,0:0:0:77:B5S_s.wav
402,192,68129,1,0,0:0:0:90:B6S_s.wav
475,192,68129,1,0,0:0:0:93:F6S_s.wav
109,192,68129,1,0,0:0:0:0:
182,192,68129,1,0,0:0:0:0:
256,192,68223,1,0,0:0:0:77:F5S_s.wav
109,192,68317,1,0,0:0:0:79:A#3S_Bb3S_s.wav
36,192,68317,1,0,0:0:0:79:A#2S_Bb2S_s.wav
402,192,68317,1,0,0:0:0:88:A#6S_Bb6S_s.wav
475,192,68317,1,0,0:0:0:62:A#5S_Bb5S_s.wav
256,192,68410,1,0,0:0:0:62:A#5S_Bb5S_s.wav
36,192,68504,128,0,68598:0:0:0:82:F5S_s.wav
182,192,68504,128,0,68598:0:0:0:70:F4S_s.wav
329,192,68598,1,0,0:0:0:77:A#5S_Bb5S_s.wav
256,192,68692,128,0,68785:0:0:0:88:D6S_s.wav
109,192,68692,128,0,68785:0:0:0:88:F#5S_Gb5S_s.wav
402,192,68785,1,0,0:0:0:77:A#5S_Bb5S_s.wav
182,192,68879,128,0,68973:0:0:0:94:F6S_s.wav
329,192,68879,128,0,68973:0:0:0:94:G#5S_Ab5S_s.wav
475,192,68973,1,0,0:0:0:0:
402,192,69067,1,0,0:0:0:81:A#5S_Bb5S_s.wav
256,192,69067,1,0,0:0:0:84:D#3S_Eb3S_s.wav
36,192,69067,1,0,0:0:0:93:F6S_s.wav
109,192,69067,1,0,0:0:0:0:
329,192,69160,1,0,0:0:0:84:F#5S_Gb5S_s.wav
475,192,69160,1,0,0:0:0:0:
36,192,69254,1,0,0:0:0:77:F#5S_Gb5S_s.wav
182,192,69254,1,0,0:0:0:70:F#4S_Gb4S_s.wav
109,192,69348,1,0,0:0:0:88:F6S_s.wav
256,192,69348,1,0,0:0:0:0:
329,192,69442,1,0,0:0:0:88:D#6S_Eb6S_s.wav
475,192,69442,1,0,0:0:0:72:D#5S_Eb5S_s.wav
402,192,69442,1,0,0:0:0:0:
182,192,69442,1,0,0:0:0:0:
109,192,69535,1,0,0:0:0:77:F#5S_Gb5S_s.wav
36,192,69535,1,0,0:0:0:0:
402,192,69629,1,0,0:0:0:87:D#6S_Eb6S_s.wav
475,192,69629,1,0,0:0:0:0:
182,192,69723,1,0,0:0:0:72:A#5S_Bb5S_s.wav
109,192,69723,1,0,0:0:0:0:
475,192,69817,1,0,0:0:0:84:F6S_s.wav
256,192,69817,1,0,0:0:0:84:F#5S_Gb5S_s.wav
402,192,69817,1,0,0:0:0:77:C#3S_Db3S_s.wav
182,192,69910,1,0,0:0:0:72:A#5S_Bb5S_s.wav
36,192,69910,1,0,0:0:0:0:
475,192,70004,1,0,0:0:0:81:D#6S_Eb6S_s.wav
109,192,70004,1,0,0:0:0:77:F#5S_Gb5S_s.wav
329,192,70004,1,0,0:0:0:70:F#4S_Gb4S_s.wav
402,192,70098,1,0,0:0:0:92:A#6S_Bb6S_s.wav
256,192,70098,1,0,0:0:0:0:
182,192,70192,1,0,0:0:0:77:D#5S_Eb5S_s.wav
329,192,70192,1,0,0:0:0:0:
36,192,70192,1,0,0:0:0:0:
475,192,70285,1,0,0:0:0:79:A#5S_Bb5S_s.wav
402,192,70285,1,0,0:0:0:0:
256,192,70379,1,0,0:0:0:88:F6S_s.wav
109,192,70379,1,0,0:0:0:0:
402,192,70473,1,0,0:0:0:92:D#6S_Eb6S_s.wav
475,192,70473,1,0,0:0:0:0:
329,192,70473,1,0,0:0:0:0:
256,192,70567,1,0,0:0:0:88:C#6S_Db6S_s.wav
109,192,70567,1,0,0:0:0:81:F#5S_Gb5S_s.wav
36,192,70567,1,0,0:0:0:84:B3S_s.wav
182,192,70567,1,0,0:0:0:84:B2S_s.wav
475,192,70660,1,0,0:0:0:81:D#5S_Eb5S_s.wav
329,192,70660,1,0,0:0:0:0:
256,192,70754,1,0,0:0:0:80:F#5S_Gb5S_s.wav
402,192,70754,1,0,0:0:0:71:D#4S_Eb4S_s.wav
109,192,70754,1,0,0:0:0:0:
36,192,70848,1,0,0:0:0:88:D#6S_Eb6S_s.wav
182,192,70848,1,0,0:0:0:0:
475,192,70942,1,0,0:0:0:80:F#5S_Gb5S_s.wav
109,192,70942,1,0,0:0:0:0:
329,192,70942,1,0,0:0:0:89:C#6S_Db6S_s.wav
256,192,71035,1,0,0:0:0:80:F#5S_Gb5S_s.wav
182,192,71129,1,0,0:0:0:88:B5S_s.wav
36,192,71129,1,0,0:0:0:0:
402,192,71129,1,0,0:0:0:0:
109,192,71223,1,0,0:0:0:88:D#5S_Eb5S_s.wav
329,192,71223,1,0,0:0:0:0:
475,192,71317,1,0,0:0:0:85:D5S_s.wav
182,192,71317,128,0,71410:0:0:0:85:A#3S_Bb3S_s.wav
402,192,71317,128,0,71410:0:0:0:85:G#4S_Ab4S_s.wav
329,192,71504,128,0,71598:0:0:0:88:F5S_s.wav
109,192,71504,128,0,71598:0:0:0:88:D6S_s.wav
36,192,71692,128,0,71785:0:0:0:90:D6S_s.wav
256,192,71692,128,0,71785:0:0:0:90:G#5S_Ab5S_s.wav
475,192,71692,128,0,71785:0:0:0:90:A#4S_Bb4S_s.wav
182,192,71879,128,0,71973:0:0:0:95:G#6S_Ab6S_s.wav
402,192,71879,128,0,71973:0:0:0:95:F7S_s.wav
475,192,72067,128,0,72348:0:0:0:58:F#6S_Gb6S_s.wav
329,192,72067,128,0,72160:0:0:0:58:D#5S_Eb5S_s.wav
36,192,72067,128,0,72535:0:0:0:58:A#6S_Bb6S_s.wav
182,192,72067,128,0,72160:0:0:0:0:
256,192,72254,1,0,0:0:0:0:
109,192,72254,128,0,72535:0:0:0:58:F#6S_Gb6S_s.wav
402,192,72254,1,0,0:0:0:58:F#5S_Gb5S_s.wav
182,192,72442,128,0,72535:0:0:0:52:A#6S_Bb6S_s.wav
329,192,72442,1,0,0:0:0:52:D#6S_Eb6S_s.wav
475,192,72442,128,0,72535:0:0:0:0:
36,192,72629,128,0,72723:0:0:0:59:D#7S_Eb7S_s.wav
329,192,72629,128,0,72723:0:0:0:0:
475,192,72629,128,0,72723:0:0:0:0:
256,192,72629,1,0,0:0:0:0:
182,192,72817,128,0,73285:0:0:0:73:A#6S_Bb6S_s.wav
402,192,72817,128,0,73098:0:0:0:73:F#6S_Gb6S_s.wav
109,192,72817,128,0,72910:0:0:0:73:C#5S_Db5S_s.wav
36,192,72817,128,0,72910:0:0:0:73:F7S_s.wav
256,192,73004,128,0,73285:0:0:0:54:F#6S_Gb6S_s.wav
475,192,73004,1,0,0:0:0:54:F#5S_Gb5S_s.wav
329,192,73192,128,0,73285:0:0:0:59:A#6S_Bb6S_s.wav
402,192,73192,1,0,0:0:0:59:D#6S_Eb6S_s.wav
36,192,73192,128,0,73285:0:0:0:0:
402,192,73379,128,0,73473:0:0:0:68:D#7S_Eb7S_s.wav
256,192,73379,128,0,73473:0:0:0:0:
109,192,73379,128,0,73473:0:0:0:0:
36,192,73379,1,0,0:0:0:0:
36,192,73567,128,0,73660:0:0:0:67:F#6S_Gb6S_s.wav
182,192,73567,128,0,73848:0:0:0:67:C#7S_Db7S_s.wav
329,192,73567,128,0,73660:0:0:0:67:B4S_s.wav
475,192,73567,128,0,73848:0:0:0:67:D#6S_Eb6S_s.wav
402,192,73754,128,0,74035:0:0:0:44:D#6S_Eb6S_s.wav
256,192,73754,128,0,73848:0:0:0:44:D#5S_Eb5S_s.wav
329,192,73942,128,0,74035:0:0:0:49:C#6S_Db6S_s.wav
475,192,73942,1,0,0:0:0:0:
182,192,73942,128,0,74035:0:0:0:0:
36,192,73942,128,0,74035:0:0:0:49:F#6S_Gb6S_s.wav
182,192,74129,128,0,74317:0:0:0:57:B6S_s.wav
36,192,74129,128,0,74317:0:0:0:0:
256,192,74129,1,0,0:0:0:0:
402,192,74129,1,0,0:0:0:0:
109,192,74317,1,0,0:0:0:0:
256,192,74317,1,0,0:0:0:0:
329,192,74317,128,0,74598:0:0:0:63:F#6S_Gb6S_s.wav
475,192,74317,128,0,74598:0:0:0:0:
182,192,74504,128,0,74692:0:0:0:0:
36,192,74504,128,0,74692:0:0:0:0:
109,192,74504,128,0,74692:0:0:0:51:A#6S_Bb6S_s.wav
329,192,74692,1,0,0:0:0:51:F5S_s.wav
475,192,74692,1,0,0:0:0:0:
36,192,74879,128,0,75067:0:0:0:48:F#4S_Gb4S_s.wav
109,192,74879,128,0,75067:0:0:0:0:
182,192,74879,128,0,75067:0:0:0:0:
402,192,74879,1,0,0:0:0:0:
329,192,74879,1,0,0:0:0:0:
475,192,75067,128,0,75348:0:0:0:58:F#5S_Gb5S_s.wav
256,192,75067,1,0,0:0:0:58:D#4S_Eb4S_s.wav
329,192,75067,128,0,75348:0:0:0:58:A#5S_Bb5S_s.wav
36,192,75254,1,0,0:0:0:58:F#4S_Gb4S_s.wav
109,192,75254,1,0,0:0:0:0:
182,192,75254,128,0,75723:0:0:0:58:F#5S_Gb5S_s.wav
256,192,75442,128,0,75535:0:0:0:0:
402,192,75442,128,0,75535:0:0:0:52:A#5S_Bb5S_s.wav
36,192,75442,128,0,75535:0:0:0:52:D#5S_Eb5S_s.wav
329,192,75629,128,0,75723:0:0:0:59:D#6S_Eb6S_s.wav
475,192,75629,128,0,75723:0:0:0:0:
36,192,75629,128,0,75723:0:0:0:0:
36,192,75817,128,0,76098:0:0:0:73:A#5S_Bb5S_s.wav
182,192,75817,128,0,76098:0:0:0:73:F#5S_Gb5S_s.wav
475,192,75817,1,0,0:0:0:73:C#4S_Db4S_s.wav
329,192,75817,1,0,0:0:0:73:F6S_s.wav
109,192,75817,1,0,0:0:0:0:
402,192,75817,1,0,0:0:0:0:
475,192,76004,1,0,0:0:0:54:F#4S_Gb4S_s.wav
329,192,76004,128,0,76473:0:0:0:54:F#5S_Gb5S_s.wav
109,192,76192,128,0,76285:0:0:0:63:D#5S_Eb5S_s.wav
256,192,76192,128,0,76285:0:0:0:63:A#5S_Bb5S_s.wav
475,192,76192,128,0,76285:0:0:0:0:
36,192,76379,128,0,76473:0:0:0:71:D#6S_Eb6S_s.wav
182,192,76379,128,0,76473:0:0:0:0:
475,192,76379,128,0,76473:0:0:0:0:
475,192,76567,128,0,77035:0:0:0:76:D#5S_Eb5S_s.wav
182,192,76567,1,0,0:0:0:76:F#5S_Gb5S_s.wav
109,192,76567,1,0,0:0:0:0:
402,192,76567,1,0,0:0:0:76:B3S_s.wav
36,192,76567,128,0,77035:0:0:0:76:C#6S_Db6S_s.wav
256,192,76660,1,0,0:0:0:0:
109,192,76754,1,0,0:0:0:67:D#5S_Eb5S_s.wav
329,192,76754,1,0,0:0:0:67:D#4S_Eb4S_s.wav
256,192,76848,1,0,0:0:0:88:F#5S_Gb5S_s.wav
109,192,76942,1,0,0:0:0:88:C#6S_Db6S_s.wav
402,192,76942,1,0,0:0:0:74:F#5S_Gb5S_s.wav
182,192,76942,1,0,0:0:0:74:C#5S_Db5S_s.wav
256,192,77035,1,0,0:0:0:67:D#5S_Eb5S_s.wav
329,192,77129,1,0,0:0:0:89:B5S_s.wav
475,192,77129,128,0,77223:0:0:0:0:
36,192,77129,128,0,77223:0:0:0:0:
182,192,77223,1,0,0:0:0:88:D#5S_Eb5S_s.wav
256,192,77317,1,0,0:0:0:96:B4S_s.wav
36,192,77317,128,0,77598:0:0:0:0:
329,192,77317,1,0,0:0:0:96:F3S_s.wav
475,192,77317,128,0,77598:0:0:0:0:
402,192,77317,1,0,0:0:0:96:F4S_s.wav
182,192,77410,1,0,0:0:0:0:
402,192,77504,1,0,0:0:0:0:
329,192,77504,1,0,0:0:0:0:
256,192,77598,1,0,0:0:0:0:
109,192,77598,1,0,0:0:0:0:
182,192,77692,128,0,77973:0:0:0:94:A#3S_Bb3S_s.wav
36,192,77692,128,0,77973:0:0:0:92:A#4S_Bb4S_s.wav
329,192,77692,128,0,77973:0:0:0:95:G#5S_Ab5S_s.wav
475,192,77692,128,0,77973:0:0:0:0:
329,192,78067,128,0,78160:0:0:0:97:A#4S_Bb4S_s.wav
402,192,78067,1,0,0:0:0:90:D#4S_Eb4S_s.wav
182,192,78067,1,0,0:0:0:92:D#3S_Eb3S_s.wav
36,192,78067,1,0,0:0:0:0:
475,192,78160,128,0,78254:0:0:0:0:
256,192,78254,128,0,78348:0:0:0:88:F#5S_Gb5S_s.wav
109,192,78254,1,0,0:0:0:84:A#4S_Bb4S_s.wav
402,192,78348,128,0,78442:0:0:0:88:F#5S_Gb5S_s.wav
475,192,78348,1,0,0:0:0:84:A#4S_Bb4S_s.wav
182,192,78442,128,0,78535:0:0:0:89:F#5S_Gb5S_s.wav
36,192,78442,1,0,0:0:0:86:A#4S_Bb4S_s.wav
329,192,78535,128,0,78629:0:0:0:89:F#5S_Gb5S_s.wav
475,192,78535,1,0,0:0:0:86:A#4S_Bb4S_s.wav
109,192,78629,128,0,78723:0:0:0:92:A#4S_Bb4S_s.wav
402,192,78629,1,0,0:0:0:98:F5S_s.wav
256,192,78723,128,0,78817:0:0:0:0:
475,192,78723,1,0,0:0:0:0:
36,192,78817,128,0,78910:0:0:0:88:A#5S_Bb5S_s.wav
329,192,78817,1,0,0:0:0:90:D#5S_Eb5S_s.wav
182,192,78910,128,0,79004:0:0:0:88:A#5S_Bb5S_s.wav
475,192,78910,1,0,0:0:0:90:D#5S_Eb5S_s.wav
329,192,79004,128,0,79098:0:0:0:93:A#5S_Bb5S_s.wav
36,192,79004,1,0,0:0:0:92:D#5S_Eb5S_s.wav
475,192,79098,128,0,79192:0:0:0:93:A#5S_Bb5S_s.wav
182,192,79098,1,0,0:0:0:92:D#5S_Eb5S_s.wav
329,192,79192,1,0,0:0:0:93:A#5S_Bb5S_s.wav
36,192,79192,128,0,79285:0:0:0:100:D5S_s.wav
475,192,79285,1,0,0:0:0:0:
182,192,79285,128,0,79379:0:0:0:0:
329,192,79379,128,0,79473:0:0:0:89:D#6S_Eb6S_s.wav
36,192,79379,1,0,0:0:0:90:F#5S_Gb5S_s.wav
475,192,79473,1,0,0:0:0:90:F#5S_Gb5S_s.wav
182,192,79473,128,0,79567:0:0:0:89:D#6S_Eb6S_s.wav
109,192,79567,1,0,0:0:0:92:D#6S_Eb6S_s.wav
36,192,79567,1,0,0:0:0:93:F#5S_Gb5S_s.wav
402,192,79567,128,0,79660:0:0:0:0:
475,192,79660,1,0,0:0:0:92:D#6S_Eb6S_s.wav
256,192,79660,128,0,79754:0:0:0:93:F#5S_Gb5S_s.wav
329,192,79754,1,0,0:0:0:100:D6S_s.wav
109,192,79754,128,0,79848:0:0:0:97:F5S_s.wav
475,192,79848,128,0,79942:0:0:0:0:
182,192,79848,1,0,0:0:0:0:
329,192,79942,128,0,80035:0:0:0:86:F#6S_Gb6S_s.wav
36,192,79942,1,0,0:0:0:88:A#5S_Bb5S_s.wav
182,192,80035,128,0,80129:0:0:0:86:F#6S_Gb6S_s.wav
402,192,80035,1,0,0:0:0:88:A#5S_Bb5S_s.wav
36,192,80129,128,0,80223:0:0:0:90:F#6S_Gb6S_s.wav
475,192,80129,1,0,0:0:0:88:A#5S_Bb5S_s.wav
402,192,80192,1,0,0:0:0:0:
182,192,80223,128,0,80317:0:0:0:88:A#5S_Bb5S_s.wav
329,192,80254,1,0,0:0:0:0:
475,192,80317,1,0,0:0:0:92:G#5S_Ab5S_s.wav
256,192,80317,1,0,0:0:0:95:F6S_s.wav
36,192,80317,1,0,0:0:0:0:
109,192,80317,1,0,0:0:0:0:
475,192,80504,128,0,80973:0:0:0:89:G#6S_Ab6S_s.wav
402,192,80504,1,0,0:0:0:90:F#6S_Gb6S_s.wav
109,192,80504,1,0,0:0:0:100:D6S_s.wav
36,192,80504,128,0,80973:0:0:0:100:E4S_s.wav
182,192,80504,128,0,80598:0:0:0:97:E3S_s.wav
329,192,80598,128,0,80692:0:0:0:66:C#7S_Db7S_s.wav
256,192,80598,1,0,0:0:0:66:D6S_s.wav
182,192,80692,128,0,80785:0:0:0:73:C#7S_Db7S_s.wav
109,192,80692,1,0,0:0:0:73:D6S_s.wav
329,192,80785,128,0,80879:0:0:0:87:D6S_s.wav
256,192,80879,128,0,80973:0:0:0:100:D6S_s.wav
109,192,80879,128,0,80973:0:0:0:100:B6S_s.wav
402,192,80879,128,0,80973:0:0:0:0:
36,192,81067,1,0,0:0:0:90:D#4S_Eb4S_s.wav
109,192,81067,128,0,81160:0:0:0:92:D#3S_Eb3S_s.wav
475,192,81067,1,0,0:0:0:96:A#6S_Bb6S_s.wav
256,192,81067,128,0,81160:0:0:0:99:F6S_s.wav
402,192,81067,128,0,81160:0:0:0:97:A#5S_Bb5S_s.wav
329,192,81254,128,0,81348:0:0:0:95:F#7S_Gb7S_s.wav
475,192,81254,128,0,81348:0:0:0:95:A#6S_Bb6S_s.wav
36,192,81348,128,0,81442:0:0:0:0:
182,192,81348,128,0,81442:0:0:0:0:
329,192,81442,128,0,81535:0:0:0:90:F#7S_Gb7S_s.wav
475,192,81442,128,0,81535:0:0:0:88:A#6S_Bb6S_s.wav
36,192,81535,128,0,81629:0:0:0:0:
182,192,81535,128,0,81629:0:0:0:0:
256,192,81629,128,0,81723:0:0:0:95:F7S_s.wav
402,192,81629,128,0,81723:0:0:0:92:G#6S_Ab6S_s.wav
109,192,81629,128,0,81723:0:0:0:0:
475,192,81817,128,0,81910:0:0:0:95:A#7S_Bb7S_s.wav
182,192,81817,1,0,0:0:0:0:
329,192,81817,1,0,0:0:0:0:
256,192,81817,1,0,0:0:0:0:
36,192,81817,128,0,81910:0:0:0:95:D#7S_Eb7S_s.wav
402,192,81910,128,0,82004:0:0:0:89:A#7S_Bb7S_s.wav
109,192,81910,128,0,82004:0:0:0:89:D#7S_Eb7S_s.wav
475,192,82004,128,0,82098:0:0:0:85:A#7S_Bb7S_s.wav
36,192,82004,128,0,82098:0:0:0:85:D#7S_Eb7S_s.wav
329,192,82098,128,0,82192:0:0:0:92:A#7S_Bb7S_s.wav
182,192,82098,128,0,82192:0:0:0:92:D#7S_Eb7S_s.wav
402,192,82192,128,0,82285:0:0:0:98:A#7S_Bb7S_s.wav
109,192,82192,128,0,82285:0:0:0:98:D7S_s.wav
256,192,82285,1,0,0:0:0:88:G5S_s.wav
36,192,82379,128,0,82660:0:0:0:94:G3S_s.wav
182,192,82379,128,0,82473:0:0:0:96:G6S_s.wav
109,192,82379,1,0,0:0:0:0:
475,192,82379,128,0,82848:0:0:0:94:G4S_s.wav
402,192,82473,128,0,82567:0:0:0:77:E7S_s.wav
329,192,82473,1,0,0:0:0:77:G6S_s.wav
256,192,82567,128,0,82660:0:0:0:77:E7S_s.wav
109,192,82567,128,0,82660:0:0:0:77:G6S_s.wav
329,192,82660,128,0,82942:0:0:0:86:E7S_s.wav
402,192,82660,1,0,0:0:0:86:G6S_s.wav
109,192,82754,128,0,82942:0:0:0:98:D#7S_Eb7S_s.wav
182,192,82754,1,0,0:0:0:88:D#5S_Eb5S_s.wav
36,192,82754,1,0,0:0:0:98:G6S_s.wav
256,192,82848,128,0,83035:0:0:0:0:
182,192,82942,128,0,83223:0:0:0:88:D#6S_Eb6S_s.wav
402,192,82942,1,0,0:0:0:96:G#3S_Ab3S_s.wav
475,192,82942,128,0,83035:0:0:0:95:G#4S_Ab4S_s.wav
36,192,83035,128,0,83129:0:0:0:0:
109,192,83035,1,0,0:0:0:0:
329,192,83035,128,0,83129:0:0:0:88:D#6S_Eb6S_s.wav
256,192,83129,128,0,83317:0:0:0:89:D#6S_Eb6S_s.wav
475,192,83129,1,0,0:0:0:90:C#7S_Db7S_s.wav
402,192,83129,128,0,83223:0:0:0:90:F#6S_Gb6S_s.wav
109,192,83223,128,0,83317:0:0:0:89:D#6S_Eb6S_s.wav
36,192,83317,1,0,0:0:0:100:B6S_s.wav
402,192,83317,1,0,0:0:0:0:
329,192,83317,1,0,0:0:0:100:F#6S_Gb6S_s.wav
182,192,83317,1,0,0:0:0:100:D#6S_Eb6S_s.wav
475,192,83317,1,0,0:0:0:0:
109,192,83504,1,0,0:0:0:95:D#6S_Eb6S_s.wav
329,192,83504,1,0,0:0:0:97:B5S_s.wav
475,192,83504,1,0,0:0:0:95:F4S_s.wav
36,192,83504,1,0,0:0:0:93:F3S_s.wav
182,192,83567,1,0,0:0:0:0:
256,192,83629,1,0,0:0:0:0:
329,192,83692,1,0,0:0:0:100:A#3S_Bb3S_s.wav
36,192,83692,1,0,0:0:0:100:A#5S_Bb5S_s.wav
475,192,83692,1,0,0:0:0:0:
402,192,83692,1,0,0:0:0:100:D6S_s.wav
109,192,83692,1,0,0:0:0:100:A#6S_Bb6S_s.wav
475,192,83879,1,0,0:0:0:99:A#6S_Bb6S_s.wav
182,192,83879,1,0,0:0:0:99:G#5S_Ab5S_s.wav
36,192,83879,1,0,0:0:0:99:A#2S_Bb2S_s.wav
256,192,83879,1,0,0:0:0:99:D6S_s.wav
329,192,83879,1,0,0:0:0:0:
475,192,84067,5,0,0:0:0:0:
36,192,84067,1,0,0:0:0:100:D#2S_Eb2S_s.wav
402,192,84067,1,0,0:0:0:0:
109,192,84067,1,0,0:0:0:100:D#3S_Eb3S_s.wav
256,192,84067,1,0,0:0:0:0:
109,192,84254,1,0,0:0:0:92:E6S_s.wav
36,192,84254,1,0,0:0:0:92:G5S_s.wav
402,192,84254,128,0,84348:0:0:0:92:A#5S_Bb5S_s.wav
182,192,84348,1,0,0:0:0:77:A#5S_Bb5S_s.wav
329,192,84348,128,0,84442:0:0:0:77:G5S_s.wav
36,192,84442,1,0,0:0:0:86:A#5S_Bb5S_s.wav
475,192,84442,1,0,0:0:0:86:E6S_s.wav
109,192,84442,1,0,0:0:0:0:
402,192,84442,128,0,84535:0:0:0:86:G5S_s.wav
329,192,84535,128,0,84629:0:0:0:0:
256,192,84535,1,0,0:0:0:0:
36,192,84629,1,0,0:0:0:96:A#5S_Bb5S_s.wav
475,192,84629,1,0,0:0:0:81:D#2S_Eb2S_s.wav
402,192,84629,1,0,0:0:0:96:G5S_s.wav
182,192,84629,128,0,84723:0:0:0:96:D#6S_Eb6S_s.wav
109,192,84629,1,0,0:0:0:0:
475,192,84817,128,0,84942:0:0:0:92:A#6S_Bb6S_s.wav
256,192,84817,1,0,0:0:0:100:D#4S_Eb4S_s.wav
36,192,84817,1,0,0:0:0:92:E7S_s.wav
109,192,84817,1,0,0:0:0:0:
329,192,84817,1,0,0:0:0:92:G6S_s.wav
402,192,84910,128,0,85035:0:0:0:88:D#7S_Eb7S_s.wav
182,192,84910,1,0,0:0:0:0:
109,192,85004,1,0,0:0:0:88:C#7S_Db7S_s.wav
329,192,85004,128,0,85129:0:0:0:0:
256,192,85098,128,0,85223:0:0:0:88:A#6S_Bb6S_s.wav
36,192,85098,1,0,0:0:0:0:
182,192,85192,128,0,85317:0:0:0:0:
475,192,85192,128,0,85285:0:0:0:88:G6S_s.wav
109,192,85285,128,0,85410:0:0:0:88:E6S_s.wav
402,192,85285,128,0,85379:0:0:0:0:
329,192,85379,128,0,85473:0:0:0:88:D#6S_Eb6S_s.wav
256,192,85473,128,0,85567:0:0:0:88:A#5S_Bb5S_s.wav
109,192,85567,1,0,0:0:0:98:G#3S_Ab3S_s.wav
36,192,85567,1,0,0:0:0:98:G#2S_Ab2S_s.wav
402,192,85567,1,0,0:0:0:0:
475,192,85567,1,0,0:0:0:0:
182,192,85567,1,0,0:0:0:0:
329,192,85567,1,0,0:0:0:0:
475,192,85754,1,0,0:0:0:96:D#6S_Eb6S_s.wav
402,192,85754,1,0,0:0:0:96:B5S_s.wav
109,192,85754,128,0,85848:0:0:0:96:A#6S_Bb6S_s.wav
182,192,85848,128,0,85942:0:0:0:89:B5S_s.wav
329,192,85848,1,0,0:0:0:0:
475,192,85942,1,0,0:0:0:85:D#6S_Eb6S_s.wav
36,192,85942,1,0,0:0:0:85:B5S_s.wav
109,192,85942,128,0,86035:0:0:0:85:A#6S_Bb6S_s.wav
402,192,85942,1,0,0:0:0:0:
256,192,86035,1,0,0:0:0:87:D#6S_Eb6S_s.wav
182,192,86035,128,0,86129:0:0:0:87:B5S_s.wav
36,192,86129,1,0,0:0:0:97:D#6S_Eb6S_s.wav
402,192,86129,1,0,0:0:0:97:B5S_s.wav
475,192,86129,1,0,0:0:0:0:
329,192,86129,128,0,86223:0:0:0:97:G#6S_Ab6S_s.wav
256,192,86317,1,0,0:0:0:96:A5S_s.wav
36,192,86317,1,0,0:0:0:96:A2S_s.wav
475,192,86317,1,0,0:0:0:96:D#6S_Eb6S_s.wav
329,192,86317,1,0,0:0:0:0:
109,192,86317,128,0,86410:0:0:0:96:A3S_s.wav
182,192,86410,128,0,86504:0:0:0:0:
402,192,86410,1,0,0:0:0:0:
36,192,86504,1,0,0:0:0:86:D#6S_Eb6S_s.wav
329,192,86504,128,0,86598:0:0:0:86:A5S_s.wav
109,192,86598,1,0,0:0:0:86:D#6S_Eb6S_s.wav
402,192,86598,128,0,86692:0:0:0:86:A5S_s.wav
256,192,86692,1,0,0:0:0:90:F#6S_Gb6S_s.wav
182,192,86692,128,0,86785:0:0:0:90:D#6S_Eb6S_s.wav
36,192,86692,128,0,86785:0:0:0:90:A5S_s.wav
475,192,86785,128,0,86879:0:0:0:93:D#6S_Eb6S_s.wav
329,192,86785,128,0,86879:0:0:0:93:A5S_s.wav
109,192,86879,1,0,0:0:0:97:D#6S_Eb6S_s.wav
182,192,86879,1,0,0:0:0:97:F6S_s.wav
36,192,86879,1,0,0:0:0:97:A5S_s.wav
256,192,87067,1,0,0:0:0:100:A#4S_Bb4S_s.wav
182,192,87067,1,0,0:0:0:0:
36,192,87067,1,0,0:0:0:100:A#3S_Bb3S_s.wav
402,192,87067,1,0,0:0:0:0:
475,192,87067,1,0,0:0:0:0:
329,192,87254,1,0,0:0:0:90:D#6S_Eb6S_s.wav
182,192,87254,128,0,87348:0:0:0:90:A#5S_Bb5S_s.wav
36,192,87254,128,0,87348:0:0:0:90:F#6S_Gb6S_s.wav
402,192,87348,128,0,87442:0:0:0:85:D#6S_Eb6S_s.wav
475,192,87348,128,0,87442:0:0:0:81:A#5S_Bb5S_s.wav
256,192,87442,128,0,87535:0:0:0:87:F#6S_Gb6S_s.wav
36,192,87442,1,0,0:0:0:82:A#5S_Bb5S_s.wav
109,192,87442,128,0,87535:0:0:0:86:D#6S_Eb6S_s.wav
329,192,87535,128,0,87629:0:0:0:87:F#6S_Gb6S_s.wav
182,192,87535,1,0,0:0:0:82:A#5S_Bb5S_s.wav
475,192,87535,128,0,87629:0:0:0:86:D#6S_Eb6S_s.wav
109,192,87629,1,0,0:0:0:90:G#6S_Ab6S_s.wav
402,192,87629,1,0,0:0:0:96:D#6S_Eb6S_s.wav
36,192,87629,1,0,0:0:0:73:A#5S_Bb5S_s.wav
256,192,87817,128,0,88192:0:0:0:100:A#2S_Bb2S_s.wav
402,192,87817,1,0,0:0:0:90:D#6S_Eb6S_s.wav
475,192,87817,128,0,88379:0:0:0:100:A#3S_Bb3S_s.wav
36,192,87817,1,0,0:0:0:90:A#5S_Bb5S_s.wav
109,192,87817,1,0,0:0:0:90:F#6S_Gb6S_s.wav
329,192,87910,1,0,0:0:0:81:A#5S_Bb5S_s.wav
36,192,88004,1,0,0:0:0:86:D#6S_Eb6S_s.wav
182,192,88004,1,0,0:0:0:82:A#5S_Bb5S_s.wav
109,192,88098,1,0,0:0:0:82:A#5S_Bb5S_s.wav
182,192,88192,128,0,88379:0:0:0:97:G#5S_Ab5S_s.wav
329,192,88192,128,0,88379:0:0:0:97:F6S_s.wav
36,192,88192,1,0,0:0:0:97:D6S_s.wav
402,192,88192,1,0,0:0:0:0:
256,192,88379,1,0,0:0:0:92:A#5S_Bb5S_s.wav
36,192,88379,1,0,0:0:0:0:
109,192,88379,1,0,0:0:0:0:
256,192,88567,1,0,0:0:0:98:D#6S_Eb6S_s.wav
36,192,88567,1,0,0:0:0:99:A#5S_Bb5S_s.wav
475,192,88567,1,0,0:0:0:98:F#5S_Gb5S_s.wav
329,192,88567,128,0,88660:0:0:0:93:D#4S_Eb4S_s.wav
182,192,88567,128,0,88660:0:0:0:93:D#3S_Eb3S_s.wav
36,192,88754,1,0,0:0:0:93:A#6S_Bb6S_s.wav
182,192,88754,1,0,0:0:0:93:F#7S_Gb7S_s.wav
475,192,88754,1,0,0:0:0:93:D#3S_Eb3S_s.wav
329,192,88754,1,0,0:0:0:93:D#4S_Eb4S_s.wav
256,192,88848,1,0,0:0:0:93:A#6S_Bb6S_s.wav
182,192,88942,1,0,0:0:0:93:A#6S_Bb6S_s.wav
109,192,88942,128,0,89035:0:0:0:93:C#4S_Db4S_s.wav
402,192,88942,128,0,89035:0:0:0:93:C#3S_Db3S_s.wav
329,192,88942,1,0,0:0:0:93:F7S_s.wav
475,192,89129,1,0,0:0:0:94:A#6S_Bb6S_s.wav
402,192,89129,1,0,0:0:0:94:B3S_s.wav
329,192,89129,1,0,0:0:0:94:B2S_s.wav
36,192,89223,1,0,0:0:0:96:D#7S_Eb7S_s.wav
109,192,89223,1,0,0:0:0:96:A#6S_Bb6S_s.wav
182,192,89223,1,0,0:0:0:0:
329,192,89317,1,0,0:0:0:94:C#7S_Db7S_s.wav
402,192,89317,1,0,0:0:0:94:G#6S_Ab6S_s.wav
475,192,89317,1,0,0:0:0:94:A#3S_Bb3S_s.wav
256,192,89317,1,0,0:0:0:94:A#2S_Bb2S_s.wav
109,192,89410,1,0,0:0:0:92:C#7S_Db7S_s.wav
36,192,89410,1,0,0:0:0:92:G#6S_Ab6S_s.wav
329,192,89504,1,0,0:0:0:94:F#6S_Gb6S_s.wav
402,192,89504,1,0,0:0:0:94:G#3S_Ab3S_s.wav
475,192,89504,1,0,0:0:0:94:G#2S_Ab2S_s.wav
256,192,89598,1,0,0:0:0:96:F#6S_Gb6S_s.wav
182,192,89598,1,0,0:0:0:96:B6S_s.wav
475,192,89692,1,0,0:0:0:100:G#5S_Ab5S_s.wav
402,192,89692,1,0,0:0:0:100:A#2S_Bb2S_s.wav
36,192,89692,1,0,0:0:0:100:A#5S_Bb5S_s.wav
109,192,89692,1,0,0:0:0:100:null_s.wav
182,192,89879,1,0,0:0:0:0:
329,192,89879,1,0,0:0:0:0:
475,192,90067,1,0,0:0:0:97:A#4S_Bb4S_s.wav
36,192,90067,1,0,0:0:0:96:A#5S_Bb5S_s.wav
256,192,90067,1,0,0:0:0:90:D#4S_Eb4S_s.wav
329,192,90067,128,0,90254:0:0:0:99:F5S_s.wav
182,192,90067,1,0,0:0:0:92:D#3S_Eb3S_s.wav
402,192,90160,128,0,90348:0:0:0:0:
109,192,90160,128,0,90348:0:0:0:0:
475,192,90254,128,0,90442:0:0:0:0:
182,192,90254,128,0,90442:0:0:0:0:
256,192,90348,128,0,90535:0:0:0:0:
329,192,90442,128,0,90629:0:0:0:94:A#7S_Bb7S_s.wav
36,192,90442,128,0,90629:0:0:0:0:
402,192,90535,128,0,90723:0:0:0:0:
109,192,90535,128,0,90723:0:0:0:0:
182,192,90629,128,0,90817:0:0:0:70:F7S_s.wav
256,192,90723,128,0,91004:0:0:0:0:
475,192,90817,128,0,91098:0:0:0:70:D7S_s.wav
329,192,90817,128,0,90910:0:0:0:0:
109,192,90817,1,0,0:0:0:0:
402,192,90817,1,0,0:0:0:0:
36,192,90817,1,0,0:0:0:0:
182,192,90910,128,0,91098:0:0:0:0:
402,192,91004,128,0,91192:0:0:0:69:F#6S_Gb6S_s.wav
109,192,91004,128,0,91192:0:0:0:0:
329,192,91098,128,0,91285:0:0:0:0:
36,192,91098,128,0,91285:0:0:0:0:
256,192,91192,128,0,91379:0:0:0:70:F6S_s.wav
475,192,91285,128,0,91473:0:0:0:0:
182,192,91285,128,0,91473:0:0:0:0:
109,192,91379,128,0,91567:0:0:0:80:D#6S_Eb6S_s.wav
402,192,91379,128,0,91567:0:0:0:0:
329,192,91473,128,0,91660:0:0:0:0:
256,192,91567,128,0,91754:0:0:0:79:F#5S_Gb5S_s.wav
475,192,91567,1,0,0:0:0:0:
36,192,91567,1,0,0:0:0:0:
182,192,91660,128,0,91848:0:0:0:0:
109,192,91754,128,0,91942:0:0:0:83:F#4S_Gb4S_s.wav
402,192,91754,128,0,91942:0:0:0:0:
329,192,91848,128,0,92035:0:0:0:0:
256,192,91942,128,0,92129:0:0:0:0:
475,192,92035,128,0,92223:0:0:0:0:
182,192,92035,128,0,92223:0:0:0:0:
402,192,92129,128,0,92317:0:0:0:80:D#6S_Eb6S_s.wav
329,192,92223,128,0,92410:0:0:0:0:
256,192,92317,128,0,92410:0:0:0:96:A#6S_Bb6S_s.wav
109,192,92317,128,0,92410:0:0:0:96:F7S_s.wav
36,192,92317,128,0,92410:0:0:0:0:
475,192,92317,128,0,92410:0:0:0:0:
329,192,92504,128,0,92973:0:0:0:100:E4S_s.wav
36,192,92504,128,0,92973:0:0:0:100:D6S_s.wav
182,192,92504,128,0,92785:0:0:0:0:
475,192,92504,128,0,92973:0:0:0:97:E3S_s.wav
256,192,92692,128,0,92973:0:0:0:73:C#7S_Db7S_s.wav
109,192,92692,128,0,92785:0:0:0:73:D6S_s.wav
402,192,92692,128,0,92785:0:0:0:0:
182,192,92879,128,0,92973:0:0:0:100:B6S_s.wav
109,192,92879,128,0,92973:0:0:0:100:D6S_s.wav
402,192,92879,128,0,92973:0:0:0:0:
402,192,93067,128,0,93348:0:0:0:90:D#4S_Eb4S_s.wav
36,192,93067,128,0,93348:0:0:0:96:A#5S_Bb5S_s.wav
256,192,93067,128,0,93348:0:0:0:92:D#3S_Eb3S_s.wav
475,192,93067,128,0,93348:0:0:0:99:F5S_s.wav
109,192,93067,128,0,93348:0:0:0:97:A#4S_Bb4S_s.wav
109,192,93442,128,0,93535:0:0:0:83:F#8S_Gb8S_s.wav
256,192,93442,128,0,93629:0:0:0:0:
36,192,93442,1,0,0:0:0:0:
475,192,93442,1,0,0:0:0:0:
402,192,93535,128,0,93629:0:0:0:0:
182,192,93535,128,0,93723:0:0:0:0:
36,192,93629,128,0,93723:0:0:0:88:F8S_s.wav
329,192,93629,128,0,93910:0:0:0:0:
256,192,93723,128,0,93817:0:0:0:0:
475,192,93723,128,0,93817:0:0:0:0:
182,192,93817,128,0,94004:0:0:0:88:D#8S_Eb8S_s.wav
109,192,93817,128,0,93910:0:0:0:0:
256,192,93910,128,0,94098:0:0:0:0:
402,192,93910,128,0,94004:0:0:0:0:
329,192,94004,128,0,94285:0:0:0:88:D8S_s.wav
36,192,94004,128,0,94098:0:0:0:0:
182,192,94098,128,0,94192:0:0:0:0:
475,192,94098,128,0,94192:0:0:0:0:
256,192,94192,128,0,94379:0:0:0:88:B7S_s.wav
109,192,94192,128,0,94285:0:0:0:0:
182,192,94285,128,0,94473:0:0:0:0:
475,192,94285,128,0,94379:0:0:0:0:
402,192,94379,128,0,94473:0:0:0:88:A#7S_Bb7S_s.wav
36,192,94379,128,0,94473:0:0:0:0:
329,192,94473,128,0,94754:0:0:0:0:
256,192,94567,128,0,94660:0:0:0:0:
109,192,94567,128,0,94660:0:0:0:0:
36,192,94567,1,0,0:0:0:0:
402,192,94567,1,0,0:0:0:0:
475,192,94567,128,0,94660:0:0:0:88:F#7S_Gb7S_s.wav
182,192,94660,128,0,95129:0:0:0:0:
402,192,94754,1,0,0:0:0:0:
475,192,94754,1,0,0:0:0:0:
256,192,94754,128,0,94848:0:0:0:88:F7S_s.wav
36,192,94754,128,0,94848:0:0:0:0:
329,192,94848,128,0,94942:0:0:0:0:
256,192,94942,128,0,95035:0:0:0:88:C#7S_Db7S_s.wav
36,192,94942,128,0,95223:0:0:0:96:G#3S_Ab3S_s.wav
475,192,94942,128,0,95223:0:0:0:95:G#4S_Ab4S_s.wav
402,192,94942,1,0,0:0:0:0:
329,192,95035,128,0,95223:0:0:0:0:
256,192,95129,128,0,95317:0:0:0:88:B6S_s.wav
109,192,95129,1,0,0:0:0:0:
182,192,95223,128,0,95317:0:0:0:0:
109,192,95317,128,0,95410:0:0:0:100:F#5S_Gb5S_s.wav
402,192,95317,128,0,95410:0:0:0:0:
36,192,95317,1,0,0:0:0:95:G#3S_Ab3S_s.wav
329,192,95317,1,0,0:0:0:100:D#5S_Eb5S_s.wav
475,192,95317,1,0,0:0:0:96:G#2S_Ab2S_s.wav
109,192,95504,1,0,0:0:0:90:F4S_s.wav
329,192,95504,1,0,0:0:0:90:F3S_s.wav
182,192,95598,1,0,0:0:0:85:F4S_s.wav
402,192,95598,1,0,0:0:0:85:F3S_s.wav
36,192,95692,1,0,0:0:0:88:A#6S_Bb6S_s.wav
475,192,95692,1,0,0:0:0:88:A#5S_Bb5S_s.wav
109,192,95692,1,0,0:0:0:88:A#3S_Bb3S_s.wav
329,192,95692,1,0,0:0:0:88:D6S_s.wav
256,192,95692,1,0,0:0:0:0:
36,192,95879,1,0,0:0:0:94:A#6S_Bb6S_s.wav
329,192,95879,1,0,0:0:0:94:G#5S_Ab5S_s.wav
475,192,95879,1,0,0:0:0:94:A#2S_Bb2S_s.wav
182,192,95879,1,0,0:0:0:94:D6S_s.wav
109,192,95879,1,0,0:0:0:0:
402,192,95879,1,0,0:0:0:0:
36,192,96067,1,0,0:0:0:0:
329,192,96067,128,0,96535:0:0:0:100:D#3S_Eb3S_s.wav
475,192,96067,128,0,96535:0:0:0:100:D#2S_Eb2S_s.wav
402,192,96067,1,0,0:0:0:0:
256,192,96067,1,0,0:0:0:0:
109,192,96067,1,0,0:0:0:0:
36,192,96254,128,0,96535:0:0:0:95:A#5S_Bb5S_s.wav
182,192,96254,128,0,96348:0:0:0:95:E6S_s.wav
402,192,96254,1,0,0:0:0:95:G5S_s.wav
256,192,96442,128,0,96535:0:0:0:96:A#5S_Bb5S_s.wav
402,192,96442,1,0,0:0:0:96:G5S_s.wav
109,192,96442,128,0,96535:0:0:0:96:D#6S_Eb6S_s.wav
182,192,96442,1,0,0:0:0:0:
475,192,96629,128,0,96723:0:0:0:100:D#4S_Eb4S_s.wav
402,192,96629,128,0,96723:0:0:0:100:D#3S_Eb3S_s.wav
256,192,96629,128,0,96723:0:0:0:0:
109,192,96629,128,0,96723:0:0:0:100:E7S_s.wav
36,192,96629,128,0,96723:0:0:0:0:
329,192,96817,1,0,0:0:0:0:
182,192,96817,128,0,96910:0:0:0:0:
475,192,96817,128,0,97285:0:0:0:86:D#7S_Eb7S_s.wav
109,192,96817,128,0,96910:0:0:0:0:
36,192,96817,128,0,96910:0:0:0:0:
329,192,97004,128,0,97285:0:0:0:85:A#6S_Bb6S_s.wav
109,192,97004,1,0,0:0:0:0:
256,192,97004,1,0,0:0:0:0:
36,192,97004,1,0,0:0:0:0:
36,192,97192,128,0,97285:0:0:0:85:G6S_s.wav
182,192,97192,128,0,97285:0:0:0:0:
256,192,97192,1,0,0:0:0:0:
402,192,97192,1,0,0:0:0:0:
182,192,97379,1,0,0:0:0:90:D#6S_Eb6S_s.wav
36,192,97379,1,0,0:0:0:0:
329,192,97379,1,0,0:0:0:0:
475,192,97379,1,0,0:0:0:0:
36,192,97567,128,0,97660:0:0:0:0:
475,192,97567,128,0,98035:0:0:0:0:
109,192,97567,128,0,97660:0:0:0:0:
402,192,97567,128,0,97660:0:0:0:100:G#2S_Ab2S_s.wav
256,192,97567,128,0,97660:0:0:0:100:G#3S_Ab3S_s.wav
36,192,97754,128,0,98035:0:0:0:96:A#6S_Bb6S_s.wav
182,192,97754,128,0,97848:0:0:0:96:B5S_s.wav
329,192,97754,128,0,97848:0:0:0:96:D#6S_Eb6S_s.wav
182,192,97942,128,0,98035:0:0:0:100:G#4S_Ab4S_s.wav
329,192,97942,128,0,98035:0:0:0:100:G#3S_Ab3S_s.wav
256,192,97942,1,0,0:0:0:97:D#6S_Eb6S_s.wav
402,192,97942,1,0,0:0:0:97:B5S_s.wav
109,192,98129,128,0,98598:0:0:0:97:F#6S_Gb6S_s.wav
402,192,98129,128,0,98598:0:0:0:97:A3S_s.wav
256,192,98129,1,0,0:0:0:0:
36,192,98129,128,0,98223:0:0:0:97:A2S_s.wav
475,192,98129,128,0,98223:0:0:0:0:
256,192,98317,128,0,98598:0:0:0:95:F6S_s.wav
182,192,98317,1,0,0:0:0:0:
329,192,98504,128,0,98598:0:0:0:85:D#6S_Eb6S_s.wav
36,192,98504,128,0,98598:0:0:0:0:
475,192,98504,128,0,98598:0:0:0:0:
182,192,98692,128,0,98785:0:0:0:0:
475,192,98692,128,0,98973:0:0:0:0:
109,192,98692,1,0,0:0:0:0:
329,192,98692,128,0,98785:0:0:0:0:
36,192,98692,128,0,98973:0:0:0:85:F6S_s.wav
256,192,98879,128,0,98973:0:0:0:88:A5S_s.wav
402,192,98879,128,0,98973:0:0:0:0:
109,192,99067,1,0,0:0:0:100:A#2S_Bb2S_s.wav
36,192,99067,1,0,0:0:0:0:
402,192,99067,1,0,0:0:0:100:A#3S_Bb3S_s.wav
182,192,99067,1,0,0:0:0:0:
329,192,99067,1,0,0:0:0:0:
475,192,99067,1,0,0:0:0:0:
109,192,99254,128,0,99348:0:0:0:92:A#5S_Bb5S_s.wav
36,192,99254,1,0,0:0:0:92:F#5S_Gb5S_s.wav
256,192,99254,128,0,99348:0:0:0:0:
256,192,99442,128,0,99535:0:0:0:98:A#5S_Bb5S_s.wav
109,192,99442,1,0,0:0:0:98:F6S_s.wav
475,192,99442,1,0,0:0:0:0:
402,192,99442,128,0,99535:0:0:0:98:F#5S_Gb5S_s.wav
329,192,99629,128,0,100098:0:0:0:100:G#5S_Ab5S_s.wav
475,192,99629,128,0,100098:0:0:0:100:G#3S_Ab3S_s.wav
256,192,99629,1,0,0:0:0:0:
109,192,99629,128,0,99723:0:0:0:100:G#2S_Ab2S_s.wav
36,192,99629,128,0,99723:0:0:0:100:D6S_s.wav
36,192,99817,128,0,100098:0:0:0:90:A#6S_Bb6S_s.wav
182,192,99817,1,0,0:0:0:0:
182,192,100004,128,0,100098:0:0:0:83:G#6S_Ab6S_s.wav
36,192,100192,128,0,100473:0:0:0:81:F6S_s.wav
475,192,100192,128,0,100473:0:0:0:0:
109,192,100192,1,0,0:0:0:0:
402,192,100192,1,0,0:0:0:0:
256,192,100192,128,0,100285:0:0:0:0:
329,192,100379,128,0,100473:0:0:0:90:D6S_s.wav
182,192,100379,128,0,100473:0:0:0:0:
36,192,100567,1,0,0:0:0:87:A#5S_Bb5S_s.wav
109,192,100567,128,0,100660:0:0:0:96:G3S_s.wav
256,192,100567,128,0,100660:0:0:0:96:E6S_s.wav
402,192,100567,128,0,100660:0:0:0:96:G2S_s.wav
475,192,100567,1,0,0:0:0:97:G5S_s.wav
256,192,100754,128,0,100848:0:0:0:83:A#5S_Bb5S_s.wav
402,192,100754,128,0,100848:0:0:0:95:E6S_s.wav
109,192,100754,128,0,100848:0:0:0:92:G5S_s.wav
36,192,100942,128,0,101129:0:0:0:90:D#6S_Eb6S_s.wav
182,192,100942,128,0,101129:0:0:0:90:A#5S_Bb5S_s.wav
329,192,100942,1,0,0:0:0:97:G5S_s.wav
475,192,100942,1,0,0:0:0:0:
475,192,101129,128,0,101223:0:0:0:97:G#4S_Ab4S_s.wav
402,192,101129,128,0,101223:0:0:0:96:G#3S_Ab3S_s.wav
256,192,101129,128,0,101223:0:0:0:97:B5S_s.wav
109,192,101129,1,0,0:0:0:93:D#6S_Eb6S_s.wav
475,192,101317,128,0,101410:0:0:0:96:D#6S_Eb6S_s.wav
402,192,101317,128,0,101410:0:0:0:96:B5S_s.wav
256,192,101317,128,0,101410:0:0:0:96:A#6S_Bb6S_s.wav
182,192,101504,128,0,101692:0:0:0:95:D#6S_Eb6S_s.wav
36,192,101504,1,0,0:0:0:97:B5S_s.wav
329,192,101504,128,0,101692:0:0:0:97:G#6S_Ab6S_s.wav
109,192,101598,1,0,0:0:0:90:G#5S_Ab5S_s.wav
36,192,101692,1,0,0:0:0:100:B6S_s.wav
256,192,101692,1,0,0:0:0:94:G6S_s.wav
475,192,101692,128,0,101879:0:0:0:94:E4S_s.wav
402,192,101692,1,0,0:0:0:94:E3S_s.wav
182,192,101879,1,0,0:0:0:92:G6S_s.wav
36,192,101879,1,0,0:0:0:92:E5S_s.wav
329,192,101879,128,0,102067:0:0:0:92:E4S_s.wav
36,192,102067,128,0,103192:0:0:0:100:B6S_s.wav
182,192,102067,1,0,0:0:0:92:G6S_s.wav
109,192,102067,1,0,0:0:0:92:E6S_s.wav
475,192,102067,1,0,0:0:0:0:
402,192,102067,128,0,102160:0:0:0:92:E5S_s.wav
182,192,102254,128,0,102348:0:0:0:88:B5S_s.wav
329,192,102254,1,0,0:0:0:0:
256,192,102442,128,0,102535:0:0:0:88:G6S_s.wav
402,192,102442,1,0,0:0:0:0:
329,192,102629,128,0,102723:0:0:0:88:B6S_s.wav
475,192,102629,1,0,0:0:0:0:
402,192,102817,128,0,102910:0:0:0:88:F#7S_Gb7S_s.wav
182,192,102817,1,0,0:0:0:0:
475,192,103004,128,0,103098:0:0:0:77:G7S_s.wav
256,192,103004,1,0,0:0:0:0:
329,192,103192,128,0,103285:0:0:0:74:B6S_s.wav
36,192,103379,1,0,0:0:0:82:E6S_s.wav
109,192,103473,1,0,0:0:0:68:D6S_s.wav
182,192,103520,1,0,0:0:0:72:F#6S_Gb6S_s.wav
256,192,103567,1,0,0:0:0:62:B5S_s.wav
475,192,103567,1,0,0:0:0:62:B4S_s.wav
402,192,103567,1,0,0:0:0:0:
109,192,103942,1,0,0:0:0:85:F#7S_Gb7S_s.wav
182,192,103965,1,0,0:0:0:0:
475,192,104223,1,0,0:0:0:59:D6S_s.wav
402,192,104270,1,0,0:0:0:62:F#6S_Gb6S_s.wav
329,192,104317,1,0,0:0:0:73:B6S_s.wav
36,192,104317,1,0,0:0:0:44:G5S_s.wav
182,192,104317,1,0,0:0:0:44:G4S_s.wav
182,192,104692,1,0,0:0:0:85:F#7S_Gb7S_s.wav
256,192,104715,1,0,0:0:0:0:
329,192,104973,1,0,0:0:0:0:
402,192,105020,1,0,0:0:0:0:
36,192,105067,1,0,0:0:0:36:F#5S_Gb5S_s.wav
182,192,105067,1,0,0:0:0:36:F#4S_Gb4S_s.wav
475,192,105067,1,0,0:0:0:54:A6S_s.wav
182,192,105442,1,0,0:0:0:80:B6S_s.wav
402,192,105629,1,0,0:0:0:0:
329,192,105723,1,0,0:0:0:0:
256,192,105770,1,0,0:0:0:0:
36,192,105817,1,0,0:0:0:60:E4S_s.wav
182,192,105817,1,0,0:0:0:60:E3S_s.wav
402,192,105910,1,0,0:0:0:0:
256,192,106004,1,0,0:0:0:0:
109,192,106004,1,0,0:0:0:64:B5S_s.wav
329,192,106098,1,0,0:0:0:0:
182,192,106192,1,0,0:0:0:55:G#6S_Ab6S_s.wav
36,192,106192,1,0,0:0:0:0:
402,192,106285,1,0,0:0:0:0:
256,192,106379,1,0,0:0:0:58:B5S_s.wav
36,192,106473,1,0,0:0:0:68:B4S_s.wav
109,192,106520,1,0,0:0:0:0:
182,192,106567,128,0,106637:0:0:0:62:G#4S_Ab4S_s.wav
329,192,106567,128,0,106637:0:0:0:62:G#3S_Ab3S_s.wav
475,192,106567,128,0,106637:0:0:0:77:B5S_s.wav
36,192,106942,128,0,107012:0:0:0:85:D#6S_Eb6S_s.wav
182,192,106942,128,0,107012:0:0:0:0:
109,192,107223,128,0,107293:0:0:0:0:
182,192,107270,128,0,107340:0:0:0:0:
329,192,107317,128,0,107387:0:0:0:44:E4S_s.wav
475,192,107317,128,0,107387:0:0:0:44:E3S_s.wav
36,192,107692,128,0,107762:0:0:0:85:D#6S_Eb6S_s.wav
109,192,107715,128,0,107785:0:0:0:0:
36,192,107973,128,0,108043:0:0:0:0:
109,192,108020,128,0,108090:0:0:0:0:
329,192,108067,128,0,108137:0:0:0:36:D#4S_Eb4S_s.wav
475,192,108067,128,0,108137:0:0:0:36:D#3S_Eb3S_s.wav
182,192,108067,128,0,108137:0:0:0:54:F#5S_Gb5S_s.wav
109,192,108442,128,0,108512:0:0:0:80:G#5S_Ab5S_s.wav
256,192,108442,128,0,108512:0:0:0:0:
36,192,108770,1,0,0:0:0:0:
109,192,108793,1,0,0:0:0:0:
329,192,108817,128,0,109567:0:0:0:77:F#5S_Gb5S_s.wav
475,192,108817,128,0,109567:0:0:0:60:C#4S_Db4S_s.wav
182,192,108817,1,0,0:0:0:60:C#3S_Db3S_s.wav
36,192,109473,1,0,0:0:0:0:
109,192,109520,1,0,0:0:0:60:C#5S_Db5S.wav
182,192,109567,128,0,110692:0:0:0:0:
329,192,109942,128,0,110692:0:0:0:79:F7S_s.wav
475,192,109942,1,0,0:0:0:0:
36,192,110317,128,0,110692:0:0:0:81:D#7S_Eb7S_s.wav
109,192,110317,1,0,0:0:0:0:
256,192,110692,128,0,111067:0:0:0:87:C#7S_Db7S_s.wav
329,192,111067,128,0,111442:0:0:0:85:A#6S_Bb6S_s.wav
109,192,111067,1,0,0:0:0:59:G#3S_Ab3S_s.wav
475,192,111067,128,0,111442:0:0:0:50:G#4S_Ab4S_s.wav
36,192,111442,128,0,111817:0:0:0:77:G#6S_Ab6S_s.wav
182,192,111442,128,0,111817:0:0:0:0:
256,192,111817,128,0,112192:0:0:0:83:A#5S_Bb5S_s.wav
402,192,111817,128,0,112192:0:0:0:83:A#4S_Bb4S_s.wav
475,192,111817,128,0,112192:0:0:0:83:A#3S_Bb3S_s.wav
109,192,111817,1,0,0:0:0:83:D6S_s.wav
36,192,112192,128,0,112567:0:0:0:79:F6S_s.wav
109,192,112192,128,0,112567:0:0:0:0:
475,192,112567,128,0,113317:0:0:0:57:A#4S_Bb4S_s.wav
329,192,112567,128,0,112754:0:0:0:57:D#4S_Eb4S_s.wav
182,192,112567,1,0,0:0:0:57:D#3S_Eb3S_s.wav
402,192,112567,1,0,0:0:0:57:D#5S_Eb5S_s.wav
182,192,112754,128,0,112942:0:0:0:47:A#4S_Bb4S_s.wav
256,192,112942,128,0,113129:0:0:0:52:F5S_s.wav
36,192,112942,1,0,0:0:0:0:
329,192,113129,128,0,113317:0:0:0:67:F#5S_Gb5S_s.wav
36,192,113317,128,0,114067:0:0:0:57:C#4S_Db4S_s.wav
109,192,113317,128,0,113504:0:0:0:57:F5S_s.wav
182,192,113504,128,0,113692:0:0:0:37:A#4S_Bb4S_s.wav
256,192,113692,128,0,113879:0:0:0:47:F5S_s.wav
475,192,113692,1,0,0:0:0:0:
329,192,113879,128,0,114067:0:0:0:60:A#5S_Bb5S_s.wav
475,192,114067,128,0,114723:0:0:0:62:B3S_s.wav
109,192,114067,128,0,114160:0:0:0:62:A#5S_Bb5S_s.wav
329,192,114254,128,0,114348:0:0:0:44:B4S_s.wav
182,192,114442,128,0,114535:0:0:0:44:D#5S_Eb5S_s.wav
36,192,114442,1,0,0:0:0:0:
402,192,114629,128,0,114723:0:0:0:58:A#5S_Bb5S_s.wav
182,192,114817,1,0,0:0:0:50:G#5S_Ab5S_s.wav
475,192,114817,1,0,0:0:0:51:C#5S_Db5S_s.wav
36,192,114817,128,0,115473:0:0:0:0:
329,192,114817,128,0,114910:0:0:0:50:A#3S_Bb3S_s.wav
402,192,115004,128,0,115098:0:0:0:38:F#4S_Gb4S_s.wav
182,192,115192,128,0,115285:0:0:0:44:G#4S_Ab4S_s.wav
402,192,115379,1,0,0:0:0:49:F#5S_Gb5S_s.wav
256,192,115379,128,0,115473:0:0:0:49:C#5S_Db5S_s.wav
36,192,115567,1,0,0:0:0:60:F#5S_Gb5S_s.wav
182,192,115567,128,0,115660:0:0:0:48:G#3S_Ab3S_s.wav
475,192,115567,128,0,116223:0:0:0:60:B4S_s.wav
256,192,115754,128,0,115848:0:0:0:44:D#4S_Eb4S_s.wav
109,192,115754,1,0,0:0:0:0:
329,192,115942,128,0,116035:0:0:0:51:G#4S_Ab4S_s.wav
182,192,115942,1,0,0:0:0:0:
402,192,116129,128,0,116223:0:0:0:67:B4S_s.wav
256,192,116129,1,0,0:0:0:64:F5S_s.wav
36,192,116317,128,0,116973:0:0:0:66:F5S_s.wav
109,192,116317,1,0,0:0:0:59:C#5S_Db5S_s.wav
329,192,116317,128,0,116410:0:0:0:51:G#4S_Ab4S_s.wav
475,192,116317,1,0,0:0:0:58:F#3S_Gb3S_s.wav
256,192,116504,128,0,116598:0:0:0:55:C#4S_Db4S_s.wav
402,192,116504,1,0,0:0:0:0:
182,192,116692,128,0,116785:0:0:0:59:G#4S_Ab4S_s.wav
329,192,116692,1,0,0:0:0:0:
109,192,116879,128,0,116973:0:0:0:65:C#5S_Db5S_s.wav
256,192,116879,1,0,0:0:0:0:
475,192,117067,128,0,117723:0:0:0:59:F3S_s.wav
329,192,117067,1,0,0:0:0:59:F4S_s.wav
182,192,117067,128,0,117160:0:0:0:59:A#5S_Bb5S_s.wav
36,192,117067,128,0,117160:0:0:0:59:D#5S_Eb5S_s.wav
109,192,117254,128,0,117348:0:0:0:51:B4S_s.wav
256,192,117254,128,0,117348:0:0:0:0:
182,192,117442,128,0,117535:0:0:0:52:D#5S_Eb5S_s.wav
329,192,117442,128,0,117535:0:0:0:0:
256,192,117629,128,0,117723:0:0:0:0:
402,192,117629,128,0,117723:0:0:0:0:
182,192,117817,1,0,0:0:0:69:A#5S_Bb5S_s.wav
36,192,117817,1,0,0:0:0:69:D#5S_Eb5S_s.wav
475,192,117817,1,0,0:0:0:69:B4S_s.wav
402,192,117817,1,0,0:0:0:69:F4S_s.wav
329,192,117817,1,0,0:0:0:0:
256,192,118192,128,0,118567:0:0:0:74:A#5S_Bb5S_s.wav
402,192,118192,128,0,118567:0:0:0:74:G#4S_Ab4S_s.wav
36,192,118192,1,0,0:0:0:74:A#3S_Bb3S_s.wav
475,192,118192,1,0,0:0:0:74:D5S_s.wav
109,192,118192,128,0,118567:0:0:0:0:
475,192,118567,128,0,119317:0:0:0:57:A#4S_Bb4S_s.wav
182,192,118567,1,0,0:0:0:62:F#5S_Gb5S_s.wav
36,192,118567,1,0,0:0:0:46:D#4S_Eb4S_s.wav
329,192,118754,1,0,0:0:0:44:A#4S_Bb4S_s.wav
182,192,118942,1,0,0:0:0:64:F5S_s.wav
36,192,118942,1,0,0:0:0:0:
256,192,119129,1,0,0:0:0:61:F#5S_Gb5S_s.wav
36,192,119317,1,0,0:0:0:49:F5S_s.wav
329,192,119317,1,0,0:0:0:37:C#4S_Db4S_s.wav
402,192,119504,1,0,0:0:0:0:
109,192,119504,128,0,119598:0:0:0:46:A#4S_Bb4S_s.wav
475,192,119692,1,0,0:0:0:0:
256,192,119692,128,0,119785:0:0:0:50:F5S_s.wav
109,192,119879,1,0,0:0:0:0:
402,192,119879,128,0,119973:0:0:0:61:A#5S_Bb5S_s.wav
329,192,120067,1,0,0:0:0:59:A#5S_Bb5S_s.wav
109,192,120067,128,0,120629:0:0:0:0:
402,192,120254,128,0,120442:0:0:0:56:B4S_s.wav
256,192,120254,1,0,0:0:0:0:
182,192,120442,1,0,0:0:0:0:
36,192,120442,1,0,0:0:0:0:
475,192,120442,128,0,121098:0:0:0:0:
402,192,120629,1,0,0:0:0:64:A#5S_Bb5S_s.wav
256,192,120629,128,0,120817:0:0:0:0:
36,192,120817,128,0,121098:0:0:0:50:G#5S_Ab5S_s.wav
182,192,120817,128,0,121098:0:0:0:65:C#6S_Db6S_s.wav
329,192,120817,1,0,0:0:0:50:A#3S_Bb3S_s.wav
109,192,120817,1,0,0:0:0:51:C#5S_Db5S_s.wav
329,192,121004,1,0,0:0:0:38:F#4S_Gb4S_s.wav
109,192,121192,128,0,121473:0:0:0:44:G#4S_Ab4S_s.wav
256,192,121192,128,0,121473:0:0:0:0:
402,192,121192,1,0,0:0:0:0:
475,192,121192,1,0,0:0:0:0:
402,192,121379,1,0,0:0:0:49:C#5S_Db5S_s.wav
109,192,121567,1,0,0:0:0:76:F#5S_Gb5S_s.wav
36,192,121567,1,0,0:0:0:76:G#4S_Ab4S_s.wav
256,192,121567,1,0,0:0:0:76:G#3S_Ab3S_s.wav
329,192,121567,1,0,0:0:0:76:B4S_s.wav
475,192,121567,1,0,0:0:0:0:
256,192,121754,1,0,0:0:0:0:
36,192,121754,1,0,0:0:0:0:
109,192,121848,1,0,0:0:0:74:A#5S_Bb5S_s.wav
329,192,121848,1,0,0:0:0:0:
402,192,121942,1,0,0:0:0:70:D#5S_Eb5S_s.wav
182,192,121942,1,0,0:0:0:66:B5S_s.wav
256,192,122035,1,0,0:0:0:75:D#6S_Eb6S_s.wav
475,192,122035,1,0,0:0:0:0:
36,192,122035,1,0,0:0:0:0:
329,192,122129,1,0,0:0:0:77:F#6S_Gb6S_s.wav
109,192,122129,1,0,0:0:0:86:F#5S_Gb5S_s.wav
182,192,122223,1,0,0:0:0:82:G#6S_Ab6S_s.wav
402,192,122223,1,0,0:0:0:0:
109,192,122317,1,0,0:0:0:92:A#6S_Bb6S_s.wav
329,192,122317,1,0,0:0:0:90:A#5S_Bb5S_s.wav
36,192,122317,1,0,0:0:0:89:A#4S_Bb4S_s.wav
475,192,122317,1,0,0:0:0:87:A#3S_Bb3S_s.wav
256,192,122317,1,0,0:0:0:86:D6S_s.wav
36,192,122692,128,0,123004:0:0:0:90:A#2S_Bb2S_s.wav
109,192,122754,128,0,123004:0:0:0:0:
182,192,122817,128,0,123004:0:0:0:0:
256,192,123067,128,0,123160:0:0:0:92:F#5S_Gb5S_s.wav
402,192,123067,128,0,123160:0:0:0:90:D#4S_Eb4S_s.wav
475,192,123067,128,0,123160:0:0:0:90:D#3S_Eb3S_s.wav
36,192,123067,128,0,123160:0:0:0:0:
109,192,123067,128,0,123160:0:0:0:0:
109,192,123442,128,0,123535:0:0:0:88:F5S_s.wav
329,192,123442,128,0,123535:0:0:0:0:
182,192,123535,128,0,123629:0:0:0:81:F#5S_Gb5S_s.wav
402,192,123535,128,0,123629:0:0:0:0:
256,192,123629,128,0,123723:0:0:0:81:A#5S_Bb5S_s.wav
475,192,123629,128,0,123723:0:0:0:0:
109,192,123723,128,0,123817:0:0:0:87:D#6S_Eb6S_s.wav
36,192,123723,128,0,123817:0:0:0:0:
329,192,123817,128,0,124473:0:0:0:90:A#5S_Bb5S_s.wav
475,192,123817,128,0,124473:0:0:0:88:F#5S_Gb5S_s.wav
402,192,123817,1,0,0:0:0:87:C#4S_Db4S_s.wav
182,192,123817,1,0,0:0:0:88:C#3S_Db3S_s.wav
475,192,124567,128,0,125035:0:0:0:89:A#5S_Bb5S_s.wav
36,192,124567,1,0,0:0:0:89:B3S_s.wav
402,192,124567,1,0,0:0:0:89:B2S_s.wav
182,192,124567,128,0,124660:0:0:0:89:F#5S_Gb5S_s.wav
329,192,124754,128,0,124848:0:0:0:66:D#5S_Eb5S_s.wav
109,192,124754,1,0,0:0:0:73:F#4S_Gb4S_s.wav
182,192,124942,128,0,125035:0:0:0:66:F#5S_Gb5S_s.wav
36,192,124942,1,0,0:0:0:77:C#5S_Db5S_s.wav
402,192,125129,1,0,0:0:0:88:D#6S_Eb6S_s.wav
475,192,125129,1,0,0:0:0:66:D#5S_Eb5S_s.wav
256,192,125129,128,0,125317:0:0:0:0:
402,192,125317,128,0,125785:0:0:0:58:A#5S_Bb5S_s.wav
36,192,125317,128,0,125410:0:0:0:0:
109,192,125317,1,0,0:0:0:88:F6S_s.wav
182,192,125504,128,0,125598:0:0:0:77:F#5S_Gb5S_s.wav
329,192,125504,1,0,0:0:0:0:
256,192,125692,1,0,0:0:0:0:
109,192,125692,128,0,125785:0:0:0:88:F5S_s.wav
36,192,125879,1,0,0:0:0:88:D#5S_Eb5S_s.wav
329,192,125879,1,0,0:0:0:0:
402,192,125879,1,0,0:0:0:0:
182,192,125879,128,0,126067:0:0:0:88:D#6S_Eb6S_s.wav
109,192,126067,128,0,126160:0:0:0:88:F#5S_Gb5S_s.wav
256,192,126067,128,0,126160:0:0:0:79:D5S_s.wav
329,192,126067,1,0,0:0:0:92:E4S_s.wav
475,192,126067,1,0,0:0:0:90:E3S_s.wav
329,192,126254,128,0,126348:0:0:0:54:D5S_s.wav
182,192,126254,128,0,126348:0:0:0:0:
256,192,126442,128,0,126535:0:0:0:70:G#5S_Ab5S_s.wav
36,192,126442,1,0,0:0:0:0:
475,192,126442,1,0,0:0:0:0:
402,192,126535,128,0,126629:0:0:0:67:D5S_s.wav
109,192,126629,128,0,126723:0:0:0:77:F#6S_Gb6S_s.wav
182,192,126629,1,0,0:0:0:67:F#5S_Gb5S_s.wav
256,192,126723,128,0,126817:0:0:0:0:
475,192,126817,1,0,0:0:0:0:
36,192,126817,1,0,0:0:0:0:
329,192,126817,128,0,126910:0:0:0:95:C#7S_Db7S_s.wav
109,192,126910,1,0,0:0:0:0:
182,192,126910,128,0,127004:0:0:0:72:B6S_s.wav
329,192,127004,1,0,0:0:0:86:G#6S_Ab6S_s.wav
402,192,127004,128,0,127098:0:0:0:0:
109,192,127098,1,0,0:0:0:79:F#6S_Gb6S_s.wav
36,192,127098,128,0,127192:0:0:0:0:
402,192,127192,1,0,0:0:0:87:D6S_s.wav
475,192,127192,128,0,127285:0:0:0:0:
109,192,127285,1,0,0:0:0:77:F#6S_Gb6S_s.wav
182,192,127285,128,0,127379:0:0:0:0:
402,192,127379,1,0,0:0:0:0:
329,192,127379,128,0,127473:0:0:0:89:C#6S_Db6S_s.wav
182,192,127473,1,0,0:0:0:77:G#5S_Ab5S_s.wav
256,192,127473,128,0,127567:0:0:0:0:
109,192,127567,1,0,0:0:0:87:F#5S_Gb5S_s.wav
36,192,127567,128,0,128223:0:0:0:93:F5S_s.wav
402,192,127567,1,0,0:0:0:88:C#5S_Db5S_s.wav
475,192,127567,128,0,128223:0:0:0:85:D#3S_Eb3S_s.wav
182,192,127754,1,0,0:0:0:70:F5S_s.wav
329,192,127942,1,0,0:0:0:0:
256,192,128129,128,0,128317:0:0:0:92:D#6S_Eb6S_s.wav
36,192,128317,1,0,0:0:0:94:B4S_s.wav
182,192,128317,128,0,128598:0:0:0:88:G#2S_Ab2S_s.wav
329,192,128317,128,0,128410:0:0:0:90:D#5S_Eb5S_s.wav
475,192,128317,1,0,0:0:0:88:G#3S_Ab3S_s.wav
402,192,128504,128,0,128598:0:0:0:65:G#5S_Ab5S_s.wav
329,192,128692,128,0,128973:0:0:0:77:B5S_s.wav
36,192,128692,128,0,128785:0:0:0:0:
109,192,128692,1,0,0:0:0:0:
475,192,128692,1,0,0:0:0:0:
182,192,128879,128,0,128973:0:0:0:90:F#6S_Gb6S_s.wav
36,192,129067,1,0,0:0:0:88:C#4S_Db4S_s.wav
182,192,129067,1,0,0:0:0:85:G#5S_Ab5S_s.wav
475,192,129067,1,0,0:0:0:96:E5S_s.wav
329,192,129067,1,0,0:0:0:88:C#3S_Db3S_s.wav
402,192,129160,1,0,0:0:0:0:
182,192,129254,1,0,0:0:0:68:C#5S_Db5S_s.wav
36,192,129254,1,0,0:0:0:0:
256,192,129348,1,0,0:0:0:79:D#5S_Eb5S_s.wav
475,192,129442,1,0,0:0:0:90:E5S_s.wav
109,192,129442,1,0,0:0:0:0:
329,192,129442,1,0,0:0:0:0:
182,192,129535,1,0,0:0:0:92:G#5S_Ab5S_s.wav
256,192,129629,1,0,0:0:0:94:D#6S_Eb6S_s.wav
402,192,129629,1,0,0:0:0:0:
475,192,129629,1,0,0:0:0:0:
36,192,129629,1,0,0:0:0:0:
182,192,129723,1,0,0:0:0:0:
36,192,129817,1,0,0:0:0:92:F#3S_Gb3S_s.wav
402,192,129817,1,0,0:0:0:88:G#5S_Ab5S_s.wav
329,192,129817,1,0,0:0:0:100:E5S_s.wav
109,192,129817,1,0,0:0:0:0:
475,192,129817,1,0,0:0:0:92:F#4S_Gb4S_s.wav
256,192,129910,1,0,0:0:0:88:C#6S_Db6S_s.wav
182,192,130004,1,0,0:0:0:88:A#5S_Bb5S_s.wav
475,192,130004,1,0,0:0:0:0:
402,192,130098,1,0,0:0:0:88:G#5S_Ab5S_s.wav
109,192,130098,1,0,0:0:0:0:
329,192,130192,1,0,0:0:0:88:E5S_s.wav
36,192,130192,1,0,0:0:0:0:
256,192,130285,1,0,0:0:0:90:D#5S_Eb5S_s.wav
182,192,130379,1,0,0:0:0:88:C#5S_Db5S_s.wav
475,192,130379,1,0,0:0:0:0:
109,192,130473,1,0,0:0:0:88:A#4S_Bb4S_s.wav
402,192,130473,1,0,0:0:0:0:
329,192,130567,1,0,0:0:0:88:A#5S_Bb5S_s.wav
36,192,130567,1,0,0:0:0:89:B3S_s.wav
475,192,130567,128,0,131035:0:0:0:89:B2S_s.wav
182,192,130567,128,0,130660:0:0:0:89:F#5S_Gb5S_s.wav
402,192,130754,128,0,130848:0:0:0:66:D#5S_Eb5S_s.wav
109,192,130754,1,0,0:0:0:73:F#4S_Gb4S_s.wav
329,192,130942,128,0,131035:0:0:0:77:C#5S_Db5S_s.wav
36,192,130942,1,0,0:0:0:66:F#5S_Gb5S_s.wav
256,192,131129,128,0,131317:0:0:0:88:D#6S_Eb6S_s.wav
402,192,131129,1,0,0:0:0:66:D#5S_Eb5S_s.wav
475,192,131129,1,0,0:0:0:0:
402,192,131317,128,0,131785:0:0:0:88:F6S_s.wav
109,192,131317,128,0,131410:0:0:0:58:A#5S_Bb5S_s.wav
475,192,131317,1,0,0:0:0:0:
36,192,131317,1,0,0:0:0:0:
182,192,131504,128,0,131598:0:0:0:77:F#5S_Gb5S_s.wav
329,192,131504,1,0,0:0:0:0:
109,192,131692,128,0,131785:0:0:0:0:
36,192,131692,1,0,0:0:0:0:
256,192,131879,128,0,132067:0:0:0:88:D#6S_Eb6S_s.wav
475,192,131879,1,0,0:0:0:0:
402,192,131879,1,0,0:0:0:0:
36,192,132067,128,0,132535:0:0:0:85:D#6S_Eb6S_s.wav
182,192,132067,1,0,0:0:0:87:F3S_s.wav
402,192,132067,128,0,132160:0:0:0:87:F4S_s.wav
256,192,132254,128,0,132348:0:0:0:74:G#5S_Ab5S_s.wav
475,192,132254,1,0,0:0:0:64:B4S_s.wav
329,192,132442,128,0,132535:0:0:0:88:D#6S_Eb6S_s.wav
182,192,132442,1,0,0:0:0:85:F5S_s.wav
256,192,132629,128,0,132817:0:0:0:90:B6S_s.wav
36,192,132629,1,0,0:0:0:0:
109,192,132629,1,0,0:0:0:0:
109,192,132817,1,0,0:0:0:88:A#6S_Bb6S_s.wav
475,192,132817,1,0,0:0:0:62:A#5S_Bb5S_s.wav
36,192,132817,1,0,0:0:0:79:A#3S_Bb3S_s.wav
402,192,132817,1,0,0:0:0:79:A#2S_Bb2S_s.wav
256,192,133004,128,0,133098:0:0:0:70:F4S_s.wav
36,192,133004,128,0,133098:0:0:0:0:
475,192,133004,128,0,133098:0:0:0:0:
329,192,133098,128,0,133192:0:0:0:77:A#5S_Bb5S_s.wav
182,192,133192,128,0,133285:0:0:0:88:F#6S_Gb6S_s.wav
109,192,133192,128,0,133285:0:0:0:88:D6S_s.wav
402,192,133192,128,0,133285:0:0:0:88:D#7S_Eb7S_s.wav
256,192,133285,128,0,133379:0:0:0:0:
36,192,133379,128,0,133473:0:0:0:94:G#6S_Ab6S_s.wav
329,192,133379,128,0,133473:0:0:0:94:F7S_s.wav
475,192,133379,128,0,133473:0:0:0:0:
36,192,133567,128,0,134035:0:0:0:81:A#5S_Bb5S_s.wav
329,192,133567,128,0,133660:0:0:0:84:D#3S_Eb3S_s.wav
182,192,133567,1,0,0:0:0:93:F6S_s.wav
475,192,133567,1,0,0:0:0:0:
182,192,133754,128,0,133848:0:0:0:81:A#5S_Bb5S_s.wav
402,192,133754,1,0,0:0:0:77:F#5S_Gb5S_s.wav
256,192,133754,1,0,0:0:0:70:F#4S_Gb4S_s.wav
329,192,133942,128,0,134035:0:0:0:72:D#5S_Eb5S_s.wav
475,192,133942,1,0,0:0:0:88:D#6S_Eb6S_s.wav
256,192,134129,128,0,134317:0:0:0:87:D#6S_Eb6S_s.wav
36,192,134129,1,0,0:0:0:0:
109,192,134129,1,0,0:0:0:0:
109,192,134317,128,0,134785:0:0:0:84:F#5S_Gb5S_s.wav
182,192,134317,1,0,0:0:0:77:C#3S_Db3S_s.wav
36,192,134317,1,0,0:0:0:0:
402,192,134317,128,0,134410:0:0:0:84:F6S_s.wav
256,192,134504,128,0,134598:0:0:0:77:F#5S_Gb5S_s.wav
329,192,134504,1,0,0:0:0:70:F#4S_Gb4S_s.wav
475,192,134504,1,0,0:0:0:81:D#6S_Eb6S_s.wav
402,192,134692,128,0,134785:0:0:0:77:D#5S_Eb5S_s.wav
182,192,134692,1,0,0:0:0:0:
329,192,134879,128,0,135067:0:0:0:88:F6S_s.wav
36,192,134879,1,0,0:0:0:0:
109,192,134879,1,0,0:0:0:0:
402,192,135067,1,0,0:0:0:88:C#6S_Db6S_s.wav
475,192,135067,1,0,0:0:0:81:F#5S_Gb5S_s.wav
36,192,135067,1,0,0:0:0:84:B3S_s.wav
182,192,135067,128,0,135160:0:0:0:84:B2S_s.wav
329,192,135160,128,0,135254:0:0:0:81:D#5S_Eb5S_s.wav
109,192,135254,128,0,135348:0:0:0:80:F#5S_Gb5S_s.wav
475,192,135254,1,0,0:0:0:71:D#4S_Eb4S_s.wav
256,192,135348,128,0,135442:0:0:0:88:D#6S_Eb6S_s.wav
402,192,135348,1,0,0:0:0:0:
475,192,135442,128,0,135535:0:0:0:89:C#6S_Db6S_s.wav
36,192,135442,1,0,0:0:0:80:F#5S_Gb5S_s.wav
182,192,135442,1,0,0:0:0:0:
329,192,135535,128,0,135629:0:0:0:80:F#5S_Gb5S_s.wav
109,192,135535,1,0,0:0:0:0:
36,192,135629,128,0,135723:0:0:0:88:B5S_s.wav
475,192,135629,1,0,0:0:0:0:
182,192,135723,128,0,135817:0:0:0:88:D#5S_Eb5S_s.wav
329,192,135723,1,0,0:0:0:0:
256,192,135817,128,0,135910:0:0:0:85:G#4S_Ab4S_s.wav
36,192,135817,1,0,0:0:0:85:D5S_s.wav
109,192,135817,128,0,135910:0:0:0:85:A#3S_Bb3S_s.wav
475,192,135817,1,0,0:0:0:85:A#5S_Bb5S_s.wav
109,192,136004,128,0,136098:0:0:0:88:D6S_s.wav
256,192,136004,128,0,136098:0:0:0:88:F5S_s.wav
329,192,136192,128,0,136285:0:0:0:90:G#5S_Ab5S_s.wav
36,192,136192,1,0,0:0:0:90:D6S_s.wav
182,192,136192,128,0,136285:0:0:0:90:A#4S_Bb4S_s.wav
475,192,136192,1,0,0:0:0:90:A#6S_Bb6S_s.wav
109,192,136379,1,0,0:0:0:0:
256,192,136379,128,0,136473:0:0:0:95:G#6S_Ab6S_s.wav
402,192,136379,128,0,136473:0:0:0:95:F7S_s.wav
36,192,136567,1,0,0:0:0:58:D#5S_Eb5S_s.wav
182,192,136567,1,0,0:0:0:0:
475,192,136567,128,0,137129:0:0:0:58:F#6S_Gb6S_s.wav
109,192,136754,1,0,0:0:0:58:F#5S_Gb5S_s.wav
182,192,136942,1,0,0:0:0:52:D#6S_Eb6S_s.wav
109,192,137129,1,0,0:0:0:59:D#7S_Eb7S_s.wav
256,192,137129,128,0,137317:0:0:0:0:
402,192,137317,128,0,137879:0:0:0:73:F#6S_Gb6S_s.wav
36,192,137317,1,0,0:0:0:73:C#5S_Db5S_s.wav
475,192,137317,1,0,0:0:0:0:
109,192,137504,1,0,0:0:0:54:F#5S_Gb5S_s.wav
256,192,137692,1,0,0:0:0:59:D#6S_Eb6S_s.wav
182,192,137879,128,0,138067:0:0:0:68:D#7S_Eb7S_s.wav
329,192,138067,128,0,138629:0:0:0:67:D#6S_Eb6S_s.wav
36,192,138067,1,0,0:0:0:67:B4S_s.wav
475,192,138067,1,0,0:0:0:0:
109,192,138254,1,0,0:0:0:44:D#5S_Eb5S_s.wav
182,192,138442,1,0,0:0:0:49:C#6S_Db6S_s.wav
109,192,138629,128,0,138817:0:0:0:57:B6S_s.wav
402,192,138817,1,0,0:0:0:61:B5S_s.wav
36,192,138817,1,0,0:0:0:0:
256,192,138817,128,0,139379:0:0:0:51:A#6S_Bb6S_s.wav
329,192,139004,1,0,0:0:0:63:F#6S_Gb6S_s.wav
475,192,139192,1,0,0:0:0:51:F7S_s.wav
109,192,139379,128,0,139567:0:0:0:69:A#7S_Bb7S_s.wav
402,192,139379,1,0,0:0:0:48:F#6S_Gb6S_s.wav
475,192,139567,128,0,140129:0:0:0:58:F#7S_Gb7S_s.wav
36,192,139567,1,0,0:0:0:58:D#6S_Eb6S_s.wav
182,192,139567,1,0,0:0:0:58:A#7S_Bb7S_s.wav
109,192,139754,1,0,0:0:0:58:F#7S_Gb7S_s.wav
256,192,139754,1,0,0:0:0:58:F#6S_Gb6S_s.wav
329,192,139942,1,0,0:0:0:52:A#7S_Bb7S_s.wav
182,192,139942,1,0,0:0:0:0:
109,192,140129,128,0,140317:0:0:0:59:D#8S_Eb8S_s.wav
256,192,140129,1,0,0:0:0:0:
402,192,140317,128,0,140879:0:0:0:73:F#7S_Gb7S_s.wav
256,192,140317,1,0,0:0:0:73:C#6S_Db6S_s.wav
36,192,140317,1,0,0:0:0:73:A#7S_Bb7S_s.wav
182,192,140504,1,0,0:0:0:54:F#7S_Gb7S_s.wav
329,192,140504,1,0,0:0:0:54:F#6S_Gb6S_s.wav
256,192,140692,1,0,0:0:0:59:A#7S_Bb7S_s.wav
109,192,140692,1,0,0:0:0:59:D#7S_Eb7S_s.wav
36,192,140879,128,0,141067:0:0:0:68:D#8S_Eb8S_s.wav
182,192,140879,1,0,0:0:0:0:
182,192,141067,128,0,141629:0:0:0:67:C#8S_Db8S_s.wav
256,192,141067,1,0,0:0:0:67:D#7S_Eb7S_s.wav
402,192,141067,1,0,0:0:0:67:B5S_s.wav
475,192,141254,1,0,0:0:0:44:D#7S_Eb7S_s.wav
329,192,141254,1,0,0:0:0:44:D#6S_Eb6S_s.wav
256,192,141442,1,0,0:0:0:49:F#7S_Gb7S_s.wav
402,192,141442,1,0,0:0:0:49:C#7S_Db7S_s.wav
36,192,141629,128,0,141817:0:0:0:57:B7S_s.wav
329,192,141629,1,0,0:0:0:0:
256,192,141817,128,0,145567:0:0:0:51:A#7S_Bb7S_s.wav
402,192,142004,1,0,0:0:0:63:F#7S_Gb7S_s.wav
109,192,142192,1,0,0:0:0:48:F7S_s.wav
402,192,142379,1,0,0:0:0:57:F#7S_Gb7S_s.wav
109,192,142567,1,0,0:0:0:50:B5S_s.wav
182,192,142754,1,0,0:0:0:48:F#6S_Gb6S_s.wav
329,192,142942,1,0,0:0:0:44:A#6S_Bb6S_s.wav
402,192,143129,1,0,0:0:0:88:F7S_s.wav
475,192,143317,1,0,0:0:0:88:F#7S_Gb7S_s.wav
402,192,143504,1,0,0:0:0:36:C#7S_Db7S_s.wav
329,192,143692,1,0,0:0:0:34:G#6S_Ab6S_s.wav
182,192,143879,1,0,0:0:0:32:F#5S_Gb5S_s.wav
36,192,144067,1,0,0:0:0:29:B4S_s.wav
109,192,144254,1,0,0:0:0:23:F#5S_Gb5S_s.wav
182,192,144442,1,0,0:0:0:18:A#5S_Bb5S_s.wav
329,192,144629,1,0,0:0:0:17:F6S_s.wav
402,192,144817,1,0,0:0:0:14:F#6S_Gb6S_s.wav
329,192,145004,1,0,0:0:0:12:C#6S_Db6S_s.wav
182,192,145192,1,0,0:0:0:11:G#5S_Ab5S_s.wav
109,192,145379,1,0,0:0:0:10:D#5S_Eb5S_s.wav
36,192,145567,1,0,0:0:0:8:B3S_s.wav
